  0
SECTION
  2
HEADER
  9
$ACADVER
  1
AC1015
  9
$ACADMAINTVER
 70
    20
  9
$DWGCODEPAGE
  3
ANSI_932
  9
$INSBASE
 10
0.0
 20
0.0
 30
0.0
  9
$EXTMIN
 10
-0.1702504555714768
 20
-0.1204332752135997
 30
-0.0000000349181948
  9
$EXTMAX
 10
2789.681437458783
 20
1973.389564148916
 30
0.0000000814935746
  9
$LIMMIN
 10
0.0
 20
0.0
  9
$LIMMAX
 10
297.0
 20
209.0
  9
$ORTHOMODE
 70
     1
  9
$REGENMODE
 70
     1
  9
$FILLMODE
 70
     1
  9
$QTEXTMODE
 70
     0
  9
$MIRRTEXT
 70
     1
  9
$LTSCALE
 40
1.0
  9
$ATTMODE
 70
     1
  9
$TEXTSIZE
 40
2.5
  9
$TRACEWID
 40
1.0
  9
$TEXTSTYLE
  7
Standard
  9
$CLAYER
  8
寸法線
  9
$CELTYPE
  6
ByLayer
  9
$CECOLOR
 62
   256
  9
$CELTSCALE
 40
3.0
  9
$DISPSILH
 70
     0
  9
$DIMSCALE
 40
10.0
  9
$DIMASZ
 40
1.5
  9
$DIMEXO
 40
2.0
  9
$DIMDLI
 40
3.75
  9
$DIMRND
 40
0.0
  9
$DIMDLE
 40
0.0
  9
$DIMEXE
 40
1.5
  9
$DIMTP
 40
0.0
  9
$DIMTM
 40
0.0
  9
$DIMTXT
 40
3.0
  9
$DIMCEN
 40
2.5
  9
$DIMTSZ
 40
0.0
  9
$DIMTOL
 70
     0
  9
$DIMLIM
 70
     0
  9
$DIMTIH
 70
     0
  9
$DIMTOH
 70
     0
  9
$DIMSE1
 70
     0
  9
$DIMSE2
 70
     0
  9
$DIMTAD
 70
     1
  9
$DIMZIN
 70
     8
  9
$DIMBLK
  1
Open30
  9
$DIMASO
 70
     1
  9
$DIMSHO
 70
     1
  9
$DIMPOST
  1

  9
$DIMAPOST
  1

  9
$DIMALT
 70
     0
  9
$DIMALTD
 70
     3
  9
$DIMALTF
 40
0.03937007874016
  9
$DIMLFAC
 40
1.0
  9
$DIMTOFL
 70
     1
  9
$DIMTVP
 40
0.0
  9
$DIMTIX
 70
     0
  9
$DIMSOXD
 70
     0
  9
$DIMSAH
 70
     0
  9
$DIMBLK1
  1

  9
$DIMBLK2
  1

  9
$DIMSTYLE
  2
ISO-25
  9
$DIMCLRD
 70
     0
  9
$DIMCLRE
 70
     0
  9
$DIMCLRT
 70
     0
  9
$DIMTFAC
 40
1.0
  9
$DIMGAP
 40
0.5
  9
$DIMJUST
 70
     0
  9
$DIMSD1
 70
     0
  9
$DIMSD2
 70
     0
  9
$DIMTOLJ
 70
     0
  9
$DIMTZIN
 70
     8
  9
$DIMALTZ
 70
     0
  9
$DIMALTTZ
 70
     0
  9
$DIMUPT
 70
     0
  9
$DIMDEC
 70
     2
  9
$DIMTDEC
 70
     2
  9
$DIMALTU
 70
     2
  9
$DIMALTTD
 70
     3
  9
$DIMTXSTY
  7
Standard
  9
$DIMAUNIT
 70
     0
  9
$DIMADEC
 70
     0
  9
$DIMALTRND
 40
0.0
  9
$DIMAZIN
 70
     0
  9
$DIMDSEP
 70
    46
  9
$DIMATFIT
 70
     0
  9
$DIMFRAC
 70
     0
  9
$DIMLDRBLK
  1
Open30
  9
$DIMLUNIT
 70
     2
  9
$DIMLWD
 70
    -2
  9
$DIMLWE
 70
    -2
  9
$DIMTMOVE
 70
     0
  9
$LUNITS
 70
     2
  9
$LUPREC
 70
     4
  9
$SKETCHINC
 40
1.0
  9
$FILLETRAD
 40
9.9
  9
$AUNITS
 70
     0
  9
$AUPREC
 70
     0
  9
$MENU
  1
.
  9
$ELEVATION
 40
0.0
  9
$PELEVATION
 40
0.0
  9
$THICKNESS
 40
0.0
  9
$LIMCHECK
 70
     0
  9
$CHAMFERA
 40
10.0
  9
$CHAMFERB
 40
10.0
  9
$CHAMFERC
 40
20.0
  9
$CHAMFERD
 40
0.0
  9
$SKPOLY
 70
     0
  9
$TDCREATE
 40
2453510.558637211
  9
$TDUCREATE
 40
2453510.183637211
  9
$TDUPDATE
 40
2457539.430090938
  9
$TDUUPDATE
 40
2457539.055090938
  9
$TDINDWG
 40
0.0296281481
  9
$TDUSRTIMER
 40
0.0296281481
  9
$USRTIMER
 70
     1
  9
$ANGBASE
 50
0.0
  9
$ANGDIR
 70
     0
  9
$PDMODE
 70
     0
  9
$PDSIZE
 40
0.0
  9
$PLINEWID
 40
0.0
  9
$SPLFRAME
 70
     0
  9
$SPLINETYPE
 70
     6
  9
$SPLINESEGS
 70
     8
  9
$HANDSEED
  5
169A
  9
$SURFTAB1
 70
     6
  9
$SURFTAB2
 70
     6
  9
$SURFTYPE
 70
     6
  9
$SURFU
 70
     6
  9
$SURFV
 70
     6
  9
$UCSBASE
  2

  9
$UCSNAME
  2

  9
$UCSORG
 10
0.0
 20
0.0
 30
0.0
  9
$UCSXDIR
 10
1.0
 20
0.0
 30
0.0
  9
$UCSYDIR
 10
0.0
 20
1.0
 30
0.0
  9
$UCSORTHOREF
  2

  9
$UCSORTHOVIEW
 70
     0
  9
$UCSORGTOP
 10
0.0
 20
0.0
 30
0.0
  9
$UCSORGBOTTOM
 10
0.0
 20
0.0
 30
0.0
  9
$UCSORGLEFT
 10
0.0
 20
0.0
 30
0.0
  9
$UCSORGRIGHT
 10
0.0
 20
0.0
 30
0.0
  9
$UCSORGFRONT
 10
0.0
 20
0.0
 30
0.0
  9
$UCSORGBACK
 10
0.0
 20
0.0
 30
0.0
  9
$PUCSBASE
  2

  9
$PUCSNAME
  2

  9
$PUCSORG
 10
0.0
 20
0.0
 30
0.0
  9
$PUCSXDIR
 10
1.0
 20
0.0
 30
0.0
  9
$PUCSYDIR
 10
0.0
 20
1.0
 30
0.0
  9
$PUCSORTHOREF
  2

  9
$PUCSORTHOVIEW
 70
     0
  9
$PUCSORGTOP
 10
0.0
 20
0.0
 30
0.0
  9
$PUCSORGBOTTOM
 10
0.0
 20
0.0
 30
0.0
  9
$PUCSORGLEFT
 10
0.0
 20
0.0
 30
0.0
  9
$PUCSORGRIGHT
 10
0.0
 20
0.0
 30
0.0
  9
$PUCSORGFRONT
 10
0.0
 20
0.0
 30
0.0
  9
$PUCSORGBACK
 10
0.0
 20
0.0
 30
0.0
  9
$USERI1
 70
     0
  9
$USERI2
 70
     0
  9
$USERI3
 70
     0
  9
$USERI4
 70
     0
  9
$USERI5
 70
     0
  9
$USERR1
 40
0.0
  9
$USERR2
 40
0.0
  9
$USERR3
 40
0.0
  9
$USERR4
 40
0.0
  9
$USERR5
 40
0.0
  9
$WORLDVIEW
 70
     1
  9
$SHADEDGE
 70
     3
  9
$SHADEDIF
 70
    70
  9
$TILEMODE
 70
     1
  9
$MAXACTVP
 70
    48
  9
$PINSBASE
 10
0.0
 20
0.0
 30
0.0
  9
$PLIMCHECK
 70
     0
  9
$PEXTMIN
 10
0.0
 20
0.0
 30
0.0
  9
$PEXTMAX
 10
0.0
 20
0.0
 30
0.0
  9
$PLIMMIN
 10
0.0
 20
0.0
  9
$PLIMMAX
 10
12.0
 20
9.0
  9
$UNITMODE
 70
     0
  9
$VISRETAIN
 70
     1
  9
$PLINEGEN
 70
     0
  9
$PSLTSCALE
 70
     1
  9
$TREEDEPTH
 70
  3020
  9
$CMLSTYLE
  2
Standard
  9
$CMLJUST
 70
     0
  9
$CMLSCALE
 40
20.0
  9
$PROXYGRAPHICS
 70
     1
  9
$MEASUREMENT
 70
     1
  9
$CELWEIGHT
370
    -1
  9
$ENDCAPS
280
     0
  9
$JOINSTYLE
280
     0
  9
$LWDISPLAY
290
     0
  9
$INSUNITS
 70
     4
  9
$HYPERLINKBASE
  1

  9
$STYLESHEET
  1
monochrome.ctb
  9
$XEDIT
290
     1
  9
$CEPSNTYPE
380
     0
  9
$PSTYLEMODE
290
     1
  9
$FINGERPRINTGUID
  2

  9
$VERSIONGUID
  2
{10C766A0-35C9-43A3-9EB8-8C6BE650ADF0}
  9
$EXTNAMES
290
     1
  9
$PSVPSCALE
 40
0.0
  9
$OLESTARTUP
290
     0
  0
ENDSEC
  0
SECTION
  2
CLASSES
  0
CLASS
  1
ACDBDICTIONARYWDFLT
  2
AcDbDictionaryWithDefault
  3
ObjectDBX Classes
 90
        0
280
     0
281
     0
  0
CLASS
  1
ACDBPLACEHOLDER
  2
AcDbPlaceHolder
  3
ObjectDBX Classes
 90
        0
280
     0
281
     0
  0
CLASS
  1
LAYOUT
  2
AcDbLayout
  3
ObjectDBX Classes
 90
        0
280
     0
281
     0
  0
CLASS
  1
DICTIONARYVAR
  2
AcDbDictionaryVar
  3
ObjectDBX Classes
 90
        0
280
     0
281
     0
  0
CLASS
  1
MATERIAL
  2
AcDbMaterial
  3
ObjectDBX Classes
 90
     1153
280
     0
281
     0
  0
CLASS
  1
VISUALSTYLE
  2
AcDbVisualStyle
  3
ObjectDBX Classes
 90
     4095
280
     0
281
     0
  0
CLASS
  1
TABLESTYLE
  2
AcDbTableStyle
  3
ObjectDBX Classes
 90
     4095
280
     0
281
     0
  0
CLASS
  1
SCALE
  2
AcDbScale
  3
ObjectDBX Classes
 90
     1153
280
     0
281
     0
  0
CLASS
  1
MLEADERSTYLE
  2
AcDbMLeaderStyle
  3
ACDB_MLEADERSTYLE_CLASS
 90
     4095
280
     0
281
     0
  0
CLASS
  1
ACDBSECTIONVIEWSTYLE
  2
AcDbSectionViewStyle
  3
ObjectDBX Classes
 90
     1025
280
     0
281
     0
  0
CLASS
  1
ACDBDETAILVIEWSTYLE
  2
AcDbDetailViewStyle
  3
ObjectDBX Classes
 90
     1025
280
     0
281
     0
  0
CLASS
  1
CELLSTYLEMAP
  2
AcDbCellStyleMap
  3
ObjectDBX Classes
 90
     1152
280
     0
281
     0
  0
CLASS
  1
SORTENTSTABLE
  2
AcDbSortentsTable
  3
ObjectDBX Classes
 90
        0
280
     0
281
     0
  0
CLASS
  1
ACARRAYJIGENTITY
  2
AcArrayJigEntity
  3
ACAD_ARRAY
 90
      129
280
     0
281
     1
  0
CLASS
  1
ACDBASSOCNETWORK
  2
AcDbAssocNetwork
  3
ObjectDBX Classes
 90
     1025
280
     0
281
     0
  0
CLASS
  1
ACDBASSOCACTION
  2
AcDbAssocAction
  3
ObjectDBX Classes
 90
     1025
280
     0
281
     0
  0
CLASS
  1
ACDBASSOCARRAYACTIONBODY
  2
AcDbAssocArrayActionBody
  3
ObjectDBX Classes
 90
     1025
280
     0
281
     0
  0
CLASS
  1
ACDBASSOCVERTEXACTIONPARAM
  2
AcDbAssocVertexActionParam
  3
ObjectDBX Classes
 90
     1025
280
     0
281
     0
  0
CLASS
  1
ACDBASSOCDEPENDENCY
  2
AcDbAssocDependency
  3
ObjectDBX Classes
 90
     1025
280
     0
281
     0
  0
CLASS
  1
ACDBASSOCARRAYRECTANGULARPARAMETERS
  2
AcDbAssocArrayRectangularParameters
  3
ObjectDBX Classes
 90
    33793
280
     0
281
     0
  0
ENDSEC
  0
SECTION
  2
TABLES
  0
TABLE
  2
VPORT
  5
950
102
{ACAD_XDICTIONARY
360
12CC
102
}
330
0
100
AcDbSymbolTable
 70
     1
  0
VPORT
  5
125E
330
950
100
AcDbSymbolTableRecord
100
AcDbViewportTableRecord
  2
*Active
 70
     0
 10
0.0
 20
0.0
 11
1.0
 21
1.0
 12
1394.755593501606
 22
986.6345654368513
 13
0.0
 23
0.0
 14
10.0
 24
10.0
 15
10.0
 25
10.0
 16
0.0
 26
0.0
 36
1.0
 17
0.0
 27
0.0
 37
0.0
 40
1992.48605509167
 41
2.97752808988764
 42
50.0
 43
0.0
 44
0.0
 50
0.0
 51
0.0
 71
     0
 72
   100
 73
     1
 74
     3
 75
     0
 76
     0
 77
     0
 78
     0
281
     0
 65
     1
110
0.0
120
0.0
130
0.0
111
1.0
121
0.0
131
0.0
112
0.0
122
1.0
132
0.0
 79
     0
146
0.0
1001
ACAD_NAV_VCDISPLAY
1070
     3
  0
ENDTAB
  0
TABLE
  2
LTYPE
  5
94B
330
0
100
AcDbSymbolTable
 70
     7
  0
LTYPE
  5
94C
330
94B
100
AcDbSymbolTableRecord
100
AcDbLinetypeTableRecord
  2
ByBlock
 70
     0
  3

 72
    65
 73
     0
 40
0.0
  0
LTYPE
  5
94D
330
94B
100
AcDbSymbolTableRecord
100
AcDbLinetypeTableRecord
  2
ByLayer
 70
     0
  3

 72
    65
 73
     0
 40
0.0
  0
LTYPE
  5
8
330
94B
100
AcDbSymbolTableRecord
100
AcDbLinetypeTableRecord
  2
Continuous
 70
     0
  3
Solid line
 72
    65
 73
     0
 40
0.0
  0
LTYPE
  5
1B6
330
94B
100
AcDbSymbolTableRecord
100
AcDbLinetypeTableRecord
  2
HIDDEN
 70
     0
  3
Hidden __ __ __ __ __ __ __ __ __ __ __ __ __ _
 72
    65
 73
     2
 40
9.524999999999998
 49
6.349999999999999
 74
     0
 49
-3.174999999999999
 74
     0
  0
LTYPE
  5
1C4
330
94B
100
AcDbSymbolTableRecord
100
AcDbLinetypeTableRecord
  2
CENTER
 70
     0
  3
------ - ------ - ----
 72
    65
 73
     4
 40
10.0
 49
6.25
 74
     0
 49
-1.25
 74
     0
 49
1.25
 74
     0
 49
-1.25
 74
     0
  0
ENDTAB
  0
TABLE
  2
LAYER
  5
948
102
{ACAD_XDICTIONARY
360
13BA
102
}
330
0
100
AcDbSymbolTable
 70
    10
  0
LAYER
  5
65
102
{ACAD_XDICTIONARY
360
12B3
102
}
330
948
100
AcDbSymbolTableRecord
100
AcDbLayerTableRecord
  2
0
 70
     0
 62
     7
  6
Continuous
370
    -3
390
5
  0
LAYER
  5
6B
102
{ACAD_XDICTIONARY
360
12B5
102
}
330
948
100
AcDbSymbolTableRecord
100
AcDbLayerTableRecord
  2
本体
 70
     0
 62
     7
  6
Continuous
370
    13
390
5
  0
LAYER
  5
4
102
{ACAD_XDICTIONARY
360
12B7
102
}
330
948
100
AcDbSymbolTableRecord
100
AcDbLayerTableRecord
  2
寸法線
 70
     0
 62
     2
  6
Continuous
370
     9
390
5
  0
LAYER
  5
68
102
{ACAD_XDICTIONARY
360
12BB
102
}
330
948
100
AcDbSymbolTableRecord
100
AcDbLayerTableRecord
  2
エンボス
 70
     0
 62
     4
  6
Continuous
370
     5
390
5
  0
LAYER
  5
11
102
{ACAD_XDICTIONARY
360
12BD
102
}
330
948
100
AcDbSymbolTableRecord
100
AcDbLayerTableRecord
  2
外枠
 70
     0
 62
     7
  6
Continuous
370
    -3
390
5
  0
LAYER
  5
1E0
330
948
100
AcDbSymbolTableRecord
100
AcDbLayerTableRecord
  2
Defpoints
 70
     0
 62
     7
  6
Continuous
290
     0
370
    -3
390
5
  0
LAYER
  5
137A
330
948
100
AcDbSymbolTableRecord
100
AcDbLayerTableRecord
  2
嵩上断面
 70
     0
 62
   112
  6
Continuous
370
    13
390
5
  0
LAYER
  5
13B8
102
{ACAD_XDICTIONARY
360
13B9
102
}
330
948
100
AcDbSymbolTableRecord
100
AcDbLayerTableRecord
  2
嵩上平面
 70
     0
 62
   112
  6
HIDDEN
370
    13
390
5
  0
ENDTAB
  0
TABLE
  2
STYLE
  5
949
330
0
100
AcDbSymbolTable
 70
     4
  0
STYLE
  5
9
330
949
100
AcDbSymbolTableRecord
100
AcDbTextStyleTableRecord
  2
Standard
 70
     0
 40
0.0
 41
1.0
 50
0.0
 71
     0
 42
2.5
  3

  4

1001
ACAD
1000
MS Gothic
1071
    32817
  0
ENDTAB
  0
TABLE
  2
VIEW
  5
94E
330
0
100
AcDbSymbolTable
 70
     0
  0
ENDTAB
  0
TABLE
  2
UCS
  5
94F
330
0
100
AcDbSymbolTable
 70
     0
  0
ENDTAB
  0
TABLE
  2
APPID
  5
952
330
0
100
AcDbSymbolTable
 70
     5
  0
APPID
  5
A
330
952
100
AcDbSymbolTableRecord
100
AcDbRegAppTableRecord
  2
ACAD
 70
     0
  0
APPID
  5
12C1
330
952
100
AcDbSymbolTableRecord
100
AcDbRegAppTableRecord
  2
ACAD_NAV_VCDISPLAY
 70
     0
  0
APPID
  5
1302
330
952
100
AcDbSymbolTableRecord
100
AcDbRegAppTableRecord
  2
ACAD_MLEADERVER
 70
     0
  0
APPID
  5
1393
330
952
100
AcDbSymbolTableRecord
100
AcDbRegAppTableRecord
  2
ACAD_EXEMPT_FROM_CAD_STANDARDS
 70
     0
  0
APPID
  5
1535
330
952
100
AcDbSymbolTableRecord
100
AcDbRegAppTableRecord
  2
AcLayerTools
 70
     0
  0
ENDTAB
  0
TABLE
  2
DIMSTYLE
  5
953
330
0
100
AcDbSymbolTable
 70
     3
100
AcDbDimStyleTable
 71
     1
340
1D1
  0
DIMSTYLE
105
1D1
102
{ACAD_REACTORS
330
490
330
1F5
330
2CE
330
2DB
330
90D
330
91C
330
929
330
982
330
13E8
102
}
330
953
100
AcDbSymbolTableRecord
100
AcDbDimStyleTableRecord
  2
ISO-25
 70
     0
 40
10.0
 41
1.5
 42
2.0
 43
3.75
 44
1.5
 73
     0
 74
     0
 77
     1
 78
     8
140
3.0
141
2.5
143
0.03937007874016
147
0.5
171
     3
172
     1
271
     2
272
     2
274
     3
283
     0
284
     8
289
     0
340
9
341
1D2
342
1D2
  0
DIMSTYLE
105
137D
330
953
100
AcDbSymbolTableRecord
100
AcDbDimStyleTableRecord
  2
Standard
 70
     0
340
9
  0
ENDTAB
  0
TABLE
  2
BLOCK_RECORD
  5
1
330
0
100
AcDbSymbolTable
 70
    30
  0
BLOCK_RECORD
  5
2
102
{ACAD_XDICTIONARY
360
936
102
}
330
1
100
AcDbSymbolTableRecord
100
AcDbBlockTableRecord
  2
*Model_Space
340
93A
  0
BLOCK_RECORD
  5
93C
102
{ACAD_XDICTIONARY
360
93D
102
}
330
1
100
AcDbSymbolTableRecord
100
AcDbBlockTableRecord
  2
*Paper_Space
340
941
  0
BLOCK_RECORD
  5
942
102
{ACAD_XDICTIONARY
360
943
102
}
330
1
100
AcDbSymbolTableRecord
100
AcDbBlockTableRecord
  2
*Paper_Space0
340
947
  0
BLOCK_RECORD
  5
1D2
330
1
100
AcDbSymbolTableRecord
100
AcDbBlockTableRecord
  2
_Open30
340
0
102
{BLKREFS
331
1516
331
1517
331
151F
331
1520
331
139F
331
13A0
331
13A8
331
13A9
331
13B1
331
13B2
331
1449
331
144A
331
1452
331
1453
331
145B
331
145C
331
1464
331
1465
102
}
  0
BLOCK_RECORD
  5
66
330
1
100
AcDbSymbolTableRecord
100
AcDbBlockTableRecord
  2
GIB詳細
340
0
102
{BLKREFS
331
64
102
}
1001
ACAD
1000
DesignCenter Data
1002
{
1070
     1
1070
     4
1002
}
  0
BLOCK_RECORD
  5
1C1
330
1
100
AcDbSymbolTableRecord
100
AcDbBlockTableRecord
  2
TB8
340
0
102
{BLKREFS
331
1C0
331
1C9
331
1CA
331
1CB
331
2AD
331
97D
331
97E
331
97F
331
980
331
981
331
400
102
}
1001
ACAD
1000
DesignCenter Data
1002
{
1070
     1
1070
     4
1002
}
  0
BLOCK_RECORD
  5
491
330
1
100
AcDbSymbolTableRecord
100
AcDbBlockTableRecord
  2
*D4
340
0
  0
BLOCK_RECORD
  5
1F6
330
1
100
AcDbSymbolTableRecord
100
AcDbBlockTableRecord
  2
*D5
340
0
  0
BLOCK_RECORD
  5
2CF
330
1
100
AcDbSymbolTableRecord
100
AcDbBlockTableRecord
  2
*D6
340
0
  0
BLOCK_RECORD
  5
2DC
330
1
100
AcDbSymbolTableRecord
100
AcDbBlockTableRecord
  2
*D7
340
0
  0
BLOCK_RECORD
  5
90E
330
1
100
AcDbSymbolTableRecord
100
AcDbBlockTableRecord
  2
*D8
340
0
  0
BLOCK_RECORD
  5
91D
330
1
100
AcDbSymbolTableRecord
100
AcDbBlockTableRecord
  2
*D9
340
0
  0
BLOCK_RECORD
  5
92A
330
1
100
AcDbSymbolTableRecord
100
AcDbBlockTableRecord
  2
*D10
340
0
  0
BLOCK_RECORD
  5
983
330
1
100
AcDbSymbolTableRecord
100
AcDbBlockTableRecord
  2
*D11
340
0
  0
BLOCK_RECORD
  5
124E
330
1
100
AcDbSymbolTableRecord
100
AcDbBlockTableRecord
  2
清水
340
0
102
{BLKREFS
331
1329
102
}
1001
ACAD
1000
DesignCenter Data
1002
{
1070
     1
1070
     4
1002
}
  0
BLOCK_RECORD
  5
1319
102
{ACAD_XDICTIONARY
360
131A
102
}
330
1
100
AcDbSymbolTableRecord
100
AcDbBlockTableRecord
  2
鎌下
340
0
102
{BLKREFS
331
132B
102
}
1001
ACAD
1000
DesignCenter Data
1002
{
1070
     1
1070
     4
1002
}
  0
BLOCK_RECORD
  5
1380
330
1
100
AcDbSymbolTableRecord
100
AcDbBlockTableRecord
  2
P-H25
340
0
102
{BLKREFS
331
138E
331
138F
102
}
  0
BLOCK_RECORD
  5
13E9
330
1
100
AcDbSymbolTableRecord
100
AcDbBlockTableRecord
  2
*D24
340
0
  0
BLOCK_RECORD
  5
153D
102
{ACAD_REACTORS
330
15B7
102
}
330
1
100
AcDbSymbolTableRecord
100
AcDbBlockTableRecord
  2
*U26
340
0
102
{BLKREFS
331
15BB
331
15BC
331
15BD
331
15BE
331
15BF
331
15C0
331
15C1
331
15C2
331
15C3
331
15C4
331
15C5
331
15C6
331
15C7
331
15C8
331
15C9
331
15CA
102
}
  0
BLOCK_RECORD
  5
1540
102
{ACAD_XDICTIONARY
360
1694
102
}
102
{ACAD_REACTORS
330
15B6
102
}
330
1
100
AcDbSymbolTableRecord
100
AcDbBlockTableRecord
  2
*U27
340
0
102
{BLKREFS
331
1543
102
}
  0
BLOCK_RECORD
  5
15CC
102
{ACAD_REACTORS
330
15E9
102
}
330
1
100
AcDbSymbolTableRecord
100
AcDbBlockTableRecord
  2
*U28
340
0
102
{BLKREFS
331
15ED
331
15EE
331
15EF
331
15F0
331
15F1
331
15F2
331
15F3
331
15F4
331
15F5
331
15F6
331
15F7
331
15F8
331
15F9
331
15FA
331
15FB
331
15FC
102
}
  0
BLOCK_RECORD
  5
15CF
102
{ACAD_XDICTIONARY
360
1697
102
}
102
{ACAD_REACTORS
330
15E8
102
}
330
1
100
AcDbSymbolTableRecord
100
AcDbBlockTableRecord
  2
*U29
340
0
102
{BLKREFS
331
15D2
102
}
  0
ENDTAB
  0
ENDSEC
  0
SECTION
  2
BLOCKS
  0
BLOCK
  5
938
330
2
100
AcDbEntity
  8
0
100
AcDbBlockBegin
  2
*Model_Space
 70
     0
 10
0.0
 20
0.0
 30
0.0
  3
*Model_Space
  1

  0
ENDBLK
  5
939
330
2
100
AcDbEntity
  8
0
100
AcDbBlockEnd
  0
BLOCK
  5
93F
330
93C
100
AcDbEntity
 67
     1
  8
0
100
AcDbBlockBegin
  2
*Paper_Space
 70
     0
 10
0.0
 20
0.0
 30
0.0
  3
*Paper_Space
  1

  0
ENDBLK
  5
940
330
93C
100
AcDbEntity
 67
     1
  8
0
100
AcDbBlockEnd
  0
BLOCK
  5
945
330
942
100
AcDbEntity
 67
     1
  8
0
100
AcDbBlockBegin
  2
*Paper_Space0
 70
     0
 10
0.0
 20
0.0
 30
0.0
  3
*Paper_Space0
  1

  0
ENDBLK
  5
946
330
942
100
AcDbEntity
 67
     1
  8
0
100
AcDbBlockEnd
  0
BLOCK
  5
1D6
330
1D2
100
AcDbEntity
  8
0
100
AcDbBlockBegin
  2
_Open30
 70
     0
 10
0.0
 20
0.0
 30
0.0
  3
_Open30
  1

  0
LINE
  5
1D3
330
1D2
100
AcDbEntity
  8
0
  6
ByBlock
 62
     0
370
    -2
100
AcDbLine
 10
-1.0
 20
0.26794919
 30
0.0
 11
0.0
 21
0.0
 31
0.0
  0
LINE
  5
1D4
330
1D2
100
AcDbEntity
  8
0
  6
ByBlock
 62
     0
370
    -2
100
AcDbLine
 10
0.0
 20
0.0
 30
0.0
 11
-1.0
 21
-0.26794919
 31
0.0
  0
LINE
  5
1D5
330
1D2
100
AcDbEntity
  8
0
  6
ByBlock
 62
     0
370
    -2
100
AcDbLine
 10
0.0
 20
0.0
 30
0.0
 11
-1.0
 21
0.0
 31
0.0
  0
ENDBLK
  5
1D7
330
1D2
100
AcDbEntity
  8
0
100
AcDbBlockEnd
  0
BLOCK
  5
AA
330
66
100
AcDbEntity
  8
0
100
AcDbBlockBegin
  2
GIB詳細
 70
     0
 10
0.0
 20
0.0
 30
0.0
  3
GIB詳細
  1

  0
LINE
  5
67
330
66
100
AcDbEntity
  8
エンボス
  6
Continuous
370
     0
100
AcDbLine
 10
26.66967878750091
 20
-77.78386766485943
 30
0.0
 11
26.66967878750109
 21
-100.7518676648589
 31
0.0
  0
LINE
  5
69
330
66
100
AcDbEntity
  8
エンボス
  6
Continuous
370
     0
100
AcDbLine
 10
20.62167878750051
 20
-97.43986766485926
 30
0.0
 11
20.62167878750057
 21
-100.7518676648589
 31
0.0
  0
LINE
  5
6A
330
66
100
AcDbEntity
  8
本体
370
     0
100
AcDbLine
 10
37.90167878750151
 20
79.24813233514118
 30
0.0
 11
37.90167878750151
 21
-100.7518676648589
 31
0.0
  0
LINE
  5
6C
330
66
100
AcDbEntity
  8
エンボス
370
     0
100
AcDbLine
 10
26.66967878750091
 20
38.64013233514075
 30
0.0
 11
26.66967878750091
 21
12.93613233514055
 31
0.0
  0
LINE
  5
6D
330
66
100
AcDbEntity
  8
エンボス
370
     0
100
AcDbLine
 10
26.66967878750091
 20
40.15213233514034
 30
0.0
 11
26.66967878750091
 21
12.93613233514055
 31
0.0
  0
LINE
  5
6E
330
66
100
AcDbEntity
  8
エンボス
370
     0
100
AcDbLine
 10
20.62167878750051
 20
59.80813233514115
 30
0.0
 11
20.62167878750051
 21
32.59213233514036
 31
0.0
  0
LINE
  5
6F
330
66
100
AcDbEntity
  8
エンボス
  6
Continuous
370
     0
100
AcDbLine
 10
8.525678787500737
 20
26.54413233514095
 30
0.0
 11
20.62167878750051
 21
20.49613233514056
 31
0.0
  0
LINE
  5
70
330
66
100
AcDbEntity
  8
エンボス
  6
Continuous
370
     0
100
AcDbLine
 10
8.525678787500737
 20
26.54413233514095
 30
0.0
 11
20.62167878750051
 21
32.59213233514036
 31
0.0
  0
LINE
  5
71
330
66
100
AcDbEntity
  8
エンボス
  6
Continuous
370
     0
100
AcDbLine
 10
8.525678787500737
 20
-91.39186766485886
 30
0.0
 11
20.62167878750051
 21
-85.34386766485942
 31
0.0
  0
LINE
  5
72
330
66
100
AcDbEntity
  8
エンボス
  6
Continuous
370
     0
100
AcDbLine
 10
8.525678787500737
 20
-91.39186766485886
 30
0.0
 11
20.62167878750051
 21
-97.43986766485926
 31
0.0
  0
LINE
  5
73
330
66
100
AcDbEntity
  8
エンボス
  6
Continuous
370
     0
100
AcDbLine
 10
8.525678787500737
 20
-52.07986766485925
 30
0.0
 11
20.62167878750051
 21
-58.12786766485965
 31
0.0
  0
LINE
  5
74
330
66
100
AcDbEntity
  8
エンボス
  6
Continuous
370
     0
100
AcDbLine
 10
8.525678787500737
 20
-52.07986766485925
 30
0.0
 11
20.62167878750051
 21
-46.03186766485886
 31
0.0
  0
LINE
  5
75
330
66
100
AcDbEntity
  8
エンボス
  6
Continuous
370
     0
100
AcDbLine
 10
8.525678787500737
 20
-12.76786766485964
 30
0.0
 11
20.62167878750051
 21
-6.719867664859251
 31
0.0
  0
LINE
  5
76
330
66
100
AcDbEntity
  8
エンボス
  6
Continuous
370
     0
100
AcDbLine
 10
8.525678787500737
 20
-12.76786766485964
 30
0.0
 11
20.62167878750051
 21
-18.81586766485905
 31
0.0
  0
LINE
  5
77
330
66
100
AcDbEntity
  8
エンボス
  6
Continuous
370
     0
100
AcDbLine
 10
38.76567878750075
 20
6.888132335141136
 30
0.0
 11
26.66967878750091
 21
12.93613233514055
 31
0.0
  0
LINE
  5
78
330
66
100
AcDbEntity
  8
エンボス
  6
Continuous
370
     0
100
AcDbLine
 10
38.76567878750075
 20
-32.42386766485945
 30
0.0
 11
26.66967878750091
 21
-26.37586766485906
 31
0.0
  0
LINE
  5
79
330
66
100
AcDbEntity
  8
エンボス
  6
Continuous
370
     0
100
AcDbLine
 10
38.76567878750075
 20
-32.42386766485945
 30
0.0
 11
26.66967878750091
 21
-26.37586766485906
 31
0.0
  0
LINE
  5
7A
330
66
100
AcDbEntity
  8
エンボス
  6
Continuous
370
     0
100
AcDbLine
 10
38.76567878750075
 20
-71.73586766485906
 30
0.0
 11
26.66967878750091
 21
-77.78386766485943
 31
0.0
  0
LINE
  5
7B
330
66
100
AcDbEntity
  8
エンボス
  6
Continuous
370
     0
100
AcDbLine
 10
38.76567878750075
 20
-71.73586766485906
 30
0.0
 11
26.66967878750091
 21
-77.78386766485943
 31
0.0
  0
LINE
  5
7C
330
66
100
AcDbEntity
  8
エンボス
  6
Continuous
370
     0
100
AcDbLine
 10
38.76567878750075
 20
-71.73586766485906
 30
0.0
 11
26.66967878750091
 21
-77.78386766485943
 31
0.0
  0
LINE
  5
7D
330
66
100
AcDbEntity
  8
エンボス
  6
Continuous
370
     0
100
AcDbLine
 10
38.76567878750075
 20
-32.42386766485945
 30
0.0
 11
26.66967878750091
 21
-38.47186766485886
 31
0.0
  0
LINE
  5
7E
330
66
100
AcDbEntity
  8
エンボス
  6
Continuous
370
     0
100
AcDbLine
 10
38.76567878750075
 20
-32.42386766485945
 30
0.0
 11
26.66967878750091
 21
-38.47186766485886
 31
0.0
  0
LINE
  5
7F
330
66
100
AcDbEntity
  8
エンボス
  6
Continuous
370
     0
100
AcDbLine
 10
38.76567878750075
 20
-71.73586766485906
 30
0.0
 11
26.66967878750091
 21
-65.68786766485965
 31
0.0
  0
LINE
  5
80
330
66
100
AcDbEntity
  8
エンボス
  6
Continuous
370
     0
100
AcDbLine
 10
38.76567878750075
 20
-71.73586766485906
 30
0.0
 11
26.66967878750091
 21
-65.68786766485965
 31
0.0
  0
LINE
  5
81
330
66
100
AcDbEntity
  8
エンボス
  6
Continuous
370
     0
100
AcDbLine
 10
38.76567878750075
 20
-71.73586766485906
 30
0.0
 11
26.66967878750091
 21
-65.68786766485965
 31
0.0
  0
LINE
  5
82
330
66
100
AcDbEntity
  8
エンボス
  6
Continuous
370
     0
100
AcDbLine
 10
26.66967878750091
 20
-38.47186766485886
 30
0.0
 11
26.66967878750091
 21
-65.68786766485965
 31
0.0
  0
LINE
  5
83
330
66
100
AcDbEntity
  8
エンボス
  6
Continuous
370
     0
100
AcDbLine
 10
26.66967878750091
 20
0.8401323351407512
 30
0.0
 11
26.66967878750091
 21
-26.37586766485906
 31
0.0
  0
LINE
  5
84
330
66
100
AcDbEntity
  8
エンボス
  6
Continuous
370
     0
100
AcDbLine
 10
20.62167878750051
 20
-18.81586766485905
 30
0.0
 11
20.62167878750051
 21
-46.03186766485886
 31
0.0
  0
LINE
  5
85
330
66
100
AcDbEntity
  8
エンボス
  6
Continuous
370
     0
100
AcDbLine
 10
20.62167878750051
 20
-58.12786766485965
 30
0.0
 11
20.62167878750051
 21
-85.34386766485942
 31
0.0
  0
LINE
  5
86
330
66
100
AcDbEntity
  8
エンボス
  6
Continuous
370
     0
100
AcDbLine
 10
20.62167878750051
 20
20.49613233514056
 30
0.0
 11
20.62167878750051
 21
-6.719867664859251
 31
0.0
  0
LINE
  5
87
330
66
100
AcDbEntity
  8
エンボス
  6
Continuous
370
     0
100
AcDbLine
 10
38.76567878750075
 20
6.888132335141136
 30
0.0
 11
26.66967878750091
 21
0.8401323351407512
 31
0.0
  0
LINE
  5
88
330
66
100
AcDbEntity
  8
エンボス
  6
Continuous
370
     0
100
AcDbLine
 10
8.525678787500737
 20
73.20013233514075
 30
0.0
 11
20.62167878750051
 21
79.24813233514118
 31
0.0
  0
LINE
  5
89
330
66
100
AcDbEntity
  8
エンボス
  6
Continuous
370
     0
100
AcDbLine
 10
8.525678787500737
 20
73.20013233514075
 30
0.0
 11
20.62167878750051
 21
59.80813233514115
 31
0.0
  0
LINE
  5
8A
330
66
100
AcDbEntity
  8
エンボス
370
     0
100
AcDbLine
 10
26.66967878750091
 20
79.24813233514118
 30
0.0
 11
26.66967878750091
 21
52.24813233514115
 31
0.0
  0
LINE
  5
8B
330
66
100
AcDbEntity
  8
エンボス
  6
Continuous
370
     0
100
AcDbLine
 10
38.76567878750075
 20
46.20013233514074
 30
0.0
 11
26.66967878750091
 21
52.24813233514115
 31
0.0
  0
LINE
  5
8C
330
66
100
AcDbEntity
  8
エンボス
  6
Continuous
370
     0
100
AcDbLine
 10
38.76567878750075
 20
46.20013233514074
 30
0.0
 11
26.66967878750091
 21
40.15213233514034
 31
0.0
  0
LINE
  5
8D
330
66
100
AcDbEntity
  8
本体
370
     0
100
AcDbLine
 10
7.6616787875015
 20
79.24813233514118
 30
0.0
 11
7.6616787875015
 21
-100.7518676648589
 31
0.0
  0
MTEXT
  5
8E
330
66
100
AcDbEntity
  8
本体
  6
Continuous
370
     0
100
AcDbMText
 10
-96.91195000051369
 20
158.2682376554469
 30
0.0
 40
30.0
 41
252.8401
 71
     1
 72
     5
  1
GIB形状詳細
 73
     1
 44
1.0
1001
ACAD
1000
MTEXTBEGIN
1070
    73
1070
     1
1070
    44
1040
1.0
1070
    74
1070
     0
1000
MTEXTEND
  0
MTEXT
  5
8F
330
66
100
AcDbEntity
  8
寸法線
  6
Continuous
100
AcDbMText
 10
-147.3028652710904
 20
1772.180188660315
 30
0.0
 40
20.0
 41
17.2146
 71
     7
 72
     1
  1

 73
     1
 44
1.0
1001
ACAD
1000
MTEXTBEGIN
1070
    73
1070
     1
1070
    44
1040
1.0
1070
    74
1070
     0
1000
MTEXTEND
  0
MTEXT
  5
90
330
66
100
AcDbEntity
  8
寸法線
  6
Continuous
100
AcDbMText
 10
125.7829597280838
 20
3773.683923873501
 30
0.0
 40
30.0
 41
17.2146
 71
     7
 72
     1
  1

 73
     1
 44
1.0
1001
ACAD
1000
MTEXTBEGIN
1070
    73
1070
     1
1070
    44
1040
1.0
1070
    74
1070
     0
1000
MTEXTEND
  0
MTEXT
  5
91
330
66
100
AcDbEntity
  8
寸法線
  6
Continuous
100
AcDbMText
 10
-609.4758544225992
 20
3746.116575025764
 30
0.0
 40
20.0
 41
17.2146
 71
     7
 72
     1
  1

 73
     1
 44
1.0
1001
ACAD
1000
MTEXTBEGIN
1070
    73
1070
     1
1070
    44
1040
1.0
1070
    74
1070
     0
1000
MTEXTEND
  0
MTEXT
  5
92
330
66
100
AcDbEntity
  8
寸法線
  6
Continuous
100
AcDbMText
 10
-147.3028652710904
 20
1754.680188660315
 30
0.0
 40
20.0
 41
17.2146
 71
     7
 72
     1
  1

 73
     1
 44
1.0
1001
ACAD
1000
MTEXTBEGIN
1070
    73
1070
     1
1070
    44
1040
1.0
1070
    74
1070
     0
1000
MTEXTEND
  0
MTEXT
  5
93
330
66
100
AcDbEntity
  8
寸法線
  6
Continuous
100
AcDbMText
 10
125.7829597280838
 20
3756.183923873501
 30
0.0
 40
30.0
 41
17.2146
 71
     7
 72
     1
  1

 73
     1
 44
1.0
1001
ACAD
1000
MTEXTBEGIN
1070
    73
1070
     1
1070
    44
1040
1.0
1070
    74
1070
     0
1000
MTEXTEND
  0
MTEXT
  5
94
330
66
100
AcDbEntity
  8
寸法線
  6
Continuous
100
AcDbMText
 10
-609.4758544225992
 20
3728.616575025763
 30
0.0
 40
20.0
 41
17.2146
 71
     7
 72
     1
  1

 73
     1
 44
1.0
1001
ACAD
1000
MTEXTBEGIN
1070
    73
1070
     1
1070
    44
1040
1.0
1070
    74
1070
     0
1000
MTEXTEND
  0
MTEXT
  5
95
330
66
100
AcDbEntity
  8
寸法線
  6
Continuous
100
AcDbMText
 10
-147.3028652710904
 20
1704.680188660315
 30
0.0
 40
20.0
 41
17.2146
 71
     7
 72
     1
  1

 73
     1
 44
1.0
1001
ACAD
1000
MTEXTBEGIN
1070
    73
1070
     1
1070
    44
1040
1.0
1070
    74
1070
     0
1000
MTEXTEND
  0
MTEXT
  5
96
330
66
100
AcDbEntity
  8
寸法線
  6
Continuous
100
AcDbMText
 10
125.7829597280838
 20
3706.183923873501
 30
0.0
 40
30.0
 41
17.2146
 71
     7
 72
     1
  1

 73
     1
 44
1.0
1001
ACAD
1000
MTEXTBEGIN
1070
    73
1070
     1
1070
    44
1040
1.0
1070
    74
1070
     0
1000
MTEXTEND
  0
MTEXT
  5
97
330
66
100
AcDbEntity
  8
寸法線
  6
Continuous
100
AcDbMText
 10
-609.4758544225992
 20
3678.616575025763
 30
0.0
 40
20.0
 41
17.2146
 71
     7
 72
     1
  1

 73
     1
 44
1.0
1001
ACAD
1000
MTEXTBEGIN
1070
    73
1070
     1
1070
    44
1040
1.0
1070
    74
1070
     0
1000
MTEXTEND
  0
MTEXT
  5
98
330
66
100
AcDbEntity
  8
寸法線
  6
Continuous
100
AcDbMText
 10
-147.3028652710904
 20
1654.680188660315
 30
0.0
 40
20.0
 41
17.2146
 71
     7
 72
     1
  1

 73
     1
 44
1.0
1001
ACAD
1000
MTEXTBEGIN
1070
    73
1070
     1
1070
    44
1040
1.0
1070
    74
1070
     0
1000
MTEXTEND
  0
MTEXT
  5
99
330
66
100
AcDbEntity
  8
寸法線
  6
Continuous
100
AcDbMText
 10
125.7829597280838
 20
3656.183923873501
 30
0.0
 40
30.0
 41
17.2146
 71
     7
 72
     1
  1

 73
     1
 44
1.0
1001
ACAD
1000
MTEXTBEGIN
1070
    73
1070
     1
1070
    44
1040
1.0
1070
    74
1070
     0
1000
MTEXTEND
  0
MTEXT
  5
9A
330
66
100
AcDbEntity
  8
寸法線
  6
Continuous
100
AcDbMText
 10
-609.4758544225992
 20
3628.616575025763
 30
0.0
 40
20.0
 41
17.2146
 71
     7
 72
     1
  1

 73
     1
 44
1.0
1001
ACAD
1000
MTEXTBEGIN
1070
    73
1070
     1
1070
    44
1040
1.0
1070
    74
1070
     0
1000
MTEXTEND
  0
MTEXT
  5
9B
330
66
100
AcDbEntity
  8
寸法線
  6
Continuous
100
AcDbMText
 10
-147.3028652710904
 20
1604.680188660315
 30
0.0
 40
20.0
 41
17.2146
 71
     7
 72
     1
  1

 73
     1
 44
1.0
1001
ACAD
1000
MTEXTBEGIN
1070
    73
1070
     1
1070
    44
1040
1.0
1070
    74
1070
     0
1000
MTEXTEND
  0
MTEXT
  5
9C
330
66
100
AcDbEntity
  8
寸法線
  6
Continuous
100
AcDbMText
 10
125.7829597280838
 20
3606.183923873501
 30
0.0
 40
30.0
 41
17.2146
 71
     7
 72
     1
  1

 73
     1
 44
1.0
1001
ACAD
1000
MTEXTBEGIN
1070
    73
1070
     1
1070
    44
1040
1.0
1070
    74
1070
     0
1000
MTEXTEND
  0
MTEXT
  5
9D
330
66
100
AcDbEntity
  8
寸法線
  6
Continuous
100
AcDbMText
 10
-609.4758544225992
 20
3578.616575025763
 30
0.0
 40
20.0
 41
17.2146
 71
     7
 72
     1
  1

 73
     1
 44
1.0
1001
ACAD
1000
MTEXTBEGIN
1070
    73
1070
     1
1070
    44
1040
1.0
1070
    74
1070
     0
1000
MTEXTEND
  0
MTEXT
  5
9E
330
66
100
AcDbEntity
  8
寸法線
  6
Continuous
100
AcDbMText
 10
-147.3028652710904
 20
1554.680188660315
 30
0.0
 40
20.0
 41
17.2146
 71
     7
 72
     1
  1

 73
     1
 44
1.0
1001
ACAD
1000
MTEXTBEGIN
1070
    73
1070
     1
1070
    44
1040
1.0
1070
    74
1070
     0
1000
MTEXTEND
  0
MTEXT
  5
9F
330
66
100
AcDbEntity
  8
寸法線
  6
Continuous
100
AcDbMText
 10
125.7829597280838
 20
3556.183923873501
 30
0.0
 40
30.0
 41
17.2146
 71
     7
 72
     1
  1

 73
     1
 44
1.0
1001
ACAD
1000
MTEXTBEGIN
1070
    73
1070
     1
1070
    44
1040
1.0
1070
    74
1070
     0
1000
MTEXTEND
  0
MTEXT
  5
A0
330
66
100
AcDbEntity
  8
寸法線
  6
Continuous
100
AcDbMText
 10
-609.4758544225992
 20
3528.616575025763
 30
0.0
 40
20.0
 41
17.2146
 71
     7
 72
     1
  1

 73
     1
 44
1.0
1001
ACAD
1000
MTEXTBEGIN
1070
    73
1070
     1
1070
    44
1040
1.0
1070
    74
1070
     0
1000
MTEXTEND
  0
MTEXT
  5
A1
330
66
100
AcDbEntity
  8
寸法線
  6
Continuous
100
AcDbMText
 10
-147.3028652710904
 20
1504.680188660315
 30
0.0
 40
20.0
 41
17.2146
 71
     7
 72
     1
  1

 73
     1
 44
1.0
1001
ACAD
1000
MTEXTBEGIN
1070
    73
1070
     1
1070
    44
1040
1.0
1070
    74
1070
     0
1000
MTEXTEND
  0
MTEXT
  5
A2
330
66
100
AcDbEntity
  8
寸法線
  6
Continuous
100
AcDbMText
 10
125.7829597280838
 20
3506.183923873501
 30
0.0
 40
30.0
 41
17.2146
 71
     7
 72
     1
  1

 73
     1
 44
1.0
1001
ACAD
1000
MTEXTBEGIN
1070
    73
1070
     1
1070
    44
1040
1.0
1070
    74
1070
     0
1000
MTEXTEND
  0
MTEXT
  5
A3
330
66
100
AcDbEntity
  8
寸法線
  6
Continuous
100
AcDbMText
 10
-609.4758544225992
 20
3478.616575025763
 30
0.0
 40
20.0
 41
17.2146
 71
     7
 72
     1
  1

 73
     1
 44
1.0
1001
ACAD
1000
MTEXTBEGIN
1070
    73
1070
     1
1070
    44
1040
1.0
1070
    74
1070
     0
1000
MTEXTEND
  0
MTEXT
  5
A4
330
66
100
AcDbEntity
  8
寸法線
  6
Continuous
100
AcDbMText
 10
-147.3028652710904
 20
1454.680188660315
 30
0.0
 40
20.0
 41
17.2146
 71
     7
 72
     1
  1

 73
     1
 44
1.0
1001
ACAD
1000
MTEXTBEGIN
1070
    73
1070
     1
1070
    44
1040
1.0
1070
    74
1070
     0
1000
MTEXTEND
  0
MTEXT
  5
A5
330
66
100
AcDbEntity
  8
寸法線
  6
Continuous
100
AcDbMText
 10
125.7829597280838
 20
3456.183923873501
 30
0.0
 40
30.0
 41
17.2146
 71
     7
 72
     1
  1

 73
     1
 44
1.0
1001
ACAD
1000
MTEXTBEGIN
1070
    73
1070
     1
1070
    44
1040
1.0
1070
    74
1070
     0
1000
MTEXTEND
  0
MTEXT
  5
A6
330
66
100
AcDbEntity
  8
寸法線
  6
Continuous
100
AcDbMText
 10
-609.4758544225992
 20
3428.616575025763
 30
0.0
 40
20.0
 41
17.2146
 71
     7
 72
     1
  1

 73
     1
 44
1.0
1001
ACAD
1000
MTEXTBEGIN
1070
    73
1070
     1
1070
    44
1040
1.0
1070
    74
1070
     0
1000
MTEXTEND
  0
LWPOLYLINE
  5
A7
330
66
100
AcDbEntity
  8
本体
  6
Continuous
100
AcDbPolyline
 90
        4
 70
     1
 43
0.0
 10
-139.6145379512674
 20
168.6157088891093
 10
194.701175139303
 20
168.6157088891093
 10
194.701175139303
 20
-117.6274822929807
 10
-139.6145379512674
 20
-117.6274822929807
  0
HATCH
  5
A8
330
66
100
AcDbEntity
  8
エンボス
  6
Continuous
100
AcDbHatch
 10
0.0
 20
0.0
 30
0.0
210
0.0
220
0.0
230
1.0
  2
ANSI31
 70
     0
 71
     0
 91
        1
 92
        7
 72
     0
 73
     1
 93
       34
 10
26.66967878750092
 20
40.15213233514035
 10
37.90167878750151
 20
45.76813233514108
 10
37.90167878750151
 20
46.63213233514041
 10
26.66967878750092
 20
52.24813233514115
 10
26.66967878750091
 20
79.24813233514116
 10
20.62167878750047
 20
79.24813233514116
 10
8.525678787500744
 20
73.20013233514076
 10
20.62167878750051
 20
59.80813233514115
 10
20.62167878750051
 20
32.59213233514036
 10
8.525678787500737
 20
26.54413233514094
 10
20.62167878750051
 20
20.49613233514056
 10
20.62167878750051
 20
-6.719867664859251
 10
8.525678787500737
 20
-12.76786766485964
 10
20.62167878750051
 20
-18.81586766485905
 10
20.62167878750051
 20
-46.03186766485887
 10
8.525678787500737
 20
-52.07986766485925
 10
20.62167878750051
 20
-58.12786766485965
 10
20.62167878750051
 20
-85.34386766485944
 10
8.525678787500737
 20
-91.39186766485885
 10
20.62167878750051
 20
-97.43986766485924
 10
20.62167878750057
 20
-100.7518676648588
 10
26.66967878750109
 20
-100.7518676648589
 10
26.66967878750091
 20
-77.78386766485944
 10
37.90167878750151
 20
-72.16786766485872
 10
37.90167878750151
 20
-71.30386766485948
 10
26.66967878750091
 20
-65.68786766485963
 10
26.66967878750091
 20
-38.47186766485886
 10
37.90167878750151
 20
-32.85586766485902
 10
37.90167878750151
 20
-31.99186766485979
 10
26.66967878750091
 20
-26.37586766485906
 10
26.66967878750091
 20
0.8401323351407494
 10
37.90167878750151
 20
6.456132335141482
 10
37.90167878750151
 20
7.320132335140719
 10
26.66967878750091
 20
12.93613233514056
 97
        0
 75
     0
 76
     1
 52
0.0
 41
0.5
 77
     0
 78
     1
 53
45.0
 43
8.525678787500737
 44
-12.76786766485964
 45
-1.122532015133643
 46
1.122532015133644
 79
     0
 47
0.5074757335946297
 98
        1
 10
23.11907519037527
 20
30.63971558616095
  0
MTEXT
  5
A9
330
66
100
AcDbEntity
  8
本体
  6
Continuous
100
AcDbMText
 10
-79.8847425412946
 20
110.9530386434795
 30
0.0
 40
15.0
 41
230.6957
 71
     1
 72
     5
  1
※塗りつぶし部分突起
 73
     1
 44
1.0
1001
ACAD
1000
MTEXTBEGIN
1070
    73
1070
     1
1070
    44
1040
1.0
1070
    74
1070
     0
1000
MTEXTEND
  0
ENDBLK
  5
AB
330
66
100
AcDbEntity
  8
0
100
AcDbBlockEnd
  0
BLOCK
  5
1C7
330
1C1
100
AcDbEntity
  8
0
100
AcDbBlockBegin
  2
TB8
 70
     0
 10
0.0
 20
0.0
 30
0.0
  3
TB8
  1

  0
MTEXT
  5
1C2
330
1C1
100
AcDbEntity
  8
寸法線
  6
Continuous
100
AcDbMText
 10
917.3216494432054
 20
235.349302881973
 30
0.0
 40
20.0
 41
17.2146
 71
     7
 72
     1
  1

 73
     1
 44
1.0
1001
ACAD
1000
MTEXTBEGIN
1070
    73
1070
     1
1070
    44
1040
1.0
1070
    74
1070
     0
1000
MTEXTEND
  0
LINE
  5
1C3
330
1C1
100
AcDbEntity
  8
本体
  6
CENTER
 62
     1
 48
0.3
100
AcDbLine
 10
10.0
 20
0.0
 30
0.0
 11
-2.0
 21
0.0
 31
0.0
  0
LINE
  5
1C5
330
1C1
100
AcDbEntity
  8
本体
  6
CENTER
 62
     1
 48
0.3
100
AcDbLine
 10
4.0
 20
6.0
 30
0.0
 11
4.0
 21
-6.0
 31
0.0
  0
CIRCLE
  5
1C6
330
1C1
100
AcDbEntity
  8
本体
  6
Continuous
 62
     0
100
AcDbCircle
 10
4.0
 20
0.0
 30
0.0
 40
4.0
  0
ENDBLK
  5
1C8
330
1C1
100
AcDbEntity
  8
0
100
AcDbBlockEnd
  0
BLOCK
  5
49B
330
491
100
AcDbEntity
  8
0
 48
3.0
100
AcDbBlockBegin
  2
*D4
 70
     1
 10
0.0
 20
0.0
 30
0.0
  3
*D4
  1

  0
LINE
  5
151C
330
491
100
AcDbEntity
  8
寸法線
  6
Continuous
 62
     0
370
    -2
100
AcDbLine
 10
504.2912029770104
 20
629.6765927262448
 30
0.0
 11
504.2912029770104
 21
784.6765927262449
 31
0.0
  0
LINE
  5
151D
330
491
100
AcDbEntity
  8
寸法線
  6
Continuous
 62
     0
370
    -2
100
AcDbLine
 10
1111.29120297701
 20
629.6765927262449
 30
0.0
 11
1111.29120297701
 21
784.6765927262449
 31
0.0
  0
LINE
  5
151E
330
491
100
AcDbEntity
  8
寸法線
  6
Continuous
 62
     0
370
    -2
100
AcDbLine
 10
519.2912029770105
 20
769.676592726245
 30
0.0
 11
1096.29120297701
 21
769.676592726245
 31
0.0
  0
INSERT
  5
151F
330
491
100
AcDbEntity
  8
寸法線
  6
Continuous
 62
     0
370
    -2
100
AcDbBlockReference
  2
_Open30
 10
504.2912029770104
 20
769.676592726245
 30
0.0
 41
15.0
 42
15.0
 43
15.0
 50
180.0
  0
INSERT
  5
1520
330
491
100
AcDbEntity
  8
寸法線
  6
Continuous
 62
     0
370
    -2
100
AcDbBlockReference
  2
_Open30
 10
1111.29120297701
 20
769.676592726245
 30
0.0
 41
15.0
 42
15.0
 43
15.0
  0
MTEXT
  5
1521
330
491
100
AcDbEntity
  8
寸法線
  6
Continuous
 62
     0
370
     9
100
AcDbMText
 10
807.7912029770104
 20
789.676592726245
 30
0.0
 40
30.0
 41
0.0
 71
     5
 72
     1
  1
607
 73
     1
 44
1.0
1001
ACAD
1000
MTEXTBEGIN
1070
    73
1070
     1
1070
    44
1040
1.0
1070
    74
1070
     0
1000
MTEXTEND
  0
POINT
  5
1522
330
491
100
AcDbEntity
  8
Defpoints
  6
Continuous
 62
     0
100
AcDbPoint
 10
504.2912029770104
 20
609.6765927262448
 30
0.0
  0
POINT
  5
1523
330
491
100
AcDbEntity
  8
Defpoints
  6
Continuous
 62
     0
100
AcDbPoint
 10
1111.29120297701
 20
609.6765927262449
 30
0.0
  0
POINT
  5
1524
330
491
100
AcDbEntity
  8
Defpoints
  6
Continuous
 62
     0
100
AcDbPoint
 10
1111.29120297701
 20
769.676592726245
 30
0.0
  0
ENDBLK
  5
49C
330
491
100
AcDbEntity
  8
0
 48
3.0
100
AcDbBlockEnd
  0
BLOCK
  5
202
330
1F6
100
AcDbEntity
  8
0
 48
3.0
100
AcDbBlockBegin
  2
*D5
 70
     1
 10
0.0
 20
0.0
 30
0.0
  3
*D5
  1

  0
LINE
  5
1511
330
1F6
100
AcDbEntity
  8
寸法線
  6
Continuous
 62
     0
370
    -2
100
AcDbLine
 10
896.0912029770106
 20
629.6765927262448
 30
0.0
 11
896.0912029770106
 21
704.6765927262449
 31
0.0
  0
LINE
  5
1512
330
1F6
100
AcDbEntity
  8
寸法線
  6
Continuous
 62
     0
370
    -2
100
AcDbLine
 10
931.3912029770108
 20
629.6765927262448
 30
0.0
 11
931.3912029770108
 21
704.6765927262449
 31
0.0
  0
LINE
  5
1513
330
1F6
100
AcDbEntity
  8
寸法線
  6
Continuous
 62
     0
370
    -2
100
AcDbLine
 10
881.0912029770106
 20
689.676592726245
 30
0.0
 11
866.0912029770106
 21
689.676592726245
 31
0.0
  0
LINE
  5
1514
330
1F6
100
AcDbEntity
  8
寸法線
  6
Continuous
 62
     0
370
    -2
100
AcDbLine
 10
946.3912029770108
 20
689.676592726245
 30
0.0
 11
1045.401355261275
 21
689.676592726245
 31
0.0
  0
LINE
  5
1515
330
1F6
100
AcDbEntity
  8
寸法線
  6
Continuous
 62
     0
370
    -2
100
AcDbLine
 10
896.0912029770106
 20
689.676592726245
 30
0.0
 11
931.3912029770108
 21
689.676592726245
 31
0.0
  0
INSERT
  5
1516
330
1F6
100
AcDbEntity
  8
寸法線
  6
Continuous
 62
     0
370
    -2
100
AcDbBlockReference
  2
_Open30
 10
896.0912029770106
 20
689.676592726245
 30
0.0
 41
15.0
 42
15.0
 43
15.0
  0
INSERT
  5
1517
330
1F6
100
AcDbEntity
  8
寸法線
  6
Continuous
 62
     0
370
    -2
100
AcDbBlockReference
  2
_Open30
 10
931.3912029770108
 20
689.676592726245
 30
0.0
 41
15.0
 42
15.0
 43
15.0
 50
180.0
  0
MTEXT
  5
1518
330
1F6
100
AcDbEntity
  8
寸法線
  6
Continuous
 62
     0
100
AcDbMText
 10
1003.396279119143
 20
709.6765927262449
 30
0.0
 40
30.0
 41
0.0
 71
     5
 72
     1
  1
35.3
 73
     1
 44
1.0
1001
ACAD
1000
MTEXTBEGIN
1070
    73
1070
     1
1070
    44
1040
1.0
1070
    74
1070
     0
1000
MTEXTEND
  0
POINT
  5
1519
330
1F6
100
AcDbEntity
  8
Defpoints
  6
Continuous
 62
     0
100
AcDbPoint
 10
896.0912029770106
 20
609.6765927262448
 30
0.0
  0
POINT
  5
151A
330
1F6
100
AcDbEntity
  8
Defpoints
  6
Continuous
 62
     0
100
AcDbPoint
 10
931.3912029770108
 20
609.6765927262448
 30
0.0
  0
POINT
  5
151B
330
1F6
100
AcDbEntity
  8
Defpoints
  6
Continuous
 62
     0
100
AcDbPoint
 10
931.3912029770108
 20
689.676592726245
 30
0.0
  0
ENDBLK
  5
203
330
1F6
100
AcDbEntity
  8
0
 48
3.0
100
AcDbBlockEnd
  0
BLOCK
  5
2D9
330
2CF
100
AcDbEntity
  8
0
 48
3.0
100
AcDbBlockBegin
  2
*D6
 70
     1
 10
0.0
 20
0.0
 30
0.0
  3
*D6
  1

  0
LINE
  5
13AE
330
2CF
100
AcDbEntity
  8
寸法線
  6
Continuous
 62
     0
370
    -2
100
AcDbLine
 10
2060.721154534629
 20
1690.628925881693
 30
0.0
 11
2138.221154534629
 21
1690.628925881693
 31
0.0
  0
LINE
  5
13AF
330
2CF
100
AcDbEntity
  8
寸法線
  6
Continuous
 62
     0
370
    -2
100
AcDbLine
 10
2060.72115453463
 20
1120.628921881693
 30
0.0
 11
2138.221154534629
 21
1120.628921881693
 31
0.0
  0
LINE
  5
13B0
330
2CF
100
AcDbEntity
  8
寸法線
  6
Continuous
 62
     0
370
    -2
100
AcDbLine
 10
2123.221154534629
 20
1675.628925881693
 30
0.0
 11
2123.221154534629
 21
1135.628921881693
 31
0.0
  0
INSERT
  5
13B1
330
2CF
100
AcDbEntity
  8
寸法線
  6
Continuous
 62
     0
370
    -2
100
AcDbBlockReference
  2
_Open30
 10
2123.221154534629
 20
1690.628925881693
 30
0.0
 41
15.0
 42
15.0
 43
15.0
 50
90.0
  0
INSERT
  5
13B2
330
2CF
100
AcDbEntity
  8
寸法線
  6
Continuous
 62
     0
370
    -2
100
AcDbBlockReference
  2
_Open30
 10
2123.221154534629
 20
1120.628921881693
 30
0.0
 41
15.0
 42
15.0
 43
15.0
 50
270.0
  0
MTEXT
  5
13B3
330
2CF
100
AcDbEntity
  8
寸法線
  6
Continuous
 62
     0
100
AcDbMText
 10
2103.221154534629
 20
1405.628923881693
 30
0.0
 40
30.0
 41
0.0
 71
     5
 72
     1
  1
570
 11
0.0000000000000001
 21
1.0
 31
0.0
 73
     1
 44
1.0
1001
ACAD
1000
MTEXTBEGIN
1070
    73
1070
     1
1070
    44
1040
1.0
1070
    74
1070
     0
1000
MTEXTEND
  0
POINT
  5
13B4
330
2CF
100
AcDbEntity
  8
Defpoints
  6
Continuous
 62
     0
100
AcDbPoint
 10
2040.721154534629
 20
1690.628925881693
 30
0.0
  0
POINT
  5
13B5
330
2CF
100
AcDbEntity
  8
Defpoints
  6
Continuous
 62
     0
100
AcDbPoint
 10
2040.721154534629
 20
1120.628921881693
 30
0.0
  0
POINT
  5
13B6
330
2CF
100
AcDbEntity
  8
Defpoints
  6
Continuous
 62
     0
100
AcDbPoint
 10
2123.221154534629
 20
1120.628921881693
 30
0.0
  0
ENDBLK
  5
2DA
330
2CF
100
AcDbEntity
  8
0
 48
3.0
100
AcDbBlockEnd
  0
BLOCK
  5
2E6
330
2DC
100
AcDbEntity
  8
0
 48
3.0
100
AcDbBlockBegin
  2
*D7
 70
     1
 10
0.0
 20
0.0
 30
0.0
  3
*D7
  1

  0
LINE
  5
139C
330
2DC
100
AcDbEntity
  8
寸法線
  6
Continuous
 62
     0
370
    -2
100
AcDbLine
 10
1923.221157534629
 20
1700.628923881693
 30
0.0
 11
1768.221157534629
 21
1700.628923881693
 31
0.0
  0
LINE
  5
139D
330
2DC
100
AcDbEntity
  8
寸法線
  6
Continuous
 62
     0
370
    -2
100
AcDbLine
 10
1923.221157534629
 20
1110.628923881693
 30
0.0
 11
1768.221157534629
 21
1110.628923881693
 31
0.0
  0
LINE
  5
139E
330
2DC
100
AcDbEntity
  8
寸法線
  6
Continuous
 62
     0
370
    -2
100
AcDbLine
 10
1783.221157534629
 20
1685.628923881693
 30
0.0
 11
1783.221157534629
 21
1125.628923881693
 31
0.0
  0
INSERT
  5
139F
330
2DC
100
AcDbEntity
  8
寸法線
  6
Continuous
 62
     0
370
    -2
100
AcDbBlockReference
  2
_Open30
 10
1783.221157534629
 20
1700.628923881693
 30
0.0
 41
15.0
 42
15.0
 43
15.0
 50
90.0
  0
INSERT
  5
13A0
330
2DC
100
AcDbEntity
  8
寸法線
  6
Continuous
 62
     0
370
    -2
100
AcDbBlockReference
  2
_Open30
 10
1783.221157534629
 20
1110.628923881693
 30
0.0
 41
15.0
 42
15.0
 43
15.0
 50
270.0
  0
MTEXT
  5
13A1
330
2DC
100
AcDbEntity
  8
寸法線
  6
Continuous
 62
     0
100
AcDbMText
 10
1763.221157534629
 20
1405.628923881693
 30
0.0
 40
30.0
 41
0.0
 71
     5
 72
     1
  1
590
 11
0.0000000000000001
 21
1.0
 31
0.0
 73
     1
 44
1.0
1001
ACAD
1000
MTEXTBEGIN
1070
    73
1070
     1
1070
    44
1040
1.0
1070
    74
1070
     0
1000
MTEXTEND
  0
POINT
  5
13A2
330
2DC
100
AcDbEntity
  8
Defpoints
  6
Continuous
 62
     0
100
AcDbPoint
 10
1943.221157534629
 20
1700.628923881693
 30
0.0
  0
POINT
  5
13A3
330
2DC
100
AcDbEntity
  8
Defpoints
  6
Continuous
 62
     0
100
AcDbPoint
 10
1943.221157534629
 20
1110.628923881693
 30
0.0
  0
POINT
  5
13A4
330
2DC
100
AcDbEntity
  8
Defpoints
  6
Continuous
 62
     0
100
AcDbPoint
 10
1783.221157534629
 20
1110.628923881693
 30
0.0
  0
ENDBLK
  5
2E7
330
2DC
100
AcDbEntity
  8
0
 48
3.0
100
AcDbBlockEnd
  0
BLOCK
  5
91A
330
90E
100
AcDbEntity
  8
0
 48
3.0
100
AcDbBlockBegin
  2
*D8
 70
     1
 10
0.0
 20
0.0
 30
0.0
  3
*D8
  1

  0
LINE
  5
1444
330
90E
100
AcDbEntity
  8
寸法線
 62
     0
 48
3.0
370
    -2
100
AcDbLine
 10
1131.29120297701
 20
534.6765927262449
 30
0.0
 11
1236.291202977011
 21
534.6765927262449
 31
0.0
  0
LINE
  5
1445
330
90E
100
AcDbEntity
  8
寸法線
 62
     0
 48
3.0
370
    -2
100
AcDbLine
 10
1127.79120297701
 20
509.6765927262449
 30
0.0
 11
1236.29120297701
 21
509.6765927262449
 31
0.0
  0
LINE
  5
1446
330
90E
100
AcDbEntity
  8
寸法線
 62
     0
 48
3.0
370
    -2
100
AcDbLine
 10
1221.291202977011
 20
549.6765927262449
 30
0.0
 11
1221.291202977011
 21
564.6765927262449
 31
0.0
  0
LINE
  5
1447
330
90E
100
AcDbEntity
  8
寸法線
 62
     0
 48
3.0
370
    -2
100
AcDbLine
 10
1221.29120297701
 20
494.6765927262449
 30
0.0
 11
1221.29120297701
 21
434.8034962795444
 31
0.0
  0
LINE
  5
1448
330
90E
100
AcDbEntity
  8
寸法線
 62
     0
 48
3.0
370
    -2
100
AcDbLine
 10
1221.291202977011
 20
534.6765927262449
 30
0.0
 11
1221.29120297701
 21
509.6765927262449
 31
0.0
  0
INSERT
  5
1449
330
90E
100
AcDbEntity
  8
寸法線
 62
     0
 48
3.0
370
    -2
100
AcDbBlockReference
  2
_Open30
 10
1221.291202977011
 20
534.6765927262449
 30
0.0
 41
15.0
 42
15.0
 43
15.0
 50
270.0
  0
INSERT
  5
144A
330
90E
100
AcDbEntity
  8
寸法線
 62
     0
 48
3.0
370
    -2
100
AcDbBlockReference
  2
_Open30
 10
1221.29120297701
 20
509.6765927262449
 30
0.0
 41
15.0
 42
15.0
 43
15.0
 50
90.0
  0
MTEXT
  5
144B
330
90E
100
AcDbEntity
  8
寸法線
 62
     0
 48
3.0
100
AcDbMText
 10
1201.29120297701
 20
457.2400445028948
 30
0.0
 40
30.0
 41
0.0
 71
     5
 72
     1
  1
25
 11
0.0000000000000001
 21
1.0
 31
0.0
 73
     1
 44
1.0
1001
ACAD
1000
MTEXTBEGIN
1070
    73
1070
     1
1070
    44
1040
1.0
1070
    74
1070
     0
1000
MTEXTEND
  0
POINT
  5
144C
330
90E
100
AcDbEntity
  8
Defpoints
 62
     0
 48
3.0
100
AcDbPoint
 10
1111.29120297701
 20
534.6765927262449
 30
0.0
  0
POINT
  5
144D
330
90E
100
AcDbEntity
  8
Defpoints
 62
     0
 48
3.0
100
AcDbPoint
 10
1107.79120297701
 20
509.6765927262449
 30
0.0
  0
POINT
  5
144E
330
90E
100
AcDbEntity
  8
Defpoints
 62
     0
 48
3.0
100
AcDbPoint
 10
1221.29120297701
 20
509.6765927262449
 30
0.0
  0
ENDBLK
  5
91B
330
90E
100
AcDbEntity
  8
0
 48
3.0
100
AcDbBlockEnd
  0
BLOCK
  5
927
330
91D
100
AcDbEntity
  8
0
 48
3.0
100
AcDbBlockBegin
  2
*D9
 70
     1
 10
0.0
 20
0.0
 30
0.0
  3
*D9
  1

  0
LINE
  5
144F
330
91D
100
AcDbEntity
  8
寸法線
 62
     0
 48
3.0
370
    -2
100
AcDbLine
 10
1127.79120297701
 20
509.6765927262449
 30
0.0
 11
1316.29120297701
 21
509.6765927262449
 31
0.0
  0
LINE
  5
1450
330
91D
100
AcDbEntity
  8
寸法線
 62
     0
 48
3.0
370
    -2
100
AcDbLine
 10
1131.29120297701
 20
609.6765927262449
 30
0.0
 11
1316.29120297701
 21
609.6765927262448
 31
0.0
  0
LINE
  5
1451
330
91D
100
AcDbEntity
  8
寸法線
 62
     0
 48
3.0
370
    -2
100
AcDbLine
 10
1301.29120297701
 20
524.6765927262448
 30
0.0
 11
1301.29120297701
 21
594.6765927262448
 31
0.0
  0
INSERT
  5
1452
330
91D
100
AcDbEntity
  8
寸法線
 62
     0
 48
3.0
370
    -2
100
AcDbBlockReference
  2
_Open30
 10
1301.29120297701
 20
509.6765927262449
 30
0.0
 41
15.0
 42
15.0
 43
15.0
 50
270.0
  0
INSERT
  5
1453
330
91D
100
AcDbEntity
  8
寸法線
 62
     0
 48
3.0
370
    -2
100
AcDbBlockReference
  2
_Open30
 10
1301.29120297701
 20
609.6765927262448
 30
0.0
 41
15.0
 42
15.0
 43
15.0
 50
90.0
  0
MTEXT
  5
1454
330
91D
100
AcDbEntity
  8
寸法線
 62
     0
 48
3.0
100
AcDbMText
 10
1281.29120297701
 20
559.6765927262451
 30
0.0
 40
30.0
 41
0.0
 71
     5
 72
     1
  1
100
 11
0.0000000000000001
 21
1.0
 31
0.0
 73
     1
 44
1.0
1001
ACAD
1000
MTEXTBEGIN
1070
    73
1070
     1
1070
    44
1040
1.0
1070
    74
1070
     0
1000
MTEXTEND
  0
POINT
  5
1455
330
91D
100
AcDbEntity
  8
Defpoints
 62
     0
 48
3.0
100
AcDbPoint
 10
1107.79120297701
 20
509.6765927262449
 30
0.0
  0
POINT
  5
1456
330
91D
100
AcDbEntity
  8
Defpoints
 62
     0
 48
3.0
100
AcDbPoint
 10
1111.29120297701
 20
609.6765927262449
 30
0.0
  0
POINT
  5
1457
330
91D
100
AcDbEntity
  8
Defpoints
 62
     0
 48
3.0
100
AcDbPoint
 10
1301.29120297701
 20
609.6765927262448
 30
0.0
  0
ENDBLK
  5
928
330
91D
100
AcDbEntity
  8
0
 48
3.0
100
AcDbBlockEnd
  0
BLOCK
  5
934
330
92A
100
AcDbEntity
  8
0
 48
3.0
100
AcDbBlockBegin
  2
*D10
 70
     1
 10
0.0
 20
0.0
 30
0.0
  3
*D10
  1

  0
LINE
  5
1458
330
92A
100
AcDbEntity
  8
寸法線
 62
     0
 48
3.0
370
    -2
100
AcDbLine
 10
1131.29120297701
 20
534.6765927262449
 30
0.0
 11
1236.29120297701
 21
534.6765927262449
 31
0.0
  0
LINE
  5
1459
330
92A
100
AcDbEntity
  8
寸法線
 62
     0
 48
3.0
370
    -2
100
AcDbLine
 10
1131.29120297701
 20
609.6765927262449
 30
0.0
 11
1236.29120297701
 21
609.6765927262449
 31
0.0
  0
LINE
  5
145A
330
92A
100
AcDbEntity
  8
寸法線
 62
     0
 48
3.0
370
    -2
100
AcDbLine
 10
1221.29120297701
 20
549.6765927262449
 30
0.0
 11
1221.29120297701
 21
594.676592726245
 31
0.0
  0
INSERT
  5
145B
330
92A
100
AcDbEntity
  8
寸法線
 62
     0
 48
3.0
370
    -2
100
AcDbBlockReference
  2
_Open30
 10
1221.29120297701
 20
534.6765927262449
 30
0.0
 41
15.0
 42
15.0
 43
15.0
 50
270.0
  0
INSERT
  5
145C
330
92A
100
AcDbEntity
  8
寸法線
 62
     0
 48
3.0
370
    -2
100
AcDbBlockReference
  2
_Open30
 10
1221.29120297701
 20
609.6765927262449
 30
0.0
 41
15.0
 42
15.0
 43
15.0
 50
90.0
  0
MTEXT
  5
145D
330
92A
100
AcDbEntity
  8
寸法線
 62
     0
 48
3.0
100
AcDbMText
 10
1201.29120297701
 20
572.1765927262451
 30
0.0
 40
30.0
 41
0.0
 71
     5
 72
     1
  1
75
 11
0.0000000000000001
 21
1.0
 31
0.0
 73
     1
 44
1.0
1001
ACAD
1000
MTEXTBEGIN
1070
    73
1070
     1
1070
    44
1040
1.0
1070
    74
1070
     0
1000
MTEXTEND
  0
POINT
  5
145E
330
92A
100
AcDbEntity
  8
Defpoints
 62
     0
 48
3.0
100
AcDbPoint
 10
1111.29120297701
 20
534.6765927262449
 30
0.0
  0
POINT
  5
145F
330
92A
100
AcDbEntity
  8
Defpoints
 62
     0
 48
3.0
100
AcDbPoint
 10
1111.29120297701
 20
609.6765927262449
 30
0.0
  0
POINT
  5
1460
330
92A
100
AcDbEntity
  8
Defpoints
 62
     0
 48
3.0
100
AcDbPoint
 10
1221.29120297701
 20
609.6765927262449
 30
0.0
  0
ENDBLK
  5
935
330
92A
100
AcDbEntity
  8
0
 48
3.0
100
AcDbBlockEnd
  0
BLOCK
  5
98D
330
983
100
AcDbEntity
  8
0
 48
3.0
100
AcDbBlockBegin
  2
*D11
 70
     1
 10
0.0
 20
0.0
 30
0.0
  3
*D11
  1

  0
LINE
  5
13A5
330
983
100
AcDbEntity
  8
寸法線
 62
     0
 48
3.0
370
    -2
100
AcDbLine
 10
1921.221157534629
 20
1655.628923881693
 30
0.0
 11
1848.221157534629
 21
1655.628923881693
 31
0.0
  0
LINE
  5
13A6
330
983
100
AcDbEntity
  8
寸法線
 62
     0
 48
3.0
370
    -2
100
AcDbLine
 10
1921.221157534629
 20
1605.628923881693
 30
0.0
 11
1848.221157534629
 21
1605.628923881693
 31
0.0
  0
LINE
  5
13A7
330
983
100
AcDbEntity
  8
寸法線
 62
     0
 48
3.0
370
    -2
100
AcDbLine
 10
1863.221157534629
 20
1640.628923881693
 30
0.0
 11
1863.221157534629
 21
1620.628923881693
 31
0.0
  0
INSERT
  5
13A8
330
983
100
AcDbEntity
  8
寸法線
 62
     0
 48
3.0
370
    -2
100
AcDbBlockReference
  2
_Open30
 10
1863.221157534629
 20
1655.628923881693
 30
0.0
 41
15.0
 42
15.0
 43
15.0
 50
90.0
  0
INSERT
  5
13A9
330
983
100
AcDbEntity
  8
寸法線
 62
     0
 48
3.0
370
    -2
100
AcDbBlockReference
  2
_Open30
 10
1863.221157534629
 20
1605.628923881693
 30
0.0
 41
15.0
 42
15.0
 43
15.0
 50
270.0
  0
MTEXT
  5
13AA
330
983
100
AcDbEntity
  8
寸法線
 62
     0
 48
3.0
100
AcDbMText
 10
1843.221157534628
 20
1630.628923881693
 30
0.0
 40
30.0
 41
0.0
 71
     5
 72
     1
  1
50
 11
0.0000000000000001
 21
1.0
 31
0.0
 73
     1
 44
1.0
1001
ACAD
1000
MTEXTBEGIN
1070
    73
1070
     1
1070
    44
1040
1.0
1070
    74
1070
     0
1000
MTEXTEND
  0
POINT
  5
13AB
330
983
100
AcDbEntity
  8
Defpoints
 62
     0
 48
3.0
100
AcDbPoint
 10
1941.221157534629
 20
1655.628923881693
 30
0.0
  0
POINT
  5
13AC
330
983
100
AcDbEntity
  8
Defpoints
 62
     0
 48
3.0
100
AcDbPoint
 10
1941.221157534629
 20
1605.628923881693
 30
0.0
  0
POINT
  5
13AD
330
983
100
AcDbEntity
  8
Defpoints
 62
     0
 48
3.0
100
AcDbPoint
 10
1863.221157534629
 20
1605.628923881693
 30
0.0
  0
ENDBLK
  5
98E
330
983
100
AcDbEntity
  8
0
 48
3.0
100
AcDbBlockEnd
  0
BLOCK
  5
1252
330
124E
100
AcDbEntity
  8
0
 48
3.0
100
AcDbBlockBegin
  2
清水
 70
     0
 10
0.0
 20
0.0
 30
0.0
  3
清水
  1

  0
ELLIPSE
  5
124F
330
124E
100
AcDbEntity
  8
外枠
  6
Continuous
100
AcDbEllipse
 10
61.95950207238002
 20
-84.98104152054944
 30
0.0
 11
0.0
 21
-48.07578326062735
 31
0.0
210
0.0
220
0.0
230
1.0
 40
0.7999999999999857
 41
0.0
 42
6.283185307179586
  0
MTEXT
  5
1250
330
124E
100
AcDbEntity
  8
外枠
  6
Continuous
100
AcDbMText
 10
43.62136371980841
 20
-91.25020745848743
 30
0.0
 40
25.0
 41
38.0342
 71
     1
 72
     5
  1
{\fHG正楷書体-PRO|b0|i0|c128|p65;水}
 73
     1
 44
1.0
1001
ACAD
1000
MTEXTBEGIN
1070
    73
1070
     1
1070
    44
1040
1.0
1070
    74
1070
     0
1000
MTEXTEND
  0
MTEXT
  5
1251
330
124E
100
AcDbEntity
  8
外枠
  6
Continuous
100
AcDbMText
 10
44.0164673811646
 20
-47.73028505679667
 30
0.0
 40
25.0
 41
37.8613
 71
     1
 72
     5
  1
{\fHG正楷書体-PRO|b0|i0|c128|p65;清}
 73
     1
 44
1.0
1001
ACAD
1000
MTEXTBEGIN
1070
    73
1070
     1
1070
    44
1040
1.0
1070
    74
1070
     0
1000
MTEXTEND
  0
ENDBLK
  5
1253
330
124E
100
AcDbEntity
  8
0
 48
3.0
100
AcDbBlockEnd
  0
BLOCK
  5
131B
330
1319
100
AcDbEntity
  8
0
 48
3.0
100
AcDbBlockBegin
  2
鎌下
 70
     0
 10
0.0
 20
0.0
 30
0.0
  3
鎌下
  1

  0
MTEXT
  5
131C
330
1319
100
AcDbEntity
  8
外枠
  6
Continuous
100
AcDbMText
 10
40.55333581259037
 20
-88.14888116777728
 30
0.0
 40
28.17460800000001
 41
43.8527
 71
     1
 72
     5
  1
{\fHGSeikaishotaiPRO|b0|i0|c128|p65;下}
 73
     1
 44
1.0
1001
ACAD
1000
MTEXTBEGIN
1070
    73
1070
     1
1070
    44
1040
1.0
1070
    74
1070
     0
1000
MTEXTEND
  0
MTEXT
  5
131D
330
1319
100
AcDbEntity
  8
外枠
  6
Continuous
100
AcDbMText
 10
40.55333581259037
 20
-45.61885629864991
 30
0.0
 40
28.17460800000001
 41
43.8527
 71
     1
 72
     5
  1
{\fHGSeikaishotaiPRO|b0|i0|c128|p65;鎌}
 73
     1
 44
1.0
1001
ACAD
1000
MTEXTBEGIN
1070
    73
1070
     1
1070
    44
1040
1.0
1070
    74
1070
     0
1000
MTEXTEND
  0
ELLIPSE
  5
131E
330
1319
100
AcDbEntity
  8
外枠
  6
Continuous
100
AcDbEllipse
 10
61.68068686355036
 20
-84.59863033186412
 30
0.0
 11
0.0
 21
-47.8594442149426
 31
0.0
210
0.0
220
0.0
230
1.0
 40
0.7999999999999857
 41
0.0
 42
6.283185307179586
  0
ENDBLK
  5
131F
330
1319
100
AcDbEntity
  8
0
 48
3.0
100
AcDbBlockEnd
  0
BLOCK
  5
138A
330
1380
100
AcDbEntity
  8
0
 48
3.0
100
AcDbBlockBegin
  2
P-H25
 70
     0
 10
0.0
 20
0.0
 30
0.0
  3
P-H25
  1

  0
LINE
  5
1381
330
1380
100
AcDbEntity
  8
嵩上断面
100
AcDbLine
 10
2.999997
 20
0.000001
 30
0.0
 11
21.999997
 21
0.000001
 31
0.0
  0
LINE
  5
1382
330
1380
100
AcDbEntity
  8
嵩上断面
100
AcDbLine
 10
-0.000003
 20
-2.999999
 30
0.0
 11
-0.000003
 21
-36.999999
 31
0.0
  0
LINE
  5
1383
330
1380
100
AcDbEntity
  8
嵩上断面
100
AcDbLine
 10
2.999997
 20
-39.999999
 30
0.0
 11
21.999997
 21
-39.999999
 31
0.0
  0
ARC
  5
1384
330
1380
100
AcDbEntity
  8
嵩上断面
100
AcDbCircle
 10
2.999997
 20
-36.999999
 30
0.0
 40
3.0
100
AcDbArc
 50
180.0
 51
270.0
  0
ARC
  5
1385
330
1380
100
AcDbEntity
  8
嵩上断面
100
AcDbCircle
 10
2.999997
 20
-2.999999
 30
0.0
 40
3.0
100
AcDbArc
 50
90.0
 51
180.0
  0
LINE
  5
1386
330
1380
100
AcDbEntity
  8
嵩上断面
100
AcDbLine
 10
24.999997
 20
-36.999999
 30
0.0
 11
24.999997
 21
-2.999999
 31
0.0
  0
ARC
  5
1387
330
1380
100
AcDbEntity
  8
嵩上断面
100
AcDbCircle
 10
21.999997
 20
-2.999999
 30
0.0
 40
3.0
100
AcDbArc
 50
0.0
 51
90.0
  0
ARC
  5
1388
330
1380
100
AcDbEntity
  8
嵩上断面
100
AcDbCircle
 10
21.999997
 20
-36.999999
 30
0.0
 40
3.0
100
AcDbArc
 50
270.0
 51
0.0
  0
LWPOLYLINE
  5
1389
330
1380
100
AcDbEntity
  8
嵩上断面
  6
Continuous
100
AcDbPolyline
 90
        4
 70
     1
 43
0.0
 10
2.299996999999999
 20
-37.69999900000001
 10
22.699997
 20
-37.69999900000001
 10
22.699997
 20
-2.299998999999999
 10
2.299996999999999
 20
-2.299998999999999
  0
ENDBLK
  5
138B
330
1380
100
AcDbEntity
  8
0
 48
3.0
100
AcDbBlockEnd
  0
BLOCK
  5
13EA
330
13E9
100
AcDbEntity
  8
0
 48
3.0
100
AcDbBlockBegin
  2
*D24
 70
     1
 10
0.0
 20
0.0
 30
0.0
  3
*D24
  1

  0
LINE
  5
1461
330
13E9
100
AcDbEntity
  8
寸法線
 62
     0
 48
3.0
370
    -2
100
AcDbLine
 10
507.7912029770105
 20
489.6765927262449
 30
0.0
 11
507.7912029770105
 21
416.9765927262452
 31
0.0
  0
LINE
  5
1462
330
13E9
100
AcDbEntity
  8
寸法線
 62
     0
 48
3.0
370
    -2
100
AcDbLine
 10
1107.79120297701
 20
489.6765927262449
 30
0.0
 11
1107.79120297701
 21
416.9765927262452
 31
0.0
  0
LINE
  5
1463
330
13E9
100
AcDbEntity
  8
寸法線
 62
     0
 48
3.0
370
    -2
100
AcDbLine
 10
522.7912029770104
 20
431.9765927262452
 30
0.0
 11
1092.79120297701
 21
431.9765927262452
 31
0.0
  0
INSERT
  5
1464
330
13E9
100
AcDbEntity
  8
寸法線
 62
     0
 48
3.0
370
    -2
100
AcDbBlockReference
  2
_Open30
 10
507.7912029770105
 20
431.9765927262452
 30
0.0
 41
15.0
 42
15.0
 43
15.0
 50
180.0
  0
INSERT
  5
1465
330
13E9
100
AcDbEntity
  8
寸法線
 62
     0
 48
3.0
370
    -2
100
AcDbBlockReference
  2
_Open30
 10
1107.79120297701
 20
431.9765927262452
 30
0.0
 41
15.0
 42
15.0
 43
15.0
  0
MTEXT
  5
1466
330
13E9
100
AcDbEntity
  8
寸法線
 62
     0
 48
3.0
100
AcDbMText
 10
807.7912029770104
 20
451.9765927262453
 30
0.0
 40
30.0
 41
0.0
 71
     5
 72
     1
  1
600
 73
     1
 44
1.0
1001
ACAD
1000
MTEXTBEGIN
1070
    73
1070
     1
1070
    44
1040
1.0
1070
    74
1070
     0
1000
MTEXTEND
  0
POINT
  5
1467
330
13E9
100
AcDbEntity
  8
Defpoints
 62
     0
 48
3.0
100
AcDbPoint
 10
507.7912029770105
 20
509.6765927262449
 30
0.0
  0
POINT
  5
1468
330
13E9
100
AcDbEntity
  8
Defpoints
 62
     0
 48
3.0
100
AcDbPoint
 10
1107.79120297701
 20
509.6765927262449
 30
0.0
  0
POINT
  5
1469
330
13E9
100
AcDbEntity
  8
Defpoints
 62
     0
 48
3.0
100
AcDbPoint
 10
1107.79120297701
 20
431.9765927262452
 30
0.0
  0
ENDBLK
  5
13EB
330
13E9
100
AcDbEntity
  8
0
 48
3.0
100
AcDbBlockEnd
  0
BLOCK
  5
153E
330
153D
100
AcDbEntity
  8
0
 48
3.0
100
AcDbBlockBegin
  2
*U26
 70
     1
 10
0.0
 20
0.0
 30
0.0
  3
*U26
  1

  0
LINE
  5
1544
330
153D
100
AcDbEntity
  8
本体
  6
Continuous
100
AcDbLine
 10
14.15000000000009
 20
290.5
 30
0.0
 11
14.15000000000009
 21
253.0
 31
0.0
  0
LINE
  5
1545
330
153D
100
AcDbEntity
  8
本体
  6
Continuous
100
AcDbLine
 10
21.15000000000009
 20
247.0
 30
0.0
 11
21.15000000000009
 21
203.0
 31
0.0
  0
LINE
  5
1546
330
153D
100
AcDbEntity
  8
本体
  6
Continuous
100
AcDbLine
 10
14.15000000000009
 20
247.0
 30
0.0
 11
14.15000000000009
 21
203.0
 31
0.0
  0
LINE
  5
1547
330
153D
100
AcDbEntity
  8
本体
  6
Continuous
100
AcDbLine
 10
14.15000000000009
 20
-290.5
 30
0.0
 11
14.15000000000009
 21
-253.0
 31
0.0
  0
LINE
  5
1548
330
153D
100
AcDbEntity
  8
本体
  6
Continuous
100
AcDbLine
 10
21.15000000000009
 20
-290.5
 30
0.0
 11
21.15000000000009
 21
-253.0
 31
0.0
  0
LINE
  5
1549
330
153D
100
AcDbEntity
  8
本体
  6
Continuous
100
AcDbLine
 10
21.15000000000009
 20
290.5
 30
0.0
 11
21.15000000000009
 21
253.0
 31
0.0
  0
LINE
  5
154A
330
153D
100
AcDbEntity
  8
本体
  6
Continuous
100
AcDbLine
 10
-21.15000000000009
 20
247.0
 30
0.0
 11
14.15000000000009
 21
253.0
 31
0.0
  0
LINE
  5
154B
330
153D
100
AcDbEntity
  8
エンボス
  6
Continuous
100
AcDbLine
 10
21.15000000000009
 20
-259.864094
 30
0.0
 11
14.15000000000009
 21
-257.864094
 31
0.0
  0
LINE
  5
154C
330
153D
100
AcDbEntity
  8
エンボス
  6
Continuous
100
AcDbLine
 10
21.15000000000009
 20
-287.864094
 30
0.0
 11
14.15000000000009
 21
-285.864094
 31
0.0
  0
LINE
  5
154D
330
153D
100
AcDbEntity
  8
エンボス
  6
Continuous
100
AcDbLine
 10
14.15000000000009
 20
-276.864094
 30
0.0
 11
21.15000000000009
 21
-278.864094
 31
0.0
  0
LINE
  5
154E
330
153D
100
AcDbEntity
  8
エンボス
  6
Continuous
100
AcDbLine
 10
21.15000000000009
 20
-271.864094
 30
0.0
 11
14.15000000000009
 21
-273.864094
 31
0.0
  0
LINE
  5
154F
330
153D
100
AcDbEntity
  8
エンボス
  6
Continuous
100
AcDbLine
 10
14.15000000000009
 20
-264.864094
 30
0.0
 11
21.15000000000009
 21
-262.864094
 31
0.0
  0
LINE
  5
1550
330
153D
100
AcDbEntity
  8
エンボス
  6
Continuous
100
AcDbLine
 10
14.15000000000009
 20
225.5
 30
0.0
 11
21.15000000000009
 21
223.5
 31
0.0
  0
LINE
  5
1551
330
153D
100
AcDbEntity
  8
エンボス
  6
Continuous
100
AcDbLine
 10
14.15000000000009
 20
206.5
 30
0.0
 11
21.15000000000009
 21
204.5
 31
0.0
  0
LINE
  5
1552
330
153D
100
AcDbEntity
  8
エンボス
  6
Continuous
100
AcDbLine
 10
21.15000000000009
 20
211.5
 30
0.0
 11
14.15000000000009
 21
209.5
 31
0.0
  0
LINE
  5
1553
330
153D
100
AcDbEntity
  8
エンボス
  6
Continuous
100
AcDbLine
 10
21.15000000000009
 20
220.5
 30
0.0
 11
14.15000000000009
 21
218.5
 31
0.0
  0
LINE
  5
1554
330
153D
100
AcDbEntity
  8
エンボス
  6
Continuous
100
AcDbLine
 10
14.15000000000009
 20
234.5
 30
0.0
 11
21.15000000000009
 21
232.5
 31
0.0
  0
LINE
  5
1555
330
153D
100
AcDbEntity
  8
エンボス
  6
Continuous
100
AcDbLine
 10
21.15000000000009
 20
239.5
 30
0.0
 11
14.15000000000009
 21
237.5
 31
0.0
  0
LINE
  5
1556
330
153D
100
AcDbEntity
  8
エンボス
  6
Continuous
100
AcDbLine
 10
21.15000000000009
 20
259.864094
 30
0.0
 11
14.15000000000009
 21
257.864094
 31
0.0
  0
LINE
  5
1557
330
153D
100
AcDbEntity
  8
エンボス
  6
Continuous
100
AcDbLine
 10
14.15000000000009
 20
264.864094
 30
0.0
 11
21.15000000000009
 21
262.864094
 31
0.0
  0
LINE
  5
1558
330
153D
100
AcDbEntity
  8
エンボス
  6
Continuous
100
AcDbLine
 10
21.15000000000009
 20
271.864094
 30
0.0
 11
14.15000000000009
 21
273.864094
 31
0.0
  0
LINE
  5
1559
330
153D
100
AcDbEntity
  8
エンボス
  6
Continuous
100
AcDbLine
 10
14.15000000000009
 20
276.864094
 30
0.0
 11
21.15000000000009
 21
278.864094
 31
0.0
  0
LINE
  5
155A
330
153D
100
AcDbEntity
  8
エンボス
  6
Continuous
100
AcDbLine
 10
21.15000000000009
 20
287.864094
 30
0.0
 11
14.15000000000009
 21
285.864094
 31
0.0
  0
LINE
  5
155B
330
153D
100
AcDbEntity
  8
本体
  6
Continuous
100
AcDbLine
 10
-21.15000000000009
 20
197.0
 30
0.0
 11
14.15000000000009
 21
203.0
 31
0.0
  0
LINE
  5
155C
330
153D
100
AcDbEntity
  8
本体
  6
Continuous
100
AcDbLine
 10
21.15000000000009
 20
197.0
 30
0.0
 11
21.15000000000009
 21
153.0
 31
0.0
  0
LINE
  5
155D
330
153D
100
AcDbEntity
  8
本体
  6
Continuous
100
AcDbLine
 10
14.15000000000009
 20
197.0
 30
0.0
 11
14.15000000000009
 21
153.0
 31
0.0
  0
LINE
  5
155E
330
153D
100
AcDbEntity
  8
エンボス
  6
Continuous
100
AcDbLine
 10
14.15000000000009
 20
184.5
 30
0.0
 11
21.15000000000009
 21
182.5
 31
0.0
  0
LINE
  5
155F
330
153D
100
AcDbEntity
  8
エンボス
  6
Continuous
100
AcDbLine
 10
21.15000000000009
 20
170.5
 30
0.0
 11
14.15000000000009
 21
168.5
 31
0.0
  0
LINE
  5
1560
330
153D
100
AcDbEntity
  8
エンボス
  6
Continuous
100
AcDbLine
 10
21.15000000000009
 20
161.5
 30
0.0
 11
14.15000000000009
 21
159.5
 31
0.0
  0
LINE
  5
1561
330
153D
100
AcDbEntity
  8
エンボス
  6
Continuous
100
AcDbLine
 10
14.15000000000009
 20
156.5
 30
0.0
 11
21.15000000000009
 21
154.5
 31
0.0
  0
LINE
  5
1562
330
153D
100
AcDbEntity
  8
エンボス
  6
Continuous
100
AcDbLine
 10
14.15000000000009
 20
175.5
 30
0.0
 11
21.15000000000009
 21
173.5
 31
0.0
  0
LINE
  5
1563
330
153D
100
AcDbEntity
  8
エンボス
  6
Continuous
100
AcDbLine
 10
21.15000000000009
 20
189.5
 30
0.0
 11
14.15000000000009
 21
187.5
 31
0.0
  0
LINE
  5
1564
330
153D
100
AcDbEntity
  8
本体
  6
Continuous
100
AcDbLine
 10
-21.15000000000009
 20
147.0
 30
0.0
 11
14.15000000000009
 21
153.0
 31
0.0
  0
LINE
  5
1565
330
153D
100
AcDbEntity
  8
本体
  6
Continuous
100
AcDbLine
 10
21.15000000000009
 20
147.0
 30
0.0
 11
21.15000000000009
 21
103.0
 31
0.0
  0
LINE
  5
1566
330
153D
100
AcDbEntity
  8
本体
  6
Continuous
100
AcDbLine
 10
14.15000000000009
 20
147.0
 30
0.0
 11
14.15000000000009
 21
103.0
 31
0.0
  0
LINE
  5
1567
330
153D
100
AcDbEntity
  8
エンボス
  6
Continuous
100
AcDbLine
 10
14.15000000000009
 20
134.5
 30
0.0
 11
21.15000000000009
 21
132.5
 31
0.0
  0
LINE
  5
1568
330
153D
100
AcDbEntity
  8
エンボス
  6
Continuous
100
AcDbLine
 10
21.15000000000009
 20
120.5
 30
0.0
 11
14.15000000000009
 21
118.5
 31
0.0
  0
LINE
  5
1569
330
153D
100
AcDbEntity
  8
エンボス
  6
Continuous
100
AcDbLine
 10
21.15000000000009
 20
111.5
 30
0.0
 11
14.15000000000009
 21
109.5
 31
0.0
  0
LINE
  5
156A
330
153D
100
AcDbEntity
  8
エンボス
  6
Continuous
100
AcDbLine
 10
14.15000000000009
 20
106.5
 30
0.0
 11
21.15000000000009
 21
104.5
 31
0.0
  0
LINE
  5
156B
330
153D
100
AcDbEntity
  8
エンボス
  6
Continuous
100
AcDbLine
 10
14.15000000000009
 20
125.5
 30
0.0
 11
21.15000000000009
 21
123.5
 31
0.0
  0
LINE
  5
156C
330
153D
100
AcDbEntity
  8
エンボス
  6
Continuous
100
AcDbLine
 10
21.15000000000009
 20
139.5
 30
0.0
 11
14.15000000000009
 21
137.5
 31
0.0
  0
LINE
  5
156D
330
153D
100
AcDbEntity
  8
本体
  6
Continuous
100
AcDbLine
 10
-21.15000000000009
 20
97.0
 30
0.0
 11
14.15000000000009
 21
103.0
 31
0.0
  0
LINE
  5
156E
330
153D
100
AcDbEntity
  8
本体
  6
Continuous
100
AcDbLine
 10
21.15000000000009
 20
97.0
 30
0.0
 11
21.15000000000009
 21
53.0
 31
0.0
  0
LINE
  5
156F
330
153D
100
AcDbEntity
  8
本体
  6
Continuous
100
AcDbLine
 10
14.15000000000009
 20
97.0
 30
0.0
 11
14.15000000000009
 21
53.0
 31
0.0
  0
LINE
  5
1570
330
153D
100
AcDbEntity
  8
エンボス
  6
Continuous
100
AcDbLine
 10
14.15000000000009
 20
84.50000000000001
 30
0.0
 11
21.15000000000009
 21
82.5
 31
0.0
  0
LINE
  5
1571
330
153D
100
AcDbEntity
  8
エンボス
  6
Continuous
100
AcDbLine
 10
21.15000000000009
 20
70.5
 30
0.0
 11
14.15000000000009
 21
68.5
 31
0.0
  0
LINE
  5
1572
330
153D
100
AcDbEntity
  8
エンボス
  6
Continuous
100
AcDbLine
 10
21.15000000000009
 20
61.5
 30
0.0
 11
14.15000000000009
 21
59.5
 31
0.0
  0
LINE
  5
1573
330
153D
100
AcDbEntity
  8
エンボス
  6
Continuous
100
AcDbLine
 10
14.15000000000009
 20
56.5
 30
0.0
 11
21.15000000000009
 21
54.5
 31
0.0
  0
LINE
  5
1574
330
153D
100
AcDbEntity
  8
エンボス
  6
Continuous
100
AcDbLine
 10
14.15000000000009
 20
75.5
 30
0.0
 11
21.15000000000009
 21
73.5
 31
0.0
  0
LINE
  5
1575
330
153D
100
AcDbEntity
  8
エンボス
  6
Continuous
100
AcDbLine
 10
21.15000000000009
 20
89.50000000000001
 30
0.0
 11
14.15000000000009
 21
87.5
 31
0.0
  0
LINE
  5
1576
330
153D
100
AcDbEntity
  8
本体
  6
Continuous
100
AcDbLine
 10
-21.15000000000009
 20
47.0
 30
0.0
 11
14.15000000000009
 21
53.0
 31
0.0
  0
LINE
  5
1577
330
153D
100
AcDbEntity
  8
本体
  6
Continuous
100
AcDbLine
 10
21.15000000000009
 20
47.0
 30
0.0
 11
21.15000000000009
 21
3.0
 31
0.0
  0
LINE
  5
1578
330
153D
100
AcDbEntity
  8
本体
  6
Continuous
100
AcDbLine
 10
14.15000000000009
 20
47.0
 30
0.0
 11
14.15000000000009
 21
3.0
 31
0.0
  0
LINE
  5
1579
330
153D
100
AcDbEntity
  8
エンボス
  6
Continuous
100
AcDbLine
 10
14.15000000000009
 20
34.5
 30
0.0
 11
21.15000000000009
 21
32.5
 31
0.0
  0
LINE
  5
157A
330
153D
100
AcDbEntity
  8
エンボス
  6
Continuous
100
AcDbLine
 10
21.15000000000009
 20
20.5
 30
0.0
 11
14.15000000000009
 21
18.5
 31
0.0
  0
LINE
  5
157B
330
153D
100
AcDbEntity
  8
エンボス
  6
Continuous
100
AcDbLine
 10
21.15000000000009
 20
11.5
 30
0.0
 11
14.15000000000009
 21
9.5
 31
0.0
  0
LINE
  5
157C
330
153D
100
AcDbEntity
  8
エンボス
  6
Continuous
100
AcDbLine
 10
14.15000000000009
 20
6.5
 30
0.0
 11
21.15000000000009
 21
4.5
 31
0.0
  0
LINE
  5
157D
330
153D
100
AcDbEntity
  8
エンボス
  6
Continuous
100
AcDbLine
 10
14.15000000000009
 20
25.5
 30
0.0
 11
21.15000000000009
 21
23.5
 31
0.0
  0
LINE
  5
157E
330
153D
100
AcDbEntity
  8
エンボス
  6
Continuous
100
AcDbLine
 10
21.15000000000009
 20
39.5
 30
0.0
 11
14.15000000000009
 21
37.5
 31
0.0
  0
LINE
  5
157F
330
153D
100
AcDbEntity
  8
本体
  6
Continuous
100
AcDbLine
 10
-21.15000000000009
 20
-3.0
 30
0.0
 11
14.15000000000009
 21
3.0
 31
0.0
  0
LINE
  5
1580
330
153D
100
AcDbEntity
  8
本体
  6
Continuous
100
AcDbLine
 10
21.15000000000009
 20
-3.0
 30
0.0
 11
21.15000000000009
 21
-47.0
 31
0.0
  0
LINE
  5
1581
330
153D
100
AcDbEntity
  8
本体
  6
Continuous
100
AcDbLine
 10
14.15000000000009
 20
-3.0
 30
0.0
 11
14.15000000000009
 21
-47.0
 31
0.0
  0
LINE
  5
1582
330
153D
100
AcDbEntity
  8
エンボス
  6
Continuous
100
AcDbLine
 10
14.15000000000009
 20
-15.5
 30
0.0
 11
21.15000000000009
 21
-17.5
 31
0.0
  0
LINE
  5
1583
330
153D
100
AcDbEntity
  8
エンボス
  6
Continuous
100
AcDbLine
 10
21.15000000000009
 20
-29.5
 30
0.0
 11
14.15000000000009
 21
-31.5
 31
0.0
  0
LINE
  5
1584
330
153D
100
AcDbEntity
  8
エンボス
  6
Continuous
100
AcDbLine
 10
21.15000000000009
 20
-38.5
 30
0.0
 11
14.15000000000009
 21
-40.49999999999999
 31
0.0
  0
LINE
  5
1585
330
153D
100
AcDbEntity
  8
エンボス
  6
Continuous
100
AcDbLine
 10
14.15000000000009
 20
-43.5
 30
0.0
 11
21.15000000000009
 21
-45.49999999999999
 31
0.0
  0
LINE
  5
1586
330
153D
100
AcDbEntity
  8
エンボス
  6
Continuous
100
AcDbLine
 10
14.15000000000009
 20
-24.5
 30
0.0
 11
21.15000000000009
 21
-26.5
 31
0.0
  0
LINE
  5
1587
330
153D
100
AcDbEntity
  8
エンボス
  6
Continuous
100
AcDbLine
 10
21.15000000000009
 20
-10.5
 30
0.0
 11
14.15000000000009
 21
-12.5
 31
0.0
  0
LINE
  5
1588
330
153D
100
AcDbEntity
  8
本体
  6
Continuous
100
AcDbLine
 10
-21.15000000000009
 20
-53.0
 30
0.0
 11
14.15000000000009
 21
-47.0
 31
0.0
  0
LINE
  5
1589
330
153D
100
AcDbEntity
  8
本体
  6
Continuous
100
AcDbLine
 10
21.15000000000009
 20
-53.0
 30
0.0
 11
21.15000000000009
 21
-97.0
 31
0.0
  0
LINE
  5
158A
330
153D
100
AcDbEntity
  8
本体
  6
Continuous
100
AcDbLine
 10
14.15000000000009
 20
-53.0
 30
0.0
 11
14.15000000000009
 21
-97.0
 31
0.0
  0
LINE
  5
158B
330
153D
100
AcDbEntity
  8
エンボス
  6
Continuous
100
AcDbLine
 10
14.15000000000009
 20
-65.5
 30
0.0
 11
21.15000000000009
 21
-67.5
 31
0.0
  0
LINE
  5
158C
330
153D
100
AcDbEntity
  8
エンボス
  6
Continuous
100
AcDbLine
 10
21.15000000000009
 20
-79.5
 30
0.0
 11
14.15000000000009
 21
-81.5
 31
0.0
  0
LINE
  5
158D
330
153D
100
AcDbEntity
  8
エンボス
  6
Continuous
100
AcDbLine
 10
21.15000000000009
 20
-88.49999999999999
 30
0.0
 11
14.15000000000009
 21
-90.5
 31
0.0
  0
LINE
  5
158E
330
153D
100
AcDbEntity
  8
エンボス
  6
Continuous
100
AcDbLine
 10
14.15000000000009
 20
-93.49999999999999
 30
0.0
 11
21.15000000000009
 21
-95.5
 31
0.0
  0
LINE
  5
158F
330
153D
100
AcDbEntity
  8
エンボス
  6
Continuous
100
AcDbLine
 10
14.15000000000009
 20
-74.5
 30
0.0
 11
21.15000000000009
 21
-76.5
 31
0.0
  0
LINE
  5
1590
330
153D
100
AcDbEntity
  8
エンボス
  6
Continuous
100
AcDbLine
 10
21.15000000000009
 20
-60.5
 30
0.0
 11
14.15000000000009
 21
-62.5
 31
0.0
  0
LINE
  5
1591
330
153D
100
AcDbEntity
  8
本体
  6
Continuous
100
AcDbLine
 10
-21.15000000000009
 20
-103.0
 30
0.0
 11
14.15000000000009
 21
-97.0
 31
0.0
  0
LINE
  5
1592
330
153D
100
AcDbEntity
  8
本体
  6
Continuous
100
AcDbLine
 10
21.15000000000009
 20
-103.0
 30
0.0
 11
21.15000000000009
 21
-147.0
 31
0.0
  0
LINE
  5
1593
330
153D
100
AcDbEntity
  8
本体
  6
Continuous
100
AcDbLine
 10
14.15000000000009
 20
-103.0
 30
0.0
 11
14.15000000000009
 21
-147.0
 31
0.0
  0
LINE
  5
1594
330
153D
100
AcDbEntity
  8
エンボス
  6
Continuous
100
AcDbLine
 10
14.15000000000009
 20
-115.5
 30
0.0
 11
21.15000000000009
 21
-117.5
 31
0.0
  0
LINE
  5
1595
330
153D
100
AcDbEntity
  8
エンボス
  6
Continuous
100
AcDbLine
 10
21.15000000000009
 20
-129.5
 30
0.0
 11
14.15000000000009
 21
-131.5
 31
0.0
  0
LINE
  5
1596
330
153D
100
AcDbEntity
  8
エンボス
  6
Continuous
100
AcDbLine
 10
21.15000000000009
 20
-138.5
 30
0.0
 11
14.15000000000009
 21
-140.5
 31
0.0
  0
LINE
  5
1597
330
153D
100
AcDbEntity
  8
エンボス
  6
Continuous
100
AcDbLine
 10
14.15000000000009
 20
-143.5
 30
0.0
 11
21.15000000000009
 21
-145.5
 31
0.0
  0
LINE
  5
1598
330
153D
100
AcDbEntity
  8
エンボス
  6
Continuous
100
AcDbLine
 10
14.15000000000009
 20
-124.5
 30
0.0
 11
21.15000000000009
 21
-126.5
 31
0.0
  0
LINE
  5
1599
330
153D
100
AcDbEntity
  8
エンボス
  6
Continuous
100
AcDbLine
 10
21.15000000000009
 20
-110.5
 30
0.0
 11
14.15000000000009
 21
-112.5
 31
0.0
  0
LINE
  5
159A
330
153D
100
AcDbEntity
  8
本体
  6
Continuous
100
AcDbLine
 10
-21.15000000000009
 20
-153.0
 30
0.0
 11
14.15000000000009
 21
-147.0
 31
0.0
  0
LINE
  5
159B
330
153D
100
AcDbEntity
  8
本体
  6
Continuous
100
AcDbLine
 10
21.15000000000009
 20
-153.0
 30
0.0
 11
21.15000000000009
 21
-197.0
 31
0.0
  0
LINE
  5
159C
330
153D
100
AcDbEntity
  8
本体
  6
Continuous
100
AcDbLine
 10
14.15000000000009
 20
-153.0
 30
0.0
 11
14.15000000000009
 21
-197.0
 31
0.0
  0
LINE
  5
159D
330
153D
100
AcDbEntity
  8
エンボス
  6
Continuous
100
AcDbLine
 10
14.15000000000009
 20
-165.5
 30
0.0
 11
21.15000000000009
 21
-167.5
 31
0.0
  0
LINE
  5
159E
330
153D
100
AcDbEntity
  8
エンボス
  6
Continuous
100
AcDbLine
 10
21.15000000000009
 20
-179.5
 30
0.0
 11
14.15000000000009
 21
-181.5
 31
0.0
  0
LINE
  5
159F
330
153D
100
AcDbEntity
  8
エンボス
  6
Continuous
100
AcDbLine
 10
21.15000000000009
 20
-188.5
 30
0.0
 11
14.15000000000009
 21
-190.5
 31
0.0
  0
LINE
  5
15A0
330
153D
100
AcDbEntity
  8
エンボス
  6
Continuous
100
AcDbLine
 10
14.15000000000009
 20
-193.5
 30
0.0
 11
21.15000000000009
 21
-195.5
 31
0.0
  0
LINE
  5
15A1
330
153D
100
AcDbEntity
  8
エンボス
  6
Continuous
100
AcDbLine
 10
14.15000000000009
 20
-174.5
 30
0.0
 11
21.15000000000009
 21
-176.5
 31
0.0
  0
LINE
  5
15A2
330
153D
100
AcDbEntity
  8
エンボス
  6
Continuous
100
AcDbLine
 10
21.15000000000009
 20
-160.5
 30
0.0
 11
14.15000000000009
 21
-162.5
 31
0.0
  0
LINE
  5
15A3
330
153D
100
AcDbEntity
  8
本体
  6
Continuous
100
AcDbLine
 10
-21.15000000000009
 20
-203.0
 30
0.0
 11
14.15000000000009
 21
-197.0
 31
0.0
  0
LINE
  5
15A4
330
153D
100
AcDbEntity
  8
本体
  6
Continuous
100
AcDbLine
 10
21.15000000000009
 20
-203.0
 30
0.0
 11
21.15000000000009
 21
-247.0
 31
0.0
  0
LINE
  5
15A5
330
153D
100
AcDbEntity
  8
本体
  6
Continuous
100
AcDbLine
 10
14.15000000000009
 20
-203.0
 30
0.0
 11
14.15000000000009
 21
-247.0
 31
0.0
  0
LINE
  5
15A6
330
153D
100
AcDbEntity
  8
エンボス
  6
Continuous
100
AcDbLine
 10
14.15000000000009
 20
-215.5
 30
0.0
 11
21.15000000000009
 21
-217.5
 31
0.0
  0
LINE
  5
15A7
330
153D
100
AcDbEntity
  8
エンボス
  6
Continuous
100
AcDbLine
 10
21.15000000000009
 20
-229.5
 30
0.0
 11
14.15000000000009
 21
-231.5
 31
0.0
  0
LINE
  5
15A8
330
153D
100
AcDbEntity
  8
エンボス
  6
Continuous
100
AcDbLine
 10
21.15000000000009
 20
-238.5
 30
0.0
 11
14.15000000000009
 21
-240.5
 31
0.0
  0
LINE
  5
15A9
330
153D
100
AcDbEntity
  8
エンボス
  6
Continuous
100
AcDbLine
 10
14.15000000000009
 20
-243.5
 30
0.0
 11
21.15000000000009
 21
-245.5
 31
0.0
  0
LINE
  5
15AA
330
153D
100
AcDbEntity
  8
エンボス
  6
Continuous
100
AcDbLine
 10
14.15000000000009
 20
-224.5
 30
0.0
 11
21.15000000000009
 21
-226.5
 31
0.0
  0
LINE
  5
15AB
330
153D
100
AcDbEntity
  8
エンボス
  6
Continuous
100
AcDbLine
 10
21.15000000000009
 20
-210.5
 30
0.0
 11
14.15000000000009
 21
-212.5
 31
0.0
  0
LINE
  5
15AC
330
153D
100
AcDbEntity
  8
本体
  6
Continuous
100
AcDbLine
 10
-21.15000000000009
 20
-253.0
 30
0.0
 11
14.15000000000009
 21
-247.0
 31
0.0
  0
ENDBLK
  5
153F
330
153D
100
AcDbEntity
  8
0
 48
3.0
100
AcDbBlockEnd
  0
BLOCK
  5
1541
330
1540
100
AcDbEntity
  8
0
 48
3.0
100
AcDbBlockBegin
  2
*U27
 70
     1
 10
0.0
 20
0.0
 30
0.0
  3
*U27
  1

  0
INSERT
  5
15BB
330
1540
100
AcDbEntity
  8
本体
  6
ByBlock
 62
     0
370
    -2
380
     1
100
AcDbBlockReference
  2
*U26
 10
0.0
 20
0.0
 30
0.0
  0
INSERT
  5
15BC
330
1540
100
AcDbEntity
  8
本体
  6
ByBlock
 62
     0
370
    -2
380
     1
100
AcDbBlockReference
  2
*U26
 10
35.3
 20
0.0
 30
0.0
  0
INSERT
  5
15BD
330
1540
100
AcDbEntity
  8
本体
  6
ByBlock
 62
     0
370
    -2
380
     1
100
AcDbBlockReference
  2
*U26
 10
70.59999999999999
 20
0.0
 30
0.0
  0
INSERT
  5
15BE
330
1540
100
AcDbEntity
  8
本体
  6
ByBlock
 62
     0
370
    -2
380
     1
100
AcDbBlockReference
  2
*U26
 10
105.9
 20
0.0
 30
0.0
  0
INSERT
  5
15BF
330
1540
100
AcDbEntity
  8
本体
  6
ByBlock
 62
     0
370
    -2
380
     1
100
AcDbBlockReference
  2
*U26
 10
141.2
 20
0.0
 30
0.0
  0
INSERT
  5
15C0
330
1540
100
AcDbEntity
  8
本体
  6
ByBlock
 62
     0
370
    -2
380
     1
100
AcDbBlockReference
  2
*U26
 10
176.5
 20
0.0
 30
0.0
  0
INSERT
  5
15C1
330
1540
100
AcDbEntity
  8
本体
  6
ByBlock
 62
     0
370
    -2
380
     1
100
AcDbBlockReference
  2
*U26
 10
211.8
 20
0.0
 30
0.0
  0
INSERT
  5
15C2
330
1540
100
AcDbEntity
  8
本体
  6
ByBlock
 62
     0
370
    -2
380
     1
100
AcDbBlockReference
  2
*U26
 10
247.1
 20
0.0
 30
0.0
  0
INSERT
  5
15C3
330
1540
100
AcDbEntity
  8
本体
  6
ByBlock
 62
     0
370
    -2
380
     1
100
AcDbBlockReference
  2
*U26
 10
282.4
 20
0.0
 30
0.0
  0
INSERT
  5
15C4
330
1540
100
AcDbEntity
  8
本体
  6
ByBlock
 62
     0
370
    -2
380
     1
100
AcDbBlockReference
  2
*U26
 10
317.7
 20
0.0
 30
0.0
  0
INSERT
  5
15C5
330
1540
100
AcDbEntity
  8
本体
  6
ByBlock
 62
     0
370
    -2
380
     1
100
AcDbBlockReference
  2
*U26
 10
353.0
 20
0.0
 30
0.0
  0
INSERT
  5
15C6
330
1540
100
AcDbEntity
  8
本体
  6
ByBlock
 62
     0
370
    -2
380
     1
100
AcDbBlockReference
  2
*U26
 10
388.3
 20
0.0
 30
0.0
  0
INSERT
  5
15C7
330
1540
100
AcDbEntity
  8
本体
  6
ByBlock
 62
     0
370
    -2
380
     1
100
AcDbBlockReference
  2
*U26
 10
423.5999999999999
 20
0.0
 30
0.0
  0
INSERT
  5
15C8
330
1540
100
AcDbEntity
  8
本体
  6
ByBlock
 62
     0
370
    -2
380
     1
100
AcDbBlockReference
  2
*U26
 10
458.8999999999999
 20
0.0
 30
0.0
  0
INSERT
  5
15C9
330
1540
100
AcDbEntity
  8
本体
  6
ByBlock
 62
     0
370
    -2
380
     1
100
AcDbBlockReference
  2
*U26
 10
494.1999999999999
 20
0.0
 30
0.0
  0
INSERT
  5
15CA
330
1540
100
AcDbEntity
  8
本体
  6
ByBlock
 62
     0
370
    -2
380
     1
100
AcDbBlockReference
  2
*U26
 10
529.4999999999999
 20
0.0
 30
0.0
  0
ENDBLK
  5
1542
330
1540
100
AcDbEntity
  8
0
 48
3.0
100
AcDbBlockEnd
  0
BLOCK
  5
15CD
330
15CC
100
AcDbEntity
  8
0
 48
3.0
100
AcDbBlockBegin
  2
*U28
 70
     1
 10
0.0
 20
0.0
 30
0.0
  3
*U28
  1

  0
LINE
  5
15D3
330
15CC
100
AcDbEntity
  8
本体
  6
Continuous
100
AcDbLine
 10
-16.90000000000009
 20
37.5
 30
0.0
 11
11.40000000000009
 21
37.5
 31
0.0
  0
LINE
  5
15D4
330
15CC
100
AcDbEntity
  8
本体
  6
Continuous
100
AcDbLine
 10
-16.90000000000009
 20
29.5
 30
0.0
 11
11.40000000000009
 21
29.5
 31
0.0
  0
LINE
  5
15D5
330
15CC
100
AcDbEntity
  8
本体
  6
Continuous
100
AcDbLine
 10
-16.90000000000009
 20
29.5
 30
0.0
 11
11.40000000000009
 21
37.5
 31
0.0
  0
LINE
  5
15D6
330
15CC
100
AcDbEntity
  8
本体
100
AcDbLine
 10
11.40000000000009
 20
37.5
 30
0.0
 11
18.40000000000009
 21
37.5
 31
0.0
  0
LINE
  5
15D7
330
15CC
100
AcDbEntity
  8
本体
100
AcDbLine
 10
11.40000000000009
 20
37.5
 30
0.0
 11
11.40000000000009
 21
27.5
 31
0.0
  0
LINE
  5
15D8
330
15CC
100
AcDbEntity
  8
本体
100
AcDbLine
 10
11.40000000000009
 20
27.5
 30
0.0
 11
12.90000000000009
 21
26.5
 31
0.0
  0
LINE
  5
15D9
330
15CC
100
AcDbEntity
  8
本体
100
AcDbLine
 10
18.40000000000009
 20
37.5
 30
0.0
 11
18.40000000000009
 21
27.5
 31
0.0
  0
LINE
  5
15DA
330
15CC
100
AcDbEntity
  8
本体
100
AcDbLine
 10
18.40000000000009
 20
27.5
 30
0.0
 11
16.90000000000009
 21
26.5
 31
0.0
  0
LINE
  5
15DB
330
15CC
100
AcDbEntity
  8
本体
100
AcDbLine
 10
11.40000000000009
 20
-37.5
 30
0.0
 11
18.40000000000009
 21
-37.5
 31
0.0
  0
LINE
  5
15DC
330
15CC
100
AcDbEntity
  8
本体
100
AcDbLine
 10
11.40000000000009
 20
-37.5
 30
0.0
 11
11.40000000000009
 21
-27.5
 31
0.0
  0
LINE
  5
15DD
330
15CC
100
AcDbEntity
  8
本体
100
AcDbLine
 10
11.40000000000009
 20
-27.5
 30
0.0
 11
12.90000000000009
 21
-26.5
 31
0.0
  0
LINE
  5
15DE
330
15CC
100
AcDbEntity
  8
本体
100
AcDbLine
 10
18.40000000000009
 20
-37.5
 30
0.0
 11
18.40000000000009
 21
-27.5
 31
0.0
  0
LINE
  5
15DF
330
15CC
100
AcDbEntity
  8
本体
100
AcDbLine
 10
18.40000000000009
 20
-27.5
 30
0.0
 11
16.90000000000009
 21
-26.5
 31
0.0
  0
LINE
  5
15E0
330
15CC
100
AcDbEntity
  8
本体
100
AcDbLine
 10
12.90000000000009
 20
26.5
 30
0.0
 11
12.90000000000009
 21
-26.5
 31
0.0
  0
LINE
  5
15E1
330
15CC
100
AcDbEntity
  8
本体
100
AcDbLine
 10
16.90000000000009
 20
26.5
 30
0.0
 11
16.90000000000009
 21
-26.5
 31
0.0
  0
LINE
  5
15E2
330
15CC
100
AcDbEntity
  8
本体
  6
Continuous
100
AcDbLine
 10
-18.40000000000015
 20
-12.5
 30
0.0
 11
12.90000000000009
 21
-12.50000000000011
 31
0.0
  0
ENDBLK
  5
15CE
330
15CC
100
AcDbEntity
  8
0
 48
3.0
100
AcDbBlockEnd
  0
BLOCK
  5
15D0
330
15CF
100
AcDbEntity
  8
0
 48
3.0
100
AcDbBlockBegin
  2
*U29
 70
     1
 10
0.0
 20
0.0
 30
0.0
  3
*U29
  1

  0
INSERT
  5
15ED
330
15CF
100
AcDbEntity
  8
本体
  6
ByBlock
 62
     0
370
    -2
380
     1
100
AcDbBlockReference
  2
*U28
 10
0.0
 20
0.0
 30
0.0
  0
INSERT
  5
15EE
330
15CF
100
AcDbEntity
  8
本体
  6
ByBlock
 62
     0
370
    -2
380
     1
100
AcDbBlockReference
  2
*U28
 10
35.3
 20
0.0
 30
0.0
  0
INSERT
  5
15EF
330
15CF
100
AcDbEntity
  8
本体
  6
ByBlock
 62
     0
370
    -2
380
     1
100
AcDbBlockReference
  2
*U28
 10
70.59999999999999
 20
0.0
 30
0.0
  0
INSERT
  5
15F0
330
15CF
100
AcDbEntity
  8
本体
  6
ByBlock
 62
     0
370
    -2
380
     1
100
AcDbBlockReference
  2
*U28
 10
105.9
 20
0.0
 30
0.0
  0
INSERT
  5
15F1
330
15CF
100
AcDbEntity
  8
本体
  6
ByBlock
 62
     0
370
    -2
380
     1
100
AcDbBlockReference
  2
*U28
 10
141.2
 20
0.0
 30
0.0
  0
INSERT
  5
15F2
330
15CF
100
AcDbEntity
  8
本体
  6
ByBlock
 62
     0
370
    -2
380
     1
100
AcDbBlockReference
  2
*U28
 10
176.5
 20
0.0
 30
0.0
  0
INSERT
  5
15F3
330
15CF
100
AcDbEntity
  8
本体
  6
ByBlock
 62
     0
370
    -2
380
     1
100
AcDbBlockReference
  2
*U28
 10
211.8
 20
0.0
 30
0.0
  0
INSERT
  5
15F4
330
15CF
100
AcDbEntity
  8
本体
  6
ByBlock
 62
     0
370
    -2
380
     1
100
AcDbBlockReference
  2
*U28
 10
247.1
 20
0.0
 30
0.0
  0
INSERT
  5
15F5
330
15CF
100
AcDbEntity
  8
本体
  6
ByBlock
 62
     0
370
    -2
380
     1
100
AcDbBlockReference
  2
*U28
 10
282.4
 20
0.0
 30
0.0
  0
INSERT
  5
15F6
330
15CF
100
AcDbEntity
  8
本体
  6
ByBlock
 62
     0
370
    -2
380
     1
100
AcDbBlockReference
  2
*U28
 10
317.7
 20
0.0
 30
0.0
  0
INSERT
  5
15F7
330
15CF
100
AcDbEntity
  8
本体
  6
ByBlock
 62
     0
370
    -2
380
     1
100
AcDbBlockReference
  2
*U28
 10
353.0
 20
0.0
 30
0.0
  0
INSERT
  5
15F8
330
15CF
100
AcDbEntity
  8
本体
  6
ByBlock
 62
     0
370
    -2
380
     1
100
AcDbBlockReference
  2
*U28
 10
388.3
 20
0.0
 30
0.0
  0
INSERT
  5
15F9
330
15CF
100
AcDbEntity
  8
本体
  6
ByBlock
 62
     0
370
    -2
380
     1
100
AcDbBlockReference
  2
*U28
 10
423.5999999999999
 20
0.0
 30
0.0
  0
INSERT
  5
15FA
330
15CF
100
AcDbEntity
  8
本体
  6
ByBlock
 62
     0
370
    -2
380
     1
100
AcDbBlockReference
  2
*U28
 10
458.8999999999999
 20
0.0
 30
0.0
  0
INSERT
  5
15FB
330
15CF
100
AcDbEntity
  8
本体
  6
ByBlock
 62
     0
370
    -2
380
     1
100
AcDbBlockReference
  2
*U28
 10
494.1999999999999
 20
0.0
 30
0.0
  0
INSERT
  5
15FC
330
15CF
100
AcDbEntity
  8
本体
  6
ByBlock
 62
     0
370
    -2
380
     1
100
AcDbBlockReference
  2
*U28
 10
529.4999999999999
 20
0.0
 30
0.0
  0
ENDBLK
  5
15D1
330
15CF
100
AcDbEntity
  8
0
 48
3.0
100
AcDbBlockEnd
  0
ENDSEC
  0
SECTION
  2
ENTITIES
  0
LINE
  5
12
330
2
100
AcDbEntity
  8
外枠
 48
80.0
370
     9
100
AcDbLine
 10
0.0
 20
0.0
 30
0.0
 11
2789.511161023067
 21
0.0
 31
0.0
  0
LINE
  5
13
330
2
100
AcDbEntity
  8
外枠
 48
80.0
370
     9
100
AcDbLine
 10
2789.511161023071
 20
1973.26911249564
 30
0.0
 11
0.0
 21
1973.26911249564
 31
0.0
  0
LINE
  5
14
330
2
100
AcDbEntity
  8
外枠
 48
100.0
370
     9
100
AcDbLine
 10
10.0
 20
10.0
 30
0.0
 11
2780.119625023061
 21
10.0
 31
0.0
  0
LINE
  5
17
330
2
100
AcDbEntity
  8
外枠
  6
Continuous
 48
100.0
370
     9
100
AcDbLine
 10
9.999999999996362
 20
155.3992728208031
 30
0.0
 11
2780.119625023061
 21
155.3992728207995
 31
0.0
  0
LINE
  5
18
330
2
100
AcDbEntity
  8
外枠
  6
Continuous
 48
100.0
370
     9
100
AcDbLine
 10
9.999999999996362
 20
160.0950408208045
 30
0.0
 11
2780.119625023061
 21
160.0950408207973
 31
0.0
  0
LINE
  5
19
330
2
100
AcDbEntity
  8
外枠
 48
100.0
370
     9
100
AcDbLine
 10
10.0
 20
1963.877576495633
 30
0.0
 11
2780.119625023053
 21
1963.877576495637
 31
0.0
  0
LINE
  5
1A
330
2
100
AcDbEntity
  8
外枠
 48
80.0
370
     9
100
AcDbLine
 10
0.0
 20
0.0
 30
0.0
 11
0.0
 21
1973.26911249564
 31
0.0
  0
LINE
  5
1B
330
2
100
AcDbEntity
  8
外枠
 48
100.0
370
     9
100
AcDbLine
 10
10.0
 20
1963.877576495633
 30
0.0
 11
10.0
 21
10.0
 31
0.0
  0
LINE
  5
1C
330
2
100
AcDbEntity
  8
外枠
  6
Continuous
 48
100.0
370
     9
100
AcDbLine
 10
10.0
 20
82.69963641040158
 30
0.0
 11
1153.530108552004
 21
82.69963641039794
 31
0.0
  0
MTEXT
  5
1D
330
2
100
AcDbEntity
  8
外枠
  6
Continuous
 48
100.0
370
     9
100
AcDbMText
 10
532.8934032018532
 20
136.1535564242149
 30
0.0
 40
30.0
 41
664.6118999999999
 71
     1
 72
     5
  1
一般側溝用かさあげグレーチング
 73
     1
 44
1.0
1001
ACAD
1000
MTEXTBEGIN
1070
    73
1070
     1
1070
    44
1040
1.0
1070
    74
1070
     0
1000
MTEXTEND
  0
MTEXT
  5
1E
330
2
100
AcDbEntity
  8
外枠
  6
Continuous
 48
100.0
370
     9
100
AcDbMText
 10
246.8574963386418
 20
64.81814764649607
 30
0.0
 40
35.0
 41
532.9183
 71
     1
 72
     5
  1
590\U+00D7607\U+00D775/100
 73
     1
 44
1.0
1001
ACAD
1000
MTEXTBEGIN
1070
    73
1070
     1
1070
    44
1040
1.0
1070
    74
1070
     0
1000
MTEXTEND
  0
MTEXT
  5
1F
330
2
100
AcDbEntity
  8
外枠
  6
Continuous
 48
100.0
370
     9
100
AcDbMText
 10
76.61659604009765
 20
137.3760680266387
 30
0.0
 40
30.0
 41
126.3036
 71
     1
 72
     5
  1
T-20
 73
     1
 44
1.0
1001
ACAD
1000
MTEXTBEGIN
1070
    73
1070
     1
1070
    44
1040
1.0
1070
    74
1070
     0
1000
MTEXTEND
  0
MTEXT
  5
20
330
2
100
AcDbEntity
  8
外枠
  6
Continuous
 48
100.0
370
     9
100
AcDbMText
 10
72.93258377064922
 20
59.95966632915224
 30
0.0
 40
35.0
 41
88.86979999999999
 71
     1
 72
     5
  1
TGFP
 73
     1
 44
1.0
1001
ACAD
1000
MTEXTBEGIN
1070
    73
1070
     1
1070
    44
1040
1.0
1070
    74
1070
     0
1000
MTEXTEND
  0
LINE
  5
21
330
2
100
AcDbEntity
  8
外枠
 48
100.0
370
     9
100
AcDbLine
 10
45.0
 20
155.3992728208031
 30
0.0
 11
45.0
 21
10.0
 31
0.0
  0
MTEXT
  5
22
330
2
100
AcDbEntity
  8
外枠
  6
Continuous
 48
100.0
370
     9
100
AcDbMText
 10
15.05670849094895
 20
75.82038473524153
 30
0.0
 40
20.0
 41
23.52947333656417
 71
     1
 72
     5
  1
品\P番
 73
     1
 44
1.0
1001
ACAD
1000
MTEXTBEGIN
1070
    73
1070
     1
1070
    44
1040
1.0
1070
    74
1070
     0
1000
MTEXTEND
  0
MTEXT
  5
23
330
2
100
AcDbEntity
  8
外枠
  6
Continuous
 48
100.0
370
     9
100
AcDbMText
 10
14.92010060012399
 20
149.3317229429121
 30
0.0
 40
20.0
 41
30.07989939987533
 71
     1
 72
     5
  1
荷\P重
 73
     1
 44
1.0
1001
ACAD
1000
MTEXTBEGIN
1070
    73
1070
     1
1070
    44
1040
1.0
1070
    74
1070
     0
1000
MTEXTEND
  0
LINE
  5
24
330
2
100
AcDbEntity
  8
外枠
 48
100.0
370
     9
100
AcDbLine
 10
179.1040495562847
 20
155.3992728208031
 30
0.0
 11
179.1040495562847
 21
10.0
 31
0.0
  0
MTEXT
  5
25
330
2
100
AcDbEntity
  8
外枠
  6
Continuous
 48
100.0
370
     9
100
AcDbMText
 10
271.7517807368968
 20
133.8572910967996
 30
0.0
 40
30.0
 41
271.6208
 71
     1
 72
     5
  1
500用
 73
     1
 44
1.0
1001
ACAD
1000
MTEXTBEGIN
1070
    73
1070
     1
1070
    44
1040
1.0
1070
    74
1070
     0
1000
MTEXTEND
  0
MTEXT
  5
26
330
2
100
AcDbEntity
  8
外枠
  6
Continuous
 48
100.0
370
     9
100
AcDbMText
 10
184.4346535744698
 20
149.3074501239389
 30
0.0
 40
20.0
 41
29.6694
 71
     1
 72
     5
  1
溝幅
 73
     1
 44
1.0
1001
ACAD
1000
MTEXTBEGIN
1070
    73
1070
     1
1070
    44
1040
1.0
1070
    74
1070
     0
1000
MTEXTEND
  0
LINE
  5
27
330
2
100
AcDbEntity
  8
外枠
 48
100.0
370
     9
100
AcDbLine
 10
214.1040495562847
 20
155.3992728208031
 30
0.0
 11
214.1040495562847
 21
82.69963641040158
 31
0.0
  0
MTEXT
  5
28
330
2
100
AcDbEntity
  8
外枠
  6
Continuous
 48
100.0
370
     9
100
AcDbMText
 10
477.8955451146976
 20
149.3074501239389
 30
0.0
 40
20.0
 41
29.6694
 71
     1
 72
     5
  1
品名
 73
     1
 44
1.0
1001
ACAD
1000
MTEXTBEGIN
1070
    73
1070
     1
1070
    44
1040
1.0
1070
    74
1070
     0
1000
MTEXTEND
  0
LINE
  5
29
330
2
100
AcDbEntity
  8
外枠
 48
100.0
370
     9
100
AcDbLine
 10
472.5649410965124
 20
155.3992728208031
 30
0.0
 11
472.5649410965124
 21
82.69963641040158
 31
0.0
  0
LINE
  5
2A
330
2
100
AcDbEntity
  8
外枠
 48
100.0
370
     9
100
AcDbLine
 10
507.5649410965125
 20
155.3992728208031
 30
0.0
 11
507.5649410965125
 21
82.69963641040158
 31
0.0
  0
MTEXT
  5
2B
330
2
100
AcDbEntity
  8
外枠
  6
Continuous
 48
100.0
370
     9
100
AcDbMText
 10
728.477887653953
 20
76.92551173516403
 30
0.0
 40
20.0
 41
664.6118999999999
 71
     1
 72
     5
  1
摘\P要
 73
     1
 44
1.0
1001
ACAD
1000
MTEXTBEGIN
1070
    73
1070
     1
1070
    44
1040
1.0
1070
    74
1070
     0
1000
MTEXTEND
  0
LINE
  5
2C
330
2
100
AcDbEntity
  8
外枠
 48
100.0
370
     9
100
AcDbLine
 10
723.8282373115871
 20
82.6996364103943
 30
0.0
 11
723.8282373115871
 21
9.999999999992724
 31
0.0
  0
LINE
  5
2F
330
2
100
AcDbEntity
  8
外枠
 48
100.0
370
     9
100
AcDbLine
 10
758.8282373115871
 20
82.6996364103943
 30
0.0
 11
758.8282373115871
 21
9.999999999992724
 31
0.0
  0
LINE
  5
31
330
2
100
AcDbEntity
  8
外枠
 48
100.0
370
     9
100
AcDbLine
 10
974.9513069700951
 20
82.6996364103943
 30
0.0
 11
974.9513069700951
 21
9.999999999992724
 31
0.0
  0
MTEXT
  5
32
330
2
100
AcDbEntity
  8
外枠
  6
Continuous
 48
100.0
370
     9
100
AcDbMText
 10
979.7329598959768
 20
74.84825461820583
 30
0.0
 40
20.0
 41
31.38947761565365
 71
     1
 72
     5
  1
材\P質
 73
     1
 44
1.0
1001
ACAD
1000
MTEXTBEGIN
1070
    73
1070
     1
1070
    44
1040
1.0
1070
    74
1070
     0
1000
MTEXTEND
  0
LINE
  5
33
330
2
100
AcDbEntity
  8
外枠
 48
100.0
370
     9
100
AcDbLine
 10
1009.951306970095
 20
82.6996364103943
 30
0.0
 11
1009.951306970095
 21
9.999999999992724
 31
0.0
  0
LINE
  5
38
330
2
100
AcDbEntity
  8
外枠
 48
80.0
370
     9
100
AcDbLine
 10
2789.511161023067
 20
0.0
 30
0.0
 11
2789.511161023071
 21
1973.26911249564
 31
0.0
  0
LINE
  5
39
330
2
100
AcDbEntity
  8
外枠
 48
100.0
370
     9
100
AcDbLine
 10
2780.119625023053
 20
1963.877576495637
 30
0.0
 11
2780.119625023061
 21
10.0
 31
0.0
  0
LINE
  5
3B
330
2
100
AcDbEntity
  8
外枠
 48
3.0
100
AcDbLine
 10
1607.072254912545
 20
61.67068719952067
 30
0.0
 11
2262.173600934632
 21
61.67068719952067
 31
0.0
  0
MTEXT
  5
3C
330
2
100
AcDbEntity
  8
外枠
  6
Continuous
 48
100.0
370
     9
100
AcDbMText
 10
1683.622173868318
 20
50.71504764095289
 30
0.0
 40
30.00024
 41
539.4827578564582
 71
     1
 72
     5
  1
T A K A R A   G R A T I N G
 73
     1
 44
1.0
1001
ACAD
1000
MTEXTBEGIN
1070
    73
1070
     1
1070
    44
1040
1.0
1070
    74
1070
     0
1000
MTEXTEND
  0
MTEXT
  5
3D
330
2
100
AcDbEntity
  8
外枠
  6
Continuous
 48
100.0
370
     9
100
AcDbMText
 10
1728.02061463669
 20
127.1672938476838
 30
0.0
 40
30.0
 41
282.8297
 71
     1
 72
     5
  1
株 式 会 社
 73
     1
 44
1.0
1001
ACAD
1000
MTEXTBEGIN
1070
    73
1070
     1
1070
    44
1040
1.0
1070
    74
1070
     0
1000
MTEXTEND
  0
LINE
  5
3E
330
2
100
AcDbEntity
  8
外枠
  6
Continuous
 48
100.0
370
     9
100
AcDbLine
 10
1508.680137877982
 20
155.3992728208068
 30
0.0
 11
1508.680137877982
 21
10.00000000000364
 31
0.0
  0
LINE
  5
3F
330
2
100
AcDbEntity
  8
外枠
  6
Continuous
 48
100.0
370
     9
100
AcDbLine
 10
1593.95141853916
 20
155.3992728207995
 30
0.0
 11
1593.95141853916
 21
9.999999999996362
 31
0.0
  0
LINE
  5
40
330
2
100
AcDbEntity
  8
外枠
  6
Continuous
 48
100.0
370
     9
100
AcDbLine
 10
1616.777813337499
 20
106.634063069062
 30
0.0
 11
1612.463999974505
 21
110.08511375945
 31
0.0
  0
LINE
  5
41
330
2
100
AcDbEntity
  8
外枠
  6
Continuous
 48
100.0
370
     9
100
AcDbLine
 10
1616.777813337499
 20
106.634063069062
 30
0.0
 11
1612.463999974505
 21
103.183012378663
 31
0.0
  0
LINE
  5
42
330
2
100
AcDbEntity
  8
外枠
  6
Continuous
 48
100.0
370
     9
100
AcDbLine
 10
1616.777813337505
 20
113.5361644498489
 30
0.0
 11
1612.463999974505
 21
110.08511375945
 31
0.0
  0
LINE
  5
43
330
2
100
AcDbEntity
  8
外枠
  6
Continuous
 48
100.0
370
     9
100
AcDbLine
 10
1616.777813337499
 20
99.73196168827508
 30
0.0
 11
1612.463999974505
 21
103.183012378663
 31
0.0
  0
MTEXT
  5
44
330
2
100
AcDbEntity
  8
外枠
  6
Continuous
 48
100.0
370
     9
100
AcDbMText
 10
1520.476936402745
 20
137.4995509975779
 30
0.0
 40
20.0
 41
1015.1375
 71
     1
 72
     5
  1
39.5
 73
     1
 44
1.0
1001
ACAD
1000
MTEXTBEGIN
1070
    73
1070
     1
1070
    44
1040
1.0
1070
    74
1070
     0
1000
MTEXTEND
  0
MTEXT
  5
45
330
2
100
AcDbEntity
  8
外枠
  6
Continuous
 48
100.0
370
     9
100
AcDbMText
 10
1568.464698185987
 20
108.4136993179927
 30
0.0
 40
18.0
 41
25.456
 71
     1
 72
     5
  1
kg
 73
     1
 44
1.0
1001
ACAD
1000
MTEXTBEGIN
1070
    73
1070
     1
1070
    44
1040
1.0
1070
    74
1070
     0
1000
MTEXTEND
  0
LINE
  5
46
330
2
100
AcDbEntity
  8
外枠
  6
Continuous
 48
100.0
370
     9
100
AcDbLine
 10
1649.122643507042
 20
139.4120285854742
 30
0.0
 11
1653.436456870031
 21
135.9609778950862
 31
0.0
  0
LINE
  5
47
330
2
100
AcDbEntity
  8
外枠
  6
Continuous
 48
100.0
370
     9
100
AcDbLine
 10
1666.377896959009
 20
139.4120285854742
 30
0.0
 11
1662.06408359602
 21
135.9609778950862
 31
0.0
  0
MTEXT
  5
48
330
2
100
AcDbEntity
  8
外枠
  6
Continuous
 48
100.0
370
     9
100
AcDbMText
 10
1642.840555134189
 20
120.8184913847756
 30
0.0
 40
23.95393639053264
 41
23.85059431815661
 71
     1
 72
     5
  1
{\fＭＳ ゴシック|b0|i0|c128|p49;宝}
 73
     1
 44
1.0
1001
ACAD
1000
MTEXTBEGIN
1070
    73
1070
     1
1070
    44
1040
1.0
1070
    74
1070
     0
1000
MTEXTEND
  0
LINE
  5
49
330
2
100
AcDbEntity
  8
外枠
  6
Continuous
 48
100.0
370
     9
100
AcDbLine
 10
1662.06408359602
 20
135.9609778950862
 30
0.0
 11
1694.408913765557
 21
110.08511375945
 31
0.0
  0
LINE
  5
4A
330
2
100
AcDbEntity
  8
外枠
  6
Continuous
 48
100.0
370
     9
100
AcDbLine
 10
1657.750270233026
 20
132.5099272046927
 30
0.0
 11
1690.095100402563
 21
106.634063069062
 31
0.0
  0
LINE
  5
4B
330
2
100
AcDbEntity
  8
外枠
  6
Continuous
 48
100.0
370
     9
100
AcDbLine
 10
1690.095100402563
 20
106.634063069062
 30
0.0
 11
1657.750270233026
 21
80.75819893343123
 31
0.0
  0
LINE
  5
4C
330
2
100
AcDbEntity
  8
外枠
  6
Continuous
 48
100.0
370
     9
100
AcDbLine
 10
1694.408913765557
 20
103.183012378663
 30
0.0
 11
1662.06408359602
 21
77.30714824303777
 31
0.0
  0
LINE
  5
4D
330
2
100
AcDbEntity
  8
外枠
  6
Continuous
 48
100.0
370
     9
100
AcDbLine
 10
1657.750270233026
 20
80.75819893342577
 30
0.0
 11
1625.405440063488
 21
106.634063069062
 31
0.0
  0
LINE
  5
4E
330
2
100
AcDbEntity
  8
外枠
  6
Continuous
 48
100.0
370
     9
100
AcDbLine
 10
1653.436456870031
 20
77.30714824303777
 30
0.0
 11
1621.0916267005
 21
103.183012378663
 31
0.0
  0
LINE
  5
4F
330
2
100
AcDbEntity
  8
外枠
  6
Continuous
 48
100.0
370
     9
100
AcDbLine
 10
1621.0916267005
 20
103.183012378663
 30
0.0
 11
1616.777813337505
 21
99.73196168827508
 31
0.0
  0
LINE
  5
50
330
2
100
AcDbEntity
  8
外枠
  6
Continuous
 48
100.0
370
     9
100
AcDbLine
 10
1653.436456870031
 20
77.30714824303777
 30
0.0
 11
1649.122643507042
 21
73.85609755263885
 31
0.0
  0
LINE
  5
51
330
2
100
AcDbEntity
  8
外枠
  6
Continuous
 48
100.0
370
     9
100
AcDbLine
 10
1653.436456870031
 20
70.4050468622454
 30
0.0
 11
1649.122643507042
 21
73.85609755263885
 31
0.0
  0
LINE
  5
52
330
2
100
AcDbEntity
  8
外枠
  6
Continuous
 48
100.0
370
     9
100
AcDbLine
 10
1657.750270233026
 20
73.85609755263885
 30
0.0
 11
1653.436456870031
 21
70.4050468622454
 31
0.0
  0
LINE
  5
53
330
2
100
AcDbEntity
  8
外枠
  6
Continuous
 48
100.0
370
     9
100
AcDbLine
 10
1666.377896959009
 20
73.85609755263885
 30
0.0
 11
1662.06408359602
 21
70.4050468622454
 31
0.0
  0
LINE
  5
54
330
2
100
AcDbEntity
  8
外枠
  6
Continuous
 48
100.0
370
     9
100
AcDbLine
 10
1662.06408359602
 20
70.4050468622454
 30
0.0
 11
1657.750270233026
 21
73.85609755263885
 31
0.0
  0
LINE
  5
55
330
2
100
AcDbEntity
  8
外枠
  6
Continuous
 48
100.0
370
     9
100
AcDbLine
 10
1666.377896959009
 20
73.85609755263885
 30
0.0
 11
1662.06408359602
 21
77.30714824303777
 31
0.0
  0
LINE
  5
56
330
2
100
AcDbEntity
  8
外枠
  6
Continuous
 48
100.0
370
     9
100
AcDbLine
 10
1657.750270233026
 20
132.5099272046927
 30
0.0
 11
1625.405440063483
 21
106.634063069062
 31
0.0
  0
LINE
  5
57
330
2
100
AcDbEntity
  8
外枠
  6
Continuous
 48
100.0
370
     9
100
AcDbLine
 10
1653.436456870031
 20
135.9609778950862
 30
0.0
 11
1621.0916267005
 21
110.08511375945
 31
0.0
  0
LINE
  5
58
330
2
100
AcDbEntity
  8
外枠
  6
Continuous
 48
100.0
370
     9
100
AcDbLine
 10
1621.0916267005
 20
110.08511375945
 30
0.0
 11
1616.777813337505
 21
113.5361644498489
 31
0.0
  0
LINE
  5
59
330
2
100
AcDbEntity
  8
外枠
  6
Continuous
 48
100.0
370
     9
100
AcDbLine
 10
1694.408913765557
 20
103.183012378663
 30
0.0
 11
1698.722727128541
 21
99.73196168827508
 31
0.0
  0
LINE
  5
5A
330
2
100
AcDbEntity
  8
外枠
  6
Continuous
 48
100.0
370
     9
100
AcDbLine
 10
1703.036540491541
 20
103.183012378663
 30
0.0
 11
1698.722727128541
 21
99.73196168827508
 31
0.0
  0
LINE
  5
5B
330
2
100
AcDbEntity
  8
外枠
  6
Continuous
 48
100.0
370
     9
100
AcDbLine
 10
1698.722727128541
 20
113.5361644498489
 30
0.0
 11
1694.408913765557
 21
110.08511375945
 31
0.0
  0
LINE
  5
5C
330
2
100
AcDbEntity
  8
外枠
  6
Continuous
 48
100.0
370
     9
100
AcDbLine
 10
1698.722727128541
 20
106.634063069062
 30
0.0
 11
1703.036540491541
 21
103.183012378663
 31
0.0
  0
LINE
  5
5D
330
2
100
AcDbEntity
  8
外枠
  6
Continuous
 48
100.0
370
     9
100
AcDbLine
 10
1698.722727128541
 20
113.5361644498489
 30
0.0
 11
1703.036540491541
 21
110.08511375945
 31
0.0
  0
LINE
  5
5E
330
2
100
AcDbEntity
  8
外枠
  6
Continuous
 48
100.0
370
     9
100
AcDbLine
 10
1703.036540491541
 20
110.08511375945
 30
0.0
 11
1698.722727128541
 21
106.634063069062
 31
0.0
  0
LINE
  5
5F
330
2
100
AcDbEntity
  8
外枠
  6
Continuous
 48
100.0
370
     9
100
AcDbLine
 10
1653.436456870031
 20
142.8630792758676
 30
0.0
 11
1649.122643507042
 21
139.4120285854742
 31
0.0
  0
LINE
  5
60
330
2
100
AcDbEntity
  8
外枠
  6
Continuous
 48
100.0
370
     9
100
AcDbLine
 10
1662.06408359602
 20
142.8630792758676
 30
0.0
 11
1666.377896959009
 21
139.4120285854742
 31
0.0
  0
LINE
  5
61
330
2
100
AcDbEntity
  8
外枠
  6
Continuous
 48
100.0
370
     9
100
AcDbLine
 10
1653.436456870031
 20
142.8630792758676
 30
0.0
 11
1657.750270233026
 21
139.4120285854742
 31
0.0
  0
LINE
  5
62
330
2
100
AcDbEntity
  8
外枠
  6
Continuous
 48
100.0
370
     9
100
AcDbLine
 10
1662.06408359602
 20
142.8630792758676
 30
0.0
 11
1657.750270233026
 21
139.4120285854742
 31
0.0
  0
MTEXT
  5
63
330
2
100
AcDbEntity
  8
外枠
  6
Continuous
 48
100.0
370
     9
100
AcDbMText
 10
1982.246612759803
 20
141.5312822365363
 30
0.0
 40
50.0
 41
269.1378
 71
     1
 72
     5
  1
宝 機 材
 73
     1
 44
1.0
1001
ACAD
1000
MTEXTBEGIN
1070
    73
1070
     1
1070
    44
1040
1.0
1070
    74
1070
     0
1000
MTEXTEND
  0
INSERT
  5
64
330
2
100
AcDbEntity
  8
0
100
AcDbBlockReference
  2
GIB詳細
 10
2565.418449883758
 20
297.722523113778
 30
0.0
  0
LINE
  5
AC
330
2
100
AcDbEntity
  8
外枠
  6
Continuous
 48
100.0
370
     9
100
AcDbLine
 10
2694.775480668144
 20
78.59726492113622
 30
0.0
 11
2729.639779322774
 21
43.73296626650699
 31
0.0
  0
LINE
  5
AD
330
2
100
AcDbEntity
  8
外枠
  6
Continuous
 48
100.0
370
     9
100
AcDbLine
 10
2729.639779322774
 20
113.4615635757691
 30
0.0
 11
2694.775480668144
 21
78.59726492113622
 31
0.0
  0
LINE
  5
AF
330
2
100
AcDbEntity
  8
外枠
  6
Continuous
 48
100.0
370
     9
100
AcDbLine
 10
2271.730765417811
 20
155.3992728207995
 30
0.0
 11
2271.730765417811
 21
10.0
 31
0.0
  0
LINE
  5
B0
330
2
100
AcDbEntity
  8
外枠
  6
Continuous
 48
100.0
370
     9
100
AcDbLine
 10
2387.385592047314
 20
155.3992728207995
 30
0.0
 11
2387.385592047314
 21
9.999999999996362
 31
0.0
  0
MTEXT
  5
B1
330
2
100
AcDbEntity
  8
外枠
  6
Continuous
 48
100.0
370
     9
100
AcDbMText
 10
2518.897970034654
 20
80.52451510381798
 30
0.0
 40
16.435188
 41
274.138099993296
 71
     1
 72
     5
  1
縮尺（A4用紙)
 73
     1
 44
1.0
1001
ACAD
1000
MTEXTBEGIN
1070
    73
1070
     1
1070
    44
1040
1.0
1070
    74
1070
     0
1000
MTEXTEND
  0
LINE
  5
B2
330
2
100
AcDbEntity
  8
外枠
  6
Continuous
 48
100.0
370
     9
100
AcDbLine
 10
2503.04041867681
 20
155.3992728207995
 30
0.0
 11
2503.04041867681
 21
9.999999999996362
 31
0.0
  0
LINE
  5
B3
330
2
100
AcDbEntity
  8
外枠
  6
Continuous
 48
100.0
370
     9
100
AcDbLine
 10
2676.662359028593
 20
155.3992728207995
 30
0.0
 11
2676.662359028593
 21
10.0
 31
0.0
  0
MTEXT
  5
B4
330
2
100
AcDbEntity
  8
外枠
  6
Continuous
 48
100.0
370
     9
100
AcDbMText
 10
2557.587330290393
 20
42.24161905183791
 30
0.0
 40
23.47884
 41
274.138099993296
 71
     1
 72
     5
  1
1：10
 73
     1
 44
1.0
1001
ACAD
1000
MTEXTBEGIN
1070
    73
1070
     1
1070
    44
1040
1.0
1070
    74
1070
     0
1000
MTEXTEND
  0
MTEXT
  5
B5
330
2
100
AcDbEntity
  8
外枠
  6
Continuous
 48
100.0
370
     9
100
AcDbMText
 10
2280.290404386422
 20
149.5129012429788
 30
0.0
 40
18.783072
 41
274.13809060176
 71
     1
 72
     5
  1
Check
 73
     1
 44
1.0
1001
ACAD
1000
MTEXTBEGIN
1070
    73
1070
     1
1070
    44
1040
1.0
1070
    74
1070
     0
1000
MTEXTEND
  0
MTEXT
  5
B6
330
2
100
AcDbEntity
  8
外枠
  6
Continuous
 48
100.0
370
     9
100
AcDbMText
 10
2398.03460165154
 20
149.5129012429788
 30
0.0
 40
18.783072
 41
274.13809060176
 71
     1
 72
     5
  1
Draw
 73
     1
 44
1.0
1001
ACAD
1000
MTEXTBEGIN
1070
    73
1070
     1
1070
    44
1040
1.0
1070
    74
1070
     0
1000
MTEXTEND
  0
LINE
  5
B8
330
2
100
AcDbEntity
  8
外枠
  6
Continuous
 48
100.0
370
     9
100
AcDbLine
 10
2676.662359028593
 20
85.04752041039683
 30
0.0
 11
2503.04041867681
 21
85.04752041039683
 31
0.0
  0
MTEXT
  5
B9
330
2
100
AcDbEntity
  8
外枠
  6
Continuous
 48
100.0
370
     9
100
AcDbMText
 10
2518.897970034654
 20
153.7304166203976
 30
0.0
 40
16.435188
 41
274.138099993296
 71
     1
 72
     5
  1
図面作成日
 73
     1
 44
1.0
1001
ACAD
1000
MTEXTBEGIN
1070
    73
1070
     1
1070
    44
1040
1.0
1070
    74
1070
     0
1000
MTEXTEND
  0
LINE
  5
BB
330
2
100
AcDbEntity
  8
外枠
  6
Continuous
 48
100.0
370
     9
100
AcDbLine
 10
2729.639779322774
 20
43.73296626650699
 30
0.0
 11
2764.504077977396
 21
78.59726492113622
 31
0.0
  0
LINE
  5
BC
330
2
100
AcDbEntity
  8
外枠
  6
Continuous
 48
100.0
370
     9
100
AcDbLine
 10
2764.504077977396
 20
78.59726492113622
 30
0.0
 11
2729.639779322774
 21
113.4615635757691
 31
0.0
  0
LINE
  5
BE
330
2
100
AcDbEntity
  8
本体
  6
Continuous
100
AcDbLine
 10
504.2912029770104
 20
1658.628923881693
 30
0.0
 11
1111.29120297701
 21
1658.628923881693
 31
0.0
  0
LINE
  5
BF
330
2
100
AcDbEntity
  8
本体
  6
Continuous
100
AcDbLine
 10
504.2912029770104
 20
1652.628923881693
 30
0.0
 11
1111.29120297701
 21
1652.628923881693
 31
0.0
  0
LINE
  5
C2
330
2
100
AcDbEntity
  8
本体
  6
Continuous
100
AcDbLine
 10
504.2912029770104
 20
1700.628923881693
 30
0.0
 11
504.2912029770104
 21
1110.628923881693
 31
0.0
  0
LINE
  5
C3
330
2
100
AcDbEntity
  8
本体
  6
Continuous
100
AcDbLine
 10
504.2912029770104
 20
1696.128923881693
 30
0.0
 11
504.2912029770104
 21
1658.628923881693
 31
0.0
  0
LINE
  5
C5
330
2
100
AcDbEntity
  8
本体
  6
Continuous
100
AcDbLine
 10
504.2912029770104
 20
1652.628923881693
 30
0.0
 11
504.2912029770104
 21
1608.628923881693
 31
0.0
  0
LINE
  5
C7
330
2
100
AcDbEntity
  8
本体
  6
Continuous
100
AcDbLine
 10
511.2912029770105
 20
1696.128923881693
 30
0.0
 11
511.2912029770105
 21
1658.628923881693
 31
0.0
  0
LINE
  5
C8
330
2
100
AcDbEntity
  8
本体
  6
Continuous
100
AcDbLine
 10
511.2912029770105
 20
1652.628923881693
 30
0.0
 11
511.2912029770105
 21
1608.628923881693
 31
0.0
  0
LINE
  5
109
330
2
100
AcDbEntity
  8
本体
  6
Continuous
100
AcDbLine
 10
1111.29120297701
 20
1696.128923881693
 30
0.0
 11
1111.29120297701
 21
1658.628923881693
 31
0.0
  0
LINE
  5
10B
330
2
100
AcDbEntity
  8
本体
  6
Continuous
100
AcDbLine
 10
1111.29120297701
 20
1652.628923881693
 30
0.0
 11
1111.29120297701
 21
1608.628923881693
 31
0.0
  0
LINE
  5
10C
330
2
100
AcDbEntity
  8
本体
  6
Continuous
100
AcDbLine
 10
1104.29120297701
 20
1652.628923881693
 30
0.0
 11
1104.29120297701
 21
1608.628923881693
 31
0.0
  0
LINE
  5
15B
330
2
100
AcDbEntity
  8
本体
  6
Continuous
100
AcDbLine
 10
1104.29120297701
 20
1115.128923881693
 30
0.0
 11
1104.29120297701
 21
1152.628923881693
 31
0.0
  0
LINE
  5
15C
330
2
100
AcDbEntity
  8
本体
  6
Continuous
100
AcDbLine
 10
1111.29120297701
 20
1115.128923881693
 30
0.0
 11
1111.29120297701
 21
1152.628923881693
 31
0.0
  0
LINE
  5
15E
330
2
100
AcDbEntity
  8
本体
  6
Continuous
100
AcDbLine
 10
511.2912029770105
 20
1115.128923881693
 30
0.0
 11
511.2912029770105
 21
1152.628923881693
 31
0.0
  0
LINE
  5
15F
330
2
100
AcDbEntity
  8
本体
  6
Continuous
100
AcDbLine
 10
504.2912029770104
 20
1115.128923881693
 30
0.0
 11
504.2912029770104
 21
1152.628923881693
 31
0.0
  0
LINE
  5
1B0
330
2
100
AcDbEntity
  8
本体
  6
Continuous
100
AcDbLine
 10
1076.091202977011
 20
601.6765927262449
 30
0.0
 11
1104.29120297701
 21
609.6483241750079
 31
0.0
  0
LINE
  5
1B1
330
2
100
AcDbEntity
  8
本体
  6
Continuous
100
AcDbLine
 10
1076.091202977011
 20
601.6765927262449
 30
0.0
 11
1104.29120297701
 21
601.6765927262449
 31
0.0
  0
LINE
  5
1B2
330
2
100
AcDbEntity
  8
本体
  6
Continuous
100
AcDbLine
 10
1076.091202977011
 20
609.6765927262449
 30
0.0
 11
1104.391202977011
 21
609.6765927262449
 31
0.0
  0
LINE
  5
1B3
330
2
100
AcDbEntity
  8
嵩上断面
  6
Continuous
100
AcDbLine
 10
507.7912029770105
 20
509.6765927262449
 30
0.0
 11
507.7912029770105
 21
534.6765927262449
 31
0.0
  0
LINE
  5
1B4
330
2
100
AcDbEntity
  8
嵩上断面
  6
Continuous
100
AcDbLine
 10
507.7912029770105
 20
534.6765927262449
 30
0.0
 11
1111.29120297701
 21
534.6765927262449
 31
0.0
  0
LINE
  5
1B5
330
2
100
AcDbEntity
  8
嵩上断面
  6
HIDDEN
 48
3.0
100
AcDbLine
 10
507.7912029770105
 20
532.3765927262447
 30
0.0
 11
1107.79120297701
 21
532.3765927262447
 31
0.0
  0
LINE
  5
1B8
330
2
100
AcDbEntity
  8
本体
  6
Continuous
100
AcDbLine
 10
1943.221157534629
 20
1700.628923881693
 30
0.0
 11
1943.221157534629
 21
1110.628923881693
 31
0.0
  0
LINE
  5
1B9
330
2
100
AcDbEntity
  8
本体
  6
Continuous
100
AcDbLine
 10
1951.221157534629
 20
1696.128923881693
 30
0.0
 11
1951.221157534629
 21
1115.128923881693
 31
0.0
  0
LINE
  5
1BA
330
2
100
AcDbEntity
  8
本体
  6
Continuous
100
AcDbLine
 10
2018.221157534629
 20
1696.128923881693
 30
0.0
 11
2018.221157534629
 21
1115.128923881693
 31
0.0
  0
LINE
  5
1BB
330
2
100
AcDbEntity
  8
本体
  6
Continuous
100
AcDbLine
 10
2010.221157534629
 20
1696.128923881693
 30
0.0
 11
2010.221157534629
 21
1115.128923881693
 31
0.0
  0
LINE
  5
1BC
330
2
100
AcDbEntity
  8
本体
  6
Continuous
100
AcDbLine
 10
1943.221157534629
 20
1700.628923881693
 30
0.0
 11
1993.221157534629
 21
1700.628923881693
 31
0.0
  0
LINE
  5
1BD
330
2
100
AcDbEntity
  8
本体
  6
Continuous
100
AcDbLine
 10
1943.221157534629
 20
1696.128923881693
 30
0.0
 11
2018.221157534629
 21
1696.128923881693
 31
0.0
  0
LINE
  5
1BE
330
2
100
AcDbEntity
  8
本体
  6
Continuous
100
AcDbLine
 10
1943.221157534629
 20
1115.128923881693
 30
0.0
 11
2018.221157534629
 21
1115.128923881693
 31
0.0
  0
LINE
  5
1BF
330
2
100
AcDbEntity
  8
本体
  6
Continuous
100
AcDbLine
 10
1943.221157534629
 20
1110.628923881693
 30
0.0
 11
1993.221157534629
 21
1110.628923881693
 31
0.0
  0
INSERT
  5
1C0
330
2
100
AcDbEntity
  8
本体
  6
Continuous
100
AcDbBlockReference
  2
TB8
 10
1943.221157534629
 20
1655.628923881693
 30
0.0
  0
INSERT
  5
1C9
330
2
100
AcDbEntity
  8
本体
  6
Continuous
100
AcDbBlockReference
  2
TB8
 10
1943.221157534629
 20
1555.628923881693
 30
0.0
  0
INSERT
  5
1CA
330
2
100
AcDbEntity
  8
本体
  6
Continuous
100
AcDbBlockReference
  2
TB8
 10
1943.221157534629
 20
1455.628923881693
 30
0.0
  0
INSERT
  5
1CB
330
2
100
AcDbEntity
  8
本体
  6
Continuous
100
AcDbBlockReference
  2
TB8
 10
1943.221157534629
 20
1155.628923881693
 30
0.0
  0
LINE
  5
1CC
330
2
100
AcDbEntity
  8
本体
  6
Continuous
100
AcDbLine
 10
504.2912029770104
 20
1700.628923881693
 30
0.0
 11
1111.29120297701
 21
1700.628923881693
 31
0.0
  0
LINE
  5
1CD
330
2
100
AcDbEntity
  8
本体
  6
Continuous
100
AcDbLine
 10
504.2912029770104
 20
1696.128923881693
 30
0.0
 11
1111.29120297701
 21
1696.128923881693
 31
0.0
  0
LINE
  5
1CE
330
2
100
AcDbEntity
  8
本体
  6
Continuous
100
AcDbLine
 10
504.2912029770104
 20
1110.628923881693
 30
0.0
 11
1111.29120297701
 21
1110.628923881693
 31
0.0
  0
LINE
  5
1CF
330
2
100
AcDbEntity
  8
本体
  6
Continuous
100
AcDbLine
 10
504.2912029770104
 20
1115.128923881693
 30
0.0
 11
1111.29120297701
 21
1115.128923881693
 31
0.0
  0
LINE
  5
1E9
330
2
100
AcDbEntity
  8
本体
100
AcDbLine
 10
504.2912029770104
 20
609.6765927262449
 30
0.0
 11
511.2912029770105
 21
609.6765927262449
 31
0.0
  0
LINE
  5
1EA
330
2
100
AcDbEntity
  8
本体
100
AcDbLine
 10
504.2912029770104
 20
609.6765927262449
 30
0.0
 11
504.2912029770104
 21
599.6765927262449
 31
0.0
  0
LINE
  5
1EB
330
2
100
AcDbEntity
  8
本体
100
AcDbLine
 10
504.2912029770104
 20
599.6765927262449
 30
0.0
 11
505.7912029770104
 21
598.676592726245
 31
0.0
  0
LINE
  5
1EC
330
2
100
AcDbEntity
  8
本体
100
AcDbLine
 10
511.2912029770105
 20
609.6765927262449
 30
0.0
 11
511.2912029770105
 21
599.6765927262449
 31
0.0
  0
LINE
  5
1ED
330
2
100
AcDbEntity
  8
本体
100
AcDbLine
 10
511.2912029770105
 20
599.6765927262449
 30
0.0
 11
509.7912029770104
 21
598.676592726245
 31
0.0
  0
LINE
  5
1EE
330
2
100
AcDbEntity
  8
本体
100
AcDbLine
 10
504.2912029770104
 20
534.6765927262449
 30
0.0
 11
511.2912029770105
 21
534.6765927262449
 31
0.0
  0
LINE
  5
1EF
330
2
100
AcDbEntity
  8
本体
100
AcDbLine
 10
504.2912029770104
 20
534.6765927262449
 30
0.0
 11
504.2912029770104
 21
544.676592726245
 31
0.0
  0
LINE
  5
1F0
330
2
100
AcDbEntity
  8
本体
100
AcDbLine
 10
504.2912029770104
 20
544.676592726245
 30
0.0
 11
505.7912029770104
 21
545.6765927262449
 31
0.0
  0
LINE
  5
1F1
330
2
100
AcDbEntity
  8
本体
100
AcDbLine
 10
511.2912029770105
 20
534.6765927262449
 30
0.0
 11
511.2912029770105
 21
544.676592726245
 31
0.0
  0
LINE
  5
1F2
330
2
100
AcDbEntity
  8
本体
100
AcDbLine
 10
511.2912029770105
 20
544.676592726245
 30
0.0
 11
509.7912029770104
 21
545.6765927262449
 31
0.0
  0
LINE
  5
1F3
330
2
100
AcDbEntity
  8
本体
100
AcDbLine
 10
505.7912029770104
 20
598.676592726245
 30
0.0
 11
505.7912029770104
 21
545.6765927262449
 31
0.0
  0
LINE
  5
1F4
330
2
100
AcDbEntity
  8
本体
100
AcDbLine
 10
509.7912029770104
 20
598.676592726245
 30
0.0
 11
509.7912029770104
 21
545.6765927262449
 31
0.0
  0
DIMENSION
  5
1F5
330
2
100
AcDbEntity
  8
寸法線
  6
Continuous
100
AcDbDimension
  2
*D5
 10
931.3912029770108
 20
689.676592726245
 30
0.0
 11
1003.396279119143
 21
709.6765927262449
 31
0.0
 70
    32
 71
     5
 42
35.30000000000018
  3
ISO-25
100
AcDbAlignedDimension
 13
896.0912029770106
 23
609.6765927262448
 33
0.0
 14
931.3912029770108
 24
609.6765927262448
 34
0.0
100
AcDbRotatedDimension
1001
ACAD
1000
DSTYLE
1002
{
1070
   279
1070
     0
1002
}
  0
LEADER
  5
204
330
2
100
AcDbEntity
  8
寸法線
  6
Continuous
100
AcDbLeader
  3
ISO-25
 73
     0
 74
     0
 75
     1
 40
30.0
 41
171.9289340101522
 76
     3
 10
1108.631900111554
 20
1700.628923881693
 30
0.0
 10
1164.342578230209
 20
1771.339602000348
 30
0.0
 10
1179.342578230209
 20
1771.339602000348
 30
0.0
340
205
1001
ACAD
1000
DSTYLE
1002
{
1070
     5
1000
OPEN30
1070
    77
1070
     1
1070
   147
1040
0.5
1070
   342
1005
1D2
1002
}
  0
MTEXT
  5
205
102
{ACAD_REACTORS
330
204
102
}
330
2
100
AcDbEntity
  8
寸法線
  6
Continuous
100
AcDbMText
 10
1184.342578230209
 20
1776.339602000348
 30
0.0
 40
30.0
 41
0.0
 71
     7
 72
     1
  1
FB4.5\U+00D750
 73
     1
 44
1.0
1001
ACAD
1000
MTEXTBEGIN
1070
    73
1070
     1
1070
    44
1040
1.0
1070
    74
1070
     0
1000
MTEXTEND
  0
LINE
  5
228
330
2
100
AcDbEntity
  8
本体
  6
Continuous
100
AcDbLine
 10
1104.29120297701
 20
1696.128923881693
 30
0.0
 11
1104.29120297701
 21
1658.628923881693
 31
0.0
  0
LEADER
  5
22A
330
2
100
AcDbEntity
  8
寸法線
  6
Continuous
100
AcDbLeader
  3
ISO-25
 73
     0
 74
     0
 75
     1
 40
30.0
 41
230.2538071065989
 76
     3
 10
2028.221150534629
 20
1690.628922073948
 30
0.0
 10
2083.931828653283
 20
1766.339600192603
 30
0.0
 10
2098.931828653284
 20
1766.339600192603
 30
0.0
340
22B
1001
ACAD
1000
DSTYLE
1002
{
1070
     5
1000
OPEN30
1070
    77
1070
     1
1070
   147
1040
0.5
1070
   342
1005
1D2
1002
}
  0
MTEXT
  5
22B
102
{ACAD_REACTORS
330
22A
102
}
330
2
100
AcDbEntity
  8
寸法線
  6
Continuous
100
AcDbMText
 10
2103.931828653283
 20
1771.339600192603
 30
0.0
 40
30.0
 41
0.0
 71
     7
 72
     1
  1
P2.3\U+00D725\U+00D740
 73
     1
 44
1.0
1001
ACAD
1000
MTEXTBEGIN
1070
    73
1070
     1
1070
    44
1040
1.0
1070
    74
1070
     0
1000
MTEXTEND
  0
LINE
  5
26F
330
2
100
AcDbEntity
  8
本体
  6
Continuous
100
AcDbLine
 10
1069.09120297701
 20
1652.628923881693
 30
0.0
 11
1104.391202977011
 21
1658.628923881693
 31
0.0
  0
LINE
  5
273
330
2
100
AcDbEntity
  8
本体
  6
Continuous
100
AcDbLine
 10
1104.391202977011
 20
1652.628923881693
 30
0.0
 11
1111.29120297701
 21
1653.80172841427
 31
0.0
  0
INSERT
  5
2AD
330
2
100
AcDbEntity
  8
本体
  6
Continuous
100
AcDbBlockReference
  2
TB8
 10
1943.221157534629
 20
1355.628923881693
 30
0.0
  0
DIMENSION
  5
2CE
330
2
100
AcDbEntity
  8
寸法線
  6
Continuous
100
AcDbDimension
  2
*D6
 10
2123.221154534629
 20
1120.628921881693
 30
0.0
 11
2103.221154534629
 21
1405.628923881693
 31
0.0
 70
    32
 71
     5
 42
570.0000040000004
  3
ISO-25
100
AcDbAlignedDimension
 13
2040.721154534629
 23
1690.628925881693
 33
0.0
 14
2040.721154534629
 24
1120.628921881693
 34
0.0
 50
90.0
100
AcDbRotatedDimension
  0
DIMENSION
  5
2DB
330
2
100
AcDbEntity
  8
寸法線
  6
Continuous
100
AcDbDimension
  2
*D7
 10
1783.221157534629
 20
1110.628923881693
 30
0.0
 11
1763.221157534629
 21
1405.628923881693
 31
0.0
 70
    32
 71
     5
 42
590.0
  3
ISO-25
100
AcDbAlignedDimension
 13
1943.221157534629
 23
1700.628923881693
 33
0.0
 14
1943.221157534629
 24
1110.628923881693
 34
0.0
 50
90.0
100
AcDbRotatedDimension
  0
LINE
  5
3A8
330
2
100
AcDbEntity
  8
本体
100
AcDbLine
 10
1104.29120297701
 20
609.6765927262449
 30
0.0
 11
1111.29120297701
 21
609.6765927262449
 31
0.0
  0
LINE
  5
3A9
330
2
100
AcDbEntity
  8
本体
100
AcDbLine
 10
1104.29120297701
 20
609.6765927262449
 30
0.0
 11
1104.29120297701
 21
599.6765927262449
 31
0.0
  0
LINE
  5
3AA
330
2
100
AcDbEntity
  8
本体
100
AcDbLine
 10
1104.29120297701
 20
599.6765927262449
 30
0.0
 11
1105.79120297701
 21
598.676592726245
 31
0.0
  0
LINE
  5
3AB
330
2
100
AcDbEntity
  8
本体
100
AcDbLine
 10
1111.29120297701
 20
609.6765927262449
 30
0.0
 11
1111.29120297701
 21
599.6765927262449
 31
0.0
  0
LINE
  5
3AC
330
2
100
AcDbEntity
  8
本体
100
AcDbLine
 10
1111.29120297701
 20
599.6765927262449
 30
0.0
 11
1109.79120297701
 21
598.676592726245
 31
0.0
  0
LINE
  5
3AD
330
2
100
AcDbEntity
  8
本体
100
AcDbLine
 10
1104.29120297701
 20
534.6765927262449
 30
0.0
 11
1111.29120297701
 21
534.6765927262449
 31
0.0
  0
LINE
  5
3AE
330
2
100
AcDbEntity
  8
本体
100
AcDbLine
 10
1104.29120297701
 20
534.6765927262449
 30
0.0
 11
1104.29120297701
 21
544.676592726245
 31
0.0
  0
LINE
  5
3AF
330
2
100
AcDbEntity
  8
本体
100
AcDbLine
 10
1104.29120297701
 20
544.676592726245
 30
0.0
 11
1105.79120297701
 21
545.6765927262449
 31
0.0
  0
LINE
  5
3B0
330
2
100
AcDbEntity
  8
本体
100
AcDbLine
 10
1111.29120297701
 20
534.6765927262449
 30
0.0
 11
1111.29120297701
 21
544.676592726245
 31
0.0
  0
LINE
  5
3B1
330
2
100
AcDbEntity
  8
本体
100
AcDbLine
 10
1111.29120297701
 20
544.676592726245
 30
0.0
 11
1109.79120297701
 21
545.6765927262449
 31
0.0
  0
LINE
  5
3B2
330
2
100
AcDbEntity
  8
本体
100
AcDbLine
 10
1105.79120297701
 20
598.676592726245
 30
0.0
 11
1105.79120297701
 21
545.6765927262449
 31
0.0
  0
LINE
  5
3B3
330
2
100
AcDbEntity
  8
本体
100
AcDbLine
 10
1109.79120297701
 20
598.676592726245
 30
0.0
 11
1109.79120297701
 21
545.6765927262449
 31
0.0
  0
INSERT
  5
400
330
2
100
AcDbEntity
  8
本体
  6
Continuous
100
AcDbBlockReference
  2
TB8
 10
1943.221157534629
 20
1255.628923881693
 30
0.0
  0
LINE
  5
401
330
2
100
AcDbEntity
  8
エンボス
  6
Continuous
100
AcDbLine
 10
511.2912029770105
 20
1693.493017881693
 30
0.0
 11
504.2912029770104
 21
1691.493017881693
 31
0.0
  0
LINE
  5
402
330
2
100
AcDbEntity
  8
エンボス
  6
Continuous
100
AcDbLine
 10
504.2912029770104
 20
1682.493017881693
 30
0.0
 11
511.2912029770105
 21
1684.493017881693
 31
0.0
  0
LINE
  5
403
330
2
100
AcDbEntity
  8
エンボス
  6
Continuous
100
AcDbLine
 10
511.2912029770105
 20
1677.493017881693
 30
0.0
 11
504.2912029770104
 21
1679.493017881693
 31
0.0
  0
LINE
  5
404
330
2
100
AcDbEntity
  8
エンボス
  6
Continuous
100
AcDbLine
 10
511.2912029770105
 20
1665.493017881693
 30
0.0
 11
504.2912029770104
 21
1663.493017881693
 31
0.0
  0
LINE
  5
405
330
2
100
AcDbEntity
  8
エンボス
  6
Continuous
100
AcDbLine
 10
504.2912029770104
 20
1670.493017881693
 30
0.0
 11
511.2912029770105
 21
1668.493017881693
 31
0.0
  0
LINE
  5
406
330
2
100
AcDbEntity
  8
エンボス
  6
Continuous
100
AcDbLine
 10
511.2912029770105
 20
1645.128923881693
 30
0.0
 11
504.2912029770104
 21
1643.128923881693
 31
0.0
  0
LINE
  5
407
330
2
100
AcDbEntity
  8
エンボス
  6
Continuous
100
AcDbLine
 10
504.2912029770104
 20
1640.128923881693
 30
0.0
 11
511.2912029770105
 21
1638.128923881693
 31
0.0
  0
LINE
  5
408
330
2
100
AcDbEntity
  8
エンボス
  6
Continuous
100
AcDbLine
 10
504.2912029770104
 20
1631.128923881693
 30
0.0
 11
511.2912029770105
 21
1629.128923881693
 31
0.0
  0
LINE
  5
409
330
2
100
AcDbEntity
  8
エンボス
  6
Continuous
100
AcDbLine
 10
511.2912029770105
 20
1626.128923881693
 30
0.0
 11
504.2912029770104
 21
1624.128923881693
 31
0.0
  0
LINE
  5
40A
330
2
100
AcDbEntity
  8
エンボス
  6
Continuous
100
AcDbLine
 10
511.2912029770105
 20
1617.128923881693
 30
0.0
 11
504.2912029770104
 21
1615.128923881693
 31
0.0
  0
LINE
  5
40B
330
2
100
AcDbEntity
  8
エンボス
  6
Continuous
100
AcDbLine
 10
504.2912029770104
 20
1612.128923881693
 30
0.0
 11
511.2912029770105
 21
1610.128923881693
 31
0.0
  0
LINE
  5
412
330
2
100
AcDbEntity
  8
エンボス
  6
Continuous
100
AcDbLine
 10
1104.29120297701
 20
1670.493017881693
 30
0.0
 11
1111.29120297701
 21
1668.493017881693
 31
0.0
  0
LINE
  5
413
330
2
100
AcDbEntity
  8
エンボス
  6
Continuous
100
AcDbLine
 10
1111.29120297701
 20
1677.493017881693
 30
0.0
 11
1104.29120297701
 21
1679.493017881693
 31
0.0
  0
LINE
  5
414
330
2
100
AcDbEntity
  8
エンボス
  6
Continuous
100
AcDbLine
 10
1104.29120297701
 20
1682.493017881693
 30
0.0
 11
1111.29120297701
 21
1684.493017881693
 31
0.0
  0
LINE
  5
415
330
2
100
AcDbEntity
  8
エンボス
  6
Continuous
100
AcDbLine
 10
1111.29120297701
 20
1693.493017881693
 30
0.0
 11
1104.29120297701
 21
1691.493017881693
 31
0.0
  0
LINE
  5
416
330
2
100
AcDbEntity
  8
エンボス
  6
Continuous
100
AcDbLine
 10
1111.29120297701
 20
1665.493017881693
 30
0.0
 11
1104.29120297701
 21
1663.493017881693
 31
0.0
  0
LINE
  5
447
330
2
100
AcDbEntity
  8
エンボス
  6
Continuous
100
AcDbLine
 10
1104.29120297701
 20
1631.128923881693
 30
0.0
 11
1111.29120297701
 21
1629.128923881693
 31
0.0
  0
LINE
  5
44E
330
2
100
AcDbEntity
  8
エンボス
  6
Continuous
100
AcDbLine
 10
1104.29120297701
 20
1612.128923881693
 30
0.0
 11
1111.29120297701
 21
1610.128923881693
 31
0.0
  0
LINE
  5
44F
330
2
100
AcDbEntity
  8
エンボス
  6
Continuous
100
AcDbLine
 10
1111.29120297701
 20
1617.128923881693
 30
0.0
 11
1104.29120297701
 21
1615.128923881693
 31
0.0
  0
LINE
  5
450
330
2
100
AcDbEntity
  8
エンボス
  6
Continuous
100
AcDbLine
 10
1111.29120297701
 20
1626.128923881693
 30
0.0
 11
1104.29120297701
 21
1624.128923881693
 31
0.0
  0
LINE
  5
451
330
2
100
AcDbEntity
  8
エンボス
  6
Continuous
100
AcDbLine
 10
1104.29120297701
 20
1640.128923881693
 30
0.0
 11
1111.29120297701
 21
1638.128923881693
 31
0.0
  0
LINE
  5
452
330
2
100
AcDbEntity
  8
エンボス
  6
Continuous
100
AcDbLine
 10
1111.29120297701
 20
1645.128923881693
 30
0.0
 11
1104.29120297701
 21
1643.128923881693
 31
0.0
  0
LINE
  5
483
330
2
100
AcDbEntity
  8
エンボス
  6
Continuous
100
AcDbLine
 10
511.2912029770105
 20
1145.764829881693
 30
0.0
 11
504.2912029770104
 21
1147.764829881693
 31
0.0
  0
LINE
  5
484
330
2
100
AcDbEntity
  8
エンボス
  6
Continuous
100
AcDbLine
 10
504.2912029770104
 20
1140.764829881693
 30
0.0
 11
511.2912029770105
 21
1142.764829881693
 31
0.0
  0
LINE
  5
485
330
2
100
AcDbEntity
  8
エンボス
  6
Continuous
100
AcDbLine
 10
511.2912029770105
 20
1133.764829881693
 30
0.0
 11
504.2912029770104
 21
1131.764829881693
 31
0.0
  0
LINE
  5
486
330
2
100
AcDbEntity
  8
エンボス
  6
Continuous
100
AcDbLine
 10
504.2912029770104
 20
1128.764829881693
 30
0.0
 11
511.2912029770105
 21
1126.764829881693
 31
0.0
  0
LINE
  5
487
330
2
100
AcDbEntity
  8
エンボス
  6
Continuous
100
AcDbLine
 10
511.2912029770105
 20
1117.764829881693
 30
0.0
 11
504.2912029770104
 21
1119.764829881693
 31
0.0
  0
LINE
  5
488
330
2
100
AcDbEntity
  8
エンボス
  6
Continuous
100
AcDbLine
 10
1111.29120297701
 20
1145.764829881693
 30
0.0
 11
1104.29120297701
 21
1147.764829881693
 31
0.0
  0
LINE
  5
489
330
2
100
AcDbEntity
  8
エンボス
  6
Continuous
100
AcDbLine
 10
1111.29120297701
 20
1117.764829881693
 30
0.0
 11
1104.29120297701
 21
1119.764829881693
 31
0.0
  0
LINE
  5
48A
330
2
100
AcDbEntity
  8
エンボス
  6
Continuous
100
AcDbLine
 10
1104.29120297701
 20
1128.764829881693
 30
0.0
 11
1111.29120297701
 21
1126.764829881693
 31
0.0
  0
LINE
  5
48B
330
2
100
AcDbEntity
  8
エンボス
  6
Continuous
100
AcDbLine
 10
1111.29120297701
 20
1133.764829881693
 30
0.0
 11
1104.29120297701
 21
1131.764829881693
 31
0.0
  0
LINE
  5
48C
330
2
100
AcDbEntity
  8
エンボス
  6
Continuous
100
AcDbLine
 10
1104.29120297701
 20
1140.764829881693
 30
0.0
 11
1111.29120297701
 21
1142.764829881693
 31
0.0
  0
LINE
  5
48D
330
2
100
AcDbEntity
  8
嵩上断面
  6
Continuous
100
AcDbLine
 10
507.7912029770105
 20
509.6765927262449
 30
0.0
 11
1107.79120297701
 21
509.6765927262449
 31
0.0
  0
LINE
  5
48E
330
2
100
AcDbEntity
  8
本体
  6
Continuous
100
AcDbLine
 10
1111.29120297701
 20
534.6765927262449
 30
0.0
 11
1107.79120297701
 21
534.6765927262449
 31
0.0
  0
LINE
  5
48F
330
2
100
AcDbEntity
  8
嵩上断面
  6
Continuous
100
AcDbLine
 10
1107.79120297701
 20
534.6765927262449
 30
0.0
 11
1107.79120297701
 21
509.6765927262449
 31
0.0
  0
DIMENSION
  5
490
330
2
100
AcDbEntity
  8
寸法線
  6
Continuous
370
     9
100
AcDbDimension
  2
*D4
 10
1111.29120297701
 20
769.676592726245
 30
0.0
 11
807.7912029770104
 21
769.676592726245
 31
0.0
 70
   160
 71
     5
 42
607.0
  3
ISO-25
100
AcDbAlignedDimension
 13
504.2912029770104
 23
609.6765927262448
 33
0.0
 14
1111.29120297701
 24
609.6765927262449
 34
0.0
100
AcDbRotatedDimension
1001
ACAD
1000
DSTYLE
1002
{
1070
   279
1070
     0
1002
}
  0
LINE
  5
4A4
330
2
100
AcDbEntity
  8
本体
  6
Continuous
100
AcDbLine
 10
1111.29120297701
 20
1110.628923881693
 30
0.0
 11
1111.29120297701
 21
1700.628923881693
 31
0.0
  0
LINE
  5
4AB
330
2
100
AcDbEntity
  8
寸法線
  6
Continuous
100
AcDbLine
 10
896.0912029770106
 20
617.6765927262449
 30
0.0
 11
896.0912029770106
 21
526.6765927262449
 31
0.0
  0
LINE
  5
4AC
330
2
100
AcDbEntity
  8
寸法線
  6
Continuous
100
AcDbLine
 10
931.3912029770108
 20
617.6765927262447
 30
0.0
 11
931.3912029770108
 21
526.6765927262449
 31
0.0
  0
DIMENSION
  5
90D
330
2
100
AcDbEntity
  8
寸法線
 48
3.0
100
AcDbDimension
  2
*D8
 10
1221.29120297701
 20
509.6765927262449
 30
0.0
 11
1201.29120297701
 21
457.2400445028948
 31
0.0
 70
    32
 71
     5
 42
25.0
  3
ISO-25
100
AcDbAlignedDimension
 13
1111.29120297701
 23
534.6765927262449
 33
0.0
 14
1107.79120297701
 24
509.6765927262449
 34
0.0
 50
90.0
100
AcDbRotatedDimension
  0
DIMENSION
  5
91C
330
2
100
AcDbEntity
  8
寸法線
 48
3.0
100
AcDbDimension
  2
*D9
 10
1301.29120297701
 20
609.6765927262448
 30
0.0
 11
1281.29120297701
 21
559.6765927262451
 31
0.0
 70
    32
 71
     5
 42
100.0
  3
ISO-25
100
AcDbAlignedDimension
 13
1107.79120297701
 23
509.6765927262449
 33
0.0
 14
1111.29120297701
 24
609.6765927262449
 34
0.0
 50
90.0
100
AcDbRotatedDimension
  0
DIMENSION
  5
929
330
2
100
AcDbEntity
  8
寸法線
 48
3.0
100
AcDbDimension
  2
*D10
 10
1221.29120297701
 20
609.6765927262449
 30
0.0
 11
1201.29120297701
 21
572.1765927262451
 31
0.0
 70
    32
 71
     5
 42
75.0
  3
ISO-25
100
AcDbAlignedDimension
 13
1111.29120297701
 23
534.6765927262449
 33
0.0
 14
1111.29120297701
 24
609.6765927262449
 34
0.0
 50
90.0
100
AcDbRotatedDimension
  0
LINE
  5
962
330
2
100
AcDbEntity
  8
嵩上平面
  6
HIDDEN
 48
3.0
370
     9
100
AcDbLine
 10
1108.79120297701
 20
1690.628925881693
 30
0.0
 11
506.7912029770105
 21
1690.628925881693
 31
0.0
  0
LINE
  5
965
330
2
100
AcDbEntity
  8
嵩上平面
  6
HIDDEN
 48
3.0
370
     9
100
AcDbLine
 10
1108.79120297701
 20
1120.628921881693
 30
0.0
 11
506.7912029770105
 21
1120.628921881693
 31
0.0
  0
LINE
  5
966
330
2
100
AcDbEntity
  8
嵩上平面
  6
HIDDEN
 48
3.0
370
     9
100
AcDbLine
 10
1108.79120297701
 20
1690.628925881693
 30
0.0
 11
1108.79120297701
 21
1650.628925881693
 31
0.0
  0
LINE
  5
967
330
2
100
AcDbEntity
  8
嵩上平面
  6
HIDDEN
 48
3.0
370
     9
100
AcDbLine
 10
506.7912029770105
 20
1690.628925881693
 30
0.0
 11
506.7912029770105
 21
1650.628925881693
 31
0.0
  0
LINE
  5
968
330
2
100
AcDbEntity
  8
嵩上平面
  6
HIDDEN
 48
3.0
370
     9
100
AcDbLine
 10
506.7912029770105
 20
1160.628921881692
 30
0.0
 11
506.7912029770105
 21
1120.628921881693
 31
0.0
  0
LINE
  5
969
330
2
100
AcDbEntity
  8
嵩上平面
  6
HIDDEN
 48
3.0
370
     9
100
AcDbLine
 10
1108.79120297701
 20
1160.628921881692
 30
0.0
 11
1108.79120297701
 21
1120.628921881693
 31
0.0
  0
INSERT
  5
97D
330
2
100
AcDbEntity
  8
本体
  6
Continuous
100
AcDbBlockReference
  2
TB8
 10
1943.221157534629
 20
1205.628923881693
 30
0.0
  0
INSERT
  5
97E
330
2
100
AcDbEntity
  8
本体
  6
Continuous
100
AcDbBlockReference
  2
TB8
 10
1943.221157534629
 20
1305.628923881693
 30
0.0
  0
INSERT
  5
97F
330
2
100
AcDbEntity
  8
本体
  6
Continuous
100
AcDbBlockReference
  2
TB8
 10
1943.221157534629
 20
1405.628923881693
 30
0.0
  0
INSERT
  5
980
330
2
100
AcDbEntity
  8
本体
  6
Continuous
100
AcDbBlockReference
  2
TB8
 10
1943.221157534629
 20
1505.628923881693
 30
0.0
  0
INSERT
  5
981
330
2
100
AcDbEntity
  8
本体
  6
Continuous
100
AcDbBlockReference
  2
TB8
 10
1943.221157534629
 20
1605.628923881693
 30
0.0
  0
DIMENSION
  5
982
330
2
100
AcDbEntity
  8
寸法線
 48
3.0
100
AcDbDimension
  2
*D11
 10
1863.221157534629
 20
1605.628923881693
 30
0.0
 11
1843.221157534628
 21
1630.628923881693
 31
0.0
 70
    32
 71
     5
 42
50.0
  3
ISO-25
100
AcDbAlignedDimension
 13
1941.221157534629
 23
1655.628923881693
 33
0.0
 14
1941.221157534629
 24
1605.628923881693
 34
0.0
 50
90.0
100
AcDbRotatedDimension
  0
LINE
  5
990
330
2
100
AcDbEntity
  8
本体
  6
Continuous
100
AcDbLine
 10
504.2912029770104
 20
1602.628923881693
 30
0.0
 11
1111.29120297701
 21
1602.628923881693
 31
0.0
  0
LINE
  5
991
330
2
100
AcDbEntity
  8
本体
  6
Continuous
100
AcDbLine
 10
504.2912029770104
 20
1608.628923881693
 30
0.0
 11
1111.29120297701
 21
1608.628923881693
 31
0.0
  0
LINE
  5
992
330
2
100
AcDbEntity
  8
本体
  6
Continuous
100
AcDbLine
 10
504.2912029770104
 20
1602.628923881693
 30
0.0
 11
504.2912029770104
 21
1558.628923881693
 31
0.0
  0
LINE
  5
993
330
2
100
AcDbEntity
  8
本体
  6
Continuous
100
AcDbLine
 10
511.2912029770105
 20
1602.628923881693
 30
0.0
 11
511.2912029770105
 21
1558.628923881693
 31
0.0
  0
LINE
  5
994
330
2
100
AcDbEntity
  8
エンボス
  6
Continuous
100
AcDbLine
 10
504.2912029770104
 20
1562.128923881693
 30
0.0
 11
511.2912029770105
 21
1560.128923881693
 31
0.0
  0
LINE
  5
995
330
2
100
AcDbEntity
  8
エンボス
  6
Continuous
100
AcDbLine
 10
511.2912029770105
 20
1567.128923881693
 30
0.0
 11
504.2912029770104
 21
1565.128923881693
 31
0.0
  0
LINE
  5
996
330
2
100
AcDbEntity
  8
エンボス
  6
Continuous
100
AcDbLine
 10
511.2912029770105
 20
1576.128923881693
 30
0.0
 11
504.2912029770104
 21
1574.128923881693
 31
0.0
  0
LINE
  5
997
330
2
100
AcDbEntity
  8
エンボス
  6
Continuous
100
AcDbLine
 10
504.2912029770104
 20
1581.128923881693
 30
0.0
 11
511.2912029770105
 21
1579.128923881693
 31
0.0
  0
LINE
  5
998
330
2
100
AcDbEntity
  8
エンボス
  6
Continuous
100
AcDbLine
 10
504.2912029770104
 20
1590.128923881693
 30
0.0
 11
511.2912029770105
 21
1588.128923881693
 31
0.0
  0
LINE
  5
999
330
2
100
AcDbEntity
  8
エンボス
  6
Continuous
100
AcDbLine
 10
511.2912029770105
 20
1595.128923881693
 30
0.0
 11
504.2912029770104
 21
1593.128923881693
 31
0.0
  0
LINE
  5
A24
330
2
100
AcDbEntity
  8
本体
  6
Continuous
100
AcDbLine
 10
1111.29120297701
 20
1602.628923881693
 30
0.0
 11
1111.29120297701
 21
1558.628923881693
 31
0.0
  0
LINE
  5
A25
330
2
100
AcDbEntity
  8
本体
  6
Continuous
100
AcDbLine
 10
1104.29120297701
 20
1602.628923881693
 30
0.0
 11
1104.29120297701
 21
1558.628923881693
 31
0.0
  0
LINE
  5
A2B
330
2
100
AcDbEntity
  8
エンボス
  6
Continuous
100
AcDbLine
 10
1104.29120297701
 20
1590.128923881693
 30
0.0
 11
1111.29120297701
 21
1588.128923881693
 31
0.0
  0
LINE
  5
A2C
330
2
100
AcDbEntity
  8
エンボス
  6
Continuous
100
AcDbLine
 10
1111.29120297701
 20
1576.128923881693
 30
0.0
 11
1104.29120297701
 21
1574.128923881693
 31
0.0
  0
LINE
  5
A2D
330
2
100
AcDbEntity
  8
エンボス
  6
Continuous
100
AcDbLine
 10
1111.29120297701
 20
1567.128923881693
 30
0.0
 11
1104.29120297701
 21
1565.128923881693
 31
0.0
  0
LINE
  5
A2E
330
2
100
AcDbEntity
  8
エンボス
  6
Continuous
100
AcDbLine
 10
1104.29120297701
 20
1562.128923881693
 30
0.0
 11
1111.29120297701
 21
1560.128923881693
 31
0.0
  0
LINE
  5
A2F
330
2
100
AcDbEntity
  8
エンボス
  6
Continuous
100
AcDbLine
 10
1104.29120297701
 20
1581.128923881693
 30
0.0
 11
1111.29120297701
 21
1579.128923881693
 31
0.0
  0
LINE
  5
A30
330
2
100
AcDbEntity
  8
本体
  6
Continuous
100
AcDbLine
 10
1069.09120297701
 20
1602.628923881693
 30
0.0
 11
1104.391202977011
 21
1608.628923881693
 31
0.0
  0
LINE
  5
A33
330
2
100
AcDbEntity
  8
エンボス
  6
Continuous
100
AcDbLine
 10
1111.29120297701
 20
1595.128923881693
 30
0.0
 11
1104.29120297701
 21
1593.128923881693
 31
0.0
  0
LINE
  5
A34
330
2
100
AcDbEntity
  8
本体
  6
Continuous
100
AcDbLine
 10
1104.391202977011
 20
1602.628923881693
 30
0.0
 11
1111.29120297701
 21
1603.801728414271
 31
0.0
  0
LINE
  5
A36
330
2
100
AcDbEntity
  8
本体
  6
Continuous
100
AcDbLine
 10
504.2912029770104
 20
1552.628923881693
 30
0.0
 11
1111.29120297701
 21
1552.628923881693
 31
0.0
  0
LINE
  5
A37
330
2
100
AcDbEntity
  8
本体
  6
Continuous
100
AcDbLine
 10
504.2912029770104
 20
1558.628923881693
 30
0.0
 11
1111.29120297701
 21
1558.628923881693
 31
0.0
  0
LINE
  5
A38
330
2
100
AcDbEntity
  8
本体
  6
Continuous
100
AcDbLine
 10
504.2912029770104
 20
1552.628923881693
 30
0.0
 11
504.2912029770104
 21
1508.628923881693
 31
0.0
  0
LINE
  5
A39
330
2
100
AcDbEntity
  8
本体
  6
Continuous
100
AcDbLine
 10
511.2912029770105
 20
1552.628923881693
 30
0.0
 11
511.2912029770105
 21
1508.628923881693
 31
0.0
  0
LINE
  5
A3A
330
2
100
AcDbEntity
  8
エンボス
  6
Continuous
100
AcDbLine
 10
504.2912029770104
 20
1512.128923881693
 30
0.0
 11
511.2912029770105
 21
1510.128923881693
 31
0.0
  0
LINE
  5
A3B
330
2
100
AcDbEntity
  8
エンボス
  6
Continuous
100
AcDbLine
 10
511.2912029770105
 20
1517.128923881693
 30
0.0
 11
504.2912029770104
 21
1515.128923881693
 31
0.0
  0
LINE
  5
A3C
330
2
100
AcDbEntity
  8
エンボス
  6
Continuous
100
AcDbLine
 10
511.2912029770105
 20
1526.128923881693
 30
0.0
 11
504.2912029770104
 21
1524.128923881693
 31
0.0
  0
LINE
  5
A3D
330
2
100
AcDbEntity
  8
エンボス
  6
Continuous
100
AcDbLine
 10
504.2912029770104
 20
1531.128923881693
 30
0.0
 11
511.2912029770105
 21
1529.128923881693
 31
0.0
  0
LINE
  5
A3E
330
2
100
AcDbEntity
  8
エンボス
  6
Continuous
100
AcDbLine
 10
504.2912029770104
 20
1540.128923881693
 30
0.0
 11
511.2912029770105
 21
1538.128923881693
 31
0.0
  0
LINE
  5
A3F
330
2
100
AcDbEntity
  8
エンボス
  6
Continuous
100
AcDbLine
 10
511.2912029770105
 20
1545.128923881693
 30
0.0
 11
504.2912029770104
 21
1543.128923881693
 31
0.0
  0
LINE
  5
ACA
330
2
100
AcDbEntity
  8
本体
  6
Continuous
100
AcDbLine
 10
1111.29120297701
 20
1552.628923881693
 30
0.0
 11
1111.29120297701
 21
1508.628923881693
 31
0.0
  0
LINE
  5
ACB
330
2
100
AcDbEntity
  8
本体
  6
Continuous
100
AcDbLine
 10
1104.29120297701
 20
1552.628923881693
 30
0.0
 11
1104.29120297701
 21
1508.628923881693
 31
0.0
  0
LINE
  5
AD1
330
2
100
AcDbEntity
  8
エンボス
  6
Continuous
100
AcDbLine
 10
1104.29120297701
 20
1540.128923881693
 30
0.0
 11
1111.29120297701
 21
1538.128923881693
 31
0.0
  0
LINE
  5
AD2
330
2
100
AcDbEntity
  8
エンボス
  6
Continuous
100
AcDbLine
 10
1111.29120297701
 20
1526.128923881693
 30
0.0
 11
1104.29120297701
 21
1524.128923881693
 31
0.0
  0
LINE
  5
AD3
330
2
100
AcDbEntity
  8
エンボス
  6
Continuous
100
AcDbLine
 10
1111.29120297701
 20
1517.128923881693
 30
0.0
 11
1104.29120297701
 21
1515.128923881693
 31
0.0
  0
LINE
  5
AD4
330
2
100
AcDbEntity
  8
エンボス
  6
Continuous
100
AcDbLine
 10
1104.29120297701
 20
1512.128923881693
 30
0.0
 11
1111.29120297701
 21
1510.128923881693
 31
0.0
  0
LINE
  5
AD5
330
2
100
AcDbEntity
  8
エンボス
  6
Continuous
100
AcDbLine
 10
1104.29120297701
 20
1531.128923881693
 30
0.0
 11
1111.29120297701
 21
1529.128923881693
 31
0.0
  0
LINE
  5
AD6
330
2
100
AcDbEntity
  8
本体
  6
Continuous
100
AcDbLine
 10
1069.09120297701
 20
1552.628923881693
 30
0.0
 11
1104.391202977011
 21
1558.628923881693
 31
0.0
  0
LINE
  5
AD9
330
2
100
AcDbEntity
  8
エンボス
  6
Continuous
100
AcDbLine
 10
1111.29120297701
 20
1545.128923881693
 30
0.0
 11
1104.29120297701
 21
1543.128923881693
 31
0.0
  0
LINE
  5
ADA
330
2
100
AcDbEntity
  8
本体
  6
Continuous
100
AcDbLine
 10
1104.391202977011
 20
1552.628923881693
 30
0.0
 11
1111.29120297701
 21
1553.801728414271
 31
0.0
  0
LINE
  5
ADC
330
2
100
AcDbEntity
  8
本体
  6
Continuous
100
AcDbLine
 10
504.2912029770104
 20
1502.628923881693
 30
0.0
 11
1111.29120297701
 21
1502.628923881693
 31
0.0
  0
LINE
  5
ADD
330
2
100
AcDbEntity
  8
本体
  6
Continuous
100
AcDbLine
 10
504.2912029770104
 20
1508.628923881693
 30
0.0
 11
1111.29120297701
 21
1508.628923881693
 31
0.0
  0
LINE
  5
ADE
330
2
100
AcDbEntity
  8
本体
  6
Continuous
100
AcDbLine
 10
504.2912029770104
 20
1502.628923881693
 30
0.0
 11
504.2912029770104
 21
1458.628923881693
 31
0.0
  0
LINE
  5
ADF
330
2
100
AcDbEntity
  8
本体
  6
Continuous
100
AcDbLine
 10
511.2912029770105
 20
1502.628923881693
 30
0.0
 11
511.2912029770105
 21
1458.628923881693
 31
0.0
  0
LINE
  5
AE0
330
2
100
AcDbEntity
  8
エンボス
  6
Continuous
100
AcDbLine
 10
504.2912029770104
 20
1462.128923881693
 30
0.0
 11
511.2912029770105
 21
1460.128923881693
 31
0.0
  0
LINE
  5
AE1
330
2
100
AcDbEntity
  8
エンボス
  6
Continuous
100
AcDbLine
 10
511.2912029770105
 20
1467.128923881693
 30
0.0
 11
504.2912029770104
 21
1465.128923881693
 31
0.0
  0
LINE
  5
AE2
330
2
100
AcDbEntity
  8
エンボス
  6
Continuous
100
AcDbLine
 10
511.2912029770105
 20
1476.128923881693
 30
0.0
 11
504.2912029770104
 21
1474.128923881693
 31
0.0
  0
LINE
  5
AE3
330
2
100
AcDbEntity
  8
エンボス
  6
Continuous
100
AcDbLine
 10
504.2912029770104
 20
1481.128923881693
 30
0.0
 11
511.2912029770105
 21
1479.128923881693
 31
0.0
  0
LINE
  5
AE4
330
2
100
AcDbEntity
  8
エンボス
  6
Continuous
100
AcDbLine
 10
504.2912029770104
 20
1490.128923881693
 30
0.0
 11
511.2912029770105
 21
1488.128923881693
 31
0.0
  0
LINE
  5
AE5
330
2
100
AcDbEntity
  8
エンボス
  6
Continuous
100
AcDbLine
 10
511.2912029770105
 20
1495.128923881693
 30
0.0
 11
504.2912029770104
 21
1493.128923881693
 31
0.0
  0
LINE
  5
B70
330
2
100
AcDbEntity
  8
本体
  6
Continuous
100
AcDbLine
 10
1111.29120297701
 20
1502.628923881693
 30
0.0
 11
1111.29120297701
 21
1458.628923881693
 31
0.0
  0
LINE
  5
B71
330
2
100
AcDbEntity
  8
本体
  6
Continuous
100
AcDbLine
 10
1104.29120297701
 20
1502.628923881693
 30
0.0
 11
1104.29120297701
 21
1458.628923881693
 31
0.0
  0
LINE
  5
B77
330
2
100
AcDbEntity
  8
エンボス
  6
Continuous
100
AcDbLine
 10
1104.29120297701
 20
1490.128923881693
 30
0.0
 11
1111.29120297701
 21
1488.128923881693
 31
0.0
  0
LINE
  5
B78
330
2
100
AcDbEntity
  8
エンボス
  6
Continuous
100
AcDbLine
 10
1111.29120297701
 20
1476.128923881693
 30
0.0
 11
1104.29120297701
 21
1474.128923881693
 31
0.0
  0
LINE
  5
B79
330
2
100
AcDbEntity
  8
エンボス
  6
Continuous
100
AcDbLine
 10
1111.29120297701
 20
1467.128923881693
 30
0.0
 11
1104.29120297701
 21
1465.128923881693
 31
0.0
  0
LINE
  5
B7A
330
2
100
AcDbEntity
  8
エンボス
  6
Continuous
100
AcDbLine
 10
1104.29120297701
 20
1462.128923881693
 30
0.0
 11
1111.29120297701
 21
1460.128923881693
 31
0.0
  0
LINE
  5
B7B
330
2
100
AcDbEntity
  8
エンボス
  6
Continuous
100
AcDbLine
 10
1104.29120297701
 20
1481.128923881693
 30
0.0
 11
1111.29120297701
 21
1479.128923881693
 31
0.0
  0
LINE
  5
B7C
330
2
100
AcDbEntity
  8
本体
  6
Continuous
100
AcDbLine
 10
1069.09120297701
 20
1502.628923881693
 30
0.0
 11
1104.391202977011
 21
1508.628923881693
 31
0.0
  0
LINE
  5
B7F
330
2
100
AcDbEntity
  8
エンボス
  6
Continuous
100
AcDbLine
 10
1111.29120297701
 20
1495.128923881693
 30
0.0
 11
1104.29120297701
 21
1493.128923881693
 31
0.0
  0
LINE
  5
B80
330
2
100
AcDbEntity
  8
本体
  6
Continuous
100
AcDbLine
 10
1104.391202977011
 20
1502.628923881693
 30
0.0
 11
1111.29120297701
 21
1503.801728414271
 31
0.0
  0
LINE
  5
B82
330
2
100
AcDbEntity
  8
本体
  6
Continuous
100
AcDbLine
 10
504.2912029770104
 20
1452.628923881693
 30
0.0
 11
1111.29120297701
 21
1452.628923881693
 31
0.0
  0
LINE
  5
B83
330
2
100
AcDbEntity
  8
本体
  6
Continuous
100
AcDbLine
 10
504.2912029770104
 20
1458.628923881693
 30
0.0
 11
1111.29120297701
 21
1458.628923881693
 31
0.0
  0
LINE
  5
B84
330
2
100
AcDbEntity
  8
本体
  6
Continuous
100
AcDbLine
 10
504.2912029770104
 20
1452.628923881693
 30
0.0
 11
504.2912029770104
 21
1408.628923881693
 31
0.0
  0
LINE
  5
B85
330
2
100
AcDbEntity
  8
本体
  6
Continuous
100
AcDbLine
 10
511.2912029770105
 20
1452.628923881693
 30
0.0
 11
511.2912029770105
 21
1408.628923881693
 31
0.0
  0
LINE
  5
B86
330
2
100
AcDbEntity
  8
エンボス
  6
Continuous
100
AcDbLine
 10
504.2912029770104
 20
1412.128923881693
 30
0.0
 11
511.2912029770105
 21
1410.128923881693
 31
0.0
  0
LINE
  5
B87
330
2
100
AcDbEntity
  8
エンボス
  6
Continuous
100
AcDbLine
 10
511.2912029770105
 20
1417.128923881693
 30
0.0
 11
504.2912029770104
 21
1415.128923881693
 31
0.0
  0
LINE
  5
B88
330
2
100
AcDbEntity
  8
エンボス
  6
Continuous
100
AcDbLine
 10
511.2912029770105
 20
1426.128923881693
 30
0.0
 11
504.2912029770104
 21
1424.128923881693
 31
0.0
  0
LINE
  5
B89
330
2
100
AcDbEntity
  8
エンボス
  6
Continuous
100
AcDbLine
 10
504.2912029770104
 20
1431.128923881693
 30
0.0
 11
511.2912029770105
 21
1429.128923881693
 31
0.0
  0
LINE
  5
B8A
330
2
100
AcDbEntity
  8
エンボス
  6
Continuous
100
AcDbLine
 10
504.2912029770104
 20
1440.128923881693
 30
0.0
 11
511.2912029770105
 21
1438.128923881693
 31
0.0
  0
LINE
  5
B8B
330
2
100
AcDbEntity
  8
エンボス
  6
Continuous
100
AcDbLine
 10
511.2912029770105
 20
1445.128923881693
 30
0.0
 11
504.2912029770104
 21
1443.128923881693
 31
0.0
  0
LINE
  5
C16
330
2
100
AcDbEntity
  8
本体
  6
Continuous
100
AcDbLine
 10
1111.29120297701
 20
1452.628923881693
 30
0.0
 11
1111.29120297701
 21
1408.628923881693
 31
0.0
  0
LINE
  5
C17
330
2
100
AcDbEntity
  8
本体
  6
Continuous
100
AcDbLine
 10
1104.29120297701
 20
1452.628923881693
 30
0.0
 11
1104.29120297701
 21
1408.628923881693
 31
0.0
  0
LINE
  5
C1D
330
2
100
AcDbEntity
  8
エンボス
  6
Continuous
100
AcDbLine
 10
1104.29120297701
 20
1440.128923881693
 30
0.0
 11
1111.29120297701
 21
1438.128923881693
 31
0.0
  0
LINE
  5
C1E
330
2
100
AcDbEntity
  8
エンボス
  6
Continuous
100
AcDbLine
 10
1111.29120297701
 20
1426.128923881693
 30
0.0
 11
1104.29120297701
 21
1424.128923881693
 31
0.0
  0
LINE
  5
C1F
330
2
100
AcDbEntity
  8
エンボス
  6
Continuous
100
AcDbLine
 10
1111.29120297701
 20
1417.128923881693
 30
0.0
 11
1104.29120297701
 21
1415.128923881693
 31
0.0
  0
LINE
  5
C20
330
2
100
AcDbEntity
  8
エンボス
  6
Continuous
100
AcDbLine
 10
1104.29120297701
 20
1412.128923881693
 30
0.0
 11
1111.29120297701
 21
1410.128923881693
 31
0.0
  0
LINE
  5
C21
330
2
100
AcDbEntity
  8
エンボス
  6
Continuous
100
AcDbLine
 10
1104.29120297701
 20
1431.128923881693
 30
0.0
 11
1111.29120297701
 21
1429.128923881693
 31
0.0
  0
LINE
  5
C22
330
2
100
AcDbEntity
  8
本体
  6
Continuous
100
AcDbLine
 10
1069.09120297701
 20
1452.628923881693
 30
0.0
 11
1104.391202977011
 21
1458.628923881693
 31
0.0
  0
LINE
  5
C25
330
2
100
AcDbEntity
  8
エンボス
  6
Continuous
100
AcDbLine
 10
1111.29120297701
 20
1445.128923881693
 30
0.0
 11
1104.29120297701
 21
1443.128923881693
 31
0.0
  0
LINE
  5
C26
330
2
100
AcDbEntity
  8
本体
  6
Continuous
100
AcDbLine
 10
1104.391202977011
 20
1452.628923881693
 30
0.0
 11
1111.29120297701
 21
1453.801728414271
 31
0.0
  0
LINE
  5
C28
330
2
100
AcDbEntity
  8
本体
  6
Continuous
100
AcDbLine
 10
504.2912029770104
 20
1402.628923881693
 30
0.0
 11
1111.29120297701
 21
1402.628923881693
 31
0.0
  0
LINE
  5
C29
330
2
100
AcDbEntity
  8
本体
  6
Continuous
100
AcDbLine
 10
504.2912029770104
 20
1408.628923881693
 30
0.0
 11
1111.29120297701
 21
1408.628923881693
 31
0.0
  0
LINE
  5
C2A
330
2
100
AcDbEntity
  8
本体
  6
Continuous
100
AcDbLine
 10
504.2912029770104
 20
1402.628923881693
 30
0.0
 11
504.2912029770104
 21
1358.628923881693
 31
0.0
  0
LINE
  5
C2B
330
2
100
AcDbEntity
  8
本体
  6
Continuous
100
AcDbLine
 10
511.2912029770105
 20
1402.628923881693
 30
0.0
 11
511.2912029770105
 21
1358.628923881693
 31
0.0
  0
LINE
  5
C2C
330
2
100
AcDbEntity
  8
エンボス
  6
Continuous
100
AcDbLine
 10
504.2912029770104
 20
1362.128923881693
 30
0.0
 11
511.2912029770105
 21
1360.128923881693
 31
0.0
  0
LINE
  5
C2D
330
2
100
AcDbEntity
  8
エンボス
  6
Continuous
100
AcDbLine
 10
511.2912029770105
 20
1367.128923881693
 30
0.0
 11
504.2912029770104
 21
1365.128923881693
 31
0.0
  0
LINE
  5
C2E
330
2
100
AcDbEntity
  8
エンボス
  6
Continuous
100
AcDbLine
 10
511.2912029770105
 20
1376.128923881693
 30
0.0
 11
504.2912029770104
 21
1374.128923881693
 31
0.0
  0
LINE
  5
C2F
330
2
100
AcDbEntity
  8
エンボス
  6
Continuous
100
AcDbLine
 10
504.2912029770104
 20
1381.128923881693
 30
0.0
 11
511.2912029770105
 21
1379.128923881693
 31
0.0
  0
LINE
  5
C30
330
2
100
AcDbEntity
  8
エンボス
  6
Continuous
100
AcDbLine
 10
504.2912029770104
 20
1390.128923881693
 30
0.0
 11
511.2912029770105
 21
1388.128923881693
 31
0.0
  0
LINE
  5
C31
330
2
100
AcDbEntity
  8
エンボス
  6
Continuous
100
AcDbLine
 10
511.2912029770105
 20
1395.128923881693
 30
0.0
 11
504.2912029770104
 21
1393.128923881693
 31
0.0
  0
LINE
  5
CBC
330
2
100
AcDbEntity
  8
本体
  6
Continuous
100
AcDbLine
 10
1111.29120297701
 20
1402.628923881693
 30
0.0
 11
1111.29120297701
 21
1358.628923881693
 31
0.0
  0
LINE
  5
CBD
330
2
100
AcDbEntity
  8
本体
  6
Continuous
100
AcDbLine
 10
1104.29120297701
 20
1402.628923881693
 30
0.0
 11
1104.29120297701
 21
1358.628923881693
 31
0.0
  0
LINE
  5
CC3
330
2
100
AcDbEntity
  8
エンボス
  6
Continuous
100
AcDbLine
 10
1104.29120297701
 20
1390.128923881693
 30
0.0
 11
1111.29120297701
 21
1388.128923881693
 31
0.0
  0
LINE
  5
CC4
330
2
100
AcDbEntity
  8
エンボス
  6
Continuous
100
AcDbLine
 10
1111.29120297701
 20
1376.128923881693
 30
0.0
 11
1104.29120297701
 21
1374.128923881693
 31
0.0
  0
LINE
  5
CC5
330
2
100
AcDbEntity
  8
エンボス
  6
Continuous
100
AcDbLine
 10
1111.29120297701
 20
1367.128923881693
 30
0.0
 11
1104.29120297701
 21
1365.128923881693
 31
0.0
  0
LINE
  5
CC6
330
2
100
AcDbEntity
  8
エンボス
  6
Continuous
100
AcDbLine
 10
1104.29120297701
 20
1362.128923881693
 30
0.0
 11
1111.29120297701
 21
1360.128923881693
 31
0.0
  0
LINE
  5
CC7
330
2
100
AcDbEntity
  8
エンボス
  6
Continuous
100
AcDbLine
 10
1104.29120297701
 20
1381.128923881693
 30
0.0
 11
1111.29120297701
 21
1379.128923881693
 31
0.0
  0
LINE
  5
CC8
330
2
100
AcDbEntity
  8
本体
  6
Continuous
100
AcDbLine
 10
1069.09120297701
 20
1402.628923881693
 30
0.0
 11
1104.391202977011
 21
1408.628923881693
 31
0.0
  0
LINE
  5
CCB
330
2
100
AcDbEntity
  8
エンボス
  6
Continuous
100
AcDbLine
 10
1111.29120297701
 20
1395.128923881693
 30
0.0
 11
1104.29120297701
 21
1393.128923881693
 31
0.0
  0
LINE
  5
CCC
330
2
100
AcDbEntity
  8
本体
  6
Continuous
100
AcDbLine
 10
1104.391202977011
 20
1402.628923881693
 30
0.0
 11
1111.29120297701
 21
1403.801728414271
 31
0.0
  0
LINE
  5
CCE
330
2
100
AcDbEntity
  8
本体
  6
Continuous
100
AcDbLine
 10
504.2912029770104
 20
1352.628923881693
 30
0.0
 11
1111.29120297701
 21
1352.628923881693
 31
0.0
  0
LINE
  5
CCF
330
2
100
AcDbEntity
  8
本体
  6
Continuous
100
AcDbLine
 10
504.2912029770104
 20
1358.628923881693
 30
0.0
 11
1111.29120297701
 21
1358.628923881693
 31
0.0
  0
LINE
  5
CD0
330
2
100
AcDbEntity
  8
本体
  6
Continuous
100
AcDbLine
 10
504.2912029770104
 20
1352.628923881693
 30
0.0
 11
504.2912029770104
 21
1308.628923881693
 31
0.0
  0
LINE
  5
CD1
330
2
100
AcDbEntity
  8
本体
  6
Continuous
100
AcDbLine
 10
511.2912029770105
 20
1352.628923881693
 30
0.0
 11
511.2912029770105
 21
1308.628923881693
 31
0.0
  0
LINE
  5
CD2
330
2
100
AcDbEntity
  8
エンボス
  6
Continuous
100
AcDbLine
 10
504.2912029770104
 20
1312.128923881693
 30
0.0
 11
511.2912029770105
 21
1310.128923881693
 31
0.0
  0
LINE
  5
CD3
330
2
100
AcDbEntity
  8
エンボス
  6
Continuous
100
AcDbLine
 10
511.2912029770105
 20
1317.128923881693
 30
0.0
 11
504.2912029770104
 21
1315.128923881693
 31
0.0
  0
LINE
  5
CD4
330
2
100
AcDbEntity
  8
エンボス
  6
Continuous
100
AcDbLine
 10
511.2912029770105
 20
1326.128923881693
 30
0.0
 11
504.2912029770104
 21
1324.128923881693
 31
0.0
  0
LINE
  5
CD5
330
2
100
AcDbEntity
  8
エンボス
  6
Continuous
100
AcDbLine
 10
504.2912029770104
 20
1331.128923881693
 30
0.0
 11
511.2912029770105
 21
1329.128923881693
 31
0.0
  0
LINE
  5
CD6
330
2
100
AcDbEntity
  8
エンボス
  6
Continuous
100
AcDbLine
 10
504.2912029770104
 20
1340.128923881693
 30
0.0
 11
511.2912029770105
 21
1338.128923881693
 31
0.0
  0
LINE
  5
CD7
330
2
100
AcDbEntity
  8
エンボス
  6
Continuous
100
AcDbLine
 10
511.2912029770105
 20
1345.128923881693
 30
0.0
 11
504.2912029770104
 21
1343.128923881693
 31
0.0
  0
LINE
  5
D62
330
2
100
AcDbEntity
  8
本体
  6
Continuous
100
AcDbLine
 10
1111.29120297701
 20
1352.628923881693
 30
0.0
 11
1111.29120297701
 21
1308.628923881693
 31
0.0
  0
LINE
  5
D63
330
2
100
AcDbEntity
  8
本体
  6
Continuous
100
AcDbLine
 10
1104.29120297701
 20
1352.628923881693
 30
0.0
 11
1104.29120297701
 21
1308.628923881693
 31
0.0
  0
LINE
  5
D69
330
2
100
AcDbEntity
  8
エンボス
  6
Continuous
100
AcDbLine
 10
1104.29120297701
 20
1340.128923881693
 30
0.0
 11
1111.29120297701
 21
1338.128923881693
 31
0.0
  0
LINE
  5
D6A
330
2
100
AcDbEntity
  8
エンボス
  6
Continuous
100
AcDbLine
 10
1111.29120297701
 20
1326.128923881693
 30
0.0
 11
1104.29120297701
 21
1324.128923881693
 31
0.0
  0
LINE
  5
D6B
330
2
100
AcDbEntity
  8
エンボス
  6
Continuous
100
AcDbLine
 10
1111.29120297701
 20
1317.128923881693
 30
0.0
 11
1104.29120297701
 21
1315.128923881693
 31
0.0
  0
LINE
  5
D6C
330
2
100
AcDbEntity
  8
エンボス
  6
Continuous
100
AcDbLine
 10
1104.29120297701
 20
1312.128923881693
 30
0.0
 11
1111.29120297701
 21
1310.128923881693
 31
0.0
  0
LINE
  5
D6D
330
2
100
AcDbEntity
  8
エンボス
  6
Continuous
100
AcDbLine
 10
1104.29120297701
 20
1331.128923881693
 30
0.0
 11
1111.29120297701
 21
1329.128923881693
 31
0.0
  0
LINE
  5
D6E
330
2
100
AcDbEntity
  8
本体
  6
Continuous
100
AcDbLine
 10
1069.09120297701
 20
1352.628923881693
 30
0.0
 11
1104.391202977011
 21
1358.628923881693
 31
0.0
  0
LINE
  5
D71
330
2
100
AcDbEntity
  8
エンボス
  6
Continuous
100
AcDbLine
 10
1111.29120297701
 20
1345.128923881693
 30
0.0
 11
1104.29120297701
 21
1343.128923881693
 31
0.0
  0
LINE
  5
D72
330
2
100
AcDbEntity
  8
本体
  6
Continuous
100
AcDbLine
 10
1104.391202977011
 20
1352.628923881693
 30
0.0
 11
1111.29120297701
 21
1353.801728414271
 31
0.0
  0
LINE
  5
D74
330
2
100
AcDbEntity
  8
本体
  6
Continuous
100
AcDbLine
 10
504.2912029770104
 20
1302.628923881693
 30
0.0
 11
1111.29120297701
 21
1302.628923881693
 31
0.0
  0
LINE
  5
D75
330
2
100
AcDbEntity
  8
本体
  6
Continuous
100
AcDbLine
 10
504.2912029770104
 20
1308.628923881693
 30
0.0
 11
1111.29120297701
 21
1308.628923881693
 31
0.0
  0
LINE
  5
D76
330
2
100
AcDbEntity
  8
本体
  6
Continuous
100
AcDbLine
 10
504.2912029770104
 20
1302.628923881693
 30
0.0
 11
504.2912029770104
 21
1258.628923881693
 31
0.0
  0
LINE
  5
D77
330
2
100
AcDbEntity
  8
本体
  6
Continuous
100
AcDbLine
 10
511.2912029770105
 20
1302.628923881693
 30
0.0
 11
511.2912029770105
 21
1258.628923881693
 31
0.0
  0
LINE
  5
D78
330
2
100
AcDbEntity
  8
エンボス
  6
Continuous
100
AcDbLine
 10
504.2912029770104
 20
1262.128923881693
 30
0.0
 11
511.2912029770105
 21
1260.128923881693
 31
0.0
  0
LINE
  5
D79
330
2
100
AcDbEntity
  8
エンボス
  6
Continuous
100
AcDbLine
 10
511.2912029770105
 20
1267.128923881693
 30
0.0
 11
504.2912029770104
 21
1265.128923881693
 31
0.0
  0
LINE
  5
D7A
330
2
100
AcDbEntity
  8
エンボス
  6
Continuous
100
AcDbLine
 10
511.2912029770105
 20
1276.128923881693
 30
0.0
 11
504.2912029770104
 21
1274.128923881693
 31
0.0
  0
LINE
  5
D7B
330
2
100
AcDbEntity
  8
エンボス
  6
Continuous
100
AcDbLine
 10
504.2912029770104
 20
1281.128923881693
 30
0.0
 11
511.2912029770105
 21
1279.128923881693
 31
0.0
  0
LINE
  5
D7C
330
2
100
AcDbEntity
  8
エンボス
  6
Continuous
100
AcDbLine
 10
504.2912029770104
 20
1290.128923881693
 30
0.0
 11
511.2912029770105
 21
1288.128923881693
 31
0.0
  0
LINE
  5
D7D
330
2
100
AcDbEntity
  8
エンボス
  6
Continuous
100
AcDbLine
 10
511.2912029770105
 20
1295.128923881693
 30
0.0
 11
504.2912029770104
 21
1293.128923881693
 31
0.0
  0
LINE
  5
E08
330
2
100
AcDbEntity
  8
本体
  6
Continuous
100
AcDbLine
 10
1111.29120297701
 20
1302.628923881693
 30
0.0
 11
1111.29120297701
 21
1258.628923881693
 31
0.0
  0
LINE
  5
E09
330
2
100
AcDbEntity
  8
本体
  6
Continuous
100
AcDbLine
 10
1104.29120297701
 20
1302.628923881693
 30
0.0
 11
1104.29120297701
 21
1258.628923881693
 31
0.0
  0
LINE
  5
E0F
330
2
100
AcDbEntity
  8
エンボス
  6
Continuous
100
AcDbLine
 10
1104.29120297701
 20
1290.128923881693
 30
0.0
 11
1111.29120297701
 21
1288.128923881693
 31
0.0
  0
LINE
  5
E10
330
2
100
AcDbEntity
  8
エンボス
  6
Continuous
100
AcDbLine
 10
1111.29120297701
 20
1276.128923881693
 30
0.0
 11
1104.29120297701
 21
1274.128923881693
 31
0.0
  0
LINE
  5
E11
330
2
100
AcDbEntity
  8
エンボス
  6
Continuous
100
AcDbLine
 10
1111.29120297701
 20
1267.128923881693
 30
0.0
 11
1104.29120297701
 21
1265.128923881693
 31
0.0
  0
LINE
  5
E12
330
2
100
AcDbEntity
  8
エンボス
  6
Continuous
100
AcDbLine
 10
1104.29120297701
 20
1262.128923881693
 30
0.0
 11
1111.29120297701
 21
1260.128923881693
 31
0.0
  0
LINE
  5
E13
330
2
100
AcDbEntity
  8
エンボス
  6
Continuous
100
AcDbLine
 10
1104.29120297701
 20
1281.128923881693
 30
0.0
 11
1111.29120297701
 21
1279.128923881693
 31
0.0
  0
LINE
  5
E14
330
2
100
AcDbEntity
  8
本体
  6
Continuous
100
AcDbLine
 10
1069.09120297701
 20
1302.628923881693
 30
0.0
 11
1104.391202977011
 21
1308.628923881693
 31
0.0
  0
LINE
  5
E17
330
2
100
AcDbEntity
  8
エンボス
  6
Continuous
100
AcDbLine
 10
1111.29120297701
 20
1295.128923881693
 30
0.0
 11
1104.29120297701
 21
1293.128923881693
 31
0.0
  0
LINE
  5
E18
330
2
100
AcDbEntity
  8
本体
  6
Continuous
100
AcDbLine
 10
1104.391202977011
 20
1302.628923881693
 30
0.0
 11
1111.29120297701
 21
1303.801728414271
 31
0.0
  0
LINE
  5
E1A
330
2
100
AcDbEntity
  8
本体
  6
Continuous
100
AcDbLine
 10
504.2912029770104
 20
1252.628923881693
 30
0.0
 11
1111.29120297701
 21
1252.628923881693
 31
0.0
  0
LINE
  5
E1B
330
2
100
AcDbEntity
  8
本体
  6
Continuous
100
AcDbLine
 10
504.2912029770104
 20
1258.628923881693
 30
0.0
 11
1111.29120297701
 21
1258.628923881693
 31
0.0
  0
LINE
  5
E1C
330
2
100
AcDbEntity
  8
本体
  6
Continuous
100
AcDbLine
 10
504.2912029770104
 20
1252.628923881693
 30
0.0
 11
504.2912029770104
 21
1208.628923881693
 31
0.0
  0
LINE
  5
E1D
330
2
100
AcDbEntity
  8
本体
  6
Continuous
100
AcDbLine
 10
511.2912029770105
 20
1252.628923881693
 30
0.0
 11
511.2912029770105
 21
1208.628923881693
 31
0.0
  0
LINE
  5
E1E
330
2
100
AcDbEntity
  8
エンボス
  6
Continuous
100
AcDbLine
 10
504.2912029770104
 20
1212.128923881693
 30
0.0
 11
511.2912029770105
 21
1210.128923881693
 31
0.0
  0
LINE
  5
E1F
330
2
100
AcDbEntity
  8
エンボス
  6
Continuous
100
AcDbLine
 10
511.2912029770105
 20
1217.128923881693
 30
0.0
 11
504.2912029770104
 21
1215.128923881693
 31
0.0
  0
LINE
  5
E20
330
2
100
AcDbEntity
  8
エンボス
  6
Continuous
100
AcDbLine
 10
511.2912029770105
 20
1226.128923881693
 30
0.0
 11
504.2912029770104
 21
1224.128923881693
 31
0.0
  0
LINE
  5
E21
330
2
100
AcDbEntity
  8
エンボス
  6
Continuous
100
AcDbLine
 10
504.2912029770104
 20
1231.128923881693
 30
0.0
 11
511.2912029770105
 21
1229.128923881693
 31
0.0
  0
LINE
  5
E22
330
2
100
AcDbEntity
  8
エンボス
  6
Continuous
100
AcDbLine
 10
504.2912029770104
 20
1240.128923881693
 30
0.0
 11
511.2912029770105
 21
1238.128923881693
 31
0.0
  0
LINE
  5
E23
330
2
100
AcDbEntity
  8
エンボス
  6
Continuous
100
AcDbLine
 10
511.2912029770105
 20
1245.128923881693
 30
0.0
 11
504.2912029770104
 21
1243.128923881693
 31
0.0
  0
LINE
  5
EAE
330
2
100
AcDbEntity
  8
本体
  6
Continuous
100
AcDbLine
 10
1111.29120297701
 20
1252.628923881693
 30
0.0
 11
1111.29120297701
 21
1208.628923881693
 31
0.0
  0
LINE
  5
EAF
330
2
100
AcDbEntity
  8
本体
  6
Continuous
100
AcDbLine
 10
1104.29120297701
 20
1252.628923881693
 30
0.0
 11
1104.29120297701
 21
1208.628923881693
 31
0.0
  0
LINE
  5
EB5
330
2
100
AcDbEntity
  8
エンボス
  6
Continuous
100
AcDbLine
 10
1104.29120297701
 20
1240.128923881693
 30
0.0
 11
1111.29120297701
 21
1238.128923881693
 31
0.0
  0
LINE
  5
EB6
330
2
100
AcDbEntity
  8
エンボス
  6
Continuous
100
AcDbLine
 10
1111.29120297701
 20
1226.128923881693
 30
0.0
 11
1104.29120297701
 21
1224.128923881693
 31
0.0
  0
LINE
  5
EB7
330
2
100
AcDbEntity
  8
エンボス
  6
Continuous
100
AcDbLine
 10
1111.29120297701
 20
1217.128923881693
 30
0.0
 11
1104.29120297701
 21
1215.128923881693
 31
0.0
  0
LINE
  5
EB8
330
2
100
AcDbEntity
  8
エンボス
  6
Continuous
100
AcDbLine
 10
1104.29120297701
 20
1212.128923881693
 30
0.0
 11
1111.29120297701
 21
1210.128923881693
 31
0.0
  0
LINE
  5
EB9
330
2
100
AcDbEntity
  8
エンボス
  6
Continuous
100
AcDbLine
 10
1104.29120297701
 20
1231.128923881693
 30
0.0
 11
1111.29120297701
 21
1229.128923881693
 31
0.0
  0
LINE
  5
EBA
330
2
100
AcDbEntity
  8
本体
  6
Continuous
100
AcDbLine
 10
1069.09120297701
 20
1252.628923881693
 30
0.0
 11
1104.391202977011
 21
1258.628923881693
 31
0.0
  0
LINE
  5
EBD
330
2
100
AcDbEntity
  8
エンボス
  6
Continuous
100
AcDbLine
 10
1111.29120297701
 20
1245.128923881693
 30
0.0
 11
1104.29120297701
 21
1243.128923881693
 31
0.0
  0
LINE
  5
EBE
330
2
100
AcDbEntity
  8
本体
  6
Continuous
100
AcDbLine
 10
1104.391202977011
 20
1252.628923881693
 30
0.0
 11
1111.29120297701
 21
1253.801728414271
 31
0.0
  0
LINE
  5
EC0
330
2
100
AcDbEntity
  8
本体
  6
Continuous
100
AcDbLine
 10
504.2912029770104
 20
1202.628923881693
 30
0.0
 11
1111.29120297701
 21
1202.628923881693
 31
0.0
  0
LINE
  5
EC1
330
2
100
AcDbEntity
  8
本体
  6
Continuous
100
AcDbLine
 10
504.2912029770104
 20
1208.628923881693
 30
0.0
 11
1111.29120297701
 21
1208.628923881693
 31
0.0
  0
LINE
  5
EC2
330
2
100
AcDbEntity
  8
本体
  6
Continuous
100
AcDbLine
 10
504.2912029770104
 20
1202.628923881693
 30
0.0
 11
504.2912029770104
 21
1158.628923881693
 31
0.0
  0
LINE
  5
EC3
330
2
100
AcDbEntity
  8
本体
  6
Continuous
100
AcDbLine
 10
511.2912029770105
 20
1202.628923881693
 30
0.0
 11
511.2912029770105
 21
1158.628923881693
 31
0.0
  0
LINE
  5
EC4
330
2
100
AcDbEntity
  8
エンボス
  6
Continuous
100
AcDbLine
 10
504.2912029770104
 20
1162.128923881693
 30
0.0
 11
511.2912029770105
 21
1160.128923881693
 31
0.0
  0
LINE
  5
EC5
330
2
100
AcDbEntity
  8
エンボス
  6
Continuous
100
AcDbLine
 10
511.2912029770105
 20
1167.128923881693
 30
0.0
 11
504.2912029770104
 21
1165.128923881693
 31
0.0
  0
LINE
  5
EC6
330
2
100
AcDbEntity
  8
エンボス
  6
Continuous
100
AcDbLine
 10
511.2912029770105
 20
1176.128923881693
 30
0.0
 11
504.2912029770104
 21
1174.128923881693
 31
0.0
  0
LINE
  5
EC7
330
2
100
AcDbEntity
  8
エンボス
  6
Continuous
100
AcDbLine
 10
504.2912029770104
 20
1181.128923881693
 30
0.0
 11
511.2912029770105
 21
1179.128923881693
 31
0.0
  0
LINE
  5
EC8
330
2
100
AcDbEntity
  8
エンボス
  6
Continuous
100
AcDbLine
 10
504.2912029770104
 20
1190.128923881693
 30
0.0
 11
511.2912029770105
 21
1188.128923881693
 31
0.0
  0
LINE
  5
EC9
330
2
100
AcDbEntity
  8
エンボス
  6
Continuous
100
AcDbLine
 10
511.2912029770105
 20
1195.128923881693
 30
0.0
 11
504.2912029770104
 21
1193.128923881693
 31
0.0
  0
LINE
  5
F54
330
2
100
AcDbEntity
  8
本体
  6
Continuous
100
AcDbLine
 10
1111.29120297701
 20
1202.628923881693
 30
0.0
 11
1111.29120297701
 21
1158.628923881693
 31
0.0
  0
LINE
  5
F55
330
2
100
AcDbEntity
  8
本体
  6
Continuous
100
AcDbLine
 10
1104.29120297701
 20
1202.628923881693
 30
0.0
 11
1104.29120297701
 21
1158.628923881693
 31
0.0
  0
LINE
  5
F5B
330
2
100
AcDbEntity
  8
エンボス
  6
Continuous
100
AcDbLine
 10
1104.29120297701
 20
1190.128923881693
 30
0.0
 11
1111.29120297701
 21
1188.128923881693
 31
0.0
  0
LINE
  5
F5C
330
2
100
AcDbEntity
  8
エンボス
  6
Continuous
100
AcDbLine
 10
1111.29120297701
 20
1176.128923881693
 30
0.0
 11
1104.29120297701
 21
1174.128923881693
 31
0.0
  0
LINE
  5
F5D
330
2
100
AcDbEntity
  8
エンボス
  6
Continuous
100
AcDbLine
 10
1111.29120297701
 20
1167.128923881693
 30
0.0
 11
1104.29120297701
 21
1165.128923881693
 31
0.0
  0
LINE
  5
F5E
330
2
100
AcDbEntity
  8
エンボス
  6
Continuous
100
AcDbLine
 10
1104.29120297701
 20
1162.128923881693
 30
0.0
 11
1111.29120297701
 21
1160.128923881693
 31
0.0
  0
LINE
  5
F5F
330
2
100
AcDbEntity
  8
エンボス
  6
Continuous
100
AcDbLine
 10
1104.29120297701
 20
1181.128923881693
 30
0.0
 11
1111.29120297701
 21
1179.128923881693
 31
0.0
  0
LINE
  5
F60
330
2
100
AcDbEntity
  8
本体
  6
Continuous
100
AcDbLine
 10
1069.09120297701
 20
1202.628923881693
 30
0.0
 11
1104.391202977011
 21
1208.628923881693
 31
0.0
  0
LINE
  5
F63
330
2
100
AcDbEntity
  8
エンボス
  6
Continuous
100
AcDbLine
 10
1111.29120297701
 20
1195.128923881693
 30
0.0
 11
1104.29120297701
 21
1193.128923881693
 31
0.0
  0
LINE
  5
F64
330
2
100
AcDbEntity
  8
本体
  6
Continuous
100
AcDbLine
 10
1104.391202977011
 20
1202.628923881693
 30
0.0
 11
1111.29120297701
 21
1203.801728414271
 31
0.0
  0
LINE
  5
F65
330
2
100
AcDbEntity
  8
本体
  6
Continuous
100
AcDbLine
 10
504.2912029770104
 20
1158.628923881693
 30
0.0
 11
1111.29120297701
 21
1158.628923881693
 31
0.0
  0
LINE
  5
F66
330
2
100
AcDbEntity
  8
本体
  6
Continuous
100
AcDbLine
 10
504.2912029770104
 20
1152.628923881693
 30
0.0
 11
1111.29120297701
 21
1152.628923881693
 31
0.0
  0
LINE
  5
F88
330
2
100
AcDbEntity
  8
本体
  6
Continuous
100
AcDbLine
 10
1069.09120297701
 20
1152.628923881693
 30
0.0
 11
1104.391202977011
 21
1158.628923881693
 31
0.0
  0
LINE
  5
F8A
330
2
100
AcDbEntity
  8
本体
  6
Continuous
100
AcDbLine
 10
1104.391202977011
 20
1152.628923881693
 30
0.0
 11
1111.29120297701
 21
1153.801728414271
 31
0.0
  0
LINE
  5
F8D
330
2
100
AcDbEntity
  8
嵩上平面
  6
HIDDEN
 48
3.0
370
     9
100
AcDbLine
 10
1108.79120297701
 20
1160.628921881692
 30
0.0
 11
506.7912029770105
 21
1160.628921881692
 31
0.0
  0
LINE
  5
F8E
330
2
100
AcDbEntity
  8
嵩上平面
  6
HIDDEN
 48
3.0
370
     9
100
AcDbLine
 10
1108.79120297701
 20
1650.628925881693
 30
0.0
 11
506.7912029770105
 21
1650.628925881693
 31
0.0
  0
MTEXT
  5
1102
330
2
100
AcDbEntity
  8
外枠
  6
Continuous
 48
100.0
370
     9
100
AcDbMText
 10
1022.193186254242
 20
77.61017986570414
 30
0.0
 40
18.0
 41
122.0406
 71
     1
 72
     5
  1
【主部材】
 73
     1
 44
1.0
1001
ACAD
1000
MTEXTBEGIN
1070
    73
1070
     1
1070
    44
1040
1.0
1070
    74
1070
     0
1000
MTEXTEND
  0
MTEXT
  5
1103
330
2
100
AcDbEntity
  8
外枠
  6
Continuous
 48
100.0
370
     9
100
AcDbMText
 10
1038.975343934131
 20
43.7816999552947
 30
0.0
 40
25.0
 41
122.0406
 71
     1
 72
     5
  1
SS400
 73
     1
 44
1.0
1001
ACAD
1000
MTEXTBEGIN
1070
    73
1070
     1
1070
    44
1040
1.0
1070
    74
1070
     0
1000
MTEXTEND
  0
MTEXT
  5
1105
330
2
100
AcDbEntity
  8
外枠
  6
Continuous
 48
100.0
370
     9
100
AcDbMText
 10
1199.761738767627
 20
151.0819879350654
 30
0.0
 40
18.0
 41
301.8661
 71
     1
 72
     5
  1
【グレーチング】JIS　H8641
 73
     1
 44
1.0
1001
ACAD
1000
MTEXTBEGIN
1070
    73
1070
     1
1070
    44
1040
1.0
1070
    74
1070
     0
1000
MTEXTEND
  0
MTEXT
  5
1106
330
2
100
AcDbEntity
  8
外枠
  6
Continuous
 48
100.0
370
     9
100
AcDbMText
 10
1159.385398923399
 20
148.6111115828503
 30
0.0
 40
20.0
 41
1015.1375
 71
     1
 72
     5
  1
表\P面\P処\P理
 73
     1
 44
1.0
1001
ACAD
1000
MTEXTBEGIN
1070
    73
1070
     1
1070
    44
1040
1.0
1070
    74
1070
     0
1000
MTEXTEND
  0
LINE
  5
1107
330
2
100
AcDbEntity
  8
外枠
  6
Continuous
 48
100.0
370
     9
100
AcDbLine
 10
1188.531791166651
 20
155.3992728207999
 30
0.0
 11
1188.531791166651
 21
9.999999999996816
 31
0.0
  0
LINE
  5
1108
330
2
100
AcDbEntity
  8
外枠
  6
Continuous
 48
100.0
370
     9
100
AcDbLine
 10
1153.531306970095
 20
155.3992728207999
 30
0.0
 11
1153.531306970095
 21
9.999999999996816
 31
0.0
  0
LINE
  5
1109
330
2
100
AcDbEntity
  8
外枠
 48
3.0
100
AcDbLine
 10
1188.531791166651
 20
82.6996364103984
 30
0.0
 11
1593.951336296073
 21
82.6996364103984
 31
0.0
  0
LINE
  5
1111
330
2
100
AcDbEntity
  8
本体
  6
Continuous
100
AcDbLine
 10
1993.221157534629
 20
1700.628923881693
 30
0.0
 11
1993.221157534629
 21
1696.128923881693
 31
0.0
  0
LINE
  5
1112
330
2
100
AcDbEntity
  8
本体
  6
Continuous
100
AcDbLine
 10
1993.221157534629
 20
1115.128923881693
 30
0.0
 11
1993.221157534629
 21
1110.628923881693
 31
0.0
  0
LINE
  5
1123
330
2
100
AcDbEntity
  8
本体
  6
Continuous
100
AcDbLine
 10
1074.59120297701
 20
559.6765927262449
 30
0.0
 11
1105.89120297701
 21
559.6765927262448
 31
0.0
  0
MTEXT
  5
125D
330
2
100
AcDbEntity
  8
外枠
  6
Continuous
 48
100.0
370
     9
100
AcDbMText
 10
1202.677957061338
 20
120.1377642323818
 30
0.0
 40
25.0
 41
1015.1375
 71
     1
 72
     5
  1
溶融亜鉛めっき仕上
 73
     1
 44
1.0
1001
ACAD
1000
MTEXTBEGIN
1070
    73
1070
     1
1070
    44
1040
1.0
1070
    74
1070
     0
1000
MTEXTEND
  0
INSERT
  5
1329
330
2
100
AcDbEntity
  8
本体
 48
3.0
100
AcDbBlockReference
  2
清水
 10
2387.385592047314
 20
155.3992728208
 30
0.0
  0
MTEXT
  5
132A
330
2
100
AcDbEntity
  8
外枠
  6
Continuous
 48
100.0
370
     9
100
AcDbMText
 10
2509.985545378613
 20
121.2206105686568
 30
0.0
 40
23.47884
 41
274.1381
 71
     1
 72
     5
  1
'14・09・01
 73
     1
 44
1.0
1001
ACAD
1000
MTEXTBEGIN
1070
    73
1070
     1
1070
    44
1040
1.0
1070
    74
1070
     0
1000
MTEXTEND
  0
INSERT
  5
132B
330
2
100
AcDbEntity
  8
外枠
 48
3.0
100
AcDbBlockReference
  2
鎌下
 10
2271.730765417811
 20
155.3992728207995
 30
0.0
  0
INSERT
  5
138E
330
2
100
AcDbEntity
  8
本体
 48
3.0
100
AcDbBlockReference
  2
P-H25
 10
2018.221157534629
 20
1690.628925881693
 30
0.0
  0
INSERT
  5
138F
330
2
100
AcDbEntity
  8
本体
 48
3.0
100
AcDbBlockReference
  2
P-H25
 10
2018.221157534629
 20
1120.628921881693
 30
0.0
 41
-1.0
 50
180.0
  0
LINE
  5
13C4
330
2
100
AcDbEntity
  8
嵩上断面
  6
HIDDEN
 48
3.0
100
AcDbLine
 10
507.7912029770105
 20
511.9765927262452
 30
0.0
 11
1107.79120297701
 21
511.9765927262452
 31
0.0
  0
DIMENSION
  5
13E8
330
2
100
AcDbEntity
  8
寸法線
 48
3.0
100
AcDbDimension
  2
*D24
 10
1107.79120297701
 20
431.9765927262452
 30
0.0
 11
807.7912029770104
 21
451.9765927262453
 31
0.0
 70
    32
 71
     5
 42
600.0
  3
ISO-25
100
AcDbAlignedDimension
 13
507.7912029770105
 23
509.6765927262449
 33
0.0
 14
1107.79120297701
 24
509.6765927262449
 34
0.0
100
AcDbRotatedDimension
  0
LEADER
  5
150C
330
2
100
AcDbEntity
  8
寸法線
  6
Continuous
100
AcDbLeader
  3
ISO-25
 73
     0
 74
     0
 75
     1
 40
30.0
 41
210.6091370558376
 76
     3
 10
1108.631900111554
 20
1575.284326892225
 30
0.0
 10
1164.342578230209
 20
1645.995005010879
 30
0.0
 10
1179.342578230209
 20
1645.995005010879
 30
0.0
340
150D
1001
ACAD
1000
DSTYLE
1002
{
1070
     5
1000
OPEN30
1070
    77
1070
     1
1070
   147
1040
0.5
1070
   342
1005
1D2
1002
}
  0
MTEXT
  5
150D
102
{ACAD_REACTORS
330
150C
102
}
330
2
100
AcDbEntity
  8
寸法線
  6
Continuous
100
AcDbMText
 10
1184.342578230209
 20
1650.995005010879
 30
0.0
 40
30.0
 41
0.0
 71
     7
 72
     1
  1
GIB7\U+00D74\U+00D775
 73
     1
 44
1.0
1001
ACAD
1000
MTEXTBEGIN
1070
    73
1070
     1
1070
    44
1040
1.0
1070
    74
1070
     0
1000
MTEXTEND
  0
LEADER
  5
150E
330
2
100
AcDbEntity
  8
寸法線
  6
Continuous
100
AcDbLeader
  3
ISO-25
 73
     0
 74
     0
 75
     1
 40
30.0
 41
35.78680203045685
 76
     3
 10
1108.631900111554
 20
1455.458045814014
 30
0.0
 10
1164.342578230209
 20
1526.168723932669
 30
0.0
 10
1179.342578230209
 20
1526.168723932669
 30
0.0
340
150F
1001
ACAD
1000
DSTYLE
1002
{
1070
     5
1000
OPEN30
1070
    77
1070
     1
1070
   147
1040
0.5
1070
   342
1005
1D2
1002
}
  0
MTEXT
  5
150F
102
{ACAD_REACTORS
330
150E
102
}
330
2
100
AcDbEntity
  8
寸法線
  6
Continuous
100
AcDbMText
 10
1184.342578230209
 20
1531.168723932669
 30
0.0
 40
30.0
 41
0.0
 71
     7
 72
     1
  1
TB
 73
     1
 44
1.0
1001
ACAD
1000
MTEXTBEGIN
1070
    73
1070
     1
1070
    44
1040
1.0
1070
    74
1070
     0
1000
MTEXTEND
  0
INSERT
  5
1543
102
{ACAD_REACTORS
330
15B8
102
}
330
2
100
AcDbEntity
  8
本体
100
AcDbBlockReference
  2
*U27
 10
525.4412029770105
 20
1405.628923881693
 30
0.0
  0
INSERT
  5
15D2
102
{ACAD_REACTORS
330
15EA
102
}
330
2
100
AcDbEntity
  8
本体
100
AcDbBlockReference
  2
*U29
 10
528.1912029770105
 20
572.1765927262449
 30
0.0
  0
ENDSEC
  0
SECTION
  2
OBJECTS
  0
DICTIONARY
  5
7
330
0
100
AcDbDictionary
281
     1
  3
ACAD_ASSOCNETWORK
350
15B0
  3
ACAD_CIP_PREVIOUS_PRODUCT_INFO
350
12B2
  3
ACAD_COLOR
350
1292
  3
ACAD_DETAILVIEWSTYLE
350
12AB
  3
ACAD_GROUP
350
955
  3
ACAD_LAYOUT
350
93B
  3
ACAD_MATERIAL
350
1260
  3
ACAD_MLEADERSTYLE
350
12A7
  3
ACAD_MLINESTYLE
350
956
  3
ACAD_PLOTSETTINGS
350
957
  3
ACAD_PLOTSTYLENAME
350
6
  3
ACAD_SCALELIST
350
1295
  3
ACAD_SECTIONVIEWSTYLE
350
12A9
  3
ACAD_TABLESTYLE
350
1293
  3
ACAD_VISUALSTYLE
350
1279
  3
ACDB_RECOMPOSE_DATA
350
164E
  3
AcDbVariableDictionary
350
1309
  3
DWGPROPS
350
164F
  0
DICTIONARY
  5
12CC
330
950
100
AcDbDictionary
280
     1
281
     1
  0
DICTIONARY
  5
13BA
330
948
100
AcDbDictionary
280
     1
281
     1
  3
ACAD_LAYERSTATES
360
13BB
  0
DICTIONARY
  5
12B3
330
65
100
AcDbDictionary
280
     1
281
     1
  3
ADSK_XREC_LAYER_RECONCILED
360
12B4
  0
DICTIONARY
  5
12B5
330
6B
100
AcDbDictionary
280
     1
281
     1
  3
ADSK_XREC_LAYER_RECONCILED
360
12B6
  0
DICTIONARY
  5
12B7
330
4
100
AcDbDictionary
280
     1
281
     1
  3
ADSK_XREC_LAYER_RECONCILED
360
12B8
  0
DICTIONARY
  5
12BB
330
68
100
AcDbDictionary
280
     1
281
     1
  3
ADSK_XREC_LAYER_RECONCILED
360
12BC
  0
DICTIONARY
  5
12BD
330
11
100
AcDbDictionary
280
     1
281
     1
  3
ADSK_XREC_LAYER_RECONCILED
360
12BE
  0
DICTIONARY
  5
13B9
330
13B8
100
AcDbDictionary
280
     1
281
     1
  0
DICTIONARY
  5
936
330
2
100
AcDbDictionary
280
     1
281
     1
  3
ACAD_ASSOCNETWORK
360
15AE
  3
ACAD_LAYOUTSELFREF
360
1212
  3
ACAD_SORTENTS
360
139B
  0
DICTIONARY
  5
93D
330
93C
100
AcDbDictionary
280
     1
281
     1
  3
ACAD_LAYOUTSELFREF
360
121F
  0
DICTIONARY
  5
943
330
942
100
AcDbDictionary
280
     1
281
     1
  3
ACAD_LAYOUTSELFREF
360
1220
  0
DICTIONARY
  5
131A
330
1319
100
AcDbDictionary
280
     1
281
     1
  0
DICTIONARY
  5
1694
330
1540
100
AcDbDictionary
280
     1
281
     1
  3
AcDbBlockTableRecordData
360
1695
  0
DICTIONARY
  5
1697
330
15CF
100
AcDbDictionary
280
     1
281
     1
  3
AcDbBlockTableRecordData
360
1698
  0
DICTIONARY
  5
15B0
102
{ACAD_REACTORS
330
7
102
}
330
7
100
AcDbDictionary
281
     1
  3
ACAD_ASSOCNETWORK
350
15B1
  0
XRECORD
  5
12B2
102
{ACAD_REACTORS
330
7
102
}
330
7
100
AcDbXrecord
280
     1
300
ACDLT
300
2014
300
ACDLT_F_S
  0
DICTIONARY
  5
1292
102
{ACAD_REACTORS
330
7
102
}
330
7
100
AcDbDictionary
281
     1
  0
DICTIONARY
  5
12AB
102
{ACAD_REACTORS
330
7
102
}
330
7
100
AcDbDictionary
281
     1
  3
Imperial24
350
137F
  3
Metric50
350
12AC
  0
DICTIONARY
  5
955
102
{ACAD_REACTORS
330
7
102
}
330
7
100
AcDbDictionary
281
     1
  0
DICTIONARY
  5
93B
102
{ACAD_REACTORS
330
7
102
}
330
7
100
AcDbDictionary
281
     1
  3
Layout1
350
941
  3
Layout2
350
947
  3
Model
350
93A
  0
DICTIONARY
  5
1260
102
{ACAD_REACTORS
330
7
102
}
330
7
100
AcDbDictionary
281
     1
  3
ByBlock
350
1269
  3
ByLayer
350
1261
  3
Global
350
1271
  0
DICTIONARY
  5
12A7
102
{ACAD_REACTORS
330
7
102
}
330
7
100
AcDbDictionary
281
     1
  3
Standard
350
12A8
  0
DICTIONARY
  5
956
102
{ACAD_REACTORS
330
7
102
}
330
7
100
AcDbDictionary
281
     1
  3
Standard
350
958
  0
DICTIONARY
  5
957
102
{ACAD_REACTORS
330
7
102
}
330
7
100
AcDbDictionary
281
     1
  0
ACDBDICTIONARYWDFLT
  5
6
102
{ACAD_REACTORS
330
7
102
}
330
7
100
AcDbDictionary
281
     1
  3
Normal
350
5
100
AcDbDictionaryWithDefault
340
5
  0
DICTIONARY
  5
1295
102
{ACAD_REACTORS
330
7
102
}
330
7
100
AcDbDictionary
281
     1
  3
A0
350
1296
  3
A1
350
1297
  3
A2
350
1298
  3
A3
350
1299
  3
A4
350
129A
  3
A5
350
129B
  3
A6
350
129C
  3
A7
350
129D
  3
A8
350
129E
  3
A9
350
129F
  3
B0
350
12A0
  3
B1
350
12A1
  3
B2
350
12A2
  3
B3
350
12A3
  3
B4
350
12A4
  3
B5
350
12A5
  3
B6
350
12A6
  0
DICTIONARY
  5
12A9
102
{ACAD_REACTORS
330
7
102
}
330
7
100
AcDbDictionary
281
     1
  3
Imperial24
350
137E
  3
Metric50
350
12AA
  0
DICTIONARY
  5
1293
102
{ACAD_REACTORS
330
7
102
}
330
7
100
AcDbDictionary
281
     1
  3
Standard
350
1294
  0
DICTIONARY
  5
1279
102
{ACAD_REACTORS
330
7
102
}
330
7
100
AcDbDictionary
281
     1
  3
2dWireframe
350
127F
  3
Basic
350
127E
  3
Brighten
350
1285
  3
ColorChange
350
1289
  3
Conceptual
350
1282
  3
Dim
350
1284
  3
EdgeColorOff
350
1291
  3
Facepattern
350
1288
  3
Flat
350
127A
  3
FlatWithEdges
350
127B
  3
Gouraud
350
127C
  3
GouraudWithEdges
350
127D
  3
Hidden
350
1281
  3
JitterOff
350
128F
  3
Linepattern
350
1287
  3
OverhangOff
350
1290
  3
Realistic
350
1283
  3
Shaded
350
128E
  3
Shaded with edges
350
128D
  3
Shades of Gray
350
128A
  3
Sketchy
350
128B
  3
Thicken
350
1286
  3
Wireframe
350
1280
  3
X-Ray
350
128C
  0
XRECORD
  5
164E
102
{ACAD_REACTORS
330
7
102
}
330
7
100
AcDbXrecord
280
     1
 90
        1
330
1294
  0
DICTIONARY
  5
1309
102
{ACAD_REACTORS
330
7
102
}
330
7
100
AcDbDictionary
281
     1
  3
CANNOSCALE
350
130E
  3
CMLEADERSTYLE
350
130B
  3
CTABLESTYLE
350
130A
  3
CVIEWDETAILSTYLE
350
130C
  3
CVIEWSECTIONSTYLE
350
130D
  3
DIMASSOC
350
1311
  3
INDEXCTL
350
1310
  3
SORTENTS
350
130F
  3
XCLIPFRAME
350
164C
  0
XRECORD
  5
164F
102
{ACAD_REACTORS
330
7
102
}
330
7
100
AcDbXrecord
280
     1
  1
DWGPROPS COOKIE
  2

  3

  4

  6

  7

  8
takara
  9

300
=
301
=
302
=
303
=
304
=
305
=
306
=
307
=
308
=
309
=
 40
0.0296257986111111
 41
2453510.558637211
 42
2457539.430090938
  1

 90
        0
  0
DICTIONARY
  5
13BB
102
{ACAD_REACTORS
330
13BA
102
}
330
13BA
100
AcDbDictionary
281
     1
  3
_LAYISO_STATE
350
1532
1001
AcLayerTools
1000
93A
1000
0
  0
XRECORD
  5
12B4
102
{ACAD_REACTORS
330
12B3
102
}
330
12B3
100
AcDbXrecord
280
     1
290
     1
  0
XRECORD
  5
12B6
102
{ACAD_REACTORS
330
12B5
102
}
330
12B5
100
AcDbXrecord
280
     1
290
     1
  0
XRECORD
  5
12B8
102
{ACAD_REACTORS
330
12B7
102
}
330
12B7
100
AcDbXrecord
280
     1
290
     1
  0
XRECORD
  5
12BC
102
{ACAD_REACTORS
330
12BB
102
}
330
12BB
100
AcDbXrecord
280
     1
290
     1
  0
XRECORD
  5
12BE
102
{ACAD_REACTORS
330
12BD
102
}
330
12BD
100
AcDbXrecord
280
     1
290
     1
  0
DICTIONARY
  5
15AE
102
{ACAD_REACTORS
330
936
102
}
330
936
100
AcDbDictionary
281
     1
  3
ACAD_ASSOCNETWORK
350
15AF
  0
XRECORD
  5
1212
102
{ACAD_REACTORS
330
936
102
}
330
936
100
AcDbXrecord
280
     1
340
2
  0
SORTENTSTABLE
  5
139B
102
{ACAD_REACTORS
330
936
102
}
330
936
100
AcDbSortentsTable
330
2
331
1EF
  5
1EF
331
48B
  5
48B
331
409
  5
409
331
F60
  5
F60
331
EC0
  5
EC0
331
B87
  5
B87
331
ADA
  5
ADA
331
1D
  5
1D
331
5A
  5
5A
331
204
  5
204
331
C5
  5
C5
331
416
  5
416
331
C1F
  5
C1F
331
F88
  5
F88
331
A2C
  5
A2C
331
2A
  5
2A
331
E10
  5
E10
331
C2C
  5
C2C
331
A39
  5
A39
331
999
  5
999
331
B7F
  5
B7F
331
E1D
  5
E1D
331
1F4
  5
1F4
331
3AB
  5
3AB
331
490
  5
490
331
C17
  5
C17
331
F65
  5
F65
331
EC5
  5
EC5
331
B71
  5
B71
331
44
  5
44
331
A24
  5
A24
331
ADF
  5
ADF
331
5F
  5
5F
331
980
  5
980
331
AF
  5
AF
331
1BC
  5
1BC
331
400
  5
400
331
CC4
  5
CC4
331
F8D
  5
F8D
331
AD1
  5
AD1
331
14
  5
14
331
51
  5
51
331
132B
  5
132B
331
2F
  5
2F
331
EB5
  5
EB5
331
138E
  5
138E
331
BC
  5
BC
331
1C9
  5
1C9
331
450
  5
450
331
CD1
  5
CD1
331
C31
  5
C31
331
D6B
  5
D6B
331
F5D
  5
F5D
331
21
  5
21
331
A3E
  5
A3E
331
3C
  5
3C
331
E22
  5
E22
331
485
  5
485
331
3B0
  5
3B0
331
CBC
  5
CBC
331
D78
  5
D78
331
990
  5
990
331
49
  5
49
331
962
  5
962
331
15F
  5
15F
331
1EB
  5
1EB
331
B4
  5
B4
331
405
  5
405
331
B83
  5
B83
331
AD6
  5
AD6
331
56
  5
56
331
19
  5
19
331
A36
  5
A36
331
1B3
  5
1B3
331
1CE
  5
1CE
331
412
  5
412
331
CD6
  5
CD6
331
EC9
  5
EC9
331
AE3
  5
AE3
331
26
  5
26
331
63
  5
63
331
2DB
  5
2DB
331
1C0
  5
1C0
331
228
  5
228
331
C28
  5
C28
331
D62
  5
D62
331
F54
  5
F54
331
D7D
  5
D7D
331
33
  5
33
331
995
  5
995
331
B7B
  5
B7B
331
4E
  5
4E
331
967
  5
967
331
1F0
  5
1F0
331
48C
  5
48C
331
40A
  5
40A
331
CCE
  5
CCE
331
EC1
  5
EC1
331
40
  5
40
331
B88
  5
B88
331
1E
  5
1E
331
5B
  5
5B
331
1B8
  5
1B8
331
205
  5
205
331
C20
  5
C20
331
A2D
  5
A2D
331
2B
  5
2B
331
E11
  5
E11
331
B8
  5
B8
331
C2D
  5
C2D
331
A3A
  5
A3A
331
38
  5
38
331
E1E
  5
E1E
331
1F5
  5
1F5
331
3AC
  5
3AC
331
D74
  5
D74
331
F66
  5
F66
331
1108
  5
1108
331
EC6
  5
EC6
331
45
  5
45
331
A25
  5
A25
331
981
  5
981
331
15B
  5
15B
331
B0
  5
B0
331
1BD
  5
1BD
331
401
  5
401
331
CC5
  5
CC5
331
C25
  5
C25
331
EB8
  5
EB8
331
F8E
  5
F8E
331
AD2
  5
AD2
331
52
  5
52
331
EB6
  5
EB6
331
138F
  5
138F
331
1CA
  5
1CA
331
4AB
  5
4AB
331
451
  5
451
331
CD2
  5
CD2
331
D6C
  5
D6C
331
F5E
  5
F5E
331
22
  5
22
331
A3F
  5
A3F
331
3D
  5
3D
331
E08
  5
E08
331
E23
  5
E23
331
10B
  5
10B
331
486
  5
486
331
3B1
  5
3B1
331
CBD
  5
CBD
331
D79
  5
D79
331
991
  5
991
331
B77
  5
B77
331
ACA
  5
ACA
331
4A
  5
4A
331
EAE
  5
EAE
331
1EC
  5
1EC
331
B5
  5
B5
331
488
  5
488
331
406
  5
406
331
EBD
  5
EBD
331
B84
  5
B84
331
57
  5
57
331
1A
  5
1A
331
A37
  5
A37
331
1B4
  5
1B4
331
C2
  5
C2
331
1CF
  5
1CF
331
413
  5
413
331
CD7
  5
CD7
331
1105
  5
1105
331
AE4
  5
AE4
331
27
  5
27
331
64
  5
64
331
C29
  5
C29
331
D63
  5
D63
331
F55
  5
F55
331
996
  5
996
331
B7C
  5
B7C
331
4F
  5
4F
331
968
  5
968
331
E1A
  5
E1A
331
1F1
  5
1F1
331
3A8
  5
3A8
331
48D
  5
48D
331
40B
  5
40B
331
CCF
  5
CCF
331
EC2
  5
EC2
331
41
  5
41
331
B89
  5
B89
331
ADC
  5
ADC
331
1F
  5
1F
331
5C
  5
5C
331
97D
  5
97D
331
AC
  5
AC
331
1B9
  5
1B9
331
C7
  5
C7
331
C21
  5
C21
331
F8A
  5
F8A
331
A2E
  5
A2E
331
2C
  5
2C
331
E12
  5
E12
331
B9
  5
B9
331
C2E
  5
C2E
331
A3B
  5
A3B
331
39
  5
39
331
90D
  5
90D
331
E1F
  5
E1F
331
3AD
  5
3AD
331
D75
  5
D75
331
1109
  5
1109
331
EC7
  5
EC7
331
46
  5
46
331
982
  5
982
331
15C
  5
15C
331
B1
  5
B1
331
1BE
  5
1BE
331
402
  5
402
331
CC6
  5
CC6
331
C26
  5
C26
331
EB9
  5
EB9
331
B80
  5
B80
331
AD3
  5
AD3
331
53
  5
53
331
A33
  5
A33
331
EB7
  5
EB7
331
1B0
  5
1B0
331
E17
  5
E17
331
BE
  5
BE
331
1CB
  5
1CB
331
452
  5
452
331
4AC
  5
4AC
331
CD3
  5
CD3
331
D6D
  5
D6D
331
F5F
  5
F5F
331
60
  5
60
331
23
  5
23
331
AE0
  5
AE0
331
3E
  5
3E
331
E09
  5
E09
331
10C
  5
10C
331
487
  5
487
331
3B2
  5
3B2
331
D7A
  5
D7A
331
992
  5
992
331
B78
  5
B78
331
4B
  5
4B
331
ACB
  5
ACB
331
EAF
  5
EAF
331
1ED
  5
1ED
331
273
  5
273
331
B6
  5
B6
331
407
  5
407
331
489
  5
489
331
4A4
  5
4A4
331
CCB
  5
CCB
331
EBE
  5
EBE
331
58
  5
58
331
1B
  5
1B
331
B85
  5
B85
331
1B5
  5
1B5
331
C3
  5
C3
331
414
  5
414
331
C1D
  5
C1D
331
1111
  5
1111
331
1106
  5
1106
331
28
  5
28
331
AE5
  5
AE5
331
13C4
  5
13C4
331
22A
  5
22A
331
C2A
  5
C2A
331
997
  5
997
331
969
  5
969
331
E1B
  5
E1B
331
1F2
  5
1F2
331
3A9
  5
3A9
331
48E
  5
48E
331
D71
  5
D71
331
F63
  5
F63
331
EC3
  5
EC3
331
42
  5
42
331
5D
  5
5D
331
ADD
  5
ADD
331
B8A
  5
B8A
331
97E
  5
97E
331
AD
  5
AD
331
1BA
  5
1BA
331
C22
  5
C22
331
12
  5
12
331
1329
  5
1329
331
A2F
  5
A2F
331
E13
  5
E13
331
44E
  5
44E
331
C2F
  5
C2F
331
D69
  5
D69
331
1123
  5
1123
331
F5B
  5
F5B
331
A3C
  5
A3C
331
E20
  5
E20
331
483
  5
483
331
3AE
  5
3AE
331
D76
  5
D76
331
47
  5
47
331
26F
  5
26F
331
1E9
  5
1E9
331
B2
  5
B2
331
1BF
  5
1BF
331
403
  5
403
331
CC7
  5
CC7
331
EBA
  5
EBA
331
54
  5
54
331
17
  5
17
331
AD4
  5
AD4
331
A34
  5
A34
331
1B1
  5
1B1
331
BF
  5
BF
331
1CC
  5
1CC
331
CD4
  5
CD4
331
D6E
  5
D6E
331
1102
  5
1102
331
AE1
  5
AE1
331
24
  5
24
331
61
  5
61
331
3F
  5
3F
331
3B3
  5
3B3
331
D7B
  5
D7B
331
31
  5
31
331
993
  5
993
331
B79
  5
B79
331
4C
  5
4C
331
965
  5
965
331
1EE
  5
1EE
331
408
  5
408
331
48A
  5
48A
331
CCC
  5
CCC
331
B86
  5
B86
331
AD9
  5
AD9
331
1C
  5
1C
331
59
  5
59
331
415
  5
415
331
C1E
  5
C1E
331
1112
  5
1112
331
1107
  5
1107
331
A2B
  5
A2B
331
29
  5
29
331
E0F
  5
E0F
331
22B
  5
22B
331
C2B
  5
C2B
331
A38
  5
A38
331
998
  5
998
331
E1C
  5
E1C
331
1F3
  5
1F3
331
3AA
  5
3AA
331
48F
  5
48F
331
C16
  5
C16
331
D72
  5
D72
331
F64
  5
F64
331
EC4
  5
EC4
331
B70
  5
B70
331
43
  5
43
331
B8B
  5
B8B
331
ADE
  5
ADE
331
5E
  5
5E
331
97F
  5
97F
331
1BB
  5
1BB
331
2CE
  5
2CE
331
CC3
  5
CC3
331
13
  5
13
331
50
  5
50
331
132A
  5
132A
331
A30
  5
A30
331
E14
  5
E14
331
BB
  5
BB
331
44F
  5
44F
331
CD0
  5
CD0
331
C30
  5
C30
331
D6A
  5
D6A
331
F5C
  5
F5C
331
20
  5
20
331
A3D
  5
A3D
331
3B
  5
3B
331
E21
  5
E21
331
109
  5
109
331
C8
  5
C8
331
3AF
  5
3AF
331
484
  5
484
331
D77
  5
D77
331
48
  5
48
331
15E
  5
15E
331
1EA
  5
1EA
331
B3
  5
B3
331
404
  5
404
331
447
  5
447
331
CC8
  5
CC8
331
B82
  5
B82
331
AD5
  5
AD5
331
18
  5
18
331
55
  5
55
331
1B2
  5
1B2
331
2AD
  5
2AD
331
125D
  5
125D
331
1CD
  5
1CD
331
CD5
  5
CD5
331
EC8
  5
EC8
331
1103
  5
1103
331
AE2
  5
AE2
331
25
  5
25
331
62
  5
62
331
91C
  5
91C
331
D7C
  5
D7C
331
32
  5
32
331
994
  5
994
331
B7A
  5
B7A
331
4D
  5
4D
331
966
  5
966
331
929
  5
929
331
E18
  5
E18
  0
XRECORD
  5
121F
102
{ACAD_REACTORS
330
93D
102
}
330
93D
100
AcDbXrecord
280
     1
340
93C
  0
XRECORD
  5
1220
102
{ACAD_REACTORS
330
943
102
}
330
943
100
AcDbXrecord
280
     1
340
942
  0
DICTIONARY
  5
1695
102
{ACAD_REACTORS
330
1694
102
}
330
1694
100
AcDbDictionary
280
     1
281
     1
  3
Edit
360
1696
  0
DICTIONARY
  5
1698
102
{ACAD_REACTORS
330
1697
102
}
330
1697
100
AcDbDictionary
280
     1
281
     1
  3
Edit
360
1699
  0
ACDBASSOCNETWORK
  5
15B1
102
{ACAD_REACTORS
330
15B0
102
}
330
15B0
100
AcDbAssocAction
 90
        1
 90
        1
330
0
360
0
 90
        0
 90
        0
 90
        0
100
AcDbAssocNetwork
 90
        0
 90
        1
 90
        1
330
15AF
 90
        1
330
15AF
  0
ACDBDETAILVIEWSTYLE
  5
137F
102
{ACAD_XDICTIONARY
360
1692
102
}
102
{ACAD_REACTORS
330
12AB
102
}
330
12AB
100
AcDbModelDocViewStyle
 70
     0
  3
Imperial24
290
     0
100
AcDbDetailViewStyle
 70
     0
 71
     0
 90
        3
 71
     1
340
9
 40
0.24
340
0
 40
0.24
300

 40
0.36
280
     3
 71
     2
340
8
 90
       25
 71
     3
340
9
 40
0.24
 90
        1
 40
0.75
 90
        1
300
%<\AcVar ViewType \f "%tc1">% %<\AcVar ViewDetailId>%\PSCALE %<\AcVar ViewScale \f "%sn">%
 71
     4
340
8
 90
       25
340
8
 90
       25
280
     0
  0
ACDBDETAILVIEWSTYLE
  5
12AC
102
{ACAD_XDICTIONARY
360
168E
102
}
102
{ACAD_REACTORS
330
12AB
102
}
330
12AB
100
AcDbModelDocViewStyle
 70
     0
  3
Metric50
290
     0
100
AcDbDetailViewStyle
 70
     0
 71
     0
 90
        3
 71
     1
340
9
 40
5.0
340
0
 40
5.0
300

 40
0.0
280
     1
 71
     2
340
8
 90
       25
 71
     3
340
9
 40
5.0
 90
        0
 40
15.0
 90
        1
300
%<\AcVar ViewDetailId>% (%<\AcVar ViewScale \f "%sn">%)
 71
     4
340
8
 90
       25
340
8
 90
       25
280
     0
  0
LAYOUT
  5
941
102
{ACAD_XDICTIONARY
360
1652
102
}
102
{ACAD_REACTORS
330
93B
102
}
330
93B
100
AcDbPlotSettings
  1

  2
None
  4

  6

 40
0.0
 41
0.0
 42
0.0
 43
0.0
 44
0.0
 45
0.0
 46
0.0
 47
0.0
 48
0.0
 49
0.0
140
0.0
141
0.0
142
1.0
143
1.0
 70
   688
 72
     0
 73
     0
 74
     5
  7
monochrome.ctb
 75
    16
147
1.0
148
0.0
149
0.0
100
AcDbLayout
  1
Layout1
 70
     1
 71
     1
 10
0.0
 20
0.0
 11
12.0
 21
9.0
 12
0.0
 22
0.0
 32
0.0
 14
0.0
 24
0.0
 34
0.0
 15
0.0
 25
0.0
 35
0.0
146
0.0
 13
0.0
 23
0.0
 33
0.0
 16
1.0
 26
0.0
 36
0.0
 17
0.0
 27
1.0
 37
0.0
 76
     0
330
93C
  0
LAYOUT
  5
947
102
{ACAD_XDICTIONARY
360
1654
102
}
102
{ACAD_REACTORS
330
93B
102
}
330
93B
100
AcDbPlotSettings
  1

  2
None
  4

  6

 40
0.0
 41
0.0
 42
0.0
 43
0.0
 44
0.0
 45
0.0
 46
0.0
 47
0.0
 48
0.0
 49
0.0
140
0.0
141
0.0
142
1.0
143
1.0
 70
   688
 72
     0
 73
     0
 74
     5
  7
monochrome.ctb
 75
    16
147
1.0
148
0.0
149
0.0
100
AcDbLayout
  1
Layout2
 70
     1
 71
     2
 10
0.0
 20
0.0
 11
12.0
 21
9.0
 12
0.0
 22
0.0
 32
0.0
 14
0.0
 24
0.0
 34
0.0
 15
0.0
 25
0.0
 35
0.0
146
0.0
 13
0.0
 23
0.0
 33
0.0
 16
1.0
 26
0.0
 36
0.0
 17
0.0
 27
1.0
 37
0.0
 76
     0
330
942
  0
LAYOUT
  5
93A
102
{ACAD_XDICTIONARY
360
1650
102
}
102
{ACAD_REACTORS
330
93B
102
}
330
93B
100
AcDbPlotSettings
  1

  2
EPSON LP-9400
  4
A4
  6

 40
5.873749732971191
 41
5.873747825622558
 42
5.873748779296875
 43
5.873748779296875
 44
209.9733276367187
 45
297.0106506347656
 46
2.339999999999999
 47
0.0
 48
0.0
 49
0.0
140
0.0
141
0.0
142
1.0
143
9.816891609963194
 70
 11956
 72
     1
 73
     1
 74
     1
  7
monochrome.ctb
 75
     0
147
0.1018652379725877
148
1264.94917075748
149
959.6633564695521
100
AcDbLayout
  1
Model
 70
     1
 71
     0
 10
0.0
 20
0.0
 11
12.0
 21
9.0
 12
0.0
 22
0.0
 32
0.0
 14
0.0
 24
0.0
 34
0.0
 15
0.0
 25
0.0
 35
0.0
146
0.0
 13
0.0
 23
0.0
 33
0.0
 16
1.0
 26
0.0
 36
0.0
 17
0.0
 27
1.0
 37
0.0
 76
     0
330
2
331
125E
  0
MATERIAL
  5
1269
102
{ACAD_XDICTIONARY
360
126A
102
}
102
{ACAD_REACTORS
330
1260
102
}
330
1260
100
AcDbMaterial
  1
ByBlock
 72
     0
 43
0.0008202099737533
 43
0.0
 43
0.0
 43
0.0
 43
0.0
 43
0.0008202099737533
 43
0.0
 43
0.0
 43
0.0
 43
0.0
 43
1.0
 43
0.0
 43
0.0
 43
0.0
 43
0.0
 43
1.0
 77
     0
 47
0.0008202099737533
 47
0.0
 47
0.0
 47
0.0
 47
0.0
 47
0.0008202099737533
 47
0.0
 47
0.0
 47
0.0
 47
0.0
 47
1.0
 47
0.0
 47
0.0
 47
0.0
 47
0.0
 47
1.0
171
     0
 49
0.0008202099737533
 49
0.0
 49
0.0
 49
0.0
 49
0.0
 49
0.0008202099737533
 49
0.0
 49
0.0
 49
0.0
 49
0.0
 49
1.0
 49
0.0
 49
0.0
 49
0.0
 49
0.0
 49
1.0
175
     0
142
0.0008202099737533
142
0.0
142
0.0
142
0.0
142
0.0
142
0.0008202099737533
142
0.0
142
0.0
142
0.0
142
0.0
142
1.0
142
0.0
142
0.0
142
0.0
142
0.0
142
1.0
179
     0
144
0.0008202099737533
144
0.0
144
0.0
144
0.0
144
0.0
144
0.0008202099737533
144
0.0
144
0.0
144
0.0
144
0.0
144
1.0
144
0.0
144
0.0
144
0.0
144
0.0
144
1.0
147
0.0008202099737533
147
0.0
147
0.0
147
0.0
147
0.0
147
0.0008202099737533
147
0.0
147
0.0
147
0.0
147
0.0
147
1.0
147
0.0
147
0.0
147
0.0
147
0.0
147
1.0
  0
MATERIAL
  5
1261
102
{ACAD_XDICTIONARY
360
1262
102
}
102
{ACAD_REACTORS
330
1260
102
}
330
1260
100
AcDbMaterial
  1
ByLayer
 72
     0
 43
0.0008202099737533
 43
0.0
 43
0.0
 43
0.0
 43
0.0
 43
0.0008202099737533
 43
0.0
 43
0.0
 43
0.0
 43
0.0
 43
1.0
 43
0.0
 43
0.0
 43
0.0
 43
0.0
 43
1.0
 77
     0
 47
0.0008202099737533
 47
0.0
 47
0.0
 47
0.0
 47
0.0
 47
0.0008202099737533
 47
0.0
 47
0.0
 47
0.0
 47
0.0
 47
1.0
 47
0.0
 47
0.0
 47
0.0
 47
0.0
 47
1.0
171
     0
 49
0.0008202099737533
 49
0.0
 49
0.0
 49
0.0
 49
0.0
 49
0.0008202099737533
 49
0.0
 49
0.0
 49
0.0
 49
0.0
 49
1.0
 49
0.0
 49
0.0
 49
0.0
 49
0.0
 49
1.0
175
     0
142
0.0008202099737533
142
0.0
142
0.0
142
0.0
142
0.0
142
0.0008202099737533
142
0.0
142
0.0
142
0.0
142
0.0
142
1.0
142
0.0
142
0.0
142
0.0
142
0.0
142
1.0
179
     0
144
0.0008202099737533
144
0.0
144
0.0
144
0.0
144
0.0
144
0.0008202099737533
144
0.0
144
0.0
144
0.0
144
0.0
144
1.0
144
0.0
144
0.0
144
0.0
144
0.0
144
1.0
147
0.0008202099737533
147
0.0
147
0.0
147
0.0
147
0.0
147
0.0008202099737533
147
0.0
147
0.0
147
0.0
147
0.0
147
1.0
147
0.0
147
0.0
147
0.0
147
0.0
147
1.0
  0
MATERIAL
  5
1271
102
{ACAD_XDICTIONARY
360
1272
102
}
102
{ACAD_REACTORS
330
1260
102
}
330
1260
100
AcDbMaterial
  1
Global
 72
     0
 43
0.0008202099737533
 43
0.0
 43
0.0
 43
0.0
 43
0.0
 43
0.0008202099737533
 43
0.0
 43
0.0
 43
0.0
 43
0.0
 43
1.0
 43
0.0
 43
0.0
 43
0.0
 43
0.0
 43
1.0
 77
     0
 47
0.0008202099737533
 47
0.0
 47
0.0
 47
0.0
 47
0.0
 47
0.0008202099737533
 47
0.0
 47
0.0
 47
0.0
 47
0.0
 47
1.0
 47
0.0
 47
0.0
 47
0.0
 47
0.0
 47
1.0
171
     0
 49
0.0008202099737533
 49
0.0
 49
0.0
 49
0.0
 49
0.0
 49
0.0008202099737533
 49
0.0
 49
0.0
 49
0.0
 49
0.0
 49
1.0
 49
0.0
 49
0.0
 49
0.0
 49
0.0
 49
1.0
175
     0
142
0.0008202099737533
142
0.0
142
0.0
142
0.0
142
0.0
142
0.0008202099737533
142
0.0
142
0.0
142
0.0
142
0.0
142
1.0
142
0.0
142
0.0
142
0.0
142
0.0
142
1.0
179
     0
144
0.0008202099737533
144
0.0
144
0.0
144
0.0
144
0.0
144
0.0008202099737533
144
0.0
144
0.0
144
0.0
144
0.0
144
1.0
144
0.0
144
0.0
144
0.0
144
0.0
144
1.0
147
0.0008202099737533
147
0.0
147
0.0
147
0.0
147
0.0
147
0.0008202099737533
147
0.0
147
0.0
147
0.0
147
0.0
147
1.0
147
0.0
147
0.0
147
0.0
147
0.0
147
1.0
  0
MLEADERSTYLE
  5
12A8
102
{ACAD_XDICTIONARY
360
168A
102
}
102
{ACAD_REACTORS
330
12A7
102
}
330
12A7
100
AcDbMLeaderStyle
170
     2
171
     1
172
     0
 90
        2
 40
0.0
 41
0.0
173
     1
 91
-1056964608
340
94C
 92
       -2
290
     1
 42
2.0
291
     1
 43
0.36
  3
Standard
 44
4.0
300

342
9
174
     1
178
     6
175
     1
176
     0
 93
-1056964608
 45
4.0
292
     0
297
     0
 46
4.0
 94
-1056964608
 47
1.0
 49
1.0
140
1.0
293
     1
141
0.0
294
     1
177
     0
142
1.0
295
     0
296
     0
143
0.125
1001
ACAD_MLEADERVER
1070
     2
  0
MLINESTYLE
  5
958
102
{ACAD_REACTORS
330
956
102
}
330
956
100
AcDbMlineStyle
  2
STANDARD
 70
     0
  3

 62
   256
 51
90.0
 52
90.0
 71
     2
 49
0.5
 62
   256
  6
BYLAYER
 49
-0.5
 62
   256
  6
BYLAYER
  0
ACDBPLACEHOLDER
  5
5
102
{ACAD_REACTORS
330
6
102
}
330
6
  0
SCALE
  5
1296
102
{ACAD_REACTORS
330
1295
102
}
330
1295
100
AcDbScale
 70
     0
300
1:1
140
1.0
141
1.0
290
     1
  0
SCALE
  5
1297
102
{ACAD_REACTORS
330
1295
102
}
330
1295
100
AcDbScale
 70
     0
300
1:2
140
1.0
141
2.0
290
     0
  0
SCALE
  5
1298
102
{ACAD_REACTORS
330
1295
102
}
330
1295
100
AcDbScale
 70
     0
300
1:4
140
1.0
141
4.0
290
     0
  0
SCALE
  5
1299
102
{ACAD_REACTORS
330
1295
102
}
330
1295
100
AcDbScale
 70
     0
300
1:5
140
1.0
141
5.0
290
     0
  0
SCALE
  5
129A
102
{ACAD_REACTORS
330
1295
102
}
330
1295
100
AcDbScale
 70
     0
300
1:8
140
1.0
141
8.0
290
     0
  0
SCALE
  5
129B
102
{ACAD_REACTORS
330
1295
102
}
330
1295
100
AcDbScale
 70
     0
300
1:10
140
1.0
141
10.0
290
     0
  0
SCALE
  5
129C
102
{ACAD_REACTORS
330
1295
102
}
330
1295
100
AcDbScale
 70
     0
300
1:16
140
1.0
141
16.0
290
     0
  0
SCALE
  5
129D
102
{ACAD_REACTORS
330
1295
102
}
330
1295
100
AcDbScale
 70
     0
300
1:20
140
1.0
141
20.0
290
     0
  0
SCALE
  5
129E
102
{ACAD_REACTORS
330
1295
102
}
330
1295
100
AcDbScale
 70
     0
300
1:30
140
1.0
141
30.0
290
     0
  0
SCALE
  5
129F
102
{ACAD_REACTORS
330
1295
102
}
330
1295
100
AcDbScale
 70
     0
300
1:40
140
1.0
141
40.0
290
     0
  0
SCALE
  5
12A0
102
{ACAD_REACTORS
330
1295
102
}
330
1295
100
AcDbScale
 70
     0
300
1:50
140
1.0
141
50.0
290
     0
  0
SCALE
  5
12A1
102
{ACAD_REACTORS
330
1295
102
}
330
1295
100
AcDbScale
 70
     0
300
1:100
140
1.0
141
100.0
290
     0
  0
SCALE
  5
12A2
102
{ACAD_REACTORS
330
1295
102
}
330
1295
100
AcDbScale
 70
     0
300
2:1
140
2.0
141
1.0
290
     0
  0
SCALE
  5
12A3
102
{ACAD_REACTORS
330
1295
102
}
330
1295
100
AcDbScale
 70
     0
300
4:1
140
4.0
141
1.0
290
     0
  0
SCALE
  5
12A4
102
{ACAD_REACTORS
330
1295
102
}
330
1295
100
AcDbScale
 70
     0
300
8:1
140
8.0
141
1.0
290
     0
  0
SCALE
  5
12A5
102
{ACAD_REACTORS
330
1295
102
}
330
1295
100
AcDbScale
 70
     0
300
10:1
140
10.0
141
1.0
290
     0
  0
SCALE
  5
12A6
102
{ACAD_REACTORS
330
1295
102
}
330
1295
100
AcDbScale
 70
     0
300
100:1
140
100.0
141
1.0
290
     0
  0
ACDBSECTIONVIEWSTYLE
  5
137E
102
{ACAD_XDICTIONARY
360
1690
102
}
102
{ACAD_REACTORS
330
12A9
102
}
330
12A9
100
AcDbModelDocViewStyle
 70
     0
  3
Imperial24
290
     0
100
AcDbSectionViewStyle
 70
     0
 71
     0
 90
       78
 71
     1
340
9
 40
0.24
340
0
340
0
 40
0.24
300
I, O, Q, S, X, Z
 40
0.48
 90
        3
 40
0.18
 90
        1
 71
     2
340
8
 90
       25
340
8
 90
       50
 40
0.24
 40
0.0
 40
0.24
 71
     3
340
9
 40
0.24
 90
        1
 40
0.75
 90
        1
300
%<\AcVar ViewType \f "%tc1">% %<\AcVar ViewSectionStartId>%-%<\AcVar ViewSectionEndId>%\PSCALE %<\AcVar ViewScale \f "%sn">%
 71
     4
300
ANSI31
 40
1.0
 90
        0
290
     0
290
     0
 90
        6
 40
0.0
 40
1.570796326794896
 40
0.2617993877991494
 40
1.308996938995747
 40
-0.2617993877991494
 40
1.832595714594046
  0
ACDBSECTIONVIEWSTYLE
  5
12AA
102
{ACAD_XDICTIONARY
360
168C
102
}
102
{ACAD_REACTORS
330
12A9
102
}
330
12A9
100
AcDbModelDocViewStyle
 70
     0
  3
Metric50
290
     0
100
AcDbSectionViewStyle
 70
     0
 71
     0
 90
      102
 71
     1
340
9
 40
5.0
340
0
340
0
 40
5.0
300
I, O, Q, S, X, Z
 40
10.0
 90
        0
 40
2.5
 90
        0
 71
     2
340
8
 90
       25
340
8
 90
       50
 40
5.0
 40
2.5
 40
5.0
 71
     3
340
9
 40
5.0
 90
        0
 40
15.0
 90
        1
300
%<\AcVar ViewSectionStartId>%-%<\AcVar ViewSectionEndId>% (%<\AcVar ViewScale \f "%sn">%)
 71
     4
300
ANSI31
 40
1.0
 90
        0
290
     0
290
     0
 90
        6
 40
0.0
 40
1.570796326794896
 40
0.2617993877991494
 40
1.308996938995747
 40
-0.2617993877991494
 40
1.832595714594046
  0
TABLESTYLE
  5
1294
102
{ACAD_XDICTIONARY
360
12C2
102
}
102
{ACAD_REACTORS
330
1293
102
}
330
1293
100
AcDbTableStyle
  3
Standard
 70
     0
 71
     0
 40
1.5
 41
1.5
280
     0
281
     0
  7
Standard
140
4.5
170
     2
 62
     0
 63
     7
283
     0
274
    -2
284
     1
 64
     0
275
    -2
285
     1
 65
     0
276
    -2
286
     1
 66
     0
277
    -2
287
     1
 67
     0
278
    -2
288
     1
 68
     0
279
    -2
289
     1
 69
     0
  7
Standard
140
6.0
170
     5
 62
     0
 63
     7
283
     0
274
    -2
284
     1
 64
     0
275
    -2
285
     1
 65
     0
276
    -2
286
     1
 66
     0
277
    -2
287
     1
 67
     0
278
    -2
288
     1
 68
     0
279
    -2
289
     1
 69
     0
  7
Standard
140
4.5
170
     5
 62
     0
 63
     7
283
     0
274
    -2
284
     1
 64
     0
275
    -2
285
     1
 65
     0
276
    -2
286
     1
 66
     0
277
    -2
287
     1
 67
     0
278
    -2
288
     1
 68
     0
279
    -2
289
     1
 69
     0
  0
VISUALSTYLE
  5
127F
102
{ACAD_XDICTIONARY
360
1663
102
}
102
{ACAD_REACTORS
330
1279
102
}
330
1279
100
AcDbVisualStyle
  2
2dWireframe
 70
     4
 71
     0
 72
     2
 73
     0
 90
        0
 40
-0.6
 41
-30.0
 62
     5
 63
     7
 74
     1
 91
        4
 64
     7
 65
   257
 75
     1
175
     1
 42
1.0
 92
        0
 66
   257
 43
1.0
 76
     1
 77
     6
 78
     2
 67
     7
 79
     5
170
     0
171
     0
290
     0
174
     0
 93
        1
 44
0.0
173
     0
291
     0
 45
0.0
1001
ACAD
1000
AcDbSavedByObjectVersion
1070
     0
  0
VISUALSTYLE
  5
127E
102
{ACAD_XDICTIONARY
360
1661
102
}
102
{ACAD_REACTORS
330
1279
102
}
330
1279
100
AcDbVisualStyle
  2
Basic
 70
     7
 71
     1
 72
     0
 73
     1
 90
        0
 40
-0.6
 41
-30.0
 62
     5
 63
     7
 74
     0
 91
        4
 64
     7
 65
   257
 75
     1
175
     1
 42
1.0
 92
        8
 66
     7
 43
1.0
 76
     1
 77
     6
 78
     2
 67
     7
 79
     5
170
     0
171
     0
290
     0
174
     0
 93
        1
 44
0.0
173
     0
291
     1
 45
0.0
1001
ACAD
1000
AcDbSavedByObjectVersion
1070
     0
  0
VISUALSTYLE
  5
1285
102
{ACAD_XDICTIONARY
360
166F
102
}
102
{ACAD_REACTORS
330
1279
102
}
330
1279
100
AcDbVisualStyle
  2
Brighten
 70
    12
 71
     2
 72
     2
 73
     0
 90
        0
 40
-0.6
 41
-30.0
 62
     5
 63
     7
 74
     1
 91
        4
 64
     7
 65
   257
 75
     1
175
     1
 42
1.0
 92
        8
 66
     7
 43
1.0
 76
     1
 77
     6
 78
     2
 67
     7
 79
     5
170
     0
171
     0
290
     0
174
     0
 93
        1
 44
50.0
173
     0
291
     1
 45
0.0
1001
ACAD
1000
AcDbSavedByObjectVersion
1070
     0
  0
VISUALSTYLE
  5
1289
102
{ACAD_XDICTIONARY
360
1677
102
}
102
{ACAD_REACTORS
330
1279
102
}
330
1279
100
AcDbVisualStyle
  2
ColorChange
 70
    16
 71
     2
 72
     2
 73
     3
 90
        0
 40
-0.6
 41
-30.0
 62
     5
 63
     8
 74
     1
 91
        4
 64
     7
 65
   257
 75
     1
175
     1
 42
1.0
 92
        8
 66
     8
 43
1.0
 76
     1
 77
     6
 78
     2
 67
     7
 79
     5
170
     0
171
     0
290
     0
174
     0
 93
        1
 44
0.0
173
     0
291
     1
 45
0.0
1001
ACAD
1000
AcDbSavedByObjectVersion
1070
     0
  0
VISUALSTYLE
  5
1282
102
{ACAD_XDICTIONARY
360
1669
102
}
102
{ACAD_REACTORS
330
1279
102
}
330
1279
100
AcDbVisualStyle
  2
Conceptual
 70
     9
 71
     3
 72
     2
 73
     0
 90
        0
 40
-0.6
 41
-30.0
 62
     5
 63
     7
 74
     2
 91
        2
 64
     7
 65
   257
 75
     1
175
     1
 42
179.0
 92
        8
 66
     7
 43
1.0
 76
     1
 77
     6
 78
     2
 67
     7
 79
     3
170
     0
171
     0
290
     0
174
     0
 93
        1
 44
0.0
173
     0
291
     0
 45
0.0
1001
ACAD
1000
AcDbSavedByObjectVersion
1070
     0
  0
VISUALSTYLE
  5
1284
102
{ACAD_XDICTIONARY
360
166D
102
}
102
{ACAD_REACTORS
330
1279
102
}
330
1279
100
AcDbVisualStyle
  2
Dim
 70
    11
 71
     2
 72
     2
 73
     0
 90
        0
 40
-0.6
 41
-30.0
 62
     5
 63
     7
 74
     1
 91
        4
 64
     7
 65
   257
 75
     1
175
     1
 42
1.0
 92
        8
 66
     7
 43
1.0
 76
     1
 77
     6
 78
     2
 67
     7
 79
     5
170
     0
171
     0
290
     0
174
     0
 93
        1
 44
-50.0
173
     0
291
     1
 45
0.0
1001
ACAD
1000
AcDbSavedByObjectVersion
1070
     0
  0
VISUALSTYLE
  5
1291
102
{ACAD_XDICTIONARY
360
1687
102
}
102
{ACAD_REACTORS
330
1279
102
}
330
1279
100
AcDbVisualStyle
  2
EdgeColorOff
 70
    22
 71
     2
 72
     2
 73
     0
 90
        0
 40
-0.6
 41
-30.0
 62
     5
 63
     7
 74
     1
 91
        4
 64
     7
 65
   257
 75
     1
175
     1
 42
1.0
 92
        8
 66
     7
 43
1.0
 76
     1
 77
     6
 78
     2
 67
     7
 79
     5
170
     0
171
     0
290
     0
174
     0
 93
        1
 44
0.0
173
     0
291
     1
 45
0.0
1001
ACAD
1000
AcDbSavedByObjectVersion
1070
     0
  0
VISUALSTYLE
  5
1288
102
{ACAD_XDICTIONARY
360
1675
102
}
102
{ACAD_REACTORS
330
1279
102
}
330
1279
100
AcDbVisualStyle
  2
Facepattern
 70
    15
 71
     2
 72
     2
 73
     0
 90
        0
 40
-0.6
 41
-30.0
 62
     5
 63
     7
 74
     1
 91
        4
 64
     7
 65
   257
 75
     1
175
     1
 42
1.0
 92
        8
 66
     7
 43
1.0
 76
     1
 77
     6
 78
     2
 67
     7
 79
     5
170
     0
171
     0
290
     0
174
     0
 93
        1
 44
0.0
173
     0
291
     1
 45
0.0
1001
ACAD
1000
AcDbSavedByObjectVersion
1070
     0
  0
VISUALSTYLE
  5
127A
102
{ACAD_XDICTIONARY
360
1659
102
}
102
{ACAD_REACTORS
330
1279
102
}
330
1279
100
AcDbVisualStyle
  2
Flat
 70
     0
 71
     2
 72
     1
 73
     1
 90
        2
 40
-0.6
 41
30.0
 62
     5
 63
     7
 74
     0
 91
        0
 64
     7
 65
   257
 75
     1
175
     1
 42
1.0
 92
        8
 66
     7
 43
1.0
 76
     1
 77
     6
 78
     2
 67
     7
 79
     5
170
     0
171
     0
290
     0
174
     0
 93
       13
 44
0.0
173
     0
291
     1
 45
0.0
1001
ACAD
1000
AcDbSavedByObjectVersion
1070
     0
  0
VISUALSTYLE
  5
127B
102
{ACAD_XDICTIONARY
360
165B
102
}
102
{ACAD_REACTORS
330
1279
102
}
330
1279
100
AcDbVisualStyle
  2
FlatWithEdges
 70
     1
 71
     2
 72
     1
 73
     1
 90
        2
 40
-0.6
 41
30.0
 62
     5
 63
     7
 74
     1
 91
        0
 64
     7
 65
   257
 75
     1
175
     1
 42
1.0
 92
        0
 66
   257
 43
1.0
 76
     1
 77
     6
 78
     2
 67
     7
 79
     5
170
     0
171
     0
290
     0
174
     0
 93
       13
 44
0.0
173
     0
291
     1
 45
0.0
1001
ACAD
1000
AcDbSavedByObjectVersion
1070
     0
  0
VISUALSTYLE
  5
127C
102
{ACAD_XDICTIONARY
360
165D
102
}
102
{ACAD_REACTORS
330
1279
102
}
330
1279
100
AcDbVisualStyle
  2
Gouraud
 70
     2
 71
     2
 72
     2
 73
     1
 90
        2
 40
-0.6
 41
30.0
 62
     5
 63
     7
 74
     0
 91
        0
 64
     7
 65
   257
 75
     1
175
     1
 42
1.0
 92
        0
 66
     7
 43
1.0
 76
     1
 77
     6
 78
     2
 67
     7
 79
     5
170
     0
171
     0
290
     0
174
     0
 93
       13
 44
0.0
173
     0
291
     1
 45
0.0
1001
ACAD
1000
AcDbSavedByObjectVersion
1070
     0
  0
VISUALSTYLE
  5
127D
102
{ACAD_XDICTIONARY
360
165F
102
}
102
{ACAD_REACTORS
330
1279
102
}
330
1279
100
AcDbVisualStyle
  2
GouraudWithEdges
 70
     3
 71
     2
 72
     2
 73
     1
 90
        2
 40
-0.6
 41
30.0
 62
     5
 63
     7
 74
     1
 91
        0
 64
     7
 65
   257
 75
     1
175
     1
 42
1.0
 92
        0
 66
   257
 43
1.0
 76
     1
 77
     6
 78
     2
 67
     7
 79
     5
170
     0
171
     0
290
     0
174
     0
 93
       13
 44
0.0
173
     0
291
     1
 45
0.0
1001
ACAD
1000
AcDbSavedByObjectVersion
1070
     0
  0
VISUALSTYLE
  5
1281
102
{ACAD_XDICTIONARY
360
1667
102
}
102
{ACAD_REACTORS
330
1279
102
}
330
1279
100
AcDbVisualStyle
  2
Hidden
 70
     6
 71
     1
 72
     2
 73
     2
 90
        0
 40
-0.6
 41
-30.0
 62
     5
 63
     7
 74
     2
 91
        2
 64
     7
 65
   257
 75
     2
175
     1
 42
40.0
 92
        0
 66
   257
 43
1.0
 76
     1
 77
     6
 78
     2
 67
     7
 79
     3
170
     0
171
     0
290
     0
174
     0
 93
        1
 44
0.0
173
     0
291
     0
 45
0.0
1001
ACAD
1000
AcDbSavedByObjectVersion
1070
     0
  0
VISUALSTYLE
  5
128F
102
{ACAD_XDICTIONARY
360
1683
102
}
102
{ACAD_REACTORS
330
1279
102
}
330
1279
100
AcDbVisualStyle
  2
JitterOff
 70
    20
 71
     2
 72
     2
 73
     0
 90
        0
 40
-0.6
 41
-30.0
 62
     5
 63
     7
 74
     1
 91
        4
 64
     7
 65
   257
 75
     1
175
     1
 42
1.0
 92
       10
 66
     7
 43
1.0
 76
     1
 77
     6
 78
     2
 67
     7
 79
     5
170
     0
171
     0
290
     0
174
     0
 93
        1
 44
0.0
173
     0
291
     1
 45
0.0
1001
ACAD
1000
AcDbSavedByObjectVersion
1070
     0
  0
VISUALSTYLE
  5
1287
102
{ACAD_XDICTIONARY
360
1673
102
}
102
{ACAD_REACTORS
330
1279
102
}
330
1279
100
AcDbVisualStyle
  2
Linepattern
 70
    14
 71
     2
 72
     2
 73
     0
 90
        0
 40
-0.6
 41
-30.0
 62
     5
 63
     7
 74
     1
 91
        4
 64
     7
 65
   257
 75
     7
175
     7
 42
1.0
 92
        8
 66
     7
 43
1.0
 76
     1
 77
     6
 78
     2
 67
     7
 79
     5
170
     0
171
     0
290
     0
174
     0
 93
        1
 44
0.0
173
     0
291
     1
 45
0.0
1001
ACAD
1000
AcDbSavedByObjectVersion
1070
     0
  0
VISUALSTYLE
  5
1290
102
{ACAD_XDICTIONARY
360
1685
102
}
102
{ACAD_REACTORS
330
1279
102
}
330
1279
100
AcDbVisualStyle
  2
OverhangOff
 70
    21
 71
     2
 72
     2
 73
     0
 90
        0
 40
-0.6
 41
-30.0
 62
     5
 63
     7
 74
     1
 91
        4
 64
     7
 65
   257
 75
     1
175
     1
 42
1.0
 92
        9
 66
     7
 43
1.0
 76
     1
 77
     6
 78
     2
 67
     7
 79
     5
170
     0
171
     0
290
     0
174
     0
 93
        1
 44
0.0
173
     0
291
     1
 45
0.0
1001
ACAD
1000
AcDbSavedByObjectVersion
1070
     0
  0
VISUALSTYLE
  5
1283
102
{ACAD_XDICTIONARY
360
166B
102
}
102
{ACAD_REACTORS
330
1279
102
}
330
1279
100
AcDbVisualStyle
  2
Realistic
 70
     8
 71
     2
 72
     2
 73
     0
 90
        2
 40
-0.6
 41
30.0
 62
     5
 63
     7
 74
     0
 91
        0
 64
     7
 65
   257
 75
     1
175
     1
 42
1.0
 92
        8
 66
   257
 43
1.0
 76
     1
 77
     6
 78
     2
 67
     7
 79
     3
170
     0
171
     0
290
     0
174
     0
 93
       13
 44
0.0
173
     0
291
     0
 45
0.0
1001
ACAD
1000
AcDbSavedByObjectVersion
1070
     0
  0
VISUALSTYLE
  5
128E
102
{ACAD_XDICTIONARY
360
1681
102
}
102
{ACAD_REACTORS
330
1279
102
}
330
1279
100
AcDbVisualStyle
  2
Shaded
 70
    27
 71
     2
 72
     2
 73
     1
 90
        2
 40
-0.6
 41
30.0
 62
     5
 63
     7
 74
     0
 91
        4
 64
     7
 65
   257
 75
     1
175
     1
 42
1.0
 92
        8
 66
   257
 43
1.0
 76
     1
 77
     6
 78
     2
 67
     8
 79
     3
170
     0
171
     0
290
     0
174
     0
 93
        5
 44
0.0
173
     0
291
     0
 45
0.0
1001
ACAD
1000
AcDbSavedByObjectVersion
1070
     0
  0
VISUALSTYLE
  5
128D
102
{ACAD_XDICTIONARY
360
167F
102
}
102
{ACAD_REACTORS
330
1279
102
}
330
1279
100
AcDbVisualStyle
  2
Shaded with edges
 70
    26
 71
     2
 72
     2
 73
     1
 90
        2
 40
-0.6
 41
30.0
 62
     5
 63
     7
 74
     1
 91
       10
 64
     7
 65
   257
 75
     2
175
     1
 42
1.0
 92
        8
 66
   257
 43
1.0
 76
     1
 77
     6
 78
     2
 67
     7
 79
     3
170
     0
171
     0
290
     0
174
     0
 93
        5
 44
0.0
173
     0
291
     0
 45
0.0
1001
ACAD
1000
AcDbSavedByObjectVersion
1070
     0
  0
VISUALSTYLE
  5
128A
102
{ACAD_XDICTIONARY
360
1679
102
}
102
{ACAD_REACTORS
330
1279
102
}
330
1279
100
AcDbVisualStyle
  2
Shades of Gray
 70
    23
 71
     2
 72
     2
 73
     3
 90
        0
 40
-0.6
 41
-30.0
 62
     5
 63
     7
 74
     2
 91
        2
 64
     7
 65
     7
 75
     1
175
     1
 42
40.0
 92
        8
 66
     7
 43
1.0
 76
     1
 77
     6
 78
     2
 67
     7
 79
     3
170
     0
171
     0
290
     0
174
     0
 93
        1
 44
0.0
173
     0
291
     0
 45
0.0
1001
ACAD
1000
AcDbSavedByObjectVersion
1070
     0
  0
VISUALSTYLE
  5
128B
102
{ACAD_XDICTIONARY
360
167B
102
}
102
{ACAD_REACTORS
330
1279
102
}
330
1279
100
AcDbVisualStyle
  2
Sketchy
 70
    24
 71
     1
 72
     2
 73
     2
 90
        0
 40
-0.6
 41
-30.0
 62
     5
 63
     7
 74
     2
 91
        2
 64
     7
 65
     7
 75
     1
175
     1
 42
40.0
 92
       11
 66
     7
 43
1.0
 76
     1
 77
     6
 78
     2
 67
     7
 79
     6
170
     0
171
     0
290
     0
174
     0
 93
        1
 44
0.0
173
     0
291
     0
 45
0.0
1001
ACAD
1000
AcDbSavedByObjectVersion
1070
     0
  0
VISUALSTYLE
  5
1286
102
{ACAD_XDICTIONARY
360
1671
102
}
102
{ACAD_REACTORS
330
1279
102
}
330
1279
100
AcDbVisualStyle
  2
Thicken
 70
    13
 71
     2
 72
     2
 73
     0
 90
        0
 40
-0.6
 41
-30.0
 62
     5
 63
     7
 74
     1
 91
        4
 64
     7
 65
   257
 75
     1
175
     1
 42
1.0
 92
       12
 66
     7
 43
1.0
 76
     1
 77
     6
 78
     2
 67
     7
 79
     5
170
     0
171
     0
290
     0
174
     0
 93
        1
 44
0.0
173
     0
291
     1
 45
0.0
1001
ACAD
1000
AcDbSavedByObjectVersion
1070
     0
  0
VISUALSTYLE
  5
1280
102
{ACAD_XDICTIONARY
360
1665
102
}
102
{ACAD_REACTORS
330
1279
102
}
330
1279
100
AcDbVisualStyle
  2
Wireframe
 70
     5
 71
     0
 72
     2
 73
     0
 90
        0
 40
-0.6
 41
-30.0
 62
     5
 63
     7
 74
     1
 91
        4
 64
     7
 65
   257
 75
     1
175
     1
 42
1.0
 92
        0
 66
   257
 43
1.0
 76
     1
 77
     6
 78
     2
 67
     7
 79
     3
170
     0
171
     0
290
     0
174
     0
 93
        1
 44
0.0
173
     0
291
     0
 45
0.0
1001
ACAD
1000
AcDbSavedByObjectVersion
1070
     0
  0
VISUALSTYLE
  5
128C
102
{ACAD_XDICTIONARY
360
167D
102
}
102
{ACAD_REACTORS
330
1279
102
}
330
1279
100
AcDbVisualStyle
  2
X-Ray
 70
    25
 71
     2
 72
     2
 73
     1
 90
        1
 40
0.5
 41
-30.0
 62
     5
 63
     7
 74
     1
 91
        0
 64
     7
 65
   257
 75
     1
175
     1
 42
1.0
 92
        8
 66
     7
 43
1.0
 76
     1
 77
     6
 78
     2
 67
     7
 79
     3
170
     0
171
     0
290
     0
174
     0
 93
       13
 44
0.0
173
     0
291
     0
 45
0.0
1001
ACAD
1000
AcDbSavedByObjectVersion
1070
     0
  0
DICTIONARYVAR
  5
130E
102
{ACAD_REACTORS
330
1309
102
}
330
1309
100
DictionaryVariables
280
     0
  1
1:1
  0
DICTIONARYVAR
  5
130B
102
{ACAD_REACTORS
330
1309
102
}
330
1309
100
DictionaryVariables
280
     0
  1
STANDARD
  0
DICTIONARYVAR
  5
130A
102
{ACAD_REACTORS
330
1309
102
}
330
1309
100
DictionaryVariables
280
     0
  1
STANDARD
  0
DICTIONARYVAR
  5
130C
102
{ACAD_REACTORS
330
1309
102
}
330
1309
100
DictionaryVariables
280
     0
  1
Metric50
  0
DICTIONARYVAR
  5
130D
102
{ACAD_REACTORS
330
1309
102
}
330
1309
100
DictionaryVariables
280
     0
  1
Metric50
  0
DICTIONARYVAR
  5
1311
102
{ACAD_REACTORS
330
1309
102
}
330
1309
100
DictionaryVariables
280
     0
  1
1
  0
DICTIONARYVAR
  5
1310
102
{ACAD_REACTORS
330
1309
102
}
330
1309
100
DictionaryVariables
280
     0
  1
0
  0
DICTIONARYVAR
  5
130F
102
{ACAD_REACTORS
330
1309
102
}
330
1309
100
DictionaryVariables
280
     0
  1
127
  0
DICTIONARYVAR
  5
164C
102
{ACAD_REACTORS
330
1309
102
}
330
1309
100
DictionaryVariables
280
     0
  1
2
  0
XRECORD
  5
1532
102
{ACAD_XDICTIONARY
360
1533
102
}
102
{ACAD_REACTORS
330
13BB
102
}
330
13BB
100
AcDbXrecord
280
     1
 91
      535
301

290
     0
302
寸法線
330
13B8
 90
        8
 62
   112
370
    13
331
1B6
  1
色_112
440
        0
330
137A
 90
        8
 62
   112
370
    13
331
8
  1
色_112
440
        0
330
104C
 90
        8
 62
     3
370
     9
331
8
  1
色_3
440
        0
330
1E0
 90
        0
 62
     7
370
    -3
331
8
  1
色_7
440
        0
330
11
 90
        8
 62
     7
370
    -3
331
8
  1
色_7
440
        0
330
68
 90
        8
 62
     4
370
     5
331
8
  1
色_4
440
        0
330
2E
 90
        8
 62
    31
370
     9
331
8
  1
色_31
440
        0
330
4
 90
        8
 62
     2
370
     9
331
8
  1
色_2
440
        0
330
6B
 90
        8
 62
     7
370
    13
331
8
  1
色_7
440
        0
330
65
 90
        8
 62
     7
370
    -3
331
8
  1
色_7
440
        0
  0
ACDBASSOCNETWORK
  5
15AF
102
{ACAD_REACTORS
330
15AE
102
}
330
15AE
100
AcDbAssocAction
 90
        1
 90
        1
330
15B1
360
0
 90
        1
 90
        0
 90
        0
100
AcDbAssocNetwork
 90
        0
 90
        2
 90
        2
360
15B2
360
15E4
 90
        2
330
15B2
330
15E4
  0
XRECORD
  5
1696
102
{ACAD_REACTORS
330
1695
102
}
330
1695
100
AcDbXrecord
280
     1
1070
     0
1070
     1
1070
     1
  0
XRECORD
  5
1699
102
{ACAD_REACTORS
330
1698
102
}
330
1698
100
AcDbXrecord
280
     1
1070
     0
1070
     1
1070
     1
  0
DICTIONARY
  5
1692
330
137F
100
AcDbDictionary
280
     1
281
     1
  3
ACAD_XREC_ROUNDTRIP
360
1693
  0
DICTIONARY
  5
168E
330
12AC
100
AcDbDictionary
280
     1
281
     1
  3
ACAD_XREC_ROUNDTRIP
360
168F
  0
DICTIONARY
  5
1652
330
941
100
AcDbDictionary
280
     1
281
     1
  3
ACAD_XREC_ROUNDTRIP
360
1653
  0
DICTIONARY
  5
1654
330
947
100
AcDbDictionary
280
     1
281
     1
  3
ACAD_XREC_ROUNDTRIP
360
1655
  0
DICTIONARY
  5
1650
330
93A
100
AcDbDictionary
280
     1
281
     1
  3
ACAD_XREC_ROUNDTRIP
360
1651
  0
DICTIONARY
  5
126A
330
1269
100
AcDbDictionary
280
     1
281
     1
  3
ACAD_XREC_ROUNDTRIP
360
1657
  3
BUMPTILE
360
126C
  3
DIFFUSETILE
360
126B
  3
OPACITYTILE
360
126F
  3
REFLECTIONTILE
360
126E
  3
REFRACTIONTILE
360
1270
  3
SPECULARTILE
360
126D
  0
DICTIONARY
  5
1262
330
1261
100
AcDbDictionary
280
     1
281
     1
  3
ACAD_XREC_ROUNDTRIP
360
1656
  3
BUMPTILE
360
1264
  3
DIFFUSETILE
360
1263
  3
OPACITYTILE
360
1267
  3
REFLECTIONTILE
360
1266
  3
REFRACTIONTILE
360
1268
  3
SPECULARTILE
360
1265
  0
DICTIONARY
  5
1272
330
1271
100
AcDbDictionary
280
     1
281
     1
  3
ACAD_XREC_ROUNDTRIP
360
1658
  3
BUMPTILE
360
1274
  3
DIFFUSETILE
360
1273
  3
OPACITYTILE
360
1277
  3
REFLECTIONTILE
360
1276
  3
REFRACTIONTILE
360
1278
  3
SPECULARTILE
360
1275
  0
DICTIONARY
  5
168A
330
12A8
100
AcDbDictionary
280
     1
281
     1
  3
ACAD_XREC_ROUNDTRIP
360
168B
  0
DICTIONARY
  5
1690
330
137E
100
AcDbDictionary
280
     1
281
     1
  3
ACAD_XREC_ROUNDTRIP
360
1691
  0
DICTIONARY
  5
168C
330
12AA
100
AcDbDictionary
280
     1
281
     1
  3
ACAD_XREC_ROUNDTRIP
360
168D
  0
DICTIONARY
  5
12C2
330
1294
100
AcDbDictionary
280
     1
281
     1
  3
ACAD_ROUNDTRIP_2008_TABLESTYLE_CELLSTYLEMAP
360
164D
  3
ACAD_XREC_ROUNDTRIP
360
1689
  0
DICTIONARY
  5
1663
330
127F
100
AcDbDictionary
280
     1
281
     1
  3
ACAD_XREC_ROUNDTRIP
360
1664
  0
DICTIONARY
  5
1661
330
127E
100
AcDbDictionary
280
     1
281
     1
  3
ACAD_XREC_ROUNDTRIP
360
1662
  0
DICTIONARY
  5
166F
330
1285
100
AcDbDictionary
280
     1
281
     1
  3
ACAD_XREC_ROUNDTRIP
360
1670
  0
DICTIONARY
  5
1677
330
1289
100
AcDbDictionary
280
     1
281
     1
  3
ACAD_XREC_ROUNDTRIP
360
1678
  0
DICTIONARY
  5
1669
330
1282
100
AcDbDictionary
280
     1
281
     1
  3
ACAD_XREC_ROUNDTRIP
360
166A
  0
DICTIONARY
  5
166D
330
1284
100
AcDbDictionary
280
     1
281
     1
  3
ACAD_XREC_ROUNDTRIP
360
166E
  0
DICTIONARY
  5
1687
330
1291
100
AcDbDictionary
280
     1
281
     1
  3
ACAD_XREC_ROUNDTRIP
360
1688
  0
DICTIONARY
  5
1675
330
1288
100
AcDbDictionary
280
     1
281
     1
  3
ACAD_XREC_ROUNDTRIP
360
1676
  0
DICTIONARY
  5
1659
330
127A
100
AcDbDictionary
280
     1
281
     1
  3
ACAD_XREC_ROUNDTRIP
360
165A
  0
DICTIONARY
  5
165B
330
127B
100
AcDbDictionary
280
     1
281
     1
  3
ACAD_XREC_ROUNDTRIP
360
165C
  0
DICTIONARY
  5
165D
330
127C
100
AcDbDictionary
280
     1
281
     1
  3
ACAD_XREC_ROUNDTRIP
360
165E
  0
DICTIONARY
  5
165F
330
127D
100
AcDbDictionary
280
     1
281
     1
  3
ACAD_XREC_ROUNDTRIP
360
1660
  0
DICTIONARY
  5
1667
330
1281
100
AcDbDictionary
280
     1
281
     1
  3
ACAD_XREC_ROUNDTRIP
360
1668
  0
DICTIONARY
  5
1683
330
128F
100
AcDbDictionary
280
     1
281
     1
  3
ACAD_XREC_ROUNDTRIP
360
1684
  0
DICTIONARY
  5
1673
330
1287
100
AcDbDictionary
280
     1
281
     1
  3
ACAD_XREC_ROUNDTRIP
360
1674
  0
DICTIONARY
  5
1685
330
1290
100
AcDbDictionary
280
     1
281
     1
  3
ACAD_XREC_ROUNDTRIP
360
1686
  0
DICTIONARY
  5
166B
330
1283
100
AcDbDictionary
280
     1
281
     1
  3
ACAD_XREC_ROUNDTRIP
360
166C
  0
DICTIONARY
  5
1681
330
128E
100
AcDbDictionary
280
     1
281
     1
  3
ACAD_XREC_ROUNDTRIP
360
1682
  0
DICTIONARY
  5
167F
330
128D
100
AcDbDictionary
280
     1
281
     1
  3
ACAD_XREC_ROUNDTRIP
360
1680
  0
DICTIONARY
  5
1679
330
128A
100
AcDbDictionary
280
     1
281
     1
  3
ACAD_XREC_ROUNDTRIP
360
167A
  0
DICTIONARY
  5
167B
330
128B
100
AcDbDictionary
280
     1
281
     1
  3
ACAD_XREC_ROUNDTRIP
360
167C
  0
DICTIONARY
  5
1671
330
1286
100
AcDbDictionary
280
     1
281
     1
  3
ACAD_XREC_ROUNDTRIP
360
1672
  0
DICTIONARY
  5
1665
330
1280
100
AcDbDictionary
280
     1
281
     1
  3
ACAD_XREC_ROUNDTRIP
360
1666
  0
DICTIONARY
  5
167D
330
128C
100
AcDbDictionary
280
     1
281
     1
  3
ACAD_XREC_ROUNDTRIP
360
167E
  0
DICTIONARY
  5
1533
330
1532
100
AcDbDictionary
280
     1
281
     1
  3
AcadLayerStateAnnoScale
360
1534
  0
ACDBASSOCACTION
  5
15B2
330
15AF
100
AcDbAssocAction
 90
        1
 90
        1
330
15AF
360
15B3
 90
        1
 90
        3
 90
        3
360
15B6
360
15B7
360
15B8
  0
ACDBASSOCACTION
  5
15E4
330
15AF
100
AcDbAssocAction
 90
        1
 90
        1
330
15AF
360
15E5
 90
        2
 90
        3
 90
        3
360
15E8
360
15E9
360
15EA
  0
XRECORD
  5
1693
102
{ACAD_REACTORS
330
1692
102
}
330
1692
100
AcDbXrecord
280
     1
102
DISPLAYNAME
  1
Imperial24
102
FLAGS
 90
        0
  0
XRECORD
  5
168F
102
{ACAD_REACTORS
330
168E
102
}
330
168E
100
AcDbXrecord
280
     1
102
DISPLAYNAME
  1
Metric50
102
FLAGS
 90
        0
  0
XRECORD
  5
1653
102
{ACAD_REACTORS
330
1652
102
}
330
1652
100
AcDbXrecord
280
     1
102
SHADEPLOT
 70
     0
102
SHADEPLOTRESLEVEL
 70
     2
102
SHADEPLOTCUSTOMDPI
 70
   300
  0
XRECORD
  5
1655
102
{ACAD_REACTORS
330
1654
102
}
330
1654
100
AcDbXrecord
280
     1
102
SHADEPLOT
 70
     0
102
SHADEPLOTRESLEVEL
 70
     2
102
SHADEPLOTCUSTOMDPI
 70
   300
  0
XRECORD
  5
1651
102
{ACAD_REACTORS
330
1650
102
}
330
1650
100
AcDbXrecord
280
     1
102
SHADEPLOT
 70
     0
102
SHADEPLOTRESLEVEL
 70
     2
102
SHADEPLOTCUSTOMDPI
 70
   300
  0
XRECORD
  5
1657
102
{ACAD_REACTORS
330
126A
102
}
330
126A
100
AcDbXrecord
280
     1
102
MATERIAL
148
0.0
149
0.0
149
0.0
 93
        0
 94
      127
282
     0
 72
     0
 77
     0
171
     0
175
     0
179
     0
273
     0
  0
XRECORD
  5
126C
102
{ACAD_REACTORS
330
126A
102
}
330
126A
100
AcDbXrecord
280
     1
270
     1
271
     1
  0
XRECORD
  5
126B
102
{ACAD_REACTORS
330
126A
102
}
330
126A
100
AcDbXrecord
280
     1
270
     1
271
     1
  0
XRECORD
  5
126F
102
{ACAD_REACTORS
330
126A
102
}
330
126A
100
AcDbXrecord
280
     1
270
     1
271
     1
  0
XRECORD
  5
126E
102
{ACAD_REACTORS
330
126A
102
}
330
126A
100
AcDbXrecord
280
     1
270
     1
271
     1
  0
XRECORD
  5
1270
102
{ACAD_REACTORS
330
126A
102
}
330
126A
100
AcDbXrecord
280
     1
270
     1
271
     1
  0
XRECORD
  5
126D
102
{ACAD_REACTORS
330
126A
102
}
330
126A
100
AcDbXrecord
280
     1
270
     1
271
     1
  0
XRECORD
  5
1656
102
{ACAD_REACTORS
330
1262
102
}
330
1262
100
AcDbXrecord
280
     1
102
MATERIAL
148
0.0
149
0.0
149
0.0
 93
        0
 94
      127
282
     0
 72
     0
 77
     0
171
     0
175
     0
179
     0
273
     0
  0
XRECORD
  5
1264
102
{ACAD_REACTORS
330
1262
102
}
330
1262
100
AcDbXrecord
280
     1
270
     1
271
     1
  0
XRECORD
  5
1263
102
{ACAD_REACTORS
330
1262
102
}
330
1262
100
AcDbXrecord
280
     1
270
     1
271
     1
  0
XRECORD
  5
1267
102
{ACAD_REACTORS
330
1262
102
}
330
1262
100
AcDbXrecord
280
     1
270
     1
271
     1
  0
XRECORD
  5
1266
102
{ACAD_REACTORS
330
1262
102
}
330
1262
100
AcDbXrecord
280
     1
270
     1
271
     1
  0
XRECORD
  5
1268
102
{ACAD_REACTORS
330
1262
102
}
330
1262
100
AcDbXrecord
280
     1
270
     1
271
     1
  0
XRECORD
  5
1265
102
{ACAD_REACTORS
330
1262
102
}
330
1262
100
AcDbXrecord
280
     1
270
     1
271
     1
  0
XRECORD
  5
1658
102
{ACAD_REACTORS
330
1272
102
}
330
1272
100
AcDbXrecord
280
     1
102
MATERIAL
148
0.0
149
0.0
149
0.0
 93
        0
 94
      127
282
     0
 72
     0
 77
     0
171
     0
175
     0
179
     0
273
     0
  0
XRECORD
  5
1274
102
{ACAD_REACTORS
330
1272
102
}
330
1272
100
AcDbXrecord
280
     1
270
     1
271
     1
  0
XRECORD
  5
1273
102
{ACAD_REACTORS
330
1272
102
}
330
1272
100
AcDbXrecord
280
     1
270
     1
271
     1
  0
XRECORD
  5
1277
102
{ACAD_REACTORS
330
1272
102
}
330
1272
100
AcDbXrecord
280
     1
270
     1
271
     1
  0
XRECORD
  5
1276
102
{ACAD_REACTORS
330
1272
102
}
330
1272
100
AcDbXrecord
280
     1
270
     1
271
     1
  0
XRECORD
  5
1278
102
{ACAD_REACTORS
330
1272
102
}
330
1272
100
AcDbXrecord
280
     1
270
     1
271
     1
  0
XRECORD
  5
1275
102
{ACAD_REACTORS
330
1272
102
}
330
1272
100
AcDbXrecord
280
     1
270
     1
271
     1
  0
XRECORD
  5
168B
102
{ACAD_REACTORS
330
168A
102
}
330
168A
100
AcDbXrecord
280
     1
102
ACAD_ROUNDTRIP_2012_MLEADER_STYLE
298
     1
  0
XRECORD
  5
1691
102
{ACAD_REACTORS
330
1690
102
}
330
1690
100
AcDbXrecord
280
     1
102
DISPLAYNAME
  1
Imperial24
102
FLAGS
 90
        0
  0
XRECORD
  5
168D
102
{ACAD_REACTORS
330
168C
102
}
330
168C
100
AcDbXrecord
280
     1
102
DISPLAYNAME
  1
Metric50
102
FLAGS
 90
        0
  0
CELLSTYLEMAP
  5
164D
102
{ACAD_REACTORS
330
12C2
102
}
330
12C2
100
AcDbCellStyleMap
 90
        3
300
CELLSTYLE
  1
TABLEFORMAT_BEGIN
 90
        5
170
     1
 91
        0
 92
    32768
 62
   257
 93
        1
300
CONTENTFORMAT
  1
CONTENTFORMAT_BEGIN
 90
        0
 91
        0
 92
      512
 93
        0
300

 40
0.0
140
1.0
 94
        5
 62
     0
340
9
144
6.0
309
CONTENTFORMAT_END
171
     1
301
MARGIN
  1
CELLMARGIN_BEGIN
 40
1.5
 40
1.5
 40
1.5
 40
1.5
 40
4.5
 40
4.5
309
CELLMARGIN_END
 94
        6
 95
        1
302
GRIDFORMAT
  1
GRIDFORMAT_BEGIN
 90
        0
 91
        1
 62
     0
 92
       -2
340
0
 93
        0
 40
1.125
309
GRIDFORMAT_END
 95
        2
302
GRIDFORMAT
  1
GRIDFORMAT_BEGIN
 90
        0
 91
        1
 62
     0
 92
       -2
340
0
 93
        0
 40
1.125
309
GRIDFORMAT_END
 95
        4
302
GRIDFORMAT
  1
GRIDFORMAT_BEGIN
 90
        0
 91
        1
 62
     0
 92
       -2
340
0
 93
        0
 40
1.125
309
GRIDFORMAT_END
 95
        8
302
GRIDFORMAT
  1
GRIDFORMAT_BEGIN
 90
        0
 91
        1
 62
     0
 92
       -2
340
0
 93
        0
 40
1.125
309
GRIDFORMAT_END
 95
       16
302
GRIDFORMAT
  1
GRIDFORMAT_BEGIN
 90
        0
 91
        1
 62
     0
 92
       -2
340
0
 93
        0
 40
1.125
309
GRIDFORMAT_END
 95
       32
302
GRIDFORMAT
  1
GRIDFORMAT_BEGIN
 90
        0
 91
        1
 62
     0
 92
       -2
340
0
 93
        0
 40
1.125
309
GRIDFORMAT_END
309
TABLEFORMAT_END
  1
CELLSTYLE_BEGIN
 90
        1
 91
        1
300
_TITLE
309
CELLSTYLE_END
300
CELLSTYLE
  1
TABLEFORMAT_BEGIN
 90
        5
170
     1
 91
        0
 92
        0
 62
   257
 93
        1
300
CONTENTFORMAT
  1
CONTENTFORMAT_BEGIN
 90
        0
 91
        0
 92
      512
 93
        0
300

 40
0.0
140
1.0
 94
        5
 62
     0
340
9
144
4.5
309
CONTENTFORMAT_END
171
     1
301
MARGIN
  1
CELLMARGIN_BEGIN
 40
1.5
 40
1.5
 40
1.5
 40
1.5
 40
4.5
 40
4.5
309
CELLMARGIN_END
 94
        6
 95
        1
302
GRIDFORMAT
  1
GRIDFORMAT_BEGIN
 90
        0
 91
        1
 62
     0
 92
       -2
340
0
 93
        0
 40
1.125
309
GRIDFORMAT_END
 95
        2
302
GRIDFORMAT
  1
GRIDFORMAT_BEGIN
 90
        0
 91
        1
 62
     0
 92
       -2
340
0
 93
        0
 40
1.125
309
GRIDFORMAT_END
 95
        4
302
GRIDFORMAT
  1
GRIDFORMAT_BEGIN
 90
        0
 91
        1
 62
     0
 92
       -2
340
0
 93
        0
 40
1.125
309
GRIDFORMAT_END
 95
        8
302
GRIDFORMAT
  1
GRIDFORMAT_BEGIN
 90
        0
 91
        1
 62
     0
 92
       -2
340
0
 93
        0
 40
1.125
309
GRIDFORMAT_END
 95
       16
302
GRIDFORMAT
  1
GRIDFORMAT_BEGIN
 90
        0
 91
        1
 62
     0
 92
       -2
340
0
 93
        0
 40
1.125
309
GRIDFORMAT_END
 95
       32
302
GRIDFORMAT
  1
GRIDFORMAT_BEGIN
 90
        0
 91
        1
 62
     0
 92
       -2
340
0
 93
        0
 40
1.125
309
GRIDFORMAT_END
309
TABLEFORMAT_END
  1
CELLSTYLE_BEGIN
 90
        2
 91
        1
300
_HEADER
309
CELLSTYLE_END
300
CELLSTYLE
  1
TABLEFORMAT_BEGIN
 90
        5
170
     1
 91
        0
 92
        0
 62
   257
 93
        1
300
CONTENTFORMAT
  1
CONTENTFORMAT_BEGIN
 90
        0
 91
        0
 92
      512
 93
        0
300

 40
0.0
140
1.0
 94
        2
 62
     0
340
9
144
4.5
309
CONTENTFORMAT_END
171
     1
301
MARGIN
  1
CELLMARGIN_BEGIN
 40
1.5
 40
1.5
 40
1.5
 40
1.5
 40
4.5
 40
4.5
309
CELLMARGIN_END
 94
        6
 95
        1
302
GRIDFORMAT
  1
GRIDFORMAT_BEGIN
 90
        0
 91
        1
 62
     0
 92
       -2
340
0
 93
        0
 40
1.125
309
GRIDFORMAT_END
 95
        2
302
GRIDFORMAT
  1
GRIDFORMAT_BEGIN
 90
        0
 91
        1
 62
     0
 92
       -2
340
0
 93
        0
 40
1.125
309
GRIDFORMAT_END
 95
        4
302
GRIDFORMAT
  1
GRIDFORMAT_BEGIN
 90
        0
 91
        1
 62
     0
 92
       -2
340
0
 93
        0
 40
1.125
309
GRIDFORMAT_END
 95
        8
302
GRIDFORMAT
  1
GRIDFORMAT_BEGIN
 90
        0
 91
        1
 62
     0
 92
       -2
340
0
 93
        0
 40
1.125
309
GRIDFORMAT_END
 95
       16
302
GRIDFORMAT
  1
GRIDFORMAT_BEGIN
 90
        0
 91
        1
 62
     0
 92
       -2
340
0
 93
        0
 40
1.125
309
GRIDFORMAT_END
 95
       32
302
GRIDFORMAT
  1
GRIDFORMAT_BEGIN
 90
        0
 91
        1
 62
     0
 92
       -2
340
0
 93
        0
 40
1.125
309
GRIDFORMAT_END
309
TABLEFORMAT_END
  1
CELLSTYLE_BEGIN
 90
        3
 91
        2
300
_DATA
309
CELLSTYLE_END
  0
XRECORD
  5
1689
102
{ACAD_REACTORS
330
12C2
102
}
330
12C2
100
AcDbXrecord
280
     1
102
ACAD_ROUNDTRIP_PRE2007_TABLESTYLE
 90
      512
 91
        0
  1

 92
      512
 93
        0
  2

 94
      512
 95
        0
  3

  0
XRECORD
  5
1664
102
{ACAD_REACTORS
330
1663
102
}
330
1663
100
AcDbXrecord
280
     1
102
RTVSPost2010Prop28
280
     1
102
RTVSPost2010PropOp28
 70
     1
102
RTVSPost2010Prop29
280
     1
102
RTVSPost2010PropOp29
 70
     1
102
RTVSPost2010Prop30
280
     0
102
RTVSPost2010PropOp30
 70
     1
102
RTVSPost2010Prop31
280
     0
102
RTVSPost2010PropOp31
 70
     1
102
RTVSPost2010Prop32
280
     0
102
RTVSPost2010PropOp32
 70
     1
102
RTVSPost2010Prop33
280
     0
102
RTVSPost2010PropOp33
 70
     1
102
RTVSPost2010Prop34
280
     0
102
RTVSPost2010PropOp34
 70
     1
102
RTVSPost2010Prop35
280
     0
102
RTVSPost2010PropOp35
 70
     1
102
RTVSPost2010Prop36
280
     0
102
RTVSPost2010PropOp36
 70
     1
102
RTVSPost2010Prop37
 90
       50
102
RTVSPost2010PropOp37
 70
     1
102
RTVSPost2010Prop38
140
0.0
102
RTVSPost2010PropOp38
 70
     1
102
RTVSPost2010Prop39
140
1.0
102
RTVSPost2010PropOp39
 70
     1
102
RTVSPost2010Prop40
 90
        0
102
RTVSPost2010PropOp40
 70
     1
102
RTVSPost2010Prop41ColorIndex
 90
       18
102
RTVSPost2010Prop41ColorRGB
 90
        0
102
RTVSPost2010PropOp41
 70
     1
102
RTVSPost2010Prop42
 90
       50
102
RTVSPost2010PropOp42
 70
     1
102
RTVSPost2010Prop43
 90
        3
102
RTVSPost2010PropOp43
 70
     1
102
RTVSPost2010Prop44ColorIndex
 90
        5
102
RTVSPost2010Prop44ColorRGB
 90
      255
102
RTVSPost2010PropOp44
 70
     1
102
RTVSPost2010Prop45
280
     0
102
RTVSPost2010PropOp45
 70
     1
102
RTVSPost2010Prop46
 90
       50
102
RTVSPost2010PropOp46
 70
     1
102
RTVSPost2010Prop47
 90
       50
102
RTVSPost2010PropOp47
 70
     1
102
RTVSPost2010Prop48
 90
       50
102
RTVSPost2010PropOp48
 70
     1
102
RTVSPost2010Prop49
280
     0
102
RTVSPost2010PropOp49
 70
     1
102
RTVSPost2010Prop50
 90
       50
102
RTVSPost2010PropOp50
 70
     1
102
RTVSPost2010Prop51ColorIndex
 90
      256
102
RTVSPost2010Prop51ColorRGB
 90
-16777216
102
RTVSPost2010PropOp51
 70
     0
102
RTVSPost2010Prop52
140
1.0
102
RTVSPost2010PropOp52
 70
     0
102
RTVSPost2010Prop53
 90
        2
102
RTVSPost2010PropOp53
 70
     1
102
RTVSPost2010Prop54
  1
strokes_ogs.tif
102
RTVSPost2010PropOp54
 70
     1
102
RTVSPost2010Prop55
280
     0
102
RTVSPost2010PropOp55
 70
     1
102
RTVSPost2010Prop56
140
1.0
102
RTVSPost2010PropOp56
 70
     1
102
RTVSPost2010Prop57
140
1.0
102
RTVSPost2010PropOp57
 70
     1
102
RTVSPropertyOp0
 70
     1
102
RTVSPropertyOp1
 70
     1
102
RTVSPropertyOp2
 70
     1
102
RTVSPropertyOp3
 70
     1
102
RTVSPropertyOp4
 70
     1
102
RTVSPropertyOp5
 70
     1
102
RTVSPropertyOp6
 70
     1
102
RTVSPropertyOp7
 70
     1
102
RTVSPropertyOp8
 70
     1
102
RTVSPropertyOp9
 70
     1
102
RTVSPropertyOp10
 70
     1
102
RTVSPropertyOp11
 70
     1
102
RTVSPropertyOp12
 70
     1
102
RTVSPropertyOp13
 70
     1
102
RTVSPropertyOp14
 70
     1
102
RTVSPropertyOp15
 70
     1
102
RTVSPropertyOp16
 70
     1
102
RTVSPropertyOp17
 70
     1
102
RTVSPropertyOp18
 70
     1
102
RTVSPropertyOp19
 70
     1
102
RTVSPropertyOp20
 70
     1
102
RTVSPropertyOp21
 70
     1
102
RTVSPropertyOp22
 70
     1
102
RTVSPropertyOp23
 70
     1
102
RTVSPropertyOp24
 70
     1
102
RTVSPropertyOp25
 70
     1
102
RTVSPropertyOp26
 70
     1
102
RTVSPropertyOp27
 70
     1
102
RTVSPropertyOp28
 70
     1
102
RTVSPropertyOp29
 70
     1
102
RTVSPropertyOp30
 70
     1
102
RTVSPropertyOp31
 70
     1
102
RTVSPropertyOp32
 70
     1
102
RTVSPropertyOp33
 70
     1
102
RTVSPropertyOp34
 70
     1
102
RTVSPropertyOp35
 70
     1
102
RTVSPropertyOp36
 70
     1
102
RTVSPropertyOp37
 70
     1
102
RTVSPropertyOp38
 70
     1
102
RTVSPropertyOp39
 70
     1
102
RTVSPropertyOp40
 70
     1
102
RTVSPropertyOp41
 70
     1
102
RTVSPropertyOp42
 70
     1
102
RTVSPropertyOp43
 70
     1
102
RTVSPropertyOp44
 70
     1
102
RTVSPropertyOp45
 70
     1
102
RTVSPropertyOp46
 70
     1
102
RTVSPropertyOp47
 70
     1
102
RTVSPropertyOp48
 70
     1
102
RTVSPropertyOp49
 70
     1
102
RTVSPropertyOp50
 70
     1
102
RTVSPropertyOp51
 70
     0
102
RTVSPropertyOp52
 70
     0
102
RTVSPropertyOp53
 70
     1
102
RTVSPropertyOp54
 70
     1
102
RTVSPropertyOp55
 70
     1
102
RTVSPropertyOp56
 70
     1
102
RTVSPropertyOp57
 70
     1
102
RTVSPropertyOp58
 70
     1
102
RTVSPropertyOp59
 70
     1
102
RTVSPropertyOp60
 70
     1
102
RTVSPropertyOp61
 70
     1
102
RTVSPropertyOp62
 70
     1
  0
XRECORD
  5
1662
102
{ACAD_REACTORS
330
1661
102
}
330
1661
100
AcDbXrecord
280
     1
102
RTVSPost2010Prop28
280
     0
102
RTVSPost2010PropOp28
 70
     1
102
RTVSPost2010Prop29
280
     1
102
RTVSPost2010PropOp29
 70
     1
102
RTVSPost2010Prop30
280
     1
102
RTVSPost2010PropOp30
 70
     1
102
RTVSPost2010Prop31
280
     0
102
RTVSPost2010PropOp31
 70
     1
102
RTVSPost2010Prop32
280
     0
102
RTVSPost2010PropOp32
 70
     1
102
RTVSPost2010Prop33
280
     0
102
RTVSPost2010PropOp33
 70
     1
102
RTVSPost2010Prop34
280
     0
102
RTVSPost2010PropOp34
 70
     1
102
RTVSPost2010Prop35
280
     0
102
RTVSPost2010PropOp35
 70
     1
102
RTVSPost2010Prop36
280
     0
102
RTVSPost2010PropOp36
 70
     1
102
RTVSPost2010Prop37
 90
       50
102
RTVSPost2010PropOp37
 70
     1
102
RTVSPost2010Prop38
140
0.0
102
RTVSPost2010PropOp38
 70
     1
102
RTVSPost2010Prop39
140
1.0
102
RTVSPost2010PropOp39
 70
     1
102
RTVSPost2010Prop40
 90
        0
102
RTVSPost2010PropOp40
 70
     1
102
RTVSPost2010Prop41ColorIndex
 90
       18
102
RTVSPost2010Prop41ColorRGB
 90
        0
102
RTVSPost2010PropOp41
 70
     1
102
RTVSPost2010Prop42
 90
       50
102
RTVSPost2010PropOp42
 70
     1
102
RTVSPost2010Prop43
 90
        3
102
RTVSPost2010PropOp43
 70
     1
102
RTVSPost2010Prop44ColorIndex
 90
        5
102
RTVSPost2010Prop44ColorRGB
 90
      255
102
RTVSPost2010PropOp44
 70
     1
102
RTVSPost2010Prop45
280
     0
102
RTVSPost2010PropOp45
 70
     1
102
RTVSPost2010Prop46
 90
       50
102
RTVSPost2010PropOp46
 70
     1
102
RTVSPost2010Prop47
 90
       50
102
RTVSPost2010PropOp47
 70
     1
102
RTVSPost2010Prop48
 90
       50
102
RTVSPost2010PropOp48
 70
     1
102
RTVSPost2010Prop49
280
     0
102
RTVSPost2010PropOp49
 70
     1
102
RTVSPost2010Prop50
 90
       50
102
RTVSPost2010PropOp50
 70
     1
102
RTVSPost2010Prop51ColorIndex
 90
      256
102
RTVSPost2010Prop51ColorRGB
 90
-16777216
102
RTVSPost2010PropOp51
 70
     0
102
RTVSPost2010Prop52
140
1.0
102
RTVSPost2010PropOp52
 70
     0
102
RTVSPost2010Prop53
 90
        2
102
RTVSPost2010PropOp53
 70
     1
102
RTVSPost2010Prop54
  1
strokes_ogs.tif
102
RTVSPost2010PropOp54
 70
     1
102
RTVSPost2010Prop55
280
     0
102
RTVSPost2010PropOp55
 70
     1
102
RTVSPost2010Prop56
140
1.0
102
RTVSPost2010PropOp56
 70
     1
102
RTVSPost2010Prop57
140
1.0
102
RTVSPost2010PropOp57
 70
     1
102
RTVSPropertyOp0
 70
     1
102
RTVSPropertyOp1
 70
     1
102
RTVSPropertyOp2
 70
     1
102
RTVSPropertyOp3
 70
     1
102
RTVSPropertyOp4
 70
     1
102
RTVSPropertyOp5
 70
     1
102
RTVSPropertyOp6
 70
     1
102
RTVSPropertyOp7
 70
     1
102
RTVSPropertyOp8
 70
     1
102
RTVSPropertyOp9
 70
     1
102
RTVSPropertyOp10
 70
     1
102
RTVSPropertyOp11
 70
     1
102
RTVSPropertyOp12
 70
     1
102
RTVSPropertyOp13
 70
     1
102
RTVSPropertyOp14
 70
     1
102
RTVSPropertyOp15
 70
     1
102
RTVSPropertyOp16
 70
     1
102
RTVSPropertyOp17
 70
     1
102
RTVSPropertyOp18
 70
     1
102
RTVSPropertyOp19
 70
     1
102
RTVSPropertyOp20
 70
     1
102
RTVSPropertyOp21
 70
     1
102
RTVSPropertyOp22
 70
     1
102
RTVSPropertyOp23
 70
     1
102
RTVSPropertyOp24
 70
     1
102
RTVSPropertyOp25
 70
     1
102
RTVSPropertyOp26
 70
     1
102
RTVSPropertyOp27
 70
     1
102
RTVSPropertyOp28
 70
     1
102
RTVSPropertyOp29
 70
     1
102
RTVSPropertyOp30
 70
     1
102
RTVSPropertyOp31
 70
     1
102
RTVSPropertyOp32
 70
     1
102
RTVSPropertyOp33
 70
     1
102
RTVSPropertyOp34
 70
     1
102
RTVSPropertyOp35
 70
     1
102
RTVSPropertyOp36
 70
     1
102
RTVSPropertyOp37
 70
     1
102
RTVSPropertyOp38
 70
     1
102
RTVSPropertyOp39
 70
     1
102
RTVSPropertyOp40
 70
     1
102
RTVSPropertyOp41
 70
     1
102
RTVSPropertyOp42
 70
     1
102
RTVSPropertyOp43
 70
     1
102
RTVSPropertyOp44
 70
     1
102
RTVSPropertyOp45
 70
     1
102
RTVSPropertyOp46
 70
     1
102
RTVSPropertyOp47
 70
     1
102
RTVSPropertyOp48
 70
     1
102
RTVSPropertyOp49
 70
     1
102
RTVSPropertyOp50
 70
     1
102
RTVSPropertyOp51
 70
     0
102
RTVSPropertyOp52
 70
     0
102
RTVSPropertyOp53
 70
     1
102
RTVSPropertyOp54
 70
     1
102
RTVSPropertyOp55
 70
     1
102
RTVSPropertyOp56
 70
     1
102
RTVSPropertyOp57
 70
     1
102
RTVSPropertyOp58
 70
     1
102
RTVSPropertyOp59
 70
     1
102
RTVSPropertyOp60
 70
     1
102
RTVSPropertyOp61
 70
     1
102
RTVSPropertyOp62
 70
     1
  0
XRECORD
  5
1670
102
{ACAD_REACTORS
330
166F
102
}
330
166F
100
AcDbXrecord
280
     1
102
RTVSPost2010Prop28
280
     0
102
RTVSPost2010PropOp28
 70
     1
102
RTVSPost2010Prop29
280
     1
102
RTVSPost2010PropOp29
 70
     1
102
RTVSPost2010Prop30
280
     1
102
RTVSPost2010PropOp30
 70
     1
102
RTVSPost2010Prop31
280
     0
102
RTVSPost2010PropOp31
 70
     1
102
RTVSPost2010Prop32
280
     0
102
RTVSPost2010PropOp32
 70
     1
102
RTVSPost2010Prop33
280
     0
102
RTVSPost2010PropOp33
 70
     1
102
RTVSPost2010Prop34
280
     0
102
RTVSPost2010PropOp34
 70
     1
102
RTVSPost2010Prop35
280
     0
102
RTVSPost2010PropOp35
 70
     1
102
RTVSPost2010Prop36
280
     0
102
RTVSPost2010PropOp36
 70
     1
102
RTVSPost2010Prop37
 90
       50
102
RTVSPost2010PropOp37
 70
     1
102
RTVSPost2010Prop38
140
0.0
102
RTVSPost2010PropOp38
 70
     1
102
RTVSPost2010Prop39
140
1.0
102
RTVSPost2010PropOp39
 70
     1
102
RTVSPost2010Prop40
 90
        0
102
RTVSPost2010PropOp40
 70
     1
102
RTVSPost2010Prop41ColorIndex
 90
       18
102
RTVSPost2010Prop41ColorRGB
 90
        0
102
RTVSPost2010PropOp41
 70
     1
102
RTVSPost2010Prop42
 90
       50
102
RTVSPost2010PropOp42
 70
     1
102
RTVSPost2010Prop43
 90
        3
102
RTVSPost2010PropOp43
 70
     1
102
RTVSPost2010Prop44ColorIndex
 90
        5
102
RTVSPost2010Prop44ColorRGB
 90
      255
102
RTVSPost2010PropOp44
 70
     1
102
RTVSPost2010Prop45
280
     0
102
RTVSPost2010PropOp45
 70
     1
102
RTVSPost2010Prop46
 90
       50
102
RTVSPost2010PropOp46
 70
     1
102
RTVSPost2010Prop47
 90
       50
102
RTVSPost2010PropOp47
 70
     1
102
RTVSPost2010Prop48
 90
       50
102
RTVSPost2010PropOp48
 70
     1
102
RTVSPost2010Prop49
280
     0
102
RTVSPost2010PropOp49
 70
     1
102
RTVSPost2010Prop50
 90
       50
102
RTVSPost2010PropOp50
 70
     1
102
RTVSPost2010Prop51ColorIndex
 90
      256
102
RTVSPost2010Prop51ColorRGB
 90
-16777216
102
RTVSPost2010PropOp51
 70
     0
102
RTVSPost2010Prop52
140
1.0
102
RTVSPost2010PropOp52
 70
     0
102
RTVSPost2010Prop53
 90
        2
102
RTVSPost2010PropOp53
 70
     1
102
RTVSPost2010Prop54
  1
strokes_ogs.tif
102
RTVSPost2010PropOp54
 70
     1
102
RTVSPost2010Prop55
280
     0
102
RTVSPost2010PropOp55
 70
     1
102
RTVSPost2010Prop56
140
1.0
102
RTVSPost2010PropOp56
 70
     1
102
RTVSPost2010Prop57
140
1.0
102
RTVSPost2010PropOp57
 70
     1
102
RTVSPropertyOp0
 70
     1
102
RTVSPropertyOp1
 70
     1
102
RTVSPropertyOp2
 70
     1
102
RTVSPropertyOp3
 70
     1
102
RTVSPropertyOp4
 70
     1
102
RTVSPropertyOp5
 70
     1
102
RTVSPropertyOp6
 70
     1
102
RTVSPropertyOp7
 70
     1
102
RTVSPropertyOp8
 70
     1
102
RTVSPropertyOp9
 70
     1
102
RTVSPropertyOp10
 70
     1
102
RTVSPropertyOp11
 70
     1
102
RTVSPropertyOp12
 70
     1
102
RTVSPropertyOp13
 70
     1
102
RTVSPropertyOp14
 70
     1
102
RTVSPropertyOp15
 70
     1
102
RTVSPropertyOp16
 70
     1
102
RTVSPropertyOp17
 70
     1
102
RTVSPropertyOp18
 70
     1
102
RTVSPropertyOp19
 70
     1
102
RTVSPropertyOp20
 70
     1
102
RTVSPropertyOp21
 70
     1
102
RTVSPropertyOp22
 70
     1
102
RTVSPropertyOp23
 70
     1
102
RTVSPropertyOp24
 70
     1
102
RTVSPropertyOp25
 70
     1
102
RTVSPropertyOp26
 70
     1
102
RTVSPropertyOp27
 70
     1
102
RTVSPropertyOp28
 70
     1
102
RTVSPropertyOp29
 70
     1
102
RTVSPropertyOp30
 70
     1
102
RTVSPropertyOp31
 70
     1
102
RTVSPropertyOp32
 70
     1
102
RTVSPropertyOp33
 70
     1
102
RTVSPropertyOp34
 70
     1
102
RTVSPropertyOp35
 70
     1
102
RTVSPropertyOp36
 70
     1
102
RTVSPropertyOp37
 70
     1
102
RTVSPropertyOp38
 70
     1
102
RTVSPropertyOp39
 70
     1
102
RTVSPropertyOp40
 70
     1
102
RTVSPropertyOp41
 70
     1
102
RTVSPropertyOp42
 70
     1
102
RTVSPropertyOp43
 70
     1
102
RTVSPropertyOp44
 70
     1
102
RTVSPropertyOp45
 70
     1
102
RTVSPropertyOp46
 70
     1
102
RTVSPropertyOp47
 70
     1
102
RTVSPropertyOp48
 70
     1
102
RTVSPropertyOp49
 70
     1
102
RTVSPropertyOp50
 70
     1
102
RTVSPropertyOp51
 70
     0
102
RTVSPropertyOp52
 70
     0
102
RTVSPropertyOp53
 70
     1
102
RTVSPropertyOp54
 70
     1
102
RTVSPropertyOp55
 70
     1
102
RTVSPropertyOp56
 70
     1
102
RTVSPropertyOp57
 70
     1
102
RTVSPropertyOp58
 70
     1
102
RTVSPropertyOp59
 70
     1
102
RTVSPropertyOp60
 70
     1
102
RTVSPropertyOp61
 70
     1
102
RTVSPropertyOp62
 70
     1
  0
XRECORD
  5
1678
102
{ACAD_REACTORS
330
1677
102
}
330
1677
100
AcDbXrecord
280
     1
102
RTVSPost2010Prop28
280
     0
102
RTVSPost2010PropOp28
 70
     1
102
RTVSPost2010Prop29
280
     1
102
RTVSPost2010PropOp29
 70
     1
102
RTVSPost2010Prop30
280
     1
102
RTVSPost2010PropOp30
 70
     1
102
RTVSPost2010Prop31
280
     0
102
RTVSPost2010PropOp31
 70
     1
102
RTVSPost2010Prop32
280
     0
102
RTVSPost2010PropOp32
 70
     1
102
RTVSPost2010Prop33
280
     0
102
RTVSPost2010PropOp33
 70
     1
102
RTVSPost2010Prop34
280
     0
102
RTVSPost2010PropOp34
 70
     1
102
RTVSPost2010Prop35
280
     0
102
RTVSPost2010PropOp35
 70
     1
102
RTVSPost2010Prop36
280
     0
102
RTVSPost2010PropOp36
 70
     1
102
RTVSPost2010Prop37
 90
       50
102
RTVSPost2010PropOp37
 70
     1
102
RTVSPost2010Prop38
140
0.0
102
RTVSPost2010PropOp38
 70
     1
102
RTVSPost2010Prop39
140
1.0
102
RTVSPost2010PropOp39
 70
     1
102
RTVSPost2010Prop40
 90
        0
102
RTVSPost2010PropOp40
 70
     1
102
RTVSPost2010Prop41ColorIndex
 90
       18
102
RTVSPost2010Prop41ColorRGB
 90
        0
102
RTVSPost2010PropOp41
 70
     1
102
RTVSPost2010Prop42
 90
       50
102
RTVSPost2010PropOp42
 70
     1
102
RTVSPost2010Prop43
 90
        3
102
RTVSPost2010PropOp43
 70
     1
102
RTVSPost2010Prop44ColorIndex
 90
        5
102
RTVSPost2010Prop44ColorRGB
 90
      255
102
RTVSPost2010PropOp44
 70
     1
102
RTVSPost2010Prop45
280
     0
102
RTVSPost2010PropOp45
 70
     1
102
RTVSPost2010Prop46
 90
       50
102
RTVSPost2010PropOp46
 70
     1
102
RTVSPost2010Prop47
 90
       50
102
RTVSPost2010PropOp47
 70
     1
102
RTVSPost2010Prop48
 90
       50
102
RTVSPost2010PropOp48
 70
     1
102
RTVSPost2010Prop49
280
     0
102
RTVSPost2010PropOp49
 70
     1
102
RTVSPost2010Prop50
 90
       50
102
RTVSPost2010PropOp50
 70
     1
102
RTVSPost2010Prop51ColorIndex
 90
      256
102
RTVSPost2010Prop51ColorRGB
 90
-16777216
102
RTVSPost2010PropOp51
 70
     0
102
RTVSPost2010Prop52
140
1.0
102
RTVSPost2010PropOp52
 70
     0
102
RTVSPost2010Prop53
 90
        2
102
RTVSPost2010PropOp53
 70
     1
102
RTVSPost2010Prop54
  1
strokes_ogs.tif
102
RTVSPost2010PropOp54
 70
     1
102
RTVSPost2010Prop55
280
     0
102
RTVSPost2010PropOp55
 70
     1
102
RTVSPost2010Prop56
140
1.0
102
RTVSPost2010PropOp56
 70
     1
102
RTVSPost2010Prop57
140
1.0
102
RTVSPost2010PropOp57
 70
     1
102
RTVSPropertyOp0
 70
     1
102
RTVSPropertyOp1
 70
     1
102
RTVSPropertyOp2
 70
     1
102
RTVSPropertyOp3
 70
     1
102
RTVSPropertyOp4
 70
     1
102
RTVSPropertyOp5
 70
     1
102
RTVSPropertyOp6
 70
     1
102
RTVSPropertyOp7
 70
     1
102
RTVSPropertyOp8
 70
     1
102
RTVSPropertyOp9
 70
     1
102
RTVSPropertyOp10
 70
     1
102
RTVSPropertyOp11
 70
     1
102
RTVSPropertyOp12
 70
     1
102
RTVSPropertyOp13
 70
     1
102
RTVSPropertyOp14
 70
     1
102
RTVSPropertyOp15
 70
     1
102
RTVSPropertyOp16
 70
     1
102
RTVSPropertyOp17
 70
     1
102
RTVSPropertyOp18
 70
     1
102
RTVSPropertyOp19
 70
     1
102
RTVSPropertyOp20
 70
     1
102
RTVSPropertyOp21
 70
     1
102
RTVSPropertyOp22
 70
     1
102
RTVSPropertyOp23
 70
     1
102
RTVSPropertyOp24
 70
     1
102
RTVSPropertyOp25
 70
     1
102
RTVSPropertyOp26
 70
     1
102
RTVSPropertyOp27
 70
     1
102
RTVSPropertyOp28
 70
     1
102
RTVSPropertyOp29
 70
     1
102
RTVSPropertyOp30
 70
     1
102
RTVSPropertyOp31
 70
     1
102
RTVSPropertyOp32
 70
     1
102
RTVSPropertyOp33
 70
     1
102
RTVSPropertyOp34
 70
     1
102
RTVSPropertyOp35
 70
     1
102
RTVSPropertyOp36
 70
     1
102
RTVSPropertyOp37
 70
     1
102
RTVSPropertyOp38
 70
     1
102
RTVSPropertyOp39
 70
     1
102
RTVSPropertyOp40
 70
     1
102
RTVSPropertyOp41
 70
     1
102
RTVSPropertyOp42
 70
     1
102
RTVSPropertyOp43
 70
     1
102
RTVSPropertyOp44
 70
     1
102
RTVSPropertyOp45
 70
     1
102
RTVSPropertyOp46
 70
     1
102
RTVSPropertyOp47
 70
     1
102
RTVSPropertyOp48
 70
     1
102
RTVSPropertyOp49
 70
     1
102
RTVSPropertyOp50
 70
     1
102
RTVSPropertyOp51
 70
     0
102
RTVSPropertyOp52
 70
     0
102
RTVSPropertyOp53
 70
     1
102
RTVSPropertyOp54
 70
     1
102
RTVSPropertyOp55
 70
     1
102
RTVSPropertyOp56
 70
     1
102
RTVSPropertyOp57
 70
     1
102
RTVSPropertyOp58
 70
     1
102
RTVSPropertyOp59
 70
     1
102
RTVSPropertyOp60
 70
     1
102
RTVSPropertyOp61
 70
     1
102
RTVSPropertyOp62
 70
     1
  0
XRECORD
  5
166A
102
{ACAD_REACTORS
330
1669
102
}
330
1669
100
AcDbXrecord
280
     1
102
RTVSPost2010Prop28
280
     0
102
RTVSPost2010PropOp28
 70
     1
102
RTVSPost2010Prop29
280
     1
102
RTVSPost2010PropOp29
 70
     1
102
RTVSPost2010Prop30
280
     1
102
RTVSPost2010PropOp30
 70
     1
102
RTVSPost2010Prop31
280
     0
102
RTVSPost2010PropOp31
 70
     1
102
RTVSPost2010Prop32
280
     0
102
RTVSPost2010PropOp32
 70
     1
102
RTVSPost2010Prop33
280
     0
102
RTVSPost2010PropOp33
 70
     1
102
RTVSPost2010Prop34
280
     0
102
RTVSPost2010PropOp34
 70
     1
102
RTVSPost2010Prop35
280
     0
102
RTVSPost2010PropOp35
 70
     1
102
RTVSPost2010Prop36
280
     0
102
RTVSPost2010PropOp36
 70
     1
102
RTVSPost2010Prop37
 90
       50
102
RTVSPost2010PropOp37
 70
     1
102
RTVSPost2010Prop38
140
0.0
102
RTVSPost2010PropOp38
 70
     1
102
RTVSPost2010Prop39
140
1.0
102
RTVSPost2010PropOp39
 70
     1
102
RTVSPost2010Prop40
 90
        0
102
RTVSPost2010PropOp40
 70
     1
102
RTVSPost2010Prop41ColorIndex
 90
       18
102
RTVSPost2010Prop41ColorRGB
 90
        0
102
RTVSPost2010PropOp41
 70
     1
102
RTVSPost2010Prop42
 90
       50
102
RTVSPost2010PropOp42
 70
     1
102
RTVSPost2010Prop43
 90
        3
102
RTVSPost2010PropOp43
 70
     1
102
RTVSPost2010Prop44ColorIndex
 90
        5
102
RTVSPost2010Prop44ColorRGB
 90
      255
102
RTVSPost2010PropOp44
 70
     1
102
RTVSPost2010Prop45
280
     0
102
RTVSPost2010PropOp45
 70
     1
102
RTVSPost2010Prop46
 90
       50
102
RTVSPost2010PropOp46
 70
     1
102
RTVSPost2010Prop47
 90
       50
102
RTVSPost2010PropOp47
 70
     1
102
RTVSPost2010Prop48
 90
       50
102
RTVSPost2010PropOp48
 70
     1
102
RTVSPost2010Prop49
280
     0
102
RTVSPost2010PropOp49
 70
     1
102
RTVSPost2010Prop50
 90
       50
102
RTVSPost2010PropOp50
 70
     1
102
RTVSPost2010Prop51ColorIndex
 90
      256
102
RTVSPost2010Prop51ColorRGB
 90
-16777216
102
RTVSPost2010PropOp51
 70
     0
102
RTVSPost2010Prop52
140
1.0
102
RTVSPost2010PropOp52
 70
     0
102
RTVSPost2010Prop53
 90
        2
102
RTVSPost2010PropOp53
 70
     1
102
RTVSPost2010Prop54
  1
strokes_ogs.tif
102
RTVSPost2010PropOp54
 70
     1
102
RTVSPost2010Prop55
280
     0
102
RTVSPost2010PropOp55
 70
     1
102
RTVSPost2010Prop56
140
1.0
102
RTVSPost2010PropOp56
 70
     1
102
RTVSPost2010Prop57
140
1.0
102
RTVSPost2010PropOp57
 70
     1
102
RTVSPropertyOp0
 70
     1
102
RTVSPropertyOp1
 70
     1
102
RTVSPropertyOp2
 70
     1
102
RTVSPropertyOp3
 70
     1
102
RTVSPropertyOp4
 70
     1
102
RTVSPropertyOp5
 70
     1
102
RTVSPropertyOp6
 70
     1
102
RTVSPropertyOp7
 70
     1
102
RTVSPropertyOp8
 70
     1
102
RTVSPropertyOp9
 70
     1
102
RTVSPropertyOp10
 70
     1
102
RTVSPropertyOp11
 70
     1
102
RTVSPropertyOp12
 70
     1
102
RTVSPropertyOp13
 70
     1
102
RTVSPropertyOp14
 70
     1
102
RTVSPropertyOp15
 70
     1
102
RTVSPropertyOp16
 70
     1
102
RTVSPropertyOp17
 70
     1
102
RTVSPropertyOp18
 70
     1
102
RTVSPropertyOp19
 70
     1
102
RTVSPropertyOp20
 70
     1
102
RTVSPropertyOp21
 70
     1
102
RTVSPropertyOp22
 70
     1
102
RTVSPropertyOp23
 70
     1
102
RTVSPropertyOp24
 70
     1
102
RTVSPropertyOp25
 70
     1
102
RTVSPropertyOp26
 70
     1
102
RTVSPropertyOp27
 70
     1
102
RTVSPropertyOp28
 70
     1
102
RTVSPropertyOp29
 70
     1
102
RTVSPropertyOp30
 70
     1
102
RTVSPropertyOp31
 70
     1
102
RTVSPropertyOp32
 70
     1
102
RTVSPropertyOp33
 70
     1
102
RTVSPropertyOp34
 70
     1
102
RTVSPropertyOp35
 70
     1
102
RTVSPropertyOp36
 70
     1
102
RTVSPropertyOp37
 70
     1
102
RTVSPropertyOp38
 70
     1
102
RTVSPropertyOp39
 70
     1
102
RTVSPropertyOp40
 70
     1
102
RTVSPropertyOp41
 70
     1
102
RTVSPropertyOp42
 70
     1
102
RTVSPropertyOp43
 70
     1
102
RTVSPropertyOp44
 70
     1
102
RTVSPropertyOp45
 70
     1
102
RTVSPropertyOp46
 70
     1
102
RTVSPropertyOp47
 70
     1
102
RTVSPropertyOp48
 70
     1
102
RTVSPropertyOp49
 70
     1
102
RTVSPropertyOp50
 70
     1
102
RTVSPropertyOp51
 70
     0
102
RTVSPropertyOp52
 70
     0
102
RTVSPropertyOp53
 70
     1
102
RTVSPropertyOp54
 70
     1
102
RTVSPropertyOp55
 70
     1
102
RTVSPropertyOp56
 70
     1
102
RTVSPropertyOp57
 70
     1
102
RTVSPropertyOp58
 70
     1
102
RTVSPropertyOp59
 70
     1
102
RTVSPropertyOp60
 70
     1
102
RTVSPropertyOp61
 70
     1
102
RTVSPropertyOp62
 70
     1
  0
XRECORD
  5
166E
102
{ACAD_REACTORS
330
166D
102
}
330
166D
100
AcDbXrecord
280
     1
102
RTVSPost2010Prop28
280
     0
102
RTVSPost2010PropOp28
 70
     1
102
RTVSPost2010Prop29
280
     1
102
RTVSPost2010PropOp29
 70
     1
102
RTVSPost2010Prop30
280
     1
102
RTVSPost2010PropOp30
 70
     1
102
RTVSPost2010Prop31
280
     0
102
RTVSPost2010PropOp31
 70
     1
102
RTVSPost2010Prop32
280
     0
102
RTVSPost2010PropOp32
 70
     1
102
RTVSPost2010Prop33
280
     0
102
RTVSPost2010PropOp33
 70
     1
102
RTVSPost2010Prop34
280
     0
102
RTVSPost2010PropOp34
 70
     1
102
RTVSPost2010Prop35
280
     0
102
RTVSPost2010PropOp35
 70
     1
102
RTVSPost2010Prop36
280
     0
102
RTVSPost2010PropOp36
 70
     1
102
RTVSPost2010Prop37
 90
       50
102
RTVSPost2010PropOp37
 70
     1
102
RTVSPost2010Prop38
140
0.0
102
RTVSPost2010PropOp38
 70
     1
102
RTVSPost2010Prop39
140
1.0
102
RTVSPost2010PropOp39
 70
     1
102
RTVSPost2010Prop40
 90
        0
102
RTVSPost2010PropOp40
 70
     1
102
RTVSPost2010Prop41ColorIndex
 90
       18
102
RTVSPost2010Prop41ColorRGB
 90
        0
102
RTVSPost2010PropOp41
 70
     1
102
RTVSPost2010Prop42
 90
       50
102
RTVSPost2010PropOp42
 70
     1
102
RTVSPost2010Prop43
 90
        3
102
RTVSPost2010PropOp43
 70
     1
102
RTVSPost2010Prop44ColorIndex
 90
        5
102
RTVSPost2010Prop44ColorRGB
 90
      255
102
RTVSPost2010PropOp44
 70
     1
102
RTVSPost2010Prop45
280
     0
102
RTVSPost2010PropOp45
 70
     1
102
RTVSPost2010Prop46
 90
       50
102
RTVSPost2010PropOp46
 70
     1
102
RTVSPost2010Prop47
 90
       50
102
RTVSPost2010PropOp47
 70
     1
102
RTVSPost2010Prop48
 90
       50
102
RTVSPost2010PropOp48
 70
     1
102
RTVSPost2010Prop49
280
     0
102
RTVSPost2010PropOp49
 70
     1
102
RTVSPost2010Prop50
 90
       50
102
RTVSPost2010PropOp50
 70
     1
102
RTVSPost2010Prop51ColorIndex
 90
      256
102
RTVSPost2010Prop51ColorRGB
 90
-16777216
102
RTVSPost2010PropOp51
 70
     0
102
RTVSPost2010Prop52
140
1.0
102
RTVSPost2010PropOp52
 70
     0
102
RTVSPost2010Prop53
 90
        2
102
RTVSPost2010PropOp53
 70
     1
102
RTVSPost2010Prop54
  1
strokes_ogs.tif
102
RTVSPost2010PropOp54
 70
     1
102
RTVSPost2010Prop55
280
     0
102
RTVSPost2010PropOp55
 70
     1
102
RTVSPost2010Prop56
140
1.0
102
RTVSPost2010PropOp56
 70
     1
102
RTVSPost2010Prop57
140
1.0
102
RTVSPost2010PropOp57
 70
     1
102
RTVSPropertyOp0
 70
     1
102
RTVSPropertyOp1
 70
     1
102
RTVSPropertyOp2
 70
     1
102
RTVSPropertyOp3
 70
     1
102
RTVSPropertyOp4
 70
     1
102
RTVSPropertyOp5
 70
     1
102
RTVSPropertyOp6
 70
     1
102
RTVSPropertyOp7
 70
     1
102
RTVSPropertyOp8
 70
     1
102
RTVSPropertyOp9
 70
     1
102
RTVSPropertyOp10
 70
     1
102
RTVSPropertyOp11
 70
     1
102
RTVSPropertyOp12
 70
     1
102
RTVSPropertyOp13
 70
     1
102
RTVSPropertyOp14
 70
     1
102
RTVSPropertyOp15
 70
     1
102
RTVSPropertyOp16
 70
     1
102
RTVSPropertyOp17
 70
     1
102
RTVSPropertyOp18
 70
     1
102
RTVSPropertyOp19
 70
     1
102
RTVSPropertyOp20
 70
     1
102
RTVSPropertyOp21
 70
     1
102
RTVSPropertyOp22
 70
     1
102
RTVSPropertyOp23
 70
     1
102
RTVSPropertyOp24
 70
     1
102
RTVSPropertyOp25
 70
     1
102
RTVSPropertyOp26
 70
     1
102
RTVSPropertyOp27
 70
     1
102
RTVSPropertyOp28
 70
     1
102
RTVSPropertyOp29
 70
     1
102
RTVSPropertyOp30
 70
     1
102
RTVSPropertyOp31
 70
     1
102
RTVSPropertyOp32
 70
     1
102
RTVSPropertyOp33
 70
     1
102
RTVSPropertyOp34
 70
     1
102
RTVSPropertyOp35
 70
     1
102
RTVSPropertyOp36
 70
     1
102
RTVSPropertyOp37
 70
     1
102
RTVSPropertyOp38
 70
     1
102
RTVSPropertyOp39
 70
     1
102
RTVSPropertyOp40
 70
     1
102
RTVSPropertyOp41
 70
     1
102
RTVSPropertyOp42
 70
     1
102
RTVSPropertyOp43
 70
     1
102
RTVSPropertyOp44
 70
     1
102
RTVSPropertyOp45
 70
     1
102
RTVSPropertyOp46
 70
     1
102
RTVSPropertyOp47
 70
     1
102
RTVSPropertyOp48
 70
     1
102
RTVSPropertyOp49
 70
     1
102
RTVSPropertyOp50
 70
     1
102
RTVSPropertyOp51
 70
     0
102
RTVSPropertyOp52
 70
     0
102
RTVSPropertyOp53
 70
     1
102
RTVSPropertyOp54
 70
     1
102
RTVSPropertyOp55
 70
     1
102
RTVSPropertyOp56
 70
     1
102
RTVSPropertyOp57
 70
     1
102
RTVSPropertyOp58
 70
     1
102
RTVSPropertyOp59
 70
     1
102
RTVSPropertyOp60
 70
     1
102
RTVSPropertyOp61
 70
     1
102
RTVSPropertyOp62
 70
     1
  0
XRECORD
  5
1688
102
{ACAD_REACTORS
330
1687
102
}
330
1687
100
AcDbXrecord
280
     1
102
RTVSPost2010Prop28
280
     0
102
RTVSPost2010PropOp28
 70
     0
102
RTVSPost2010Prop29
280
     1
102
RTVSPost2010PropOp29
 70
     0
102
RTVSPost2010Prop30
280
     1
102
RTVSPost2010PropOp30
 70
     0
102
RTVSPost2010Prop31
280
     0
102
RTVSPost2010PropOp31
 70
     0
102
RTVSPost2010Prop32
280
     0
102
RTVSPost2010PropOp32
 70
     0
102
RTVSPost2010Prop33
280
     0
102
RTVSPost2010PropOp33
 70
     0
102
RTVSPost2010Prop34
280
     0
102
RTVSPost2010PropOp34
 70
     0
102
RTVSPost2010Prop35
280
     0
102
RTVSPost2010PropOp35
 70
     0
102
RTVSPost2010Prop36
280
     0
102
RTVSPost2010PropOp36
 70
     0
102
RTVSPost2010Prop37
 90
       50
102
RTVSPost2010PropOp37
 70
     0
102
RTVSPost2010Prop38
140
0.0
102
RTVSPost2010PropOp38
 70
     0
102
RTVSPost2010Prop39
140
1.0
102
RTVSPost2010PropOp39
 70
     0
102
RTVSPost2010Prop40
 90
        0
102
RTVSPost2010PropOp40
 70
     0
102
RTVSPost2010Prop41ColorIndex
 90
       18
102
RTVSPost2010Prop41ColorRGB
 90
        0
102
RTVSPost2010PropOp41
 70
     0
102
RTVSPost2010Prop42
 90
       50
102
RTVSPost2010PropOp42
 70
     0
102
RTVSPost2010Prop43
 90
        3
102
RTVSPost2010PropOp43
 70
     0
102
RTVSPost2010Prop44ColorIndex
 90
        5
102
RTVSPost2010Prop44ColorRGB
 90
      255
102
RTVSPost2010PropOp44
 70
     0
102
RTVSPost2010Prop45
280
     0
102
RTVSPost2010PropOp45
 70
     0
102
RTVSPost2010Prop46
 90
       50
102
RTVSPost2010PropOp46
 70
     0
102
RTVSPost2010Prop47
 90
       50
102
RTVSPost2010PropOp47
 70
     0
102
RTVSPost2010Prop48
 90
       50
102
RTVSPost2010PropOp48
 70
     0
102
RTVSPost2010Prop49
280
     0
102
RTVSPost2010PropOp49
 70
     0
102
RTVSPost2010Prop50
 90
       50
102
RTVSPost2010PropOp50
 70
     0
102
RTVSPost2010Prop51ColorIndex
 90
      256
102
RTVSPost2010Prop51ColorRGB
 90
-16777216
102
RTVSPost2010PropOp51
 70
     0
102
RTVSPost2010Prop52
140
1.0
102
RTVSPost2010PropOp52
 70
     0
102
RTVSPost2010Prop53
 90
        2
102
RTVSPost2010PropOp53
 70
     0
102
RTVSPost2010Prop54
  1
strokes_ogs.tif
102
RTVSPost2010PropOp54
 70
     0
102
RTVSPost2010Prop55
280
     0
102
RTVSPost2010PropOp55
 70
     0
102
RTVSPost2010Prop56
140
1.0
102
RTVSPost2010PropOp56
 70
     0
102
RTVSPost2010Prop57
140
1.0
102
RTVSPost2010PropOp57
 70
     0
102
RTVSPropertyOp0
 70
     0
102
RTVSPropertyOp1
 70
     0
102
RTVSPropertyOp2
 70
     0
102
RTVSPropertyOp3
 70
     0
102
RTVSPropertyOp4
 70
     0
102
RTVSPropertyOp5
 70
     0
102
RTVSPropertyOp6
 70
     0
102
RTVSPropertyOp7
 70
     0
102
RTVSPropertyOp8
 70
     0
102
RTVSPropertyOp9
 70
     0
102
RTVSPropertyOp10
 70
     0
102
RTVSPropertyOp11
 70
     0
102
RTVSPropertyOp12
 70
     0
102
RTVSPropertyOp13
 70
     0
102
RTVSPropertyOp14
 70
     2
102
RTVSPropertyOp15
 70
     0
102
RTVSPropertyOp16
 70
     0
102
RTVSPropertyOp17
 70
     0
102
RTVSPropertyOp18
 70
     0
102
RTVSPropertyOp19
 70
     0
102
RTVSPropertyOp20
 70
     0
102
RTVSPropertyOp21
 70
     0
102
RTVSPropertyOp22
 70
     0
102
RTVSPropertyOp23
 70
     0
102
RTVSPropertyOp24
 70
     0
102
RTVSPropertyOp25
 70
     0
102
RTVSPropertyOp26
 70
     0
102
RTVSPropertyOp27
 70
     0
102
RTVSPropertyOp28
 70
     0
102
RTVSPropertyOp29
 70
     0
102
RTVSPropertyOp30
 70
     0
102
RTVSPropertyOp31
 70
     0
102
RTVSPropertyOp32
 70
     0
102
RTVSPropertyOp33
 70
     0
102
RTVSPropertyOp34
 70
     0
102
RTVSPropertyOp35
 70
     0
102
RTVSPropertyOp36
 70
     0
102
RTVSPropertyOp37
 70
     0
102
RTVSPropertyOp38
 70
     0
102
RTVSPropertyOp39
 70
     0
102
RTVSPropertyOp40
 70
     0
102
RTVSPropertyOp41
 70
     0
102
RTVSPropertyOp42
 70
     0
102
RTVSPropertyOp43
 70
     0
102
RTVSPropertyOp44
 70
     0
102
RTVSPropertyOp45
 70
     0
102
RTVSPropertyOp46
 70
     0
102
RTVSPropertyOp47
 70
     0
102
RTVSPropertyOp48
 70
     0
102
RTVSPropertyOp49
 70
     0
102
RTVSPropertyOp50
 70
     0
102
RTVSPropertyOp51
 70
     0
102
RTVSPropertyOp52
 70
     0
102
RTVSPropertyOp53
 70
     0
102
RTVSPropertyOp54
 70
     0
102
RTVSPropertyOp55
 70
     0
102
RTVSPropertyOp56
 70
     0
102
RTVSPropertyOp57
 70
     0
102
RTVSPropertyOp58
 70
     0
102
RTVSPropertyOp59
 70
     0
102
RTVSPropertyOp60
 70
     0
102
RTVSPropertyOp61
 70
     0
102
RTVSPropertyOp62
 70
     0
  0
XRECORD
  5
1676
102
{ACAD_REACTORS
330
1675
102
}
330
1675
100
AcDbXrecord
280
     1
102
RTVSPost2010Prop28
280
     0
102
RTVSPost2010PropOp28
 70
     1
102
RTVSPost2010Prop29
280
     1
102
RTVSPost2010PropOp29
 70
     1
102
RTVSPost2010Prop30
280
     1
102
RTVSPost2010PropOp30
 70
     1
102
RTVSPost2010Prop31
280
     0
102
RTVSPost2010PropOp31
 70
     1
102
RTVSPost2010Prop32
280
     0
102
RTVSPost2010PropOp32
 70
     1
102
RTVSPost2010Prop33
280
     0
102
RTVSPost2010PropOp33
 70
     1
102
RTVSPost2010Prop34
280
     0
102
RTVSPost2010PropOp34
 70
     1
102
RTVSPost2010Prop35
280
     0
102
RTVSPost2010PropOp35
 70
     1
102
RTVSPost2010Prop36
280
     0
102
RTVSPost2010PropOp36
 70
     1
102
RTVSPost2010Prop37
 90
       50
102
RTVSPost2010PropOp37
 70
     1
102
RTVSPost2010Prop38
140
0.0
102
RTVSPost2010PropOp38
 70
     1
102
RTVSPost2010Prop39
140
1.0
102
RTVSPost2010PropOp39
 70
     1
102
RTVSPost2010Prop40
 90
        0
102
RTVSPost2010PropOp40
 70
     1
102
RTVSPost2010Prop41ColorIndex
 90
       18
102
RTVSPost2010Prop41ColorRGB
 90
        0
102
RTVSPost2010PropOp41
 70
     1
102
RTVSPost2010Prop42
 90
       50
102
RTVSPost2010PropOp42
 70
     1
102
RTVSPost2010Prop43
 90
        3
102
RTVSPost2010PropOp43
 70
     1
102
RTVSPost2010Prop44ColorIndex
 90
        5
102
RTVSPost2010Prop44ColorRGB
 90
      255
102
RTVSPost2010PropOp44
 70
     1
102
RTVSPost2010Prop45
280
     0
102
RTVSPost2010PropOp45
 70
     1
102
RTVSPost2010Prop46
 90
       50
102
RTVSPost2010PropOp46
 70
     1
102
RTVSPost2010Prop47
 90
       50
102
RTVSPost2010PropOp47
 70
     1
102
RTVSPost2010Prop48
 90
       50
102
RTVSPost2010PropOp48
 70
     1
102
RTVSPost2010Prop49
280
     0
102
RTVSPost2010PropOp49
 70
     1
102
RTVSPost2010Prop50
 90
       50
102
RTVSPost2010PropOp50
 70
     1
102
RTVSPost2010Prop51ColorIndex
 90
      256
102
RTVSPost2010Prop51ColorRGB
 90
-16777216
102
RTVSPost2010PropOp51
 70
     0
102
RTVSPost2010Prop52
140
1.0
102
RTVSPost2010PropOp52
 70
     0
102
RTVSPost2010Prop53
 90
        2
102
RTVSPost2010PropOp53
 70
     1
102
RTVSPost2010Prop54
  1
strokes_ogs.tif
102
RTVSPost2010PropOp54
 70
     1
102
RTVSPost2010Prop55
280
     0
102
RTVSPost2010PropOp55
 70
     1
102
RTVSPost2010Prop56
140
1.0
102
RTVSPost2010PropOp56
 70
     1
102
RTVSPost2010Prop57
140
1.0
102
RTVSPost2010PropOp57
 70
     1
102
RTVSPropertyOp0
 70
     1
102
RTVSPropertyOp1
 70
     1
102
RTVSPropertyOp2
 70
     1
102
RTVSPropertyOp3
 70
     1
102
RTVSPropertyOp4
 70
     1
102
RTVSPropertyOp5
 70
     1
102
RTVSPropertyOp6
 70
     1
102
RTVSPropertyOp7
 70
     1
102
RTVSPropertyOp8
 70
     1
102
RTVSPropertyOp9
 70
     1
102
RTVSPropertyOp10
 70
     1
102
RTVSPropertyOp11
 70
     1
102
RTVSPropertyOp12
 70
     1
102
RTVSPropertyOp13
 70
     1
102
RTVSPropertyOp14
 70
     1
102
RTVSPropertyOp15
 70
     1
102
RTVSPropertyOp16
 70
     1
102
RTVSPropertyOp17
 70
     1
102
RTVSPropertyOp18
 70
     1
102
RTVSPropertyOp19
 70
     1
102
RTVSPropertyOp20
 70
     1
102
RTVSPropertyOp21
 70
     1
102
RTVSPropertyOp22
 70
     1
102
RTVSPropertyOp23
 70
     1
102
RTVSPropertyOp24
 70
     1
102
RTVSPropertyOp25
 70
     1
102
RTVSPropertyOp26
 70
     1
102
RTVSPropertyOp27
 70
     1
102
RTVSPropertyOp28
 70
     1
102
RTVSPropertyOp29
 70
     1
102
RTVSPropertyOp30
 70
     1
102
RTVSPropertyOp31
 70
     1
102
RTVSPropertyOp32
 70
     1
102
RTVSPropertyOp33
 70
     1
102
RTVSPropertyOp34
 70
     1
102
RTVSPropertyOp35
 70
     1
102
RTVSPropertyOp36
 70
     1
102
RTVSPropertyOp37
 70
     1
102
RTVSPropertyOp38
 70
     1
102
RTVSPropertyOp39
 70
     1
102
RTVSPropertyOp40
 70
     1
102
RTVSPropertyOp41
 70
     1
102
RTVSPropertyOp42
 70
     1
102
RTVSPropertyOp43
 70
     1
102
RTVSPropertyOp44
 70
     1
102
RTVSPropertyOp45
 70
     1
102
RTVSPropertyOp46
 70
     1
102
RTVSPropertyOp47
 70
     1
102
RTVSPropertyOp48
 70
     1
102
RTVSPropertyOp49
 70
     1
102
RTVSPropertyOp50
 70
     1
102
RTVSPropertyOp51
 70
     0
102
RTVSPropertyOp52
 70
     0
102
RTVSPropertyOp53
 70
     1
102
RTVSPropertyOp54
 70
     1
102
RTVSPropertyOp55
 70
     1
102
RTVSPropertyOp56
 70
     1
102
RTVSPropertyOp57
 70
     1
102
RTVSPropertyOp58
 70
     1
102
RTVSPropertyOp59
 70
     1
102
RTVSPropertyOp60
 70
     1
102
RTVSPropertyOp61
 70
     1
102
RTVSPropertyOp62
 70
     1
  0
XRECORD
  5
165A
102
{ACAD_REACTORS
330
1659
102
}
330
1659
100
AcDbXrecord
280
     1
102
RTVSPost2010Prop28
280
     0
102
RTVSPost2010PropOp28
 70
     1
102
RTVSPost2010Prop29
280
     1
102
RTVSPost2010PropOp29
 70
     1
102
RTVSPost2010Prop30
280
     1
102
RTVSPost2010PropOp30
 70
     1
102
RTVSPost2010Prop31
280
     0
102
RTVSPost2010PropOp31
 70
     1
102
RTVSPost2010Prop32
280
     0
102
RTVSPost2010PropOp32
 70
     1
102
RTVSPost2010Prop33
280
     0
102
RTVSPost2010PropOp33
 70
     1
102
RTVSPost2010Prop34
280
     0
102
RTVSPost2010PropOp34
 70
     1
102
RTVSPost2010Prop35
280
     0
102
RTVSPost2010PropOp35
 70
     1
102
RTVSPost2010Prop36
280
     0
102
RTVSPost2010PropOp36
 70
     1
102
RTVSPost2010Prop37
 90
       50
102
RTVSPost2010PropOp37
 70
     1
102
RTVSPost2010Prop38
140
0.0
102
RTVSPost2010PropOp38
 70
     1
102
RTVSPost2010Prop39
140
1.0
102
RTVSPost2010PropOp39
 70
     1
102
RTVSPost2010Prop40
 90
        0
102
RTVSPost2010PropOp40
 70
     1
102
RTVSPost2010Prop41ColorIndex
 90
       18
102
RTVSPost2010Prop41ColorRGB
 90
        0
102
RTVSPost2010PropOp41
 70
     1
102
RTVSPost2010Prop42
 90
       50
102
RTVSPost2010PropOp42
 70
     1
102
RTVSPost2010Prop43
 90
        3
102
RTVSPost2010PropOp43
 70
     1
102
RTVSPost2010Prop44ColorIndex
 90
        5
102
RTVSPost2010Prop44ColorRGB
 90
      255
102
RTVSPost2010PropOp44
 70
     1
102
RTVSPost2010Prop45
280
     0
102
RTVSPost2010PropOp45
 70
     1
102
RTVSPost2010Prop46
 90
       50
102
RTVSPost2010PropOp46
 70
     1
102
RTVSPost2010Prop47
 90
       50
102
RTVSPost2010PropOp47
 70
     1
102
RTVSPost2010Prop48
 90
       50
102
RTVSPost2010PropOp48
 70
     1
102
RTVSPost2010Prop49
280
     0
102
RTVSPost2010PropOp49
 70
     1
102
RTVSPost2010Prop50
 90
       50
102
RTVSPost2010PropOp50
 70
     1
102
RTVSPost2010Prop51ColorIndex
 90
      256
102
RTVSPost2010Prop51ColorRGB
 90
-16777216
102
RTVSPost2010PropOp51
 70
     0
102
RTVSPost2010Prop52
140
1.0
102
RTVSPost2010PropOp52
 70
     0
102
RTVSPost2010Prop53
 90
        2
102
RTVSPost2010PropOp53
 70
     1
102
RTVSPost2010Prop54
  1
strokes_ogs.tif
102
RTVSPost2010PropOp54
 70
     1
102
RTVSPost2010Prop55
280
     0
102
RTVSPost2010PropOp55
 70
     1
102
RTVSPost2010Prop56
140
1.0
102
RTVSPost2010PropOp56
 70
     1
102
RTVSPost2010Prop57
140
1.0
102
RTVSPost2010PropOp57
 70
     1
102
RTVSPropertyOp0
 70
     1
102
RTVSPropertyOp1
 70
     1
102
RTVSPropertyOp2
 70
     1
102
RTVSPropertyOp3
 70
     1
102
RTVSPropertyOp4
 70
     1
102
RTVSPropertyOp5
 70
     1
102
RTVSPropertyOp6
 70
     1
102
RTVSPropertyOp7
 70
     1
102
RTVSPropertyOp8
 70
     1
102
RTVSPropertyOp9
 70
     1
102
RTVSPropertyOp10
 70
     1
102
RTVSPropertyOp11
 70
     1
102
RTVSPropertyOp12
 70
     1
102
RTVSPropertyOp13
 70
     1
102
RTVSPropertyOp14
 70
     1
102
RTVSPropertyOp15
 70
     1
102
RTVSPropertyOp16
 70
     1
102
RTVSPropertyOp17
 70
     1
102
RTVSPropertyOp18
 70
     1
102
RTVSPropertyOp19
 70
     1
102
RTVSPropertyOp20
 70
     1
102
RTVSPropertyOp21
 70
     1
102
RTVSPropertyOp22
 70
     1
102
RTVSPropertyOp23
 70
     1
102
RTVSPropertyOp24
 70
     1
102
RTVSPropertyOp25
 70
     1
102
RTVSPropertyOp26
 70
     1
102
RTVSPropertyOp27
 70
     1
102
RTVSPropertyOp28
 70
     1
102
RTVSPropertyOp29
 70
     1
102
RTVSPropertyOp30
 70
     1
102
RTVSPropertyOp31
 70
     1
102
RTVSPropertyOp32
 70
     1
102
RTVSPropertyOp33
 70
     1
102
RTVSPropertyOp34
 70
     1
102
RTVSPropertyOp35
 70
     1
102
RTVSPropertyOp36
 70
     1
102
RTVSPropertyOp37
 70
     1
102
RTVSPropertyOp38
 70
     1
102
RTVSPropertyOp39
 70
     1
102
RTVSPropertyOp40
 70
     1
102
RTVSPropertyOp41
 70
     1
102
RTVSPropertyOp42
 70
     1
102
RTVSPropertyOp43
 70
     1
102
RTVSPropertyOp44
 70
     1
102
RTVSPropertyOp45
 70
     1
102
RTVSPropertyOp46
 70
     1
102
RTVSPropertyOp47
 70
     1
102
RTVSPropertyOp48
 70
     1
102
RTVSPropertyOp49
 70
     1
102
RTVSPropertyOp50
 70
     1
102
RTVSPropertyOp51
 70
     0
102
RTVSPropertyOp52
 70
     0
102
RTVSPropertyOp53
 70
     1
102
RTVSPropertyOp54
 70
     1
102
RTVSPropertyOp55
 70
     1
102
RTVSPropertyOp56
 70
     1
102
RTVSPropertyOp57
 70
     1
102
RTVSPropertyOp58
 70
     1
102
RTVSPropertyOp59
 70
     1
102
RTVSPropertyOp60
 70
     1
102
RTVSPropertyOp61
 70
     1
102
RTVSPropertyOp62
 70
     1
  0
XRECORD
  5
165C
102
{ACAD_REACTORS
330
165B
102
}
330
165B
100
AcDbXrecord
280
     1
102
RTVSPost2010Prop28
280
     0
102
RTVSPost2010PropOp28
 70
     1
102
RTVSPost2010Prop29
280
     1
102
RTVSPost2010PropOp29
 70
     1
102
RTVSPost2010Prop30
280
     1
102
RTVSPost2010PropOp30
 70
     1
102
RTVSPost2010Prop31
280
     0
102
RTVSPost2010PropOp31
 70
     1
102
RTVSPost2010Prop32
280
     0
102
RTVSPost2010PropOp32
 70
     1
102
RTVSPost2010Prop33
280
     0
102
RTVSPost2010PropOp33
 70
     1
102
RTVSPost2010Prop34
280
     0
102
RTVSPost2010PropOp34
 70
     1
102
RTVSPost2010Prop35
280
     0
102
RTVSPost2010PropOp35
 70
     1
102
RTVSPost2010Prop36
280
     0
102
RTVSPost2010PropOp36
 70
     1
102
RTVSPost2010Prop37
 90
       50
102
RTVSPost2010PropOp37
 70
     1
102
RTVSPost2010Prop38
140
0.0
102
RTVSPost2010PropOp38
 70
     1
102
RTVSPost2010Prop39
140
1.0
102
RTVSPost2010PropOp39
 70
     1
102
RTVSPost2010Prop40
 90
        0
102
RTVSPost2010PropOp40
 70
     1
102
RTVSPost2010Prop41ColorIndex
 90
       18
102
RTVSPost2010Prop41ColorRGB
 90
        0
102
RTVSPost2010PropOp41
 70
     1
102
RTVSPost2010Prop42
 90
       50
102
RTVSPost2010PropOp42
 70
     1
102
RTVSPost2010Prop43
 90
        3
102
RTVSPost2010PropOp43
 70
     1
102
RTVSPost2010Prop44ColorIndex
 90
        5
102
RTVSPost2010Prop44ColorRGB
 90
      255
102
RTVSPost2010PropOp44
 70
     1
102
RTVSPost2010Prop45
280
     0
102
RTVSPost2010PropOp45
 70
     1
102
RTVSPost2010Prop46
 90
       50
102
RTVSPost2010PropOp46
 70
     1
102
RTVSPost2010Prop47
 90
       50
102
RTVSPost2010PropOp47
 70
     1
102
RTVSPost2010Prop48
 90
       50
102
RTVSPost2010PropOp48
 70
     1
102
RTVSPost2010Prop49
280
     0
102
RTVSPost2010PropOp49
 70
     1
102
RTVSPost2010Prop50
 90
       50
102
RTVSPost2010PropOp50
 70
     1
102
RTVSPost2010Prop51ColorIndex
 90
      256
102
RTVSPost2010Prop51ColorRGB
 90
-16777216
102
RTVSPost2010PropOp51
 70
     0
102
RTVSPost2010Prop52
140
1.0
102
RTVSPost2010PropOp52
 70
     0
102
RTVSPost2010Prop53
 90
        2
102
RTVSPost2010PropOp53
 70
     1
102
RTVSPost2010Prop54
  1
strokes_ogs.tif
102
RTVSPost2010PropOp54
 70
     1
102
RTVSPost2010Prop55
280
     0
102
RTVSPost2010PropOp55
 70
     1
102
RTVSPost2010Prop56
140
1.0
102
RTVSPost2010PropOp56
 70
     1
102
RTVSPost2010Prop57
140
1.0
102
RTVSPost2010PropOp57
 70
     1
102
RTVSPropertyOp0
 70
     1
102
RTVSPropertyOp1
 70
     1
102
RTVSPropertyOp2
 70
     1
102
RTVSPropertyOp3
 70
     1
102
RTVSPropertyOp4
 70
     1
102
RTVSPropertyOp5
 70
     1
102
RTVSPropertyOp6
 70
     1
102
RTVSPropertyOp7
 70
     1
102
RTVSPropertyOp8
 70
     1
102
RTVSPropertyOp9
 70
     1
102
RTVSPropertyOp10
 70
     1
102
RTVSPropertyOp11
 70
     1
102
RTVSPropertyOp12
 70
     1
102
RTVSPropertyOp13
 70
     1
102
RTVSPropertyOp14
 70
     1
102
RTVSPropertyOp15
 70
     1
102
RTVSPropertyOp16
 70
     1
102
RTVSPropertyOp17
 70
     1
102
RTVSPropertyOp18
 70
     1
102
RTVSPropertyOp19
 70
     1
102
RTVSPropertyOp20
 70
     1
102
RTVSPropertyOp21
 70
     1
102
RTVSPropertyOp22
 70
     1
102
RTVSPropertyOp23
 70
     1
102
RTVSPropertyOp24
 70
     1
102
RTVSPropertyOp25
 70
     1
102
RTVSPropertyOp26
 70
     1
102
RTVSPropertyOp27
 70
     1
102
RTVSPropertyOp28
 70
     1
102
RTVSPropertyOp29
 70
     1
102
RTVSPropertyOp30
 70
     1
102
RTVSPropertyOp31
 70
     1
102
RTVSPropertyOp32
 70
     1
102
RTVSPropertyOp33
 70
     1
102
RTVSPropertyOp34
 70
     1
102
RTVSPropertyOp35
 70
     1
102
RTVSPropertyOp36
 70
     1
102
RTVSPropertyOp37
 70
     1
102
RTVSPropertyOp38
 70
     1
102
RTVSPropertyOp39
 70
     1
102
RTVSPropertyOp40
 70
     1
102
RTVSPropertyOp41
 70
     1
102
RTVSPropertyOp42
 70
     1
102
RTVSPropertyOp43
 70
     1
102
RTVSPropertyOp44
 70
     1
102
RTVSPropertyOp45
 70
     1
102
RTVSPropertyOp46
 70
     1
102
RTVSPropertyOp47
 70
     1
102
RTVSPropertyOp48
 70
     1
102
RTVSPropertyOp49
 70
     1
102
RTVSPropertyOp50
 70
     1
102
RTVSPropertyOp51
 70
     0
102
RTVSPropertyOp52
 70
     0
102
RTVSPropertyOp53
 70
     1
102
RTVSPropertyOp54
 70
     1
102
RTVSPropertyOp55
 70
     1
102
RTVSPropertyOp56
 70
     1
102
RTVSPropertyOp57
 70
     1
102
RTVSPropertyOp58
 70
     1
102
RTVSPropertyOp59
 70
     1
102
RTVSPropertyOp60
 70
     1
102
RTVSPropertyOp61
 70
     1
102
RTVSPropertyOp62
 70
     1
  0
XRECORD
  5
165E
102
{ACAD_REACTORS
330
165D
102
}
330
165D
100
AcDbXrecord
280
     1
102
RTVSPost2010Prop28
280
     0
102
RTVSPost2010PropOp28
 70
     1
102
RTVSPost2010Prop29
280
     1
102
RTVSPost2010PropOp29
 70
     1
102
RTVSPost2010Prop30
280
     1
102
RTVSPost2010PropOp30
 70
     1
102
RTVSPost2010Prop31
280
     0
102
RTVSPost2010PropOp31
 70
     1
102
RTVSPost2010Prop32
280
     0
102
RTVSPost2010PropOp32
 70
     1
102
RTVSPost2010Prop33
280
     0
102
RTVSPost2010PropOp33
 70
     1
102
RTVSPost2010Prop34
280
     0
102
RTVSPost2010PropOp34
 70
     1
102
RTVSPost2010Prop35
280
     0
102
RTVSPost2010PropOp35
 70
     1
102
RTVSPost2010Prop36
280
     0
102
RTVSPost2010PropOp36
 70
     1
102
RTVSPost2010Prop37
 90
       50
102
RTVSPost2010PropOp37
 70
     1
102
RTVSPost2010Prop38
140
0.0
102
RTVSPost2010PropOp38
 70
     1
102
RTVSPost2010Prop39
140
1.0
102
RTVSPost2010PropOp39
 70
     1
102
RTVSPost2010Prop40
 90
        0
102
RTVSPost2010PropOp40
 70
     1
102
RTVSPost2010Prop41ColorIndex
 90
       18
102
RTVSPost2010Prop41ColorRGB
 90
        0
102
RTVSPost2010PropOp41
 70
     1
102
RTVSPost2010Prop42
 90
       50
102
RTVSPost2010PropOp42
 70
     1
102
RTVSPost2010Prop43
 90
        3
102
RTVSPost2010PropOp43
 70
     1
102
RTVSPost2010Prop44ColorIndex
 90
        5
102
RTVSPost2010Prop44ColorRGB
 90
      255
102
RTVSPost2010PropOp44
 70
     1
102
RTVSPost2010Prop45
280
     0
102
RTVSPost2010PropOp45
 70
     1
102
RTVSPost2010Prop46
 90
       50
102
RTVSPost2010PropOp46
 70
     1
102
RTVSPost2010Prop47
 90
       50
102
RTVSPost2010PropOp47
 70
     1
102
RTVSPost2010Prop48
 90
       50
102
RTVSPost2010PropOp48
 70
     1
102
RTVSPost2010Prop49
280
     0
102
RTVSPost2010PropOp49
 70
     1
102
RTVSPost2010Prop50
 90
       50
102
RTVSPost2010PropOp50
 70
     1
102
RTVSPost2010Prop51ColorIndex
 90
      256
102
RTVSPost2010Prop51ColorRGB
 90
-16777216
102
RTVSPost2010PropOp51
 70
     0
102
RTVSPost2010Prop52
140
1.0
102
RTVSPost2010PropOp52
 70
     0
102
RTVSPost2010Prop53
 90
        2
102
RTVSPost2010PropOp53
 70
     1
102
RTVSPost2010Prop54
  1
strokes_ogs.tif
102
RTVSPost2010PropOp54
 70
     1
102
RTVSPost2010Prop55
280
     0
102
RTVSPost2010PropOp55
 70
     1
102
RTVSPost2010Prop56
140
1.0
102
RTVSPost2010PropOp56
 70
     1
102
RTVSPost2010Prop57
140
1.0
102
RTVSPost2010PropOp57
 70
     1
102
RTVSPropertyOp0
 70
     1
102
RTVSPropertyOp1
 70
     1
102
RTVSPropertyOp2
 70
     1
102
RTVSPropertyOp3
 70
     1
102
RTVSPropertyOp4
 70
     1
102
RTVSPropertyOp5
 70
     1
102
RTVSPropertyOp6
 70
     1
102
RTVSPropertyOp7
 70
     1
102
RTVSPropertyOp8
 70
     1
102
RTVSPropertyOp9
 70
     1
102
RTVSPropertyOp10
 70
     1
102
RTVSPropertyOp11
 70
     1
102
RTVSPropertyOp12
 70
     1
102
RTVSPropertyOp13
 70
     1
102
RTVSPropertyOp14
 70
     1
102
RTVSPropertyOp15
 70
     1
102
RTVSPropertyOp16
 70
     1
102
RTVSPropertyOp17
 70
     1
102
RTVSPropertyOp18
 70
     1
102
RTVSPropertyOp19
 70
     1
102
RTVSPropertyOp20
 70
     1
102
RTVSPropertyOp21
 70
     1
102
RTVSPropertyOp22
 70
     1
102
RTVSPropertyOp23
 70
     1
102
RTVSPropertyOp24
 70
     1
102
RTVSPropertyOp25
 70
     1
102
RTVSPropertyOp26
 70
     1
102
RTVSPropertyOp27
 70
     1
102
RTVSPropertyOp28
 70
     1
102
RTVSPropertyOp29
 70
     1
102
RTVSPropertyOp30
 70
     1
102
RTVSPropertyOp31
 70
     1
102
RTVSPropertyOp32
 70
     1
102
RTVSPropertyOp33
 70
     1
102
RTVSPropertyOp34
 70
     1
102
RTVSPropertyOp35
 70
     1
102
RTVSPropertyOp36
 70
     1
102
RTVSPropertyOp37
 70
     1
102
RTVSPropertyOp38
 70
     1
102
RTVSPropertyOp39
 70
     1
102
RTVSPropertyOp40
 70
     1
102
RTVSPropertyOp41
 70
     1
102
RTVSPropertyOp42
 70
     1
102
RTVSPropertyOp43
 70
     1
102
RTVSPropertyOp44
 70
     1
102
RTVSPropertyOp45
 70
     1
102
RTVSPropertyOp46
 70
     1
102
RTVSPropertyOp47
 70
     1
102
RTVSPropertyOp48
 70
     1
102
RTVSPropertyOp49
 70
     1
102
RTVSPropertyOp50
 70
     1
102
RTVSPropertyOp51
 70
     0
102
RTVSPropertyOp52
 70
     0
102
RTVSPropertyOp53
 70
     1
102
RTVSPropertyOp54
 70
     1
102
RTVSPropertyOp55
 70
     1
102
RTVSPropertyOp56
 70
     1
102
RTVSPropertyOp57
 70
     1
102
RTVSPropertyOp58
 70
     1
102
RTVSPropertyOp59
 70
     1
102
RTVSPropertyOp60
 70
     1
102
RTVSPropertyOp61
 70
     1
102
RTVSPropertyOp62
 70
     1
  0
XRECORD
  5
1660
102
{ACAD_REACTORS
330
165F
102
}
330
165F
100
AcDbXrecord
280
     1
102
RTVSPost2010Prop28
280
     0
102
RTVSPost2010PropOp28
 70
     1
102
RTVSPost2010Prop29
280
     1
102
RTVSPost2010PropOp29
 70
     1
102
RTVSPost2010Prop30
280
     1
102
RTVSPost2010PropOp30
 70
     1
102
RTVSPost2010Prop31
280
     0
102
RTVSPost2010PropOp31
 70
     1
102
RTVSPost2010Prop32
280
     0
102
RTVSPost2010PropOp32
 70
     1
102
RTVSPost2010Prop33
280
     0
102
RTVSPost2010PropOp33
 70
     1
102
RTVSPost2010Prop34
280
     0
102
RTVSPost2010PropOp34
 70
     1
102
RTVSPost2010Prop35
280
     0
102
RTVSPost2010PropOp35
 70
     1
102
RTVSPost2010Prop36
280
     0
102
RTVSPost2010PropOp36
 70
     1
102
RTVSPost2010Prop37
 90
       50
102
RTVSPost2010PropOp37
 70
     1
102
RTVSPost2010Prop38
140
0.0
102
RTVSPost2010PropOp38
 70
     1
102
RTVSPost2010Prop39
140
1.0
102
RTVSPost2010PropOp39
 70
     1
102
RTVSPost2010Prop40
 90
        0
102
RTVSPost2010PropOp40
 70
     1
102
RTVSPost2010Prop41ColorIndex
 90
       18
102
RTVSPost2010Prop41ColorRGB
 90
        0
102
RTVSPost2010PropOp41
 70
     1
102
RTVSPost2010Prop42
 90
       50
102
RTVSPost2010PropOp42
 70
     1
102
RTVSPost2010Prop43
 90
        3
102
RTVSPost2010PropOp43
 70
     1
102
RTVSPost2010Prop44ColorIndex
 90
        5
102
RTVSPost2010Prop44ColorRGB
 90
      255
102
RTVSPost2010PropOp44
 70
     1
102
RTVSPost2010Prop45
280
     0
102
RTVSPost2010PropOp45
 70
     1
102
RTVSPost2010Prop46
 90
       50
102
RTVSPost2010PropOp46
 70
     1
102
RTVSPost2010Prop47
 90
       50
102
RTVSPost2010PropOp47
 70
     1
102
RTVSPost2010Prop48
 90
       50
102
RTVSPost2010PropOp48
 70
     1
102
RTVSPost2010Prop49
280
     0
102
RTVSPost2010PropOp49
 70
     1
102
RTVSPost2010Prop50
 90
       50
102
RTVSPost2010PropOp50
 70
     1
102
RTVSPost2010Prop51ColorIndex
 90
      256
102
RTVSPost2010Prop51ColorRGB
 90
-16777216
102
RTVSPost2010PropOp51
 70
     0
102
RTVSPost2010Prop52
140
1.0
102
RTVSPost2010PropOp52
 70
     0
102
RTVSPost2010Prop53
 90
        2
102
RTVSPost2010PropOp53
 70
     1
102
RTVSPost2010Prop54
  1
strokes_ogs.tif
102
RTVSPost2010PropOp54
 70
     1
102
RTVSPost2010Prop55
280
     0
102
RTVSPost2010PropOp55
 70
     1
102
RTVSPost2010Prop56
140
1.0
102
RTVSPost2010PropOp56
 70
     1
102
RTVSPost2010Prop57
140
1.0
102
RTVSPost2010PropOp57
 70
     1
102
RTVSPropertyOp0
 70
     1
102
RTVSPropertyOp1
 70
     1
102
RTVSPropertyOp2
 70
     1
102
RTVSPropertyOp3
 70
     1
102
RTVSPropertyOp4
 70
     1
102
RTVSPropertyOp5
 70
     1
102
RTVSPropertyOp6
 70
     1
102
RTVSPropertyOp7
 70
     1
102
RTVSPropertyOp8
 70
     1
102
RTVSPropertyOp9
 70
     1
102
RTVSPropertyOp10
 70
     1
102
RTVSPropertyOp11
 70
     1
102
RTVSPropertyOp12
 70
     1
102
RTVSPropertyOp13
 70
     1
102
RTVSPropertyOp14
 70
     1
102
RTVSPropertyOp15
 70
     1
102
RTVSPropertyOp16
 70
     1
102
RTVSPropertyOp17
 70
     1
102
RTVSPropertyOp18
 70
     1
102
RTVSPropertyOp19
 70
     1
102
RTVSPropertyOp20
 70
     1
102
RTVSPropertyOp21
 70
     1
102
RTVSPropertyOp22
 70
     1
102
RTVSPropertyOp23
 70
     1
102
RTVSPropertyOp24
 70
     1
102
RTVSPropertyOp25
 70
     1
102
RTVSPropertyOp26
 70
     1
102
RTVSPropertyOp27
 70
     1
102
RTVSPropertyOp28
 70
     1
102
RTVSPropertyOp29
 70
     1
102
RTVSPropertyOp30
 70
     1
102
RTVSPropertyOp31
 70
     1
102
RTVSPropertyOp32
 70
     1
102
RTVSPropertyOp33
 70
     1
102
RTVSPropertyOp34
 70
     1
102
RTVSPropertyOp35
 70
     1
102
RTVSPropertyOp36
 70
     1
102
RTVSPropertyOp37
 70
     1
102
RTVSPropertyOp38
 70
     1
102
RTVSPropertyOp39
 70
     1
102
RTVSPropertyOp40
 70
     1
102
RTVSPropertyOp41
 70
     1
102
RTVSPropertyOp42
 70
     1
102
RTVSPropertyOp43
 70
     1
102
RTVSPropertyOp44
 70
     1
102
RTVSPropertyOp45
 70
     1
102
RTVSPropertyOp46
 70
     1
102
RTVSPropertyOp47
 70
     1
102
RTVSPropertyOp48
 70
     1
102
RTVSPropertyOp49
 70
     1
102
RTVSPropertyOp50
 70
     1
102
RTVSPropertyOp51
 70
     0
102
RTVSPropertyOp52
 70
     0
102
RTVSPropertyOp53
 70
     1
102
RTVSPropertyOp54
 70
     1
102
RTVSPropertyOp55
 70
     1
102
RTVSPropertyOp56
 70
     1
102
RTVSPropertyOp57
 70
     1
102
RTVSPropertyOp58
 70
     1
102
RTVSPropertyOp59
 70
     1
102
RTVSPropertyOp60
 70
     1
102
RTVSPropertyOp61
 70
     1
102
RTVSPropertyOp62
 70
     1
  0
XRECORD
  5
1668
102
{ACAD_REACTORS
330
1667
102
}
330
1667
100
AcDbXrecord
280
     1
102
RTVSPost2010Prop28
280
     0
102
RTVSPost2010PropOp28
 70
     1
102
RTVSPost2010Prop29
280
     1
102
RTVSPost2010PropOp29
 70
     1
102
RTVSPost2010Prop30
280
     1
102
RTVSPost2010PropOp30
 70
     1
102
RTVSPost2010Prop31
280
     0
102
RTVSPost2010PropOp31
 70
     1
102
RTVSPost2010Prop32
280
     0
102
RTVSPost2010PropOp32
 70
     1
102
RTVSPost2010Prop33
280
     0
102
RTVSPost2010PropOp33
 70
     1
102
RTVSPost2010Prop34
280
     0
102
RTVSPost2010PropOp34
 70
     1
102
RTVSPost2010Prop35
280
     0
102
RTVSPost2010PropOp35
 70
     1
102
RTVSPost2010Prop36
280
     0
102
RTVSPost2010PropOp36
 70
     1
102
RTVSPost2010Prop37
 90
       50
102
RTVSPost2010PropOp37
 70
     1
102
RTVSPost2010Prop38
140
0.0
102
RTVSPost2010PropOp38
 70
     1
102
RTVSPost2010Prop39
140
1.0
102
RTVSPost2010PropOp39
 70
     1
102
RTVSPost2010Prop40
 90
        0
102
RTVSPost2010PropOp40
 70
     1
102
RTVSPost2010Prop41ColorIndex
 90
       18
102
RTVSPost2010Prop41ColorRGB
 90
        0
102
RTVSPost2010PropOp41
 70
     1
102
RTVSPost2010Prop42
 90
       50
102
RTVSPost2010PropOp42
 70
     1
102
RTVSPost2010Prop43
 90
        3
102
RTVSPost2010PropOp43
 70
     1
102
RTVSPost2010Prop44ColorIndex
 90
        5
102
RTVSPost2010Prop44ColorRGB
 90
      255
102
RTVSPost2010PropOp44
 70
     1
102
RTVSPost2010Prop45
280
     0
102
RTVSPost2010PropOp45
 70
     1
102
RTVSPost2010Prop46
 90
       50
102
RTVSPost2010PropOp46
 70
     1
102
RTVSPost2010Prop47
 90
       50
102
RTVSPost2010PropOp47
 70
     1
102
RTVSPost2010Prop48
 90
       50
102
RTVSPost2010PropOp48
 70
     1
102
RTVSPost2010Prop49
280
     0
102
RTVSPost2010PropOp49
 70
     1
102
RTVSPost2010Prop50
 90
       50
102
RTVSPost2010PropOp50
 70
     1
102
RTVSPost2010Prop51ColorIndex
 90
      256
102
RTVSPost2010Prop51ColorRGB
 90
-16777216
102
RTVSPost2010PropOp51
 70
     0
102
RTVSPost2010Prop52
140
1.0
102
RTVSPost2010PropOp52
 70
     0
102
RTVSPost2010Prop53
 90
        2
102
RTVSPost2010PropOp53
 70
     1
102
RTVSPost2010Prop54
  1
strokes_ogs.tif
102
RTVSPost2010PropOp54
 70
     1
102
RTVSPost2010Prop55
280
     0
102
RTVSPost2010PropOp55
 70
     1
102
RTVSPost2010Prop56
140
1.0
102
RTVSPost2010PropOp56
 70
     1
102
RTVSPost2010Prop57
140
1.0
102
RTVSPost2010PropOp57
 70
     1
102
RTVSPropertyOp0
 70
     1
102
RTVSPropertyOp1
 70
     1
102
RTVSPropertyOp2
 70
     1
102
RTVSPropertyOp3
 70
     1
102
RTVSPropertyOp4
 70
     1
102
RTVSPropertyOp5
 70
     1
102
RTVSPropertyOp6
 70
     1
102
RTVSPropertyOp7
 70
     1
102
RTVSPropertyOp8
 70
     1
102
RTVSPropertyOp9
 70
     1
102
RTVSPropertyOp10
 70
     1
102
RTVSPropertyOp11
 70
     1
102
RTVSPropertyOp12
 70
     1
102
RTVSPropertyOp13
 70
     1
102
RTVSPropertyOp14
 70
     1
102
RTVSPropertyOp15
 70
     1
102
RTVSPropertyOp16
 70
     1
102
RTVSPropertyOp17
 70
     1
102
RTVSPropertyOp18
 70
     1
102
RTVSPropertyOp19
 70
     1
102
RTVSPropertyOp20
 70
     1
102
RTVSPropertyOp21
 70
     1
102
RTVSPropertyOp22
 70
     1
102
RTVSPropertyOp23
 70
     1
102
RTVSPropertyOp24
 70
     1
102
RTVSPropertyOp25
 70
     1
102
RTVSPropertyOp26
 70
     1
102
RTVSPropertyOp27
 70
     1
102
RTVSPropertyOp28
 70
     1
102
RTVSPropertyOp29
 70
     1
102
RTVSPropertyOp30
 70
     1
102
RTVSPropertyOp31
 70
     1
102
RTVSPropertyOp32
 70
     1
102
RTVSPropertyOp33
 70
     1
102
RTVSPropertyOp34
 70
     1
102
RTVSPropertyOp35
 70
     1
102
RTVSPropertyOp36
 70
     1
102
RTVSPropertyOp37
 70
     1
102
RTVSPropertyOp38
 70
     1
102
RTVSPropertyOp39
 70
     1
102
RTVSPropertyOp40
 70
     1
102
RTVSPropertyOp41
 70
     1
102
RTVSPropertyOp42
 70
     1
102
RTVSPropertyOp43
 70
     1
102
RTVSPropertyOp44
 70
     1
102
RTVSPropertyOp45
 70
     1
102
RTVSPropertyOp46
 70
     1
102
RTVSPropertyOp47
 70
     1
102
RTVSPropertyOp48
 70
     1
102
RTVSPropertyOp49
 70
     1
102
RTVSPropertyOp50
 70
     1
102
RTVSPropertyOp51
 70
     0
102
RTVSPropertyOp52
 70
     0
102
RTVSPropertyOp53
 70
     1
102
RTVSPropertyOp54
 70
     1
102
RTVSPropertyOp55
 70
     1
102
RTVSPropertyOp56
 70
     1
102
RTVSPropertyOp57
 70
     1
102
RTVSPropertyOp58
 70
     1
102
RTVSPropertyOp59
 70
     1
102
RTVSPropertyOp60
 70
     1
102
RTVSPropertyOp61
 70
     1
102
RTVSPropertyOp62
 70
     1
  0
XRECORD
  5
1684
102
{ACAD_REACTORS
330
1683
102
}
330
1683
100
AcDbXrecord
280
     1
102
RTVSPost2010Prop28
280
     0
102
RTVSPost2010PropOp28
 70
     0
102
RTVSPost2010Prop29
280
     1
102
RTVSPost2010PropOp29
 70
     0
102
RTVSPost2010Prop30
280
     1
102
RTVSPost2010PropOp30
 70
     0
102
RTVSPost2010Prop31
280
     0
102
RTVSPost2010PropOp31
 70
     0
102
RTVSPost2010Prop32
280
     0
102
RTVSPost2010PropOp32
 70
     0
102
RTVSPost2010Prop33
280
     0
102
RTVSPost2010PropOp33
 70
     0
102
RTVSPost2010Prop34
280
     0
102
RTVSPost2010PropOp34
 70
     0
102
RTVSPost2010Prop35
280
     0
102
RTVSPost2010PropOp35
 70
     0
102
RTVSPost2010Prop36
280
     0
102
RTVSPost2010PropOp36
 70
     0
102
RTVSPost2010Prop37
 90
       50
102
RTVSPost2010PropOp37
 70
     0
102
RTVSPost2010Prop38
140
0.0
102
RTVSPost2010PropOp38
 70
     0
102
RTVSPost2010Prop39
140
1.0
102
RTVSPost2010PropOp39
 70
     0
102
RTVSPost2010Prop40
 90
        0
102
RTVSPost2010PropOp40
 70
     0
102
RTVSPost2010Prop41ColorIndex
 90
       18
102
RTVSPost2010Prop41ColorRGB
 90
        0
102
RTVSPost2010PropOp41
 70
     0
102
RTVSPost2010Prop42
 90
       50
102
RTVSPost2010PropOp42
 70
     0
102
RTVSPost2010Prop43
 90
        3
102
RTVSPost2010PropOp43
 70
     0
102
RTVSPost2010Prop44ColorIndex
 90
        5
102
RTVSPost2010Prop44ColorRGB
 90
      255
102
RTVSPost2010PropOp44
 70
     0
102
RTVSPost2010Prop45
280
     0
102
RTVSPost2010PropOp45
 70
     0
102
RTVSPost2010Prop46
 90
       50
102
RTVSPost2010PropOp46
 70
     0
102
RTVSPost2010Prop47
 90
       50
102
RTVSPost2010PropOp47
 70
     0
102
RTVSPost2010Prop48
 90
       50
102
RTVSPost2010PropOp48
 70
     0
102
RTVSPost2010Prop49
280
     0
102
RTVSPost2010PropOp49
 70
     0
102
RTVSPost2010Prop50
 90
       50
102
RTVSPost2010PropOp50
 70
     0
102
RTVSPost2010Prop51ColorIndex
 90
      256
102
RTVSPost2010Prop51ColorRGB
 90
-16777216
102
RTVSPost2010PropOp51
 70
     0
102
RTVSPost2010Prop52
140
1.0
102
RTVSPost2010PropOp52
 70
     0
102
RTVSPost2010Prop53
 90
        2
102
RTVSPost2010PropOp53
 70
     0
102
RTVSPost2010Prop54
  1
strokes_ogs.tif
102
RTVSPost2010PropOp54
 70
     0
102
RTVSPost2010Prop55
280
     0
102
RTVSPost2010PropOp55
 70
     0
102
RTVSPost2010Prop56
140
1.0
102
RTVSPost2010PropOp56
 70
     0
102
RTVSPost2010Prop57
140
1.0
102
RTVSPost2010PropOp57
 70
     0
102
RTVSPropertyOp0
 70
     0
102
RTVSPropertyOp1
 70
     0
102
RTVSPropertyOp2
 70
     0
102
RTVSPropertyOp3
 70
     0
102
RTVSPropertyOp4
 70
     0
102
RTVSPropertyOp5
 70
     0
102
RTVSPropertyOp6
 70
     0
102
RTVSPropertyOp7
 70
     0
102
RTVSPropertyOp8
 70
     0
102
RTVSPropertyOp9
 70
     0
102
RTVSPropertyOp10
 70
     0
102
RTVSPropertyOp11
 70
     0
102
RTVSPropertyOp12
 70
     0
102
RTVSPropertyOp13
 70
     0
102
RTVSPropertyOp14
 70
     2
102
RTVSPropertyOp15
 70
     0
102
RTVSPropertyOp16
 70
     0
102
RTVSPropertyOp17
 70
     0
102
RTVSPropertyOp18
 70
     0
102
RTVSPropertyOp19
 70
     0
102
RTVSPropertyOp20
 70
     0
102
RTVSPropertyOp21
 70
     0
102
RTVSPropertyOp22
 70
     0
102
RTVSPropertyOp23
 70
     0
102
RTVSPropertyOp24
 70
     0
102
RTVSPropertyOp25
 70
     0
102
RTVSPropertyOp26
 70
     0
102
RTVSPropertyOp27
 70
     0
102
RTVSPropertyOp28
 70
     0
102
RTVSPropertyOp29
 70
     0
102
RTVSPropertyOp30
 70
     0
102
RTVSPropertyOp31
 70
     0
102
RTVSPropertyOp32
 70
     0
102
RTVSPropertyOp33
 70
     0
102
RTVSPropertyOp34
 70
     0
102
RTVSPropertyOp35
 70
     0
102
RTVSPropertyOp36
 70
     0
102
RTVSPropertyOp37
 70
     0
102
RTVSPropertyOp38
 70
     0
102
RTVSPropertyOp39
 70
     0
102
RTVSPropertyOp40
 70
     0
102
RTVSPropertyOp41
 70
     0
102
RTVSPropertyOp42
 70
     0
102
RTVSPropertyOp43
 70
     0
102
RTVSPropertyOp44
 70
     0
102
RTVSPropertyOp45
 70
     0
102
RTVSPropertyOp46
 70
     0
102
RTVSPropertyOp47
 70
     0
102
RTVSPropertyOp48
 70
     0
102
RTVSPropertyOp49
 70
     0
102
RTVSPropertyOp50
 70
     0
102
RTVSPropertyOp51
 70
     0
102
RTVSPropertyOp52
 70
     0
102
RTVSPropertyOp53
 70
     0
102
RTVSPropertyOp54
 70
     0
102
RTVSPropertyOp55
 70
     0
102
RTVSPropertyOp56
 70
     0
102
RTVSPropertyOp57
 70
     0
102
RTVSPropertyOp58
 70
     0
102
RTVSPropertyOp59
 70
     0
102
RTVSPropertyOp60
 70
     0
102
RTVSPropertyOp61
 70
     0
102
RTVSPropertyOp62
 70
     0
  0
XRECORD
  5
1674
102
{ACAD_REACTORS
330
1673
102
}
330
1673
100
AcDbXrecord
280
     1
102
RTVSPost2010Prop28
280
     0
102
RTVSPost2010PropOp28
 70
     1
102
RTVSPost2010Prop29
280
     1
102
RTVSPost2010PropOp29
 70
     1
102
RTVSPost2010Prop30
280
     1
102
RTVSPost2010PropOp30
 70
     1
102
RTVSPost2010Prop31
280
     0
102
RTVSPost2010PropOp31
 70
     1
102
RTVSPost2010Prop32
280
     0
102
RTVSPost2010PropOp32
 70
     1
102
RTVSPost2010Prop33
280
     0
102
RTVSPost2010PropOp33
 70
     1
102
RTVSPost2010Prop34
280
     0
102
RTVSPost2010PropOp34
 70
     1
102
RTVSPost2010Prop35
280
     0
102
RTVSPost2010PropOp35
 70
     1
102
RTVSPost2010Prop36
280
     0
102
RTVSPost2010PropOp36
 70
     1
102
RTVSPost2010Prop37
 90
       50
102
RTVSPost2010PropOp37
 70
     1
102
RTVSPost2010Prop38
140
0.0
102
RTVSPost2010PropOp38
 70
     1
102
RTVSPost2010Prop39
140
1.0
102
RTVSPost2010PropOp39
 70
     1
102
RTVSPost2010Prop40
 90
        0
102
RTVSPost2010PropOp40
 70
     1
102
RTVSPost2010Prop41ColorIndex
 90
       18
102
RTVSPost2010Prop41ColorRGB
 90
        0
102
RTVSPost2010PropOp41
 70
     1
102
RTVSPost2010Prop42
 90
       50
102
RTVSPost2010PropOp42
 70
     1
102
RTVSPost2010Prop43
 90
        3
102
RTVSPost2010PropOp43
 70
     1
102
RTVSPost2010Prop44ColorIndex
 90
        5
102
RTVSPost2010Prop44ColorRGB
 90
      255
102
RTVSPost2010PropOp44
 70
     1
102
RTVSPost2010Prop45
280
     0
102
RTVSPost2010PropOp45
 70
     1
102
RTVSPost2010Prop46
 90
       50
102
RTVSPost2010PropOp46
 70
     1
102
RTVSPost2010Prop47
 90
       50
102
RTVSPost2010PropOp47
 70
     1
102
RTVSPost2010Prop48
 90
       50
102
RTVSPost2010PropOp48
 70
     1
102
RTVSPost2010Prop49
280
     0
102
RTVSPost2010PropOp49
 70
     1
102
RTVSPost2010Prop50
 90
       50
102
RTVSPost2010PropOp50
 70
     1
102
RTVSPost2010Prop51ColorIndex
 90
      256
102
RTVSPost2010Prop51ColorRGB
 90
-16777216
102
RTVSPost2010PropOp51
 70
     0
102
RTVSPost2010Prop52
140
1.0
102
RTVSPost2010PropOp52
 70
     0
102
RTVSPost2010Prop53
 90
        2
102
RTVSPost2010PropOp53
 70
     1
102
RTVSPost2010Prop54
  1
strokes_ogs.tif
102
RTVSPost2010PropOp54
 70
     1
102
RTVSPost2010Prop55
280
     0
102
RTVSPost2010PropOp55
 70
     1
102
RTVSPost2010Prop56
140
1.0
102
RTVSPost2010PropOp56
 70
     1
102
RTVSPost2010Prop57
140
1.0
102
RTVSPost2010PropOp57
 70
     1
102
RTVSPropertyOp0
 70
     1
102
RTVSPropertyOp1
 70
     1
102
RTVSPropertyOp2
 70
     1
102
RTVSPropertyOp3
 70
     1
102
RTVSPropertyOp4
 70
     1
102
RTVSPropertyOp5
 70
     1
102
RTVSPropertyOp6
 70
     1
102
RTVSPropertyOp7
 70
     1
102
RTVSPropertyOp8
 70
     1
102
RTVSPropertyOp9
 70
     1
102
RTVSPropertyOp10
 70
     1
102
RTVSPropertyOp11
 70
     1
102
RTVSPropertyOp12
 70
     1
102
RTVSPropertyOp13
 70
     1
102
RTVSPropertyOp14
 70
     1
102
RTVSPropertyOp15
 70
     1
102
RTVSPropertyOp16
 70
     1
102
RTVSPropertyOp17
 70
     1
102
RTVSPropertyOp18
 70
     1
102
RTVSPropertyOp19
 70
     1
102
RTVSPropertyOp20
 70
     1
102
RTVSPropertyOp21
 70
     1
102
RTVSPropertyOp22
 70
     1
102
RTVSPropertyOp23
 70
     1
102
RTVSPropertyOp24
 70
     1
102
RTVSPropertyOp25
 70
     1
102
RTVSPropertyOp26
 70
     1
102
RTVSPropertyOp27
 70
     1
102
RTVSPropertyOp28
 70
     1
102
RTVSPropertyOp29
 70
     1
102
RTVSPropertyOp30
 70
     1
102
RTVSPropertyOp31
 70
     1
102
RTVSPropertyOp32
 70
     1
102
RTVSPropertyOp33
 70
     1
102
RTVSPropertyOp34
 70
     1
102
RTVSPropertyOp35
 70
     1
102
RTVSPropertyOp36
 70
     1
102
RTVSPropertyOp37
 70
     1
102
RTVSPropertyOp38
 70
     1
102
RTVSPropertyOp39
 70
     1
102
RTVSPropertyOp40
 70
     1
102
RTVSPropertyOp41
 70
     1
102
RTVSPropertyOp42
 70
     1
102
RTVSPropertyOp43
 70
     1
102
RTVSPropertyOp44
 70
     1
102
RTVSPropertyOp45
 70
     1
102
RTVSPropertyOp46
 70
     1
102
RTVSPropertyOp47
 70
     1
102
RTVSPropertyOp48
 70
     1
102
RTVSPropertyOp49
 70
     1
102
RTVSPropertyOp50
 70
     1
102
RTVSPropertyOp51
 70
     0
102
RTVSPropertyOp52
 70
     0
102
RTVSPropertyOp53
 70
     1
102
RTVSPropertyOp54
 70
     1
102
RTVSPropertyOp55
 70
     1
102
RTVSPropertyOp56
 70
     1
102
RTVSPropertyOp57
 70
     1
102
RTVSPropertyOp58
 70
     1
102
RTVSPropertyOp59
 70
     1
102
RTVSPropertyOp60
 70
     1
102
RTVSPropertyOp61
 70
     1
102
RTVSPropertyOp62
 70
     1
  0
XRECORD
  5
1686
102
{ACAD_REACTORS
330
1685
102
}
330
1685
100
AcDbXrecord
280
     1
102
RTVSPost2010Prop28
280
     0
102
RTVSPost2010PropOp28
 70
     0
102
RTVSPost2010Prop29
280
     1
102
RTVSPost2010PropOp29
 70
     0
102
RTVSPost2010Prop30
280
     1
102
RTVSPost2010PropOp30
 70
     0
102
RTVSPost2010Prop31
280
     0
102
RTVSPost2010PropOp31
 70
     0
102
RTVSPost2010Prop32
280
     0
102
RTVSPost2010PropOp32
 70
     0
102
RTVSPost2010Prop33
280
     0
102
RTVSPost2010PropOp33
 70
     0
102
RTVSPost2010Prop34
280
     0
102
RTVSPost2010PropOp34
 70
     0
102
RTVSPost2010Prop35
280
     0
102
RTVSPost2010PropOp35
 70
     0
102
RTVSPost2010Prop36
280
     0
102
RTVSPost2010PropOp36
 70
     0
102
RTVSPost2010Prop37
 90
       50
102
RTVSPost2010PropOp37
 70
     0
102
RTVSPost2010Prop38
140
0.0
102
RTVSPost2010PropOp38
 70
     0
102
RTVSPost2010Prop39
140
1.0
102
RTVSPost2010PropOp39
 70
     0
102
RTVSPost2010Prop40
 90
        0
102
RTVSPost2010PropOp40
 70
     0
102
RTVSPost2010Prop41ColorIndex
 90
       18
102
RTVSPost2010Prop41ColorRGB
 90
        0
102
RTVSPost2010PropOp41
 70
     0
102
RTVSPost2010Prop42
 90
       50
102
RTVSPost2010PropOp42
 70
     0
102
RTVSPost2010Prop43
 90
        3
102
RTVSPost2010PropOp43
 70
     0
102
RTVSPost2010Prop44ColorIndex
 90
        5
102
RTVSPost2010Prop44ColorRGB
 90
      255
102
RTVSPost2010PropOp44
 70
     0
102
RTVSPost2010Prop45
280
     0
102
RTVSPost2010PropOp45
 70
     0
102
RTVSPost2010Prop46
 90
       50
102
RTVSPost2010PropOp46
 70
     0
102
RTVSPost2010Prop47
 90
       50
102
RTVSPost2010PropOp47
 70
     0
102
RTVSPost2010Prop48
 90
       50
102
RTVSPost2010PropOp48
 70
     0
102
RTVSPost2010Prop49
280
     0
102
RTVSPost2010PropOp49
 70
     0
102
RTVSPost2010Prop50
 90
       50
102
RTVSPost2010PropOp50
 70
     0
102
RTVSPost2010Prop51ColorIndex
 90
      256
102
RTVSPost2010Prop51ColorRGB
 90
-16777216
102
RTVSPost2010PropOp51
 70
     0
102
RTVSPost2010Prop52
140
1.0
102
RTVSPost2010PropOp52
 70
     0
102
RTVSPost2010Prop53
 90
        2
102
RTVSPost2010PropOp53
 70
     0
102
RTVSPost2010Prop54
  1
strokes_ogs.tif
102
RTVSPost2010PropOp54
 70
     0
102
RTVSPost2010Prop55
280
     0
102
RTVSPost2010PropOp55
 70
     0
102
RTVSPost2010Prop56
140
1.0
102
RTVSPost2010PropOp56
 70
     0
102
RTVSPost2010Prop57
140
1.0
102
RTVSPost2010PropOp57
 70
     0
102
RTVSPropertyOp0
 70
     0
102
RTVSPropertyOp1
 70
     0
102
RTVSPropertyOp2
 70
     0
102
RTVSPropertyOp3
 70
     0
102
RTVSPropertyOp4
 70
     0
102
RTVSPropertyOp5
 70
     0
102
RTVSPropertyOp6
 70
     0
102
RTVSPropertyOp7
 70
     0
102
RTVSPropertyOp8
 70
     0
102
RTVSPropertyOp9
 70
     0
102
RTVSPropertyOp10
 70
     0
102
RTVSPropertyOp11
 70
     0
102
RTVSPropertyOp12
 70
     0
102
RTVSPropertyOp13
 70
     0
102
RTVSPropertyOp14
 70
     2
102
RTVSPropertyOp15
 70
     0
102
RTVSPropertyOp16
 70
     0
102
RTVSPropertyOp17
 70
     0
102
RTVSPropertyOp18
 70
     0
102
RTVSPropertyOp19
 70
     0
102
RTVSPropertyOp20
 70
     0
102
RTVSPropertyOp21
 70
     0
102
RTVSPropertyOp22
 70
     0
102
RTVSPropertyOp23
 70
     0
102
RTVSPropertyOp24
 70
     0
102
RTVSPropertyOp25
 70
     0
102
RTVSPropertyOp26
 70
     0
102
RTVSPropertyOp27
 70
     0
102
RTVSPropertyOp28
 70
     0
102
RTVSPropertyOp29
 70
     0
102
RTVSPropertyOp30
 70
     0
102
RTVSPropertyOp31
 70
     0
102
RTVSPropertyOp32
 70
     0
102
RTVSPropertyOp33
 70
     0
102
RTVSPropertyOp34
 70
     0
102
RTVSPropertyOp35
 70
     0
102
RTVSPropertyOp36
 70
     0
102
RTVSPropertyOp37
 70
     0
102
RTVSPropertyOp38
 70
     0
102
RTVSPropertyOp39
 70
     0
102
RTVSPropertyOp40
 70
     0
102
RTVSPropertyOp41
 70
     0
102
RTVSPropertyOp42
 70
     0
102
RTVSPropertyOp43
 70
     0
102
RTVSPropertyOp44
 70
     0
102
RTVSPropertyOp45
 70
     0
102
RTVSPropertyOp46
 70
     0
102
RTVSPropertyOp47
 70
     0
102
RTVSPropertyOp48
 70
     0
102
RTVSPropertyOp49
 70
     0
102
RTVSPropertyOp50
 70
     0
102
RTVSPropertyOp51
 70
     0
102
RTVSPropertyOp52
 70
     0
102
RTVSPropertyOp53
 70
     0
102
RTVSPropertyOp54
 70
     0
102
RTVSPropertyOp55
 70
     0
102
RTVSPropertyOp56
 70
     0
102
RTVSPropertyOp57
 70
     0
102
RTVSPropertyOp58
 70
     0
102
RTVSPropertyOp59
 70
     0
102
RTVSPropertyOp60
 70
     0
102
RTVSPropertyOp61
 70
     0
102
RTVSPropertyOp62
 70
     0
  0
XRECORD
  5
166C
102
{ACAD_REACTORS
330
166B
102
}
330
166B
100
AcDbXrecord
280
     1
102
RTVSPost2010Prop28
280
     0
102
RTVSPost2010PropOp28
 70
     1
102
RTVSPost2010Prop29
280
     1
102
RTVSPost2010PropOp29
 70
     1
102
RTVSPost2010Prop30
280
     1
102
RTVSPost2010PropOp30
 70
     1
102
RTVSPost2010Prop31
280
     0
102
RTVSPost2010PropOp31
 70
     1
102
RTVSPost2010Prop32
280
     0
102
RTVSPost2010PropOp32
 70
     1
102
RTVSPost2010Prop33
280
     0
102
RTVSPost2010PropOp33
 70
     1
102
RTVSPost2010Prop34
280
     0
102
RTVSPost2010PropOp34
 70
     1
102
RTVSPost2010Prop35
280
     0
102
RTVSPost2010PropOp35
 70
     1
102
RTVSPost2010Prop36
280
     0
102
RTVSPost2010PropOp36
 70
     1
102
RTVSPost2010Prop37
 90
       50
102
RTVSPost2010PropOp37
 70
     1
102
RTVSPost2010Prop38
140
0.0
102
RTVSPost2010PropOp38
 70
     1
102
RTVSPost2010Prop39
140
1.0
102
RTVSPost2010PropOp39
 70
     1
102
RTVSPost2010Prop40
 90
        0
102
RTVSPost2010PropOp40
 70
     1
102
RTVSPost2010Prop41ColorIndex
 90
       18
102
RTVSPost2010Prop41ColorRGB
 90
        0
102
RTVSPost2010PropOp41
 70
     1
102
RTVSPost2010Prop42
 90
       50
102
RTVSPost2010PropOp42
 70
     1
102
RTVSPost2010Prop43
 90
        3
102
RTVSPost2010PropOp43
 70
     1
102
RTVSPost2010Prop44ColorIndex
 90
        5
102
RTVSPost2010Prop44ColorRGB
 90
      255
102
RTVSPost2010PropOp44
 70
     1
102
RTVSPost2010Prop45
280
     0
102
RTVSPost2010PropOp45
 70
     1
102
RTVSPost2010Prop46
 90
       50
102
RTVSPost2010PropOp46
 70
     1
102
RTVSPost2010Prop47
 90
       50
102
RTVSPost2010PropOp47
 70
     1
102
RTVSPost2010Prop48
 90
       50
102
RTVSPost2010PropOp48
 70
     1
102
RTVSPost2010Prop49
280
     0
102
RTVSPost2010PropOp49
 70
     1
102
RTVSPost2010Prop50
 90
       50
102
RTVSPost2010PropOp50
 70
     1
102
RTVSPost2010Prop51ColorIndex
 90
      256
102
RTVSPost2010Prop51ColorRGB
 90
-16777216
102
RTVSPost2010PropOp51
 70
     0
102
RTVSPost2010Prop52
140
1.0
102
RTVSPost2010PropOp52
 70
     0
102
RTVSPost2010Prop53
 90
        2
102
RTVSPost2010PropOp53
 70
     1
102
RTVSPost2010Prop54
  1
strokes_ogs.tif
102
RTVSPost2010PropOp54
 70
     1
102
RTVSPost2010Prop55
280
     0
102
RTVSPost2010PropOp55
 70
     1
102
RTVSPost2010Prop56
140
1.0
102
RTVSPost2010PropOp56
 70
     1
102
RTVSPost2010Prop57
140
1.0
102
RTVSPost2010PropOp57
 70
     1
102
RTVSPropertyOp0
 70
     1
102
RTVSPropertyOp1
 70
     1
102
RTVSPropertyOp2
 70
     1
102
RTVSPropertyOp3
 70
     1
102
RTVSPropertyOp4
 70
     1
102
RTVSPropertyOp5
 70
     1
102
RTVSPropertyOp6
 70
     1
102
RTVSPropertyOp7
 70
     1
102
RTVSPropertyOp8
 70
     1
102
RTVSPropertyOp9
 70
     1
102
RTVSPropertyOp10
 70
     1
102
RTVSPropertyOp11
 70
     1
102
RTVSPropertyOp12
 70
     1
102
RTVSPropertyOp13
 70
     1
102
RTVSPropertyOp14
 70
     1
102
RTVSPropertyOp15
 70
     1
102
RTVSPropertyOp16
 70
     1
102
RTVSPropertyOp17
 70
     1
102
RTVSPropertyOp18
 70
     1
102
RTVSPropertyOp19
 70
     1
102
RTVSPropertyOp20
 70
     1
102
RTVSPropertyOp21
 70
     1
102
RTVSPropertyOp22
 70
     1
102
RTVSPropertyOp23
 70
     1
102
RTVSPropertyOp24
 70
     1
102
RTVSPropertyOp25
 70
     1
102
RTVSPropertyOp26
 70
     1
102
RTVSPropertyOp27
 70
     1
102
RTVSPropertyOp28
 70
     1
102
RTVSPropertyOp29
 70
     1
102
RTVSPropertyOp30
 70
     1
102
RTVSPropertyOp31
 70
     1
102
RTVSPropertyOp32
 70
     1
102
RTVSPropertyOp33
 70
     1
102
RTVSPropertyOp34
 70
     1
102
RTVSPropertyOp35
 70
     1
102
RTVSPropertyOp36
 70
     1
102
RTVSPropertyOp37
 70
     1
102
RTVSPropertyOp38
 70
     1
102
RTVSPropertyOp39
 70
     1
102
RTVSPropertyOp40
 70
     1
102
RTVSPropertyOp41
 70
     1
102
RTVSPropertyOp42
 70
     1
102
RTVSPropertyOp43
 70
     1
102
RTVSPropertyOp44
 70
     1
102
RTVSPropertyOp45
 70
     1
102
RTVSPropertyOp46
 70
     1
102
RTVSPropertyOp47
 70
     1
102
RTVSPropertyOp48
 70
     1
102
RTVSPropertyOp49
 70
     1
102
RTVSPropertyOp50
 70
     1
102
RTVSPropertyOp51
 70
     0
102
RTVSPropertyOp52
 70
     0
102
RTVSPropertyOp53
 70
     1
102
RTVSPropertyOp54
 70
     1
102
RTVSPropertyOp55
 70
     1
102
RTVSPropertyOp56
 70
     1
102
RTVSPropertyOp57
 70
     1
102
RTVSPropertyOp58
 70
     1
102
RTVSPropertyOp59
 70
     1
102
RTVSPropertyOp60
 70
     1
102
RTVSPropertyOp61
 70
     1
102
RTVSPropertyOp62
 70
     1
  0
XRECORD
  5
1682
102
{ACAD_REACTORS
330
1681
102
}
330
1681
100
AcDbXrecord
280
     1
102
RTVSPost2010Prop28
280
     0
102
RTVSPost2010PropOp28
 70
     1
102
RTVSPost2010Prop29
280
     1
102
RTVSPost2010PropOp29
 70
     1
102
RTVSPost2010Prop30
280
     1
102
RTVSPost2010PropOp30
 70
     1
102
RTVSPost2010Prop31
280
     0
102
RTVSPost2010PropOp31
 70
     1
102
RTVSPost2010Prop32
280
     0
102
RTVSPost2010PropOp32
 70
     1
102
RTVSPost2010Prop33
280
     0
102
RTVSPost2010PropOp33
 70
     1
102
RTVSPost2010Prop34
280
     0
102
RTVSPost2010PropOp34
 70
     1
102
RTVSPost2010Prop35
280
     0
102
RTVSPost2010PropOp35
 70
     1
102
RTVSPost2010Prop36
280
     0
102
RTVSPost2010PropOp36
 70
     1
102
RTVSPost2010Prop37
 90
       50
102
RTVSPost2010PropOp37
 70
     1
102
RTVSPost2010Prop38
140
0.0
102
RTVSPost2010PropOp38
 70
     1
102
RTVSPost2010Prop39
140
1.0
102
RTVSPost2010PropOp39
 70
     1
102
RTVSPost2010Prop40
 90
        0
102
RTVSPost2010PropOp40
 70
     1
102
RTVSPost2010Prop41ColorIndex
 90
       18
102
RTVSPost2010Prop41ColorRGB
 90
        0
102
RTVSPost2010PropOp41
 70
     1
102
RTVSPost2010Prop42
 90
       50
102
RTVSPost2010PropOp42
 70
     1
102
RTVSPost2010Prop43
 90
        3
102
RTVSPost2010PropOp43
 70
     1
102
RTVSPost2010Prop44ColorIndex
 90
        5
102
RTVSPost2010Prop44ColorRGB
 90
      255
102
RTVSPost2010PropOp44
 70
     1
102
RTVSPost2010Prop45
280
     0
102
RTVSPost2010PropOp45
 70
     1
102
RTVSPost2010Prop46
 90
       50
102
RTVSPost2010PropOp46
 70
     1
102
RTVSPost2010Prop47
 90
       50
102
RTVSPost2010PropOp47
 70
     1
102
RTVSPost2010Prop48
 90
       50
102
RTVSPost2010PropOp48
 70
     1
102
RTVSPost2010Prop49
280
     0
102
RTVSPost2010PropOp49
 70
     1
102
RTVSPost2010Prop50
 90
       50
102
RTVSPost2010PropOp50
 70
     1
102
RTVSPost2010Prop51ColorIndex
 90
      256
102
RTVSPost2010Prop51ColorRGB
 90
-16777216
102
RTVSPost2010PropOp51
 70
     0
102
RTVSPost2010Prop52
140
1.0
102
RTVSPost2010PropOp52
 70
     0
102
RTVSPost2010Prop53
 90
        2
102
RTVSPost2010PropOp53
 70
     1
102
RTVSPost2010Prop54
  1
strokes_ogs.tif
102
RTVSPost2010PropOp54
 70
     1
102
RTVSPost2010Prop55
280
     0
102
RTVSPost2010PropOp55
 70
     1
102
RTVSPost2010Prop56
140
1.0
102
RTVSPost2010PropOp56
 70
     1
102
RTVSPost2010Prop57
140
1.0
102
RTVSPost2010PropOp57
 70
     1
102
RTVSPropertyOp0
 70
     1
102
RTVSPropertyOp1
 70
     1
102
RTVSPropertyOp2
 70
     1
102
RTVSPropertyOp3
 70
     1
102
RTVSPropertyOp4
 70
     1
102
RTVSPropertyOp5
 70
     1
102
RTVSPropertyOp6
 70
     1
102
RTVSPropertyOp7
 70
     1
102
RTVSPropertyOp8
 70
     1
102
RTVSPropertyOp9
 70
     1
102
RTVSPropertyOp10
 70
     1
102
RTVSPropertyOp11
 70
     1
102
RTVSPropertyOp12
 70
     1
102
RTVSPropertyOp13
 70
     1
102
RTVSPropertyOp14
 70
     1
102
RTVSPropertyOp15
 70
     1
102
RTVSPropertyOp16
 70
     1
102
RTVSPropertyOp17
 70
     1
102
RTVSPropertyOp18
 70
     1
102
RTVSPropertyOp19
 70
     1
102
RTVSPropertyOp20
 70
     1
102
RTVSPropertyOp21
 70
     1
102
RTVSPropertyOp22
 70
     1
102
RTVSPropertyOp23
 70
     1
102
RTVSPropertyOp24
 70
     1
102
RTVSPropertyOp25
 70
     1
102
RTVSPropertyOp26
 70
     1
102
RTVSPropertyOp27
 70
     1
102
RTVSPropertyOp28
 70
     1
102
RTVSPropertyOp29
 70
     1
102
RTVSPropertyOp30
 70
     1
102
RTVSPropertyOp31
 70
     1
102
RTVSPropertyOp32
 70
     1
102
RTVSPropertyOp33
 70
     1
102
RTVSPropertyOp34
 70
     1
102
RTVSPropertyOp35
 70
     1
102
RTVSPropertyOp36
 70
     1
102
RTVSPropertyOp37
 70
     1
102
RTVSPropertyOp38
 70
     1
102
RTVSPropertyOp39
 70
     1
102
RTVSPropertyOp40
 70
     1
102
RTVSPropertyOp41
 70
     1
102
RTVSPropertyOp42
 70
     1
102
RTVSPropertyOp43
 70
     1
102
RTVSPropertyOp44
 70
     1
102
RTVSPropertyOp45
 70
     1
102
RTVSPropertyOp46
 70
     1
102
RTVSPropertyOp47
 70
     1
102
RTVSPropertyOp48
 70
     1
102
RTVSPropertyOp49
 70
     1
102
RTVSPropertyOp50
 70
     1
102
RTVSPropertyOp51
 70
     0
102
RTVSPropertyOp52
 70
     0
102
RTVSPropertyOp53
 70
     1
102
RTVSPropertyOp54
 70
     1
102
RTVSPropertyOp55
 70
     1
102
RTVSPropertyOp56
 70
     1
102
RTVSPropertyOp57
 70
     1
102
RTVSPropertyOp58
 70
     1
102
RTVSPropertyOp59
 70
     1
102
RTVSPropertyOp60
 70
     1
102
RTVSPropertyOp61
 70
     1
102
RTVSPropertyOp62
 70
     1
  0
XRECORD
  5
1680
102
{ACAD_REACTORS
330
167F
102
}
330
167F
100
AcDbXrecord
280
     1
102
RTVSPost2010Prop28
280
     0
102
RTVSPost2010PropOp28
 70
     1
102
RTVSPost2010Prop29
280
     1
102
RTVSPost2010PropOp29
 70
     1
102
RTVSPost2010Prop30
280
     1
102
RTVSPost2010PropOp30
 70
     1
102
RTVSPost2010Prop31
280
     0
102
RTVSPost2010PropOp31
 70
     1
102
RTVSPost2010Prop32
280
     0
102
RTVSPost2010PropOp32
 70
     1
102
RTVSPost2010Prop33
280
     0
102
RTVSPost2010PropOp33
 70
     1
102
RTVSPost2010Prop34
280
     0
102
RTVSPost2010PropOp34
 70
     1
102
RTVSPost2010Prop35
280
     0
102
RTVSPost2010PropOp35
 70
     1
102
RTVSPost2010Prop36
280
     0
102
RTVSPost2010PropOp36
 70
     1
102
RTVSPost2010Prop37
 90
       50
102
RTVSPost2010PropOp37
 70
     1
102
RTVSPost2010Prop38
140
0.0
102
RTVSPost2010PropOp38
 70
     1
102
RTVSPost2010Prop39
140
1.0
102
RTVSPost2010PropOp39
 70
     1
102
RTVSPost2010Prop40
 90
        0
102
RTVSPost2010PropOp40
 70
     1
102
RTVSPost2010Prop41ColorIndex
 90
       18
102
RTVSPost2010Prop41ColorRGB
 90
        0
102
RTVSPost2010PropOp41
 70
     1
102
RTVSPost2010Prop42
 90
       50
102
RTVSPost2010PropOp42
 70
     1
102
RTVSPost2010Prop43
 90
        3
102
RTVSPost2010PropOp43
 70
     1
102
RTVSPost2010Prop44ColorIndex
 90
        5
102
RTVSPost2010Prop44ColorRGB
 90
      255
102
RTVSPost2010PropOp44
 70
     1
102
RTVSPost2010Prop45
280
     0
102
RTVSPost2010PropOp45
 70
     1
102
RTVSPost2010Prop46
 90
       50
102
RTVSPost2010PropOp46
 70
     1
102
RTVSPost2010Prop47
 90
       50
102
RTVSPost2010PropOp47
 70
     1
102
RTVSPost2010Prop48
 90
       50
102
RTVSPost2010PropOp48
 70
     1
102
RTVSPost2010Prop49
280
     0
102
RTVSPost2010PropOp49
 70
     1
102
RTVSPost2010Prop50
 90
       50
102
RTVSPost2010PropOp50
 70
     1
102
RTVSPost2010Prop51ColorIndex
 90
      256
102
RTVSPost2010Prop51ColorRGB
 90
-16777216
102
RTVSPost2010PropOp51
 70
     0
102
RTVSPost2010Prop52
140
1.0
102
RTVSPost2010PropOp52
 70
     0
102
RTVSPost2010Prop53
 90
        2
102
RTVSPost2010PropOp53
 70
     1
102
RTVSPost2010Prop54
  1
strokes_ogs.tif
102
RTVSPost2010PropOp54
 70
     1
102
RTVSPost2010Prop55
280
     0
102
RTVSPost2010PropOp55
 70
     1
102
RTVSPost2010Prop56
140
1.0
102
RTVSPost2010PropOp56
 70
     1
102
RTVSPost2010Prop57
140
1.0
102
RTVSPost2010PropOp57
 70
     1
102
RTVSPropertyOp0
 70
     1
102
RTVSPropertyOp1
 70
     1
102
RTVSPropertyOp2
 70
     1
102
RTVSPropertyOp3
 70
     1
102
RTVSPropertyOp4
 70
     1
102
RTVSPropertyOp5
 70
     1
102
RTVSPropertyOp6
 70
     1
102
RTVSPropertyOp7
 70
     1
102
RTVSPropertyOp8
 70
     1
102
RTVSPropertyOp9
 70
     1
102
RTVSPropertyOp10
 70
     1
102
RTVSPropertyOp11
 70
     1
102
RTVSPropertyOp12
 70
     1
102
RTVSPropertyOp13
 70
     1
102
RTVSPropertyOp14
 70
     1
102
RTVSPropertyOp15
 70
     1
102
RTVSPropertyOp16
 70
     1
102
RTVSPropertyOp17
 70
     1
102
RTVSPropertyOp18
 70
     1
102
RTVSPropertyOp19
 70
     1
102
RTVSPropertyOp20
 70
     1
102
RTVSPropertyOp21
 70
     1
102
RTVSPropertyOp22
 70
     1
102
RTVSPropertyOp23
 70
     1
102
RTVSPropertyOp24
 70
     1
102
RTVSPropertyOp25
 70
     1
102
RTVSPropertyOp26
 70
     1
102
RTVSPropertyOp27
 70
     1
102
RTVSPropertyOp28
 70
     1
102
RTVSPropertyOp29
 70
     1
102
RTVSPropertyOp30
 70
     1
102
RTVSPropertyOp31
 70
     1
102
RTVSPropertyOp32
 70
     1
102
RTVSPropertyOp33
 70
     1
102
RTVSPropertyOp34
 70
     1
102
RTVSPropertyOp35
 70
     1
102
RTVSPropertyOp36
 70
     1
102
RTVSPropertyOp37
 70
     1
102
RTVSPropertyOp38
 70
     1
102
RTVSPropertyOp39
 70
     1
102
RTVSPropertyOp40
 70
     1
102
RTVSPropertyOp41
 70
     1
102
RTVSPropertyOp42
 70
     1
102
RTVSPropertyOp43
 70
     1
102
RTVSPropertyOp44
 70
     1
102
RTVSPropertyOp45
 70
     1
102
RTVSPropertyOp46
 70
     1
102
RTVSPropertyOp47
 70
     1
102
RTVSPropertyOp48
 70
     1
102
RTVSPropertyOp49
 70
     1
102
RTVSPropertyOp50
 70
     1
102
RTVSPropertyOp51
 70
     0
102
RTVSPropertyOp52
 70
     0
102
RTVSPropertyOp53
 70
     1
102
RTVSPropertyOp54
 70
     1
102
RTVSPropertyOp55
 70
     1
102
RTVSPropertyOp56
 70
     1
102
RTVSPropertyOp57
 70
     1
102
RTVSPropertyOp58
 70
     1
102
RTVSPropertyOp59
 70
     1
102
RTVSPropertyOp60
 70
     1
102
RTVSPropertyOp61
 70
     1
102
RTVSPropertyOp62
 70
     1
  0
XRECORD
  5
167A
102
{ACAD_REACTORS
330
1679
102
}
330
1679
100
AcDbXrecord
280
     1
102
RTVSPost2010Prop28
280
     0
102
RTVSPost2010PropOp28
 70
     1
102
RTVSPost2010Prop29
280
     1
102
RTVSPost2010PropOp29
 70
     1
102
RTVSPost2010Prop30
280
     1
102
RTVSPost2010PropOp30
 70
     1
102
RTVSPost2010Prop31
280
     0
102
RTVSPost2010PropOp31
 70
     1
102
RTVSPost2010Prop32
280
     0
102
RTVSPost2010PropOp32
 70
     1
102
RTVSPost2010Prop33
280
     0
102
RTVSPost2010PropOp33
 70
     1
102
RTVSPost2010Prop34
280
     0
102
RTVSPost2010PropOp34
 70
     1
102
RTVSPost2010Prop35
280
     0
102
RTVSPost2010PropOp35
 70
     1
102
RTVSPost2010Prop36
280
     0
102
RTVSPost2010PropOp36
 70
     1
102
RTVSPost2010Prop37
 90
       50
102
RTVSPost2010PropOp37
 70
     1
102
RTVSPost2010Prop38
140
0.0
102
RTVSPost2010PropOp38
 70
     1
102
RTVSPost2010Prop39
140
1.0
102
RTVSPost2010PropOp39
 70
     1
102
RTVSPost2010Prop40
 90
        0
102
RTVSPost2010PropOp40
 70
     1
102
RTVSPost2010Prop41ColorIndex
 90
       18
102
RTVSPost2010Prop41ColorRGB
 90
        0
102
RTVSPost2010PropOp41
 70
     1
102
RTVSPost2010Prop42
 90
       50
102
RTVSPost2010PropOp42
 70
     1
102
RTVSPost2010Prop43
 90
        3
102
RTVSPost2010PropOp43
 70
     1
102
RTVSPost2010Prop44ColorIndex
 90
        5
102
RTVSPost2010Prop44ColorRGB
 90
      255
102
RTVSPost2010PropOp44
 70
     1
102
RTVSPost2010Prop45
280
     0
102
RTVSPost2010PropOp45
 70
     1
102
RTVSPost2010Prop46
 90
       50
102
RTVSPost2010PropOp46
 70
     1
102
RTVSPost2010Prop47
 90
       50
102
RTVSPost2010PropOp47
 70
     1
102
RTVSPost2010Prop48
 90
       50
102
RTVSPost2010PropOp48
 70
     1
102
RTVSPost2010Prop49
280
     0
102
RTVSPost2010PropOp49
 70
     1
102
RTVSPost2010Prop50
 90
       50
102
RTVSPost2010PropOp50
 70
     1
102
RTVSPost2010Prop51ColorIndex
 90
      256
102
RTVSPost2010Prop51ColorRGB
 90
-16777216
102
RTVSPost2010PropOp51
 70
     0
102
RTVSPost2010Prop52
140
1.0
102
RTVSPost2010PropOp52
 70
     0
102
RTVSPost2010Prop53
 90
        2
102
RTVSPost2010PropOp53
 70
     1
102
RTVSPost2010Prop54
  1
strokes_ogs.tif
102
RTVSPost2010PropOp54
 70
     1
102
RTVSPost2010Prop55
280
     0
102
RTVSPost2010PropOp55
 70
     1
102
RTVSPost2010Prop56
140
1.0
102
RTVSPost2010PropOp56
 70
     1
102
RTVSPost2010Prop57
140
1.0
102
RTVSPost2010PropOp57
 70
     1
102
RTVSPropertyOp0
 70
     1
102
RTVSPropertyOp1
 70
     1
102
RTVSPropertyOp2
 70
     1
102
RTVSPropertyOp3
 70
     1
102
RTVSPropertyOp4
 70
     1
102
RTVSPropertyOp5
 70
     1
102
RTVSPropertyOp6
 70
     1
102
RTVSPropertyOp7
 70
     1
102
RTVSPropertyOp8
 70
     1
102
RTVSPropertyOp9
 70
     1
102
RTVSPropertyOp10
 70
     1
102
RTVSPropertyOp11
 70
     1
102
RTVSPropertyOp12
 70
     1
102
RTVSPropertyOp13
 70
     1
102
RTVSPropertyOp14
 70
     1
102
RTVSPropertyOp15
 70
     1
102
RTVSPropertyOp16
 70
     1
102
RTVSPropertyOp17
 70
     1
102
RTVSPropertyOp18
 70
     1
102
RTVSPropertyOp19
 70
     1
102
RTVSPropertyOp20
 70
     1
102
RTVSPropertyOp21
 70
     1
102
RTVSPropertyOp22
 70
     1
102
RTVSPropertyOp23
 70
     1
102
RTVSPropertyOp24
 70
     1
102
RTVSPropertyOp25
 70
     1
102
RTVSPropertyOp26
 70
     1
102
RTVSPropertyOp27
 70
     1
102
RTVSPropertyOp28
 70
     1
102
RTVSPropertyOp29
 70
     1
102
RTVSPropertyOp30
 70
     1
102
RTVSPropertyOp31
 70
     1
102
RTVSPropertyOp32
 70
     1
102
RTVSPropertyOp33
 70
     1
102
RTVSPropertyOp34
 70
     1
102
RTVSPropertyOp35
 70
     1
102
RTVSPropertyOp36
 70
     1
102
RTVSPropertyOp37
 70
     1
102
RTVSPropertyOp38
 70
     1
102
RTVSPropertyOp39
 70
     1
102
RTVSPropertyOp40
 70
     1
102
RTVSPropertyOp41
 70
     1
102
RTVSPropertyOp42
 70
     1
102
RTVSPropertyOp43
 70
     1
102
RTVSPropertyOp44
 70
     1
102
RTVSPropertyOp45
 70
     1
102
RTVSPropertyOp46
 70
     1
102
RTVSPropertyOp47
 70
     1
102
RTVSPropertyOp48
 70
     1
102
RTVSPropertyOp49
 70
     1
102
RTVSPropertyOp50
 70
     1
102
RTVSPropertyOp51
 70
     0
102
RTVSPropertyOp52
 70
     0
102
RTVSPropertyOp53
 70
     1
102
RTVSPropertyOp54
 70
     1
102
RTVSPropertyOp55
 70
     1
102
RTVSPropertyOp56
 70
     1
102
RTVSPropertyOp57
 70
     1
102
RTVSPropertyOp58
 70
     1
102
RTVSPropertyOp59
 70
     1
102
RTVSPropertyOp60
 70
     1
102
RTVSPropertyOp61
 70
     1
102
RTVSPropertyOp62
 70
     1
  0
XRECORD
  5
167C
102
{ACAD_REACTORS
330
167B
102
}
330
167B
100
AcDbXrecord
280
     1
102
RTVSPost2010Prop28
280
     0
102
RTVSPost2010PropOp28
 70
     1
102
RTVSPost2010Prop29
280
     1
102
RTVSPost2010PropOp29
 70
     1
102
RTVSPost2010Prop30
280
     1
102
RTVSPost2010PropOp30
 70
     1
102
RTVSPost2010Prop31
280
     0
102
RTVSPost2010PropOp31
 70
     1
102
RTVSPost2010Prop32
280
     0
102
RTVSPost2010PropOp32
 70
     1
102
RTVSPost2010Prop33
280
     0
102
RTVSPost2010PropOp33
 70
     1
102
RTVSPost2010Prop34
280
     0
102
RTVSPost2010PropOp34
 70
     1
102
RTVSPost2010Prop35
280
     0
102
RTVSPost2010PropOp35
 70
     1
102
RTVSPost2010Prop36
280
     0
102
RTVSPost2010PropOp36
 70
     1
102
RTVSPost2010Prop37
 90
       50
102
RTVSPost2010PropOp37
 70
     1
102
RTVSPost2010Prop38
140
0.0
102
RTVSPost2010PropOp38
 70
     1
102
RTVSPost2010Prop39
140
1.0
102
RTVSPost2010PropOp39
 70
     1
102
RTVSPost2010Prop40
 90
        0
102
RTVSPost2010PropOp40
 70
     1
102
RTVSPost2010Prop41ColorIndex
 90
       18
102
RTVSPost2010Prop41ColorRGB
 90
        0
102
RTVSPost2010PropOp41
 70
     1
102
RTVSPost2010Prop42
 90
       50
102
RTVSPost2010PropOp42
 70
     1
102
RTVSPost2010Prop43
 90
        3
102
RTVSPost2010PropOp43
 70
     1
102
RTVSPost2010Prop44ColorIndex
 90
        5
102
RTVSPost2010Prop44ColorRGB
 90
      255
102
RTVSPost2010PropOp44
 70
     1
102
RTVSPost2010Prop45
280
     0
102
RTVSPost2010PropOp45
 70
     1
102
RTVSPost2010Prop46
 90
       50
102
RTVSPost2010PropOp46
 70
     1
102
RTVSPost2010Prop47
 90
       50
102
RTVSPost2010PropOp47
 70
     1
102
RTVSPost2010Prop48
 90
       50
102
RTVSPost2010PropOp48
 70
     1
102
RTVSPost2010Prop49
280
     0
102
RTVSPost2010PropOp49
 70
     1
102
RTVSPost2010Prop50
 90
       50
102
RTVSPost2010PropOp50
 70
     1
102
RTVSPost2010Prop51ColorIndex
 90
      256
102
RTVSPost2010Prop51ColorRGB
 90
-16777216
102
RTVSPost2010PropOp51
 70
     0
102
RTVSPost2010Prop52
140
1.0
102
RTVSPost2010PropOp52
 70
     0
102
RTVSPost2010Prop53
 90
        2
102
RTVSPost2010PropOp53
 70
     1
102
RTVSPost2010Prop54
  1
strokes_ogs.tif
102
RTVSPost2010PropOp54
 70
     1
102
RTVSPost2010Prop55
280
     0
102
RTVSPost2010PropOp55
 70
     1
102
RTVSPost2010Prop56
140
1.0
102
RTVSPost2010PropOp56
 70
     1
102
RTVSPost2010Prop57
140
1.0
102
RTVSPost2010PropOp57
 70
     1
102
RTVSPropertyOp0
 70
     1
102
RTVSPropertyOp1
 70
     1
102
RTVSPropertyOp2
 70
     1
102
RTVSPropertyOp3
 70
     1
102
RTVSPropertyOp4
 70
     1
102
RTVSPropertyOp5
 70
     1
102
RTVSPropertyOp6
 70
     1
102
RTVSPropertyOp7
 70
     1
102
RTVSPropertyOp8
 70
     1
102
RTVSPropertyOp9
 70
     1
102
RTVSPropertyOp10
 70
     1
102
RTVSPropertyOp11
 70
     1
102
RTVSPropertyOp12
 70
     1
102
RTVSPropertyOp13
 70
     1
102
RTVSPropertyOp14
 70
     1
102
RTVSPropertyOp15
 70
     1
102
RTVSPropertyOp16
 70
     1
102
RTVSPropertyOp17
 70
     1
102
RTVSPropertyOp18
 70
     1
102
RTVSPropertyOp19
 70
     1
102
RTVSPropertyOp20
 70
     1
102
RTVSPropertyOp21
 70
     1
102
RTVSPropertyOp22
 70
     1
102
RTVSPropertyOp23
 70
     1
102
RTVSPropertyOp24
 70
     1
102
RTVSPropertyOp25
 70
     1
102
RTVSPropertyOp26
 70
     1
102
RTVSPropertyOp27
 70
     1
102
RTVSPropertyOp28
 70
     1
102
RTVSPropertyOp29
 70
     1
102
RTVSPropertyOp30
 70
     1
102
RTVSPropertyOp31
 70
     1
102
RTVSPropertyOp32
 70
     1
102
RTVSPropertyOp33
 70
     1
102
RTVSPropertyOp34
 70
     1
102
RTVSPropertyOp35
 70
     1
102
RTVSPropertyOp36
 70
     1
102
RTVSPropertyOp37
 70
     1
102
RTVSPropertyOp38
 70
     1
102
RTVSPropertyOp39
 70
     1
102
RTVSPropertyOp40
 70
     1
102
RTVSPropertyOp41
 70
     1
102
RTVSPropertyOp42
 70
     1
102
RTVSPropertyOp43
 70
     1
102
RTVSPropertyOp44
 70
     1
102
RTVSPropertyOp45
 70
     1
102
RTVSPropertyOp46
 70
     1
102
RTVSPropertyOp47
 70
     1
102
RTVSPropertyOp48
 70
     1
102
RTVSPropertyOp49
 70
     1
102
RTVSPropertyOp50
 70
     1
102
RTVSPropertyOp51
 70
     0
102
RTVSPropertyOp52
 70
     0
102
RTVSPropertyOp53
 70
     1
102
RTVSPropertyOp54
 70
     1
102
RTVSPropertyOp55
 70
     1
102
RTVSPropertyOp56
 70
     1
102
RTVSPropertyOp57
 70
     1
102
RTVSPropertyOp58
 70
     1
102
RTVSPropertyOp59
 70
     1
102
RTVSPropertyOp60
 70
     1
102
RTVSPropertyOp61
 70
     1
102
RTVSPropertyOp62
 70
     1
  0
XRECORD
  5
1672
102
{ACAD_REACTORS
330
1671
102
}
330
1671
100
AcDbXrecord
280
     1
102
RTVSPost2010Prop28
280
     0
102
RTVSPost2010PropOp28
 70
     1
102
RTVSPost2010Prop29
280
     1
102
RTVSPost2010PropOp29
 70
     1
102
RTVSPost2010Prop30
280
     1
102
RTVSPost2010PropOp30
 70
     1
102
RTVSPost2010Prop31
280
     0
102
RTVSPost2010PropOp31
 70
     1
102
RTVSPost2010Prop32
280
     0
102
RTVSPost2010PropOp32
 70
     1
102
RTVSPost2010Prop33
280
     0
102
RTVSPost2010PropOp33
 70
     1
102
RTVSPost2010Prop34
280
     0
102
RTVSPost2010PropOp34
 70
     1
102
RTVSPost2010Prop35
280
     0
102
RTVSPost2010PropOp35
 70
     1
102
RTVSPost2010Prop36
280
     0
102
RTVSPost2010PropOp36
 70
     1
102
RTVSPost2010Prop37
 90
       50
102
RTVSPost2010PropOp37
 70
     1
102
RTVSPost2010Prop38
140
0.0
102
RTVSPost2010PropOp38
 70
     1
102
RTVSPost2010Prop39
140
1.0
102
RTVSPost2010PropOp39
 70
     1
102
RTVSPost2010Prop40
 90
        0
102
RTVSPost2010PropOp40
 70
     1
102
RTVSPost2010Prop41ColorIndex
 90
       18
102
RTVSPost2010Prop41ColorRGB
 90
        0
102
RTVSPost2010PropOp41
 70
     1
102
RTVSPost2010Prop42
 90
       50
102
RTVSPost2010PropOp42
 70
     1
102
RTVSPost2010Prop43
 90
        3
102
RTVSPost2010PropOp43
 70
     1
102
RTVSPost2010Prop44ColorIndex
 90
        5
102
RTVSPost2010Prop44ColorRGB
 90
      255
102
RTVSPost2010PropOp44
 70
     1
102
RTVSPost2010Prop45
280
     0
102
RTVSPost2010PropOp45
 70
     1
102
RTVSPost2010Prop46
 90
       50
102
RTVSPost2010PropOp46
 70
     1
102
RTVSPost2010Prop47
 90
       50
102
RTVSPost2010PropOp47
 70
     1
102
RTVSPost2010Prop48
 90
       50
102
RTVSPost2010PropOp48
 70
     1
102
RTVSPost2010Prop49
280
     0
102
RTVSPost2010PropOp49
 70
     1
102
RTVSPost2010Prop50
 90
       50
102
RTVSPost2010PropOp50
 70
     1
102
RTVSPost2010Prop51ColorIndex
 90
      256
102
RTVSPost2010Prop51ColorRGB
 90
-16777216
102
RTVSPost2010PropOp51
 70
     0
102
RTVSPost2010Prop52
140
1.0
102
RTVSPost2010PropOp52
 70
     0
102
RTVSPost2010Prop53
 90
        2
102
RTVSPost2010PropOp53
 70
     1
102
RTVSPost2010Prop54
  1
strokes_ogs.tif
102
RTVSPost2010PropOp54
 70
     1
102
RTVSPost2010Prop55
280
     0
102
RTVSPost2010PropOp55
 70
     1
102
RTVSPost2010Prop56
140
1.0
102
RTVSPost2010PropOp56
 70
     1
102
RTVSPost2010Prop57
140
1.0
102
RTVSPost2010PropOp57
 70
     1
102
RTVSPropertyOp0
 70
     1
102
RTVSPropertyOp1
 70
     1
102
RTVSPropertyOp2
 70
     1
102
RTVSPropertyOp3
 70
     1
102
RTVSPropertyOp4
 70
     1
102
RTVSPropertyOp5
 70
     1
102
RTVSPropertyOp6
 70
     1
102
RTVSPropertyOp7
 70
     1
102
RTVSPropertyOp8
 70
     1
102
RTVSPropertyOp9
 70
     1
102
RTVSPropertyOp10
 70
     1
102
RTVSPropertyOp11
 70
     1
102
RTVSPropertyOp12
 70
     1
102
RTVSPropertyOp13
 70
     1
102
RTVSPropertyOp14
 70
     1
102
RTVSPropertyOp15
 70
     1
102
RTVSPropertyOp16
 70
     1
102
RTVSPropertyOp17
 70
     1
102
RTVSPropertyOp18
 70
     1
102
RTVSPropertyOp19
 70
     1
102
RTVSPropertyOp20
 70
     1
102
RTVSPropertyOp21
 70
     1
102
RTVSPropertyOp22
 70
     1
102
RTVSPropertyOp23
 70
     1
102
RTVSPropertyOp24
 70
     1
102
RTVSPropertyOp25
 70
     1
102
RTVSPropertyOp26
 70
     1
102
RTVSPropertyOp27
 70
     1
102
RTVSPropertyOp28
 70
     1
102
RTVSPropertyOp29
 70
     1
102
RTVSPropertyOp30
 70
     1
102
RTVSPropertyOp31
 70
     1
102
RTVSPropertyOp32
 70
     1
102
RTVSPropertyOp33
 70
     1
102
RTVSPropertyOp34
 70
     1
102
RTVSPropertyOp35
 70
     1
102
RTVSPropertyOp36
 70
     1
102
RTVSPropertyOp37
 70
     1
102
RTVSPropertyOp38
 70
     1
102
RTVSPropertyOp39
 70
     1
102
RTVSPropertyOp40
 70
     1
102
RTVSPropertyOp41
 70
     1
102
RTVSPropertyOp42
 70
     1
102
RTVSPropertyOp43
 70
     1
102
RTVSPropertyOp44
 70
     1
102
RTVSPropertyOp45
 70
     1
102
RTVSPropertyOp46
 70
     1
102
RTVSPropertyOp47
 70
     1
102
RTVSPropertyOp48
 70
     1
102
RTVSPropertyOp49
 70
     1
102
RTVSPropertyOp50
 70
     1
102
RTVSPropertyOp51
 70
     0
102
RTVSPropertyOp52
 70
     0
102
RTVSPropertyOp53
 70
     1
102
RTVSPropertyOp54
 70
     1
102
RTVSPropertyOp55
 70
     1
102
RTVSPropertyOp56
 70
     1
102
RTVSPropertyOp57
 70
     1
102
RTVSPropertyOp58
 70
     1
102
RTVSPropertyOp59
 70
     1
102
RTVSPropertyOp60
 70
     1
102
RTVSPropertyOp61
 70
     1
102
RTVSPropertyOp62
 70
     1
  0
XRECORD
  5
1666
102
{ACAD_REACTORS
330
1665
102
}
330
1665
100
AcDbXrecord
280
     1
102
RTVSPost2010Prop28
280
     0
102
RTVSPost2010PropOp28
 70
     1
102
RTVSPost2010Prop29
280
     1
102
RTVSPost2010PropOp29
 70
     1
102
RTVSPost2010Prop30
280
     1
102
RTVSPost2010PropOp30
 70
     1
102
RTVSPost2010Prop31
280
     0
102
RTVSPost2010PropOp31
 70
     1
102
RTVSPost2010Prop32
280
     0
102
RTVSPost2010PropOp32
 70
     1
102
RTVSPost2010Prop33
280
     0
102
RTVSPost2010PropOp33
 70
     1
102
RTVSPost2010Prop34
280
     0
102
RTVSPost2010PropOp34
 70
     1
102
RTVSPost2010Prop35
280
     0
102
RTVSPost2010PropOp35
 70
     1
102
RTVSPost2010Prop36
280
     0
102
RTVSPost2010PropOp36
 70
     1
102
RTVSPost2010Prop37
 90
       50
102
RTVSPost2010PropOp37
 70
     1
102
RTVSPost2010Prop38
140
0.0
102
RTVSPost2010PropOp38
 70
     1
102
RTVSPost2010Prop39
140
1.0
102
RTVSPost2010PropOp39
 70
     1
102
RTVSPost2010Prop40
 90
        0
102
RTVSPost2010PropOp40
 70
     1
102
RTVSPost2010Prop41ColorIndex
 90
       18
102
RTVSPost2010Prop41ColorRGB
 90
        0
102
RTVSPost2010PropOp41
 70
     1
102
RTVSPost2010Prop42
 90
       50
102
RTVSPost2010PropOp42
 70
     1
102
RTVSPost2010Prop43
 90
        3
102
RTVSPost2010PropOp43
 70
     1
102
RTVSPost2010Prop44ColorIndex
 90
        5
102
RTVSPost2010Prop44ColorRGB
 90
      255
102
RTVSPost2010PropOp44
 70
     1
102
RTVSPost2010Prop45
280
     0
102
RTVSPost2010PropOp45
 70
     1
102
RTVSPost2010Prop46
 90
       50
102
RTVSPost2010PropOp46
 70
     1
102
RTVSPost2010Prop47
 90
       50
102
RTVSPost2010PropOp47
 70
     1
102
RTVSPost2010Prop48
 90
       50
102
RTVSPost2010PropOp48
 70
     1
102
RTVSPost2010Prop49
280
     0
102
RTVSPost2010PropOp49
 70
     1
102
RTVSPost2010Prop50
 90
       50
102
RTVSPost2010PropOp50
 70
     1
102
RTVSPost2010Prop51ColorIndex
 90
      256
102
RTVSPost2010Prop51ColorRGB
 90
-16777216
102
RTVSPost2010PropOp51
 70
     0
102
RTVSPost2010Prop52
140
1.0
102
RTVSPost2010PropOp52
 70
     0
102
RTVSPost2010Prop53
 90
        2
102
RTVSPost2010PropOp53
 70
     1
102
RTVSPost2010Prop54
  1
strokes_ogs.tif
102
RTVSPost2010PropOp54
 70
     1
102
RTVSPost2010Prop55
280
     0
102
RTVSPost2010PropOp55
 70
     1
102
RTVSPost2010Prop56
140
1.0
102
RTVSPost2010PropOp56
 70
     1
102
RTVSPost2010Prop57
140
1.0
102
RTVSPost2010PropOp57
 70
     1
102
RTVSPropertyOp0
 70
     1
102
RTVSPropertyOp1
 70
     1
102
RTVSPropertyOp2
 70
     1
102
RTVSPropertyOp3
 70
     1
102
RTVSPropertyOp4
 70
     1
102
RTVSPropertyOp5
 70
     1
102
RTVSPropertyOp6
 70
     1
102
RTVSPropertyOp7
 70
     1
102
RTVSPropertyOp8
 70
     1
102
RTVSPropertyOp9
 70
     1
102
RTVSPropertyOp10
 70
     1
102
RTVSPropertyOp11
 70
     1
102
RTVSPropertyOp12
 70
     1
102
RTVSPropertyOp13
 70
     1
102
RTVSPropertyOp14
 70
     1
102
RTVSPropertyOp15
 70
     1
102
RTVSPropertyOp16
 70
     1
102
RTVSPropertyOp17
 70
     1
102
RTVSPropertyOp18
 70
     1
102
RTVSPropertyOp19
 70
     1
102
RTVSPropertyOp20
 70
     1
102
RTVSPropertyOp21
 70
     1
102
RTVSPropertyOp22
 70
     1
102
RTVSPropertyOp23
 70
     1
102
RTVSPropertyOp24
 70
     1
102
RTVSPropertyOp25
 70
     1
102
RTVSPropertyOp26
 70
     1
102
RTVSPropertyOp27
 70
     1
102
RTVSPropertyOp28
 70
     1
102
RTVSPropertyOp29
 70
     1
102
RTVSPropertyOp30
 70
     1
102
RTVSPropertyOp31
 70
     1
102
RTVSPropertyOp32
 70
     1
102
RTVSPropertyOp33
 70
     1
102
RTVSPropertyOp34
 70
     1
102
RTVSPropertyOp35
 70
     1
102
RTVSPropertyOp36
 70
     1
102
RTVSPropertyOp37
 70
     1
102
RTVSPropertyOp38
 70
     1
102
RTVSPropertyOp39
 70
     1
102
RTVSPropertyOp40
 70
     1
102
RTVSPropertyOp41
 70
     1
102
RTVSPropertyOp42
 70
     1
102
RTVSPropertyOp43
 70
     1
102
RTVSPropertyOp44
 70
     1
102
RTVSPropertyOp45
 70
     1
102
RTVSPropertyOp46
 70
     1
102
RTVSPropertyOp47
 70
     1
102
RTVSPropertyOp48
 70
     1
102
RTVSPropertyOp49
 70
     1
102
RTVSPropertyOp50
 70
     1
102
RTVSPropertyOp51
 70
     0
102
RTVSPropertyOp52
 70
     0
102
RTVSPropertyOp53
 70
     1
102
RTVSPropertyOp54
 70
     1
102
RTVSPropertyOp55
 70
     1
102
RTVSPropertyOp56
 70
     1
102
RTVSPropertyOp57
 70
     1
102
RTVSPropertyOp58
 70
     1
102
RTVSPropertyOp59
 70
     1
102
RTVSPropertyOp60
 70
     1
102
RTVSPropertyOp61
 70
     1
102
RTVSPropertyOp62
 70
     1
  0
XRECORD
  5
167E
102
{ACAD_REACTORS
330
167D
102
}
330
167D
100
AcDbXrecord
280
     1
102
RTVSPost2010Prop28
280
     0
102
RTVSPost2010PropOp28
 70
     1
102
RTVSPost2010Prop29
280
     1
102
RTVSPost2010PropOp29
 70
     1
102
RTVSPost2010Prop30
280
     1
102
RTVSPost2010PropOp30
 70
     1
102
RTVSPost2010Prop31
280
     0
102
RTVSPost2010PropOp31
 70
     1
102
RTVSPost2010Prop32
280
     0
102
RTVSPost2010PropOp32
 70
     1
102
RTVSPost2010Prop33
280
     0
102
RTVSPost2010PropOp33
 70
     1
102
RTVSPost2010Prop34
280
     0
102
RTVSPost2010PropOp34
 70
     1
102
RTVSPost2010Prop35
280
     0
102
RTVSPost2010PropOp35
 70
     1
102
RTVSPost2010Prop36
280
     0
102
RTVSPost2010PropOp36
 70
     1
102
RTVSPost2010Prop37
 90
       50
102
RTVSPost2010PropOp37
 70
     1
102
RTVSPost2010Prop38
140
0.0
102
RTVSPost2010PropOp38
 70
     1
102
RTVSPost2010Prop39
140
1.0
102
RTVSPost2010PropOp39
 70
     1
102
RTVSPost2010Prop40
 90
        0
102
RTVSPost2010PropOp40
 70
     1
102
RTVSPost2010Prop41ColorIndex
 90
       18
102
RTVSPost2010Prop41ColorRGB
 90
        0
102
RTVSPost2010PropOp41
 70
     1
102
RTVSPost2010Prop42
 90
       50
102
RTVSPost2010PropOp42
 70
     1
102
RTVSPost2010Prop43
 90
        3
102
RTVSPost2010PropOp43
 70
     1
102
RTVSPost2010Prop44ColorIndex
 90
        5
102
RTVSPost2010Prop44ColorRGB
 90
      255
102
RTVSPost2010PropOp44
 70
     1
102
RTVSPost2010Prop45
280
     0
102
RTVSPost2010PropOp45
 70
     1
102
RTVSPost2010Prop46
 90
       50
102
RTVSPost2010PropOp46
 70
     1
102
RTVSPost2010Prop47
 90
       50
102
RTVSPost2010PropOp47
 70
     1
102
RTVSPost2010Prop48
 90
       50
102
RTVSPost2010PropOp48
 70
     1
102
RTVSPost2010Prop49
280
     0
102
RTVSPost2010PropOp49
 70
     1
102
RTVSPost2010Prop50
 90
       50
102
RTVSPost2010PropOp50
 70
     1
102
RTVSPost2010Prop51ColorIndex
 90
      256
102
RTVSPost2010Prop51ColorRGB
 90
-16777216
102
RTVSPost2010PropOp51
 70
     0
102
RTVSPost2010Prop52
140
1.0
102
RTVSPost2010PropOp52
 70
     0
102
RTVSPost2010Prop53
 90
        2
102
RTVSPost2010PropOp53
 70
     1
102
RTVSPost2010Prop54
  1
strokes_ogs.tif
102
RTVSPost2010PropOp54
 70
     1
102
RTVSPost2010Prop55
280
     0
102
RTVSPost2010PropOp55
 70
     1
102
RTVSPost2010Prop56
140
1.0
102
RTVSPost2010PropOp56
 70
     1
102
RTVSPost2010Prop57
140
1.0
102
RTVSPost2010PropOp57
 70
     1
102
RTVSPropertyOp0
 70
     1
102
RTVSPropertyOp1
 70
     1
102
RTVSPropertyOp2
 70
     1
102
RTVSPropertyOp3
 70
     1
102
RTVSPropertyOp4
 70
     1
102
RTVSPropertyOp5
 70
     1
102
RTVSPropertyOp6
 70
     1
102
RTVSPropertyOp7
 70
     1
102
RTVSPropertyOp8
 70
     1
102
RTVSPropertyOp9
 70
     1
102
RTVSPropertyOp10
 70
     1
102
RTVSPropertyOp11
 70
     1
102
RTVSPropertyOp12
 70
     1
102
RTVSPropertyOp13
 70
     1
102
RTVSPropertyOp14
 70
     1
102
RTVSPropertyOp15
 70
     1
102
RTVSPropertyOp16
 70
     1
102
RTVSPropertyOp17
 70
     1
102
RTVSPropertyOp18
 70
     1
102
RTVSPropertyOp19
 70
     1
102
RTVSPropertyOp20
 70
     1
102
RTVSPropertyOp21
 70
     1
102
RTVSPropertyOp22
 70
     1
102
RTVSPropertyOp23
 70
     1
102
RTVSPropertyOp24
 70
     1
102
RTVSPropertyOp25
 70
     1
102
RTVSPropertyOp26
 70
     1
102
RTVSPropertyOp27
 70
     1
102
RTVSPropertyOp28
 70
     1
102
RTVSPropertyOp29
 70
     1
102
RTVSPropertyOp30
 70
     1
102
RTVSPropertyOp31
 70
     1
102
RTVSPropertyOp32
 70
     1
102
RTVSPropertyOp33
 70
     1
102
RTVSPropertyOp34
 70
     1
102
RTVSPropertyOp35
 70
     1
102
RTVSPropertyOp36
 70
     1
102
RTVSPropertyOp37
 70
     1
102
RTVSPropertyOp38
 70
     1
102
RTVSPropertyOp39
 70
     1
102
RTVSPropertyOp40
 70
     1
102
RTVSPropertyOp41
 70
     1
102
RTVSPropertyOp42
 70
     1
102
RTVSPropertyOp43
 70
     1
102
RTVSPropertyOp44
 70
     1
102
RTVSPropertyOp45
 70
     1
102
RTVSPropertyOp46
 70
     1
102
RTVSPropertyOp47
 70
     1
102
RTVSPropertyOp48
 70
     1
102
RTVSPropertyOp49
 70
     1
102
RTVSPropertyOp50
 70
     1
102
RTVSPropertyOp51
 70
     0
102
RTVSPropertyOp52
 70
     0
102
RTVSPropertyOp53
 70
     1
102
RTVSPropertyOp54
 70
     1
102
RTVSPropertyOp55
 70
     1
102
RTVSPropertyOp56
 70
     1
102
RTVSPropertyOp57
 70
     1
102
RTVSPropertyOp58
 70
     1
102
RTVSPropertyOp59
 70
     1
102
RTVSPropertyOp60
 70
     1
102
RTVSPropertyOp61
 70
     1
102
RTVSPropertyOp62
 70
     1
  0
XRECORD
  5
1534
102
{ACAD_REACTORS
330
1533
102
}
330
1533
100
AcDbXrecord
280
     1
330
1296
  0
ACDBASSOCARRAYACTIONBODY
  5
15B3
330
15B2
100
AcDbAssocActionBody
 90
        1
100
AcDbAssocParamBasedActionBody
 90
        0
 90
        0
 90
        3
360
15B4
360
15B5
360
15B9
 90
        0
 90
        9
 90
        0
  1
AlignItems
 90
        0
 90
        1
 90
        0
330
0
330
0
 90
        0
  1
AxesAngle
 90
        2
 90
        1
 40
1.570796326794896
330
0
330
0
 90
        0
  1
ItemSpacing
 90
        1
 90
        1
 40
35.3
330
0
330
0
 90
        0
  1
Items
 90
        0
 90
        1
 90
       16
330
0
330
0
 90
        0
  1
LevelSpacing
 90
        1
 90
        1
 40
1.0
330
0
330
0
 90
        0
  1
Levels
 90
        0
 90
        1
 90
        1
330
0
330
0
 90
        0
  1
RowElevation
 90
        1
 90
        1
 40
0.0
330
0
330
0
 90
        0
  1
RowSpacing
 90
        1
 90
        1
 40
871.4999999999999
330
0
330
0
 90
        0
  1
Rows
 90
        0
 90
        1
 90
        1
330
0
330
0
100
AcDbAssocArrayActionBody
 90
        1
  1
AcDbAssocArrayRectangularParameters
 90
        0
 90
       16
  1
AcDbAssocArrayItem
100
AcDbAssocArrayItem
 90
        0
 90
        0
 90
        0
 90
        0
 90
        8
 11
0.0
 21
0.0
 31
0.0
330
15BB
100
AcDbAssocArrayItem
 90
        0
 90
        1
 90
        0
 90
        0
 90
        8
 11
35.3
 21
0.0
 31
0.0
330
15BC
100
AcDbAssocArrayItem
 90
        0
 90
        2
 90
        0
 90
        0
 90
        8
 11
70.59999999999999
 21
0.0
 31
0.0
330
15BD
100
AcDbAssocArrayItem
 90
        0
 90
        3
 90
        0
 90
        0
 90
        8
 11
105.9
 21
0.0
 31
0.0
330
15BE
100
AcDbAssocArrayItem
 90
        0
 90
        4
 90
        0
 90
        0
 90
        8
 11
141.2
 21
0.0
 31
0.0
330
15BF
100
AcDbAssocArrayItem
 90
        0
 90
        5
 90
        0
 90
        0
 90
        8
 11
176.5
 21
0.0
 31
0.0
330
15C0
100
AcDbAssocArrayItem
 90
        0
 90
        6
 90
        0
 90
        0
 90
        8
 11
211.8
 21
0.0
 31
0.0
330
15C1
100
AcDbAssocArrayItem
 90
        0
 90
        7
 90
        0
 90
        0
 90
        8
 11
247.1
 21
0.0
 31
0.0
330
15C2
100
AcDbAssocArrayItem
 90
        0
 90
        8
 90
        0
 90
        0
 90
        8
 11
282.4
 21
0.0
 31
0.0
330
15C3
100
AcDbAssocArrayItem
 90
        0
 90
        9
 90
        0
 90
        0
 90
        8
 11
317.7
 21
0.0
 31
0.0
330
15C4
100
AcDbAssocArrayItem
 90
        0
 90
       10
 90
        0
 90
        0
 90
        8
 11
353.0
 21
0.0
 31
0.0
330
15C5
100
AcDbAssocArrayItem
 90
        0
 90
       11
 90
        0
 90
        0
 90
        8
 11
388.3
 21
0.0
 31
0.0
330
15C6
100
AcDbAssocArrayItem
 90
        0
 90
       12
 90
        0
 90
        0
 90
        8
 11
423.5999999999999
 21
0.0
 31
0.0
330
15C7
100
AcDbAssocArrayItem
 90
        0
 90
       13
 90
        0
 90
        0
 90
        8
 11
458.8999999999999
 21
0.0
 31
0.0
330
15C8
100
AcDbAssocArrayItem
 90
        0
 90
       14
 90
        0
 90
        0
 90
        8
 11
494.1999999999999
 21
0.0
 31
0.0
330
15C9
100
AcDbAssocArrayItem
 90
        0
 90
       15
 90
        0
 90
        0
 90
        8
 11
529.4999999999999
 21
0.0
 31
0.0
330
15CA
 40
1.0
 40
0.0
 40
0.0
 40
525.4412029770105
 40
0.0
 40
1.0
 40
0.0
 40
1405.628923881693
 40
0.0
 40
0.0
 40
1.0
 40
0.0
 40
0.0
 40
0.0
 40
0.0
 40
1.0
  0
ACDBASSOCDEPENDENCY
  5
15B6
330
15B2
100
AcDbAssocDependency
 90
        2
 90
        1
290
     0
290
     1
290
     1
290
     1
 90
        0
330
1540
290
     0
330
0
330
0
360
0
 90
        1
  0
ACDBASSOCDEPENDENCY
  5
15B7
330
15B2
100
AcDbAssocDependency
 90
        2
 90
        1
290
     1
290
     0
290
     1
290
     1
 90
        0
330
153D
290
     0
330
0
330
0
360
0
 90
        2
  0
ACDBASSOCDEPENDENCY
  5
15B8
330
15B2
100
AcDbAssocDependency
 90
        2
 90
        0
290
     1
290
     1
290
     1
290
     1
 90
-2147483648
330
1543
290
     0
330
0
330
0
360
0
 90
        3
  0
ACDBASSOCARRAYACTIONBODY
  5
15E5
330
15E4
100
AcDbAssocActionBody
 90
        1
100
AcDbAssocParamBasedActionBody
 90
        0
 90
        0
 90
        3
360
15E6
360
15E7
360
15EB
 90
        0
 90
        9
 90
        0
  1
AlignItems
 90
        0
 90
        1
 90
        0
330
0
330
0
 90
        0
  1
AxesAngle
 90
        2
 90
        1
 40
1.570796326794896
330
0
330
0
 90
        0
  1
ItemSpacing
 90
        1
 90
        1
 40
35.3
330
0
330
0
 90
        0
  1
Items
 90
        0
 90
        1
 90
       16
330
0
330
0
 90
        0
  1
LevelSpacing
 90
        1
 90
        1
 40
1.0
330
0
330
0
 90
        0
  1
Levels
 90
        0
 90
        1
 90
        1
330
0
330
0
 90
        0
  1
RowElevation
 90
        1
 90
        1
 40
0.0
330
0
330
0
 90
        0
  1
RowSpacing
 90
        1
 90
        1
 40
112.5
330
0
330
0
 90
        0
  1
Rows
 90
        0
 90
        1
 90
        1
330
0
330
0
100
AcDbAssocArrayActionBody
 90
        1
  1
AcDbAssocArrayRectangularParameters
 90
        0
 90
       16
  1
AcDbAssocArrayItem
100
AcDbAssocArrayItem
 90
        0
 90
        0
 90
        0
 90
        0
 90
        8
 11
0.0
 21
0.0
 31
0.0
330
15ED
100
AcDbAssocArrayItem
 90
        0
 90
        1
 90
        0
 90
        0
 90
        8
 11
35.3
 21
0.0
 31
0.0
330
15EE
100
AcDbAssocArrayItem
 90
        0
 90
        2
 90
        0
 90
        0
 90
        8
 11
70.59999999999999
 21
0.0
 31
0.0
330
15EF
100
AcDbAssocArrayItem
 90
        0
 90
        3
 90
        0
 90
        0
 90
        8
 11
105.9
 21
0.0
 31
0.0
330
15F0
100
AcDbAssocArrayItem
 90
        0
 90
        4
 90
        0
 90
        0
 90
        8
 11
141.2
 21
0.0
 31
0.0
330
15F1
100
AcDbAssocArrayItem
 90
        0
 90
        5
 90
        0
 90
        0
 90
        8
 11
176.5
 21
0.0
 31
0.0
330
15F2
100
AcDbAssocArrayItem
 90
        0
 90
        6
 90
        0
 90
        0
 90
        8
 11
211.8
 21
0.0
 31
0.0
330
15F3
100
AcDbAssocArrayItem
 90
        0
 90
        7
 90
        0
 90
        0
 90
        8
 11
247.1
 21
0.0
 31
0.0
330
15F4
100
AcDbAssocArrayItem
 90
        0
 90
        8
 90
        0
 90
        0
 90
        8
 11
282.4
 21
0.0
 31
0.0
330
15F5
100
AcDbAssocArrayItem
 90
        0
 90
        9
 90
        0
 90
        0
 90
        8
 11
317.7
 21
0.0
 31
0.0
330
15F6
100
AcDbAssocArrayItem
 90
        0
 90
       10
 90
        0
 90
        0
 90
        8
 11
353.0
 21
0.0
 31
0.0
330
15F7
100
AcDbAssocArrayItem
 90
        0
 90
       11
 90
        0
 90
        0
 90
        8
 11
388.3
 21
0.0
 31
0.0
330
15F8
100
AcDbAssocArrayItem
 90
        0
 90
       12
 90
        0
 90
        0
 90
        8
 11
423.5999999999999
 21
0.0
 31
0.0
330
15F9
100
AcDbAssocArrayItem
 90
        0
 90
       13
 90
        0
 90
        0
 90
        8
 11
458.8999999999999
 21
0.0
 31
0.0
330
15FA
100
AcDbAssocArrayItem
 90
        0
 90
       14
 90
        0
 90
        0
 90
        8
 11
494.1999999999999
 21
0.0
 31
0.0
330
15FB
100
AcDbAssocArrayItem
 90
        0
 90
       15
 90
        0
 90
        0
 90
        8
 11
529.4999999999999
 21
0.0
 31
0.0
330
15FC
 40
1.0
 40
0.0
 40
0.0
 40
528.1912029770105
 40
0.0
 40
1.0
 40
0.0
 40
572.1765927262449
 40
0.0
 40
0.0
 40
1.0
 40
0.0
 40
0.0
 40
0.0
 40
0.0
 40
1.0
  0
ACDBASSOCDEPENDENCY
  5
15E8
330
15E4
100
AcDbAssocDependency
 90
        2
 90
        1
290
     0
290
     1
290
     1
290
     1
 90
        0
330
15CF
290
     0
330
0
330
0
360
0
 90
        1
  0
ACDBASSOCDEPENDENCY
  5
15E9
330
15E4
100
AcDbAssocDependency
 90
        2
 90
        1
290
     1
290
     0
290
     1
290
     1
 90
        0
330
15CC
290
     0
330
0
330
0
360
0
 90
        2
  0
ACDBASSOCDEPENDENCY
  5
15EA
330
15E4
100
AcDbAssocDependency
 90
        2
 90
        0
290
     1
290
     1
290
     1
290
     1
 90
-2147483648
330
15D2
290
     0
330
0
330
0
360
0
 90
        3
  0
ACDBASSOCVERTEXACTIONPARAM
  5
15B4
330
15B3
100
AcDbAssocActionParam
 90
        0
  1
BaseNormal
100
AcDbAssocSingleDependencyActionParam
 90
        0
330
0
100
AcDbAssocVertexActionParam
 90
        0
 10
0.0
 20
0.0
 30
1.0
  0
ACDBASSOCVERTEXACTIONPARAM
  5
15B5
330
15B3
100
AcDbAssocActionParam
 90
        0
  1
Origin
100
AcDbAssocSingleDependencyActionParam
 90
        0
330
0
100
AcDbAssocVertexActionParam
 90
        0
 10
0.0
 20
0.0
 30
0.0
  0
ACDBASSOCVERTEXACTIONPARAM
  5
15B9
330
15B3
100
AcDbAssocActionParam
 90
        0
  1
basePoint
100
AcDbAssocSingleDependencyActionParam
 90
        0
330
0
100
AcDbAssocVertexActionParam
 90
        0
 10
0.0
 20
0.0
 30
0.0
  0
ACDBASSOCVERTEXACTIONPARAM
  5
15E6
330
15E5
100
AcDbAssocActionParam
 90
        0
  1
BaseNormal
100
AcDbAssocSingleDependencyActionParam
 90
        0
330
0
100
AcDbAssocVertexActionParam
 90
        0
 10
0.0
 20
0.0
 30
1.0
  0
ACDBASSOCVERTEXACTIONPARAM
  5
15E7
330
15E5
100
AcDbAssocActionParam
 90
        0
  1
Origin
100
AcDbAssocSingleDependencyActionParam
 90
        0
330
0
100
AcDbAssocVertexActionParam
 90
        0
 10
0.0
 20
0.0
 30
0.0
  0
ACDBASSOCVERTEXACTIONPARAM
  5
15EB
330
15E5
100
AcDbAssocActionParam
 90
        0
  1
basePoint
100
AcDbAssocSingleDependencyActionParam
 90
        0
330
0
100
AcDbAssocVertexActionParam
 90
        0
 10
0.0
 20
0.0
 30
0.0
  0
ENDSEC
  0
EOF
