  0
SECTION
  2
HEADER
  9
$ACADVER
  1
AC1015
  9
$ACADMAINTVER
 70
    20
  9
$DWGCODEPAGE
  3
ANSI_932
  9
$INSBASE
 10
0.0
 20
0.0
 30
0.0
  9
$EXTMIN
 10
-0.0425346845286185
 20
-0.0456165413033887
 30
-0.0000000000112498
  9
$EXTMAX
 10
2789.553734678998
 20
1973.382573714299
 30
0.0000000000002956
  9
$LIMMIN
 10
0.0
 20
0.0
  9
$LIMMAX
 10
297.0
 20
209.0
  9
$ORTHOMODE
 70
     1
  9
$REGENMODE
 70
     1
  9
$FILLMODE
 70
     1
  9
$QTEXTMODE
 70
     0
  9
$MIRRTEXT
 70
     1
  9
$LTSCALE
 40
1.0
  9
$ATTMODE
 70
     1
  9
$TEXTSIZE
 40
2.5
  9
$TRACEWID
 40
1.0
  9
$TEXTSTYLE
  7
Standard
  9
$CLAYER
  8
寸法線
  9
$CELTYPE
  6
ByLayer
  9
$CECOLOR
 62
   256
  9
$CELTSCALE
 40
3.0
  9
$DISPSILH
 70
     0
  9
$DIMSCALE
 40
10.0
  9
$DIMASZ
 40
1.5
  9
$DIMEXO
 40
2.0
  9
$DIMDLI
 40
3.75
  9
$DIMRND
 40
0.0
  9
$DIMDLE
 40
0.0
  9
$DIMEXE
 40
1.5
  9
$DIMTP
 40
0.0
  9
$DIMTM
 40
0.0
  9
$DIMTXT
 40
3.0
  9
$DIMCEN
 40
2.5
  9
$DIMTSZ
 40
0.0
  9
$DIMTOL
 70
     0
  9
$DIMLIM
 70
     0
  9
$DIMTIH
 70
     0
  9
$DIMTOH
 70
     0
  9
$DIMSE1
 70
     0
  9
$DIMSE2
 70
     0
  9
$DIMTAD
 70
     1
  9
$DIMZIN
 70
     8
  9
$DIMBLK
  1
Open30
  9
$DIMASO
 70
     1
  9
$DIMSHO
 70
     1
  9
$DIMPOST
  1

  9
$DIMAPOST
  1

  9
$DIMALT
 70
     0
  9
$DIMALTD
 70
     3
  9
$DIMALTF
 40
0.03937007874016
  9
$DIMLFAC
 40
1.0
  9
$DIMTOFL
 70
     1
  9
$DIMTVP
 40
0.0
  9
$DIMTIX
 70
     0
  9
$DIMSOXD
 70
     0
  9
$DIMSAH
 70
     0
  9
$DIMBLK1
  1

  9
$DIMBLK2
  1

  9
$DIMSTYLE
  2
ISO-25
  9
$DIMCLRD
 70
     0
  9
$DIMCLRE
 70
     0
  9
$DIMCLRT
 70
     0
  9
$DIMTFAC
 40
1.0
  9
$DIMGAP
 40
0.5
  9
$DIMJUST
 70
     0
  9
$DIMSD1
 70
     0
  9
$DIMSD2
 70
     0
  9
$DIMTOLJ
 70
     0
  9
$DIMTZIN
 70
     8
  9
$DIMALTZ
 70
     0
  9
$DIMALTTZ
 70
     0
  9
$DIMUPT
 70
     0
  9
$DIMDEC
 70
     2
  9
$DIMTDEC
 70
     2
  9
$DIMALTU
 70
     2
  9
$DIMALTTD
 70
     3
  9
$DIMTXSTY
  7
Standard
  9
$DIMAUNIT
 70
     0
  9
$DIMADEC
 70
     0
  9
$DIMALTRND
 40
0.0
  9
$DIMAZIN
 70
     0
  9
$DIMDSEP
 70
    46
  9
$DIMATFIT
 70
     0
  9
$DIMFRAC
 70
     0
  9
$DIMLDRBLK
  1
Open30
  9
$DIMLUNIT
 70
     2
  9
$DIMLWD
 70
    -2
  9
$DIMLWE
 70
    -2
  9
$DIMTMOVE
 70
     0
  9
$LUNITS
 70
     2
  9
$LUPREC
 70
     4
  9
$SKETCHINC
 40
1.0
  9
$FILLETRAD
 40
9.9
  9
$AUNITS
 70
     0
  9
$AUPREC
 70
     0
  9
$MENU
  1
.
  9
$ELEVATION
 40
0.0
  9
$PELEVATION
 40
0.0
  9
$THICKNESS
 40
0.0
  9
$LIMCHECK
 70
     0
  9
$CHAMFERA
 40
10.0
  9
$CHAMFERB
 40
10.0
  9
$CHAMFERC
 40
20.0
  9
$CHAMFERD
 40
0.0
  9
$SKPOLY
 70
     0
  9
$TDCREATE
 40
2453510.558637211
  9
$TDUCREATE
 40
2453510.183637211
  9
$TDUPDATE
 40
2457539.494041655
  9
$TDUUPDATE
 40
2457539.119041655
  9
$TDINDWG
 40
0.0616365278
  9
$TDUSRTIMER
 40
0.0616365278
  9
$USRTIMER
 70
     1
  9
$ANGBASE
 50
0.0
  9
$ANGDIR
 70
     0
  9
$PDMODE
 70
     0
  9
$PDSIZE
 40
0.0
  9
$PLINEWID
 40
0.0
  9
$SPLFRAME
 70
     0
  9
$SPLINETYPE
 70
     6
  9
$SPLINESEGS
 70
     8
  9
$HANDSEED
  5
1AFA
  9
$SURFTAB1
 70
     6
  9
$SURFTAB2
 70
     6
  9
$SURFTYPE
 70
     6
  9
$SURFU
 70
     6
  9
$SURFV
 70
     6
  9
$UCSBASE
  2

  9
$UCSNAME
  2

  9
$UCSORG
 10
0.0
 20
0.0
 30
0.0
  9
$UCSXDIR
 10
1.0
 20
0.0
 30
0.0
  9
$UCSYDIR
 10
0.0
 20
1.0
 30
0.0
  9
$UCSORTHOREF
  2

  9
$UCSORTHOVIEW
 70
     0
  9
$UCSORGTOP
 10
0.0
 20
0.0
 30
0.0
  9
$UCSORGBOTTOM
 10
0.0
 20
0.0
 30
0.0
  9
$UCSORGLEFT
 10
0.0
 20
0.0
 30
0.0
  9
$UCSORGRIGHT
 10
0.0
 20
0.0
 30
0.0
  9
$UCSORGFRONT
 10
0.0
 20
0.0
 30
0.0
  9
$UCSORGBACK
 10
0.0
 20
0.0
 30
0.0
  9
$PUCSBASE
  2

  9
$PUCSNAME
  2

  9
$PUCSORG
 10
0.0
 20
0.0
 30
0.0
  9
$PUCSXDIR
 10
1.0
 20
0.0
 30
0.0
  9
$PUCSYDIR
 10
0.0
 20
1.0
 30
0.0
  9
$PUCSORTHOREF
  2

  9
$PUCSORTHOVIEW
 70
     0
  9
$PUCSORGTOP
 10
0.0
 20
0.0
 30
0.0
  9
$PUCSORGBOTTOM
 10
0.0
 20
0.0
 30
0.0
  9
$PUCSORGLEFT
 10
0.0
 20
0.0
 30
0.0
  9
$PUCSORGRIGHT
 10
0.0
 20
0.0
 30
0.0
  9
$PUCSORGFRONT
 10
0.0
 20
0.0
 30
0.0
  9
$PUCSORGBACK
 10
0.0
 20
0.0
 30
0.0
  9
$USERI1
 70
     0
  9
$USERI2
 70
     0
  9
$USERI3
 70
     0
  9
$USERI4
 70
     0
  9
$USERI5
 70
     0
  9
$USERR1
 40
0.0
  9
$USERR2
 40
0.0
  9
$USERR3
 40
0.0
  9
$USERR4
 40
0.0
  9
$USERR5
 40
0.0
  9
$WORLDVIEW
 70
     1
  9
$SHADEDGE
 70
     3
  9
$SHADEDIF
 70
    70
  9
$TILEMODE
 70
     1
  9
$MAXACTVP
 70
    48
  9
$PINSBASE
 10
0.0
 20
0.0
 30
0.0
  9
$PLIMCHECK
 70
     0
  9
$PEXTMIN
 10
0.0
 20
0.0
 30
0.0
  9
$PEXTMAX
 10
0.0
 20
0.0
 30
0.0
  9
$PLIMMIN
 10
0.0
 20
0.0
  9
$PLIMMAX
 10
12.0
 20
9.0
  9
$UNITMODE
 70
     0
  9
$VISRETAIN
 70
     1
  9
$PLINEGEN
 70
     0
  9
$PSLTSCALE
 70
     1
  9
$TREEDEPTH
 70
  3020
  9
$CMLSTYLE
  2
Standard
  9
$CMLJUST
 70
     0
  9
$CMLSCALE
 40
20.0
  9
$PROXYGRAPHICS
 70
     1
  9
$MEASUREMENT
 70
     1
  9
$CELWEIGHT
370
    -1
  9
$ENDCAPS
280
     0
  9
$JOINSTYLE
280
     0
  9
$LWDISPLAY
290
     0
  9
$INSUNITS
 70
     4
  9
$HYPERLINKBASE
  1

  9
$STYLESHEET
  1
monochrome.ctb
  9
$XEDIT
290
     1
  9
$CEPSNTYPE
380
     0
  9
$PSTYLEMODE
290
     1
  9
$FINGERPRINTGUID
  2

  9
$VERSIONGUID
  2
{F32CF7C2-5E34-409C-8150-FD015277F406}
  9
$EXTNAMES
290
     1
  9
$PSVPSCALE
 40
0.0
  9
$OLESTARTUP
290
     0
  0
ENDSEC
  0
SECTION
  2
CLASSES
  0
CLASS
  1
ACDBDICTIONARYWDFLT
  2
AcDbDictionaryWithDefault
  3
ObjectDBX Classes
 90
        0
280
     0
281
     0
  0
CLASS
  1
ACDBPLACEHOLDER
  2
AcDbPlaceHolder
  3
ObjectDBX Classes
 90
        0
280
     0
281
     0
  0
CLASS
  1
LAYOUT
  2
AcDbLayout
  3
ObjectDBX Classes
 90
        0
280
     0
281
     0
  0
CLASS
  1
DICTIONARYVAR
  2
AcDbDictionaryVar
  3
ObjectDBX Classes
 90
        0
280
     0
281
     0
  0
CLASS
  1
MATERIAL
  2
AcDbMaterial
  3
ObjectDBX Classes
 90
     1153
280
     0
281
     0
  0
CLASS
  1
VISUALSTYLE
  2
AcDbVisualStyle
  3
ObjectDBX Classes
 90
     4095
280
     0
281
     0
  0
CLASS
  1
TABLESTYLE
  2
AcDbTableStyle
  3
ObjectDBX Classes
 90
     4095
280
     0
281
     0
  0
CLASS
  1
SCALE
  2
AcDbScale
  3
ObjectDBX Classes
 90
     1153
280
     0
281
     0
  0
CLASS
  1
MLEADERSTYLE
  2
AcDbMLeaderStyle
  3
ACDB_MLEADERSTYLE_CLASS
 90
     4095
280
     0
281
     0
  0
CLASS
  1
ACDBSECTIONVIEWSTYLE
  2
AcDbSectionViewStyle
  3
ObjectDBX Classes
 90
     1025
280
     0
281
     0
  0
CLASS
  1
ACDBDETAILVIEWSTYLE
  2
AcDbDetailViewStyle
  3
ObjectDBX Classes
 90
     1025
280
     0
281
     0
  0
CLASS
  1
CELLSTYLEMAP
  2
AcDbCellStyleMap
  3
ObjectDBX Classes
 90
     1152
280
     0
281
     0
  0
CLASS
  1
SORTENTSTABLE
  2
AcDbSortentsTable
  3
ObjectDBX Classes
 90
        0
280
     0
281
     0
  0
CLASS
  1
ACARRAYJIGENTITY
  2
AcArrayJigEntity
  3
ACAD_ARRAY
 90
    32897
280
     0
281
     1
  0
CLASS
  1
ACDBASSOCNETWORK
  2
AcDbAssocNetwork
  3
ObjectDBX Classes
 90
     1025
280
     0
281
     0
  0
CLASS
  1
ACDBASSOCACTION
  2
AcDbAssocAction
  3
ObjectDBX Classes
 90
     1025
280
     0
281
     0
  0
CLASS
  1
ACDBASSOCARRAYACTIONBODY
  2
AcDbAssocArrayActionBody
  3
ObjectDBX Classes
 90
     1025
280
     0
281
     0
  0
CLASS
  1
ACDBASSOCVERTEXACTIONPARAM
  2
AcDbAssocVertexActionParam
  3
ObjectDBX Classes
 90
     1025
280
     0
281
     0
  0
CLASS
  1
ACDBASSOCDEPENDENCY
  2
AcDbAssocDependency
  3
ObjectDBX Classes
 90
     1025
280
     0
281
     0
  0
CLASS
  1
ACDBASSOCARRAYRECTANGULARPARAMETERS
  2
AcDbAssocArrayRectangularParameters
  3
ObjectDBX Classes
 90
    33793
280
     0
281
     0
  0
ENDSEC
  0
SECTION
  2
TABLES
  0
TABLE
  2
VPORT
  5
DA
102
{ACAD_XDICTIONARY
360
1641
102
}
330
0
100
AcDbSymbolTable
 70
     1
  0
VPORT
  5
15C5
330
DA
100
AcDbSymbolTableRecord
100
AcDbViewportTableRecord
  2
*Active
 70
     0
 10
0.0
 20
0.0
 11
1.0
 21
1.0
 12
1394.755599997234
 22
986.6684785864979
 13
0.0
 23
0.0
 14
10.0
 24
10.0
 15
10.0
 25
10.0
 16
0.0
 26
0.0
 36
1.0
 17
0.0
 27
0.0
 37
0.0
 40
1992.403461315753
 41
2.97752808988764
 42
50.0
 43
0.0
 44
0.0
 50
0.0
 51
0.0
 71
     0
 72
   100
 73
     1
 74
     3
 75
     0
 76
     0
 77
     0
 78
     0
281
     0
 65
     1
110
0.0
120
0.0
130
0.0
111
1.0
121
0.0
131
0.0
112
0.0
122
1.0
132
0.0
 79
     0
146
0.0
1001
ACAD_NAV_VCDISPLAY
1070
     3
  0
ENDTAB
  0
TABLE
  2
LTYPE
  5
D5
330
0
100
AcDbSymbolTable
 70
     3
  0
LTYPE
  5
D6
330
D5
100
AcDbSymbolTableRecord
100
AcDbLinetypeTableRecord
  2
ByBlock
 70
     0
  3

 72
    65
 73
     0
 40
0.0
  0
LTYPE
  5
D7
330
D5
100
AcDbSymbolTableRecord
100
AcDbLinetypeTableRecord
  2
ByLayer
 70
     0
  3

 72
    65
 73
     0
 40
0.0
  0
LTYPE
  5
8
330
D5
100
AcDbSymbolTableRecord
100
AcDbLinetypeTableRecord
  2
Continuous
 70
     0
  3
Solid line
 72
    65
 73
     0
 40
0.0
  0
LTYPE
  5
2EA
330
D5
100
AcDbSymbolTableRecord
100
AcDbLinetypeTableRecord
  2
HIDDEN
 70
     0
  3
Hidden __ __ __ __ __ __ __ __ __ __ __ __ __ _
 72
    65
 73
     2
 40
9.524999999999998
 49
6.349999999999999
 74
     0
 49
-3.174999999999999
 74
     0
  0
LTYPE
  5
2EB
330
D5
100
AcDbSymbolTableRecord
100
AcDbLinetypeTableRecord
  2
CENTER
 70
     0
  3
------ - ------ - ----
 72
    65
 73
     4
 40
10.0
 49
6.25
 74
     0
 49
-1.25
 74
     0
 49
1.25
 74
     0
 49
-1.25
 74
     0
  0
ENDTAB
  0
TABLE
  2
LAYER
  5
D2
102
{ACAD_XDICTIONARY
360
197B
102
}
330
0
100
AcDbSymbolTable
 70
     9
  0
LAYER
  5
68
102
{ACAD_XDICTIONARY
360
161C
102
}
330
D2
100
AcDbSymbolTableRecord
100
AcDbLayerTableRecord
  2
0
 70
     0
 62
     7
  6
Continuous
370
    -3
390
5
  0
LAYER
  5
6E
102
{ACAD_XDICTIONARY
360
161E
102
}
330
D2
100
AcDbSymbolTableRecord
100
AcDbLayerTableRecord
  2
本体
 70
     0
 62
     7
  6
Continuous
370
    13
390
5
  0
LAYER
  5
4
102
{ACAD_XDICTIONARY
360
1620
102
}
330
D2
100
AcDbSymbolTableRecord
100
AcDbLayerTableRecord
  2
寸法線
 70
     0
 62
     2
  6
Continuous
370
     9
390
5
  0
LAYER
  5
6B
102
{ACAD_XDICTIONARY
360
1624
102
}
330
D2
100
AcDbSymbolTableRecord
100
AcDbLayerTableRecord
  2
エンボス
 70
     0
 62
     4
  6
Continuous
370
     5
390
5
  0
LAYER
  5
11
102
{ACAD_XDICTIONARY
360
1626
102
}
330
D2
100
AcDbSymbolTableRecord
100
AcDbLayerTableRecord
  2
外枠
 70
     0
 62
     7
  6
Continuous
370
    -3
390
5
  0
LAYER
  5
2EF
330
D2
100
AcDbSymbolTableRecord
100
AcDbLayerTableRecord
  2
Defpoints
 70
     0
 62
     7
  6
Continuous
290
     0
370
    -3
390
5
  0
LAYER
  5
15B4
102
{ACAD_XDICTIONARY
360
1632
102
}
330
D2
100
AcDbSymbolTableRecord
100
AcDbLayerTableRecord
  2
嵩上断面
 70
     0
 62
   112
  6
Continuous
370
    13
390
5
  0
LAYER
  5
15B5
102
{ACAD_XDICTIONARY
360
1634
102
}
330
D2
100
AcDbSymbolTableRecord
100
AcDbLayerTableRecord
  2
ゴム
 70
     0
 62
    51
  6
Continuous
370
    13
390
5
  0
LAYER
  5
16FA
102
{ACAD_XDICTIONARY
360
16FB
102
}
330
D2
100
AcDbSymbolTableRecord
100
AcDbLayerTableRecord
  2
嵩上平面
 70
     0
 62
   112
  6
HIDDEN
370
    13
390
5
  0
ENDTAB
  0
TABLE
  2
STYLE
  5
D3
330
0
100
AcDbSymbolTable
 70
     1
  0
STYLE
  5
9
330
D3
100
AcDbSymbolTableRecord
100
AcDbTextStyleTableRecord
  2
Standard
 70
     0
 40
0.0
 41
1.0
 50
0.0
 71
     0
 42
2.5
  3

  4

1001
ACAD
1000
MS Gothic
1071
    32817
  0
ENDTAB
  0
TABLE
  2
VIEW
  5
D8
330
0
100
AcDbSymbolTable
 70
     0
  0
ENDTAB
  0
TABLE
  2
UCS
  5
D9
330
0
100
AcDbSymbolTable
 70
     0
  0
ENDTAB
  0
TABLE
  2
APPID
  5
DC
330
0
100
AcDbSymbolTable
 70
     5
  0
APPID
  5
A
330
DC
100
AcDbSymbolTableRecord
100
AcDbRegAppTableRecord
  2
ACAD
 70
     0
  0
APPID
  5
1636
330
DC
100
AcDbSymbolTableRecord
100
AcDbRegAppTableRecord
  2
ACAD_NAV_VCDISPLAY
 70
     0
  0
APPID
  5
1677
330
DC
100
AcDbSymbolTableRecord
100
AcDbRegAppTableRecord
  2
ACAD_MLEADERVER
 70
     0
  0
APPID
  5
1720
330
DC
100
AcDbSymbolTableRecord
100
AcDbRegAppTableRecord
  2
ACAD_EXEMPT_FROM_CAD_STANDARDS
 70
     0
  0
APPID
  5
1980
330
DC
100
AcDbSymbolTableRecord
100
AcDbRegAppTableRecord
  2
AcLayerTools
 70
     0
  0
ENDTAB
  0
TABLE
  2
DIMSTYLE
  5
DD
330
0
100
AcDbSymbolTable
 70
     2
100
AcDbDimStyleTable
 71
     1
340
E9
  0
DIMSTYLE
105
E9
102
{ACAD_REACTORS
330
DE7
330
9DD
330
9EF
330
9F0
330
9F1
330
A62
330
AF8
330
F67
330
174C
330
1765
102
}
330
DD
100
AcDbSymbolTableRecord
100
AcDbDimStyleTableRecord
  2
ISO-25
 70
     0
 40
10.0
 41
1.5
 42
2.0
 43
3.75
 44
1.5
 73
     0
 74
     0
 77
     1
 78
     8
140
3.0
141
2.5
143
0.03937007874016
147
0.5
171
     3
172
     1
271
     2
272
     2
274
     3
283
     0
284
     8
289
     0
340
9
341
E2
342
E2
  0
DIMSTYLE
105
15B6
330
DD
100
AcDbSymbolTableRecord
100
AcDbDimStyleTableRecord
  2
Standard
 70
     0
340
9
  0
ENDTAB
  0
TABLE
  2
BLOCK_RECORD
  5
1
330
0
100
AcDbSymbolTable
 70
    23
  0
BLOCK_RECORD
  5
2
102
{ACAD_XDICTIONARY
360
C0
102
}
330
1
100
AcDbSymbolTableRecord
100
AcDbBlockTableRecord
  2
*Model_Space
340
C4
  0
BLOCK_RECORD
  5
C6
102
{ACAD_XDICTIONARY
360
C7
102
}
330
1
100
AcDbSymbolTableRecord
100
AcDbBlockTableRecord
  2
*Paper_Space
340
CB
  0
BLOCK_RECORD
  5
CC
102
{ACAD_XDICTIONARY
360
CD
102
}
330
1
100
AcDbSymbolTableRecord
100
AcDbBlockTableRecord
  2
*Paper_Space0
340
D1
  0
BLOCK_RECORD
  5
E2
330
1
100
AcDbSymbolTableRecord
100
AcDbBlockTableRecord
  2
_Open30
340
0
102
{BLKREFS
331
1728
331
1729
331
1731
331
1732
331
1743
331
1744
331
187A
331
187B
331
1891
331
1892
331
18A5
331
18A6
331
18AE
331
18AF
331
18B9
331
18BA
331
196C
331
196D
331
1975
331
1976
102
}
  0
BLOCK_RECORD
  5
69
330
1
100
AcDbSymbolTableRecord
100
AcDbBlockTableRecord
  2
GIB詳細
340
0
102
{BLKREFS
331
67
102
}
1001
ACAD
1000
DesignCenter Data
1002
{
1070
     1
1070
     4
1002
}
  0
BLOCK_RECORD
  5
125
330
1
100
AcDbSymbolTableRecord
100
AcDbBlockTableRecord
  2
IB7x4x50
340
0
102
{BLKREFS
331
19FA
102
}
  0
BLOCK_RECORD
  5
134
330
1
100
AcDbSymbolTableRecord
100
AcDbBlockTableRecord
  2
TB8
340
0
102
{BLKREFS
331
F64
331
F65
331
F66
331
994
331
995
331
996
331
997
102
}
1001
ACAD
1000
DesignCenter Data
1002
{
1070
     1
1070
     4
1002
}
  0
BLOCK_RECORD
  5
193
330
1
100
AcDbSymbolTableRecord
100
AcDbBlockTableRecord
  2
平ゴムパッキン
340
0
102
{BLKREFS
331
171B
331
171D
102
}
  0
BLOCK_RECORD
  5
DE8
330
1
100
AcDbSymbolTableRecord
100
AcDbBlockTableRecord
  2
*D6
340
0
  0
BLOCK_RECORD
  5
DF4
330
1
100
AcDbSymbolTableRecord
100
AcDbBlockTableRecord
  2
*D7
340
0
  0
BLOCK_RECORD
  5
E0C
330
1
100
AcDbSymbolTableRecord
100
AcDbBlockTableRecord
  2
*D8
340
0
  0
BLOCK_RECORD
  5
E18
330
1
100
AcDbSymbolTableRecord
100
AcDbBlockTableRecord
  2
*D9
340
0
  0
BLOCK_RECORD
  5
E24
330
1
100
AcDbSymbolTableRecord
100
AcDbBlockTableRecord
  2
*D10
340
0
  0
BLOCK_RECORD
  5
E30
330
1
100
AcDbSymbolTableRecord
100
AcDbBlockTableRecord
  2
*D11
340
0
  0
BLOCK_RECORD
  5
E3E
330
1
100
AcDbSymbolTableRecord
100
AcDbBlockTableRecord
  2
*D12
340
0
  0
BLOCK_RECORD
  5
F68
330
1
100
AcDbSymbolTableRecord
100
AcDbBlockTableRecord
  2
*D13
340
0
  0
BLOCK_RECORD
  5
15A4
330
1
100
AcDbSymbolTableRecord
100
AcDbBlockTableRecord
  2
清水
340
0
102
{BLKREFS
331
15B1
102
}
1001
ACAD
1000
DesignCenter Data
1002
{
1070
     1
1070
     4
1002
}
  0
BLOCK_RECORD
  5
1690
102
{ACAD_XDICTIONARY
360
1691
102
}
330
1
100
AcDbSymbolTableRecord
100
AcDbBlockTableRecord
  2
鎌下
340
0
102
{BLKREFS
331
16A0
102
}
1001
ACAD
1000
DesignCenter Data
1002
{
1070
     1
1070
     4
1002
}
  0
BLOCK_RECORD
  5
1707
330
1
100
AcDbSymbolTableRecord
100
AcDbBlockTableRecord
  2
P-H45
340
0
102
{BLKREFS
331
171A
331
171C
102
}
  0
BLOCK_RECORD
  5
174D
330
1
100
AcDbSymbolTableRecord
100
AcDbBlockTableRecord
  2
*D17
340
0
  0
BLOCK_RECORD
  5
1766
330
1
100
AcDbSymbolTableRecord
100
AcDbBlockTableRecord
  2
*D18
340
0
  0
BLOCK_RECORD
  5
1988
102
{ACAD_REACTORS
330
19DE
102
}
330
1
100
AcDbSymbolTableRecord
100
AcDbBlockTableRecord
  2
*U19
340
0
102
{BLKREFS
331
19E2
331
19E3
331
19E4
331
19E5
331
19E6
331
19E7
331
19E8
331
19E9
331
19EA
331
19EB
331
19EC
331
19ED
331
19EE
331
19EF
331
19F0
331
19F1
102
}
  0
BLOCK_RECORD
  5
198B
102
{ACAD_XDICTIONARY
360
1A5D
102
}
102
{ACAD_REACTORS
330
19DD
102
}
330
1
100
AcDbSymbolTableRecord
100
AcDbBlockTableRecord
  2
*U20
340
0
102
{BLKREFS
331
198E
102
}
  0
BLOCK_RECORD
  5
19F3
102
{ACAD_REACTORS
330
1A05
102
}
330
1
100
AcDbSymbolTableRecord
100
AcDbBlockTableRecord
  2
*U21
340
0
102
{BLKREFS
331
1A09
331
1A0A
331
1A0B
331
1A0C
331
1A0D
331
1A0E
331
1A0F
331
1A10
331
1A11
331
1A12
331
1A13
331
1A14
331
1A15
331
1A16
331
1A17
331
1A18
102
}
  0
BLOCK_RECORD
  5
19F6
102
{ACAD_XDICTIONARY
360
1A60
102
}
102
{ACAD_REACTORS
330
1A04
102
}
330
1
100
AcDbSymbolTableRecord
100
AcDbBlockTableRecord
  2
*U22
340
0
102
{BLKREFS
331
19F9
102
}
  0
ENDTAB
  0
ENDSEC
  0
SECTION
  2
BLOCKS
  0
BLOCK
  5
C2
330
2
100
AcDbEntity
  8
0
100
AcDbBlockBegin
  2
*Model_Space
 70
     0
 10
0.0
 20
0.0
 30
0.0
  3
*Model_Space
  1

  0
ENDBLK
  5
C3
330
2
100
AcDbEntity
  8
0
100
AcDbBlockEnd
  0
BLOCK
  5
C9
330
C6
100
AcDbEntity
 67
     1
  8
0
100
AcDbBlockBegin
  2
*Paper_Space
 70
     0
 10
0.0
 20
0.0
 30
0.0
  3
*Paper_Space
  1

  0
ENDBLK
  5
CA
330
C6
100
AcDbEntity
 67
     1
  8
0
100
AcDbBlockEnd
  0
BLOCK
  5
CF
330
CC
100
AcDbEntity
 67
     1
  8
0
100
AcDbBlockBegin
  2
*Paper_Space0
 70
     0
 10
0.0
 20
0.0
 30
0.0
  3
*Paper_Space0
  1

  0
ENDBLK
  5
D0
330
CC
100
AcDbEntity
 67
     1
  8
0
100
AcDbBlockEnd
  0
BLOCK
  5
E6
330
E2
100
AcDbEntity
  8
0
100
AcDbBlockBegin
  2
_Open30
 70
     0
 10
0.0
 20
0.0
 30
0.0
  3
_Open30
  1

  0
LINE
  5
E3
330
E2
100
AcDbEntity
  8
0
  6
ByBlock
 62
     0
370
    -2
100
AcDbLine
 10
-1.0
 20
0.26794919
 30
0.0
 11
0.0
 21
0.0
 31
0.0
  0
LINE
  5
E4
330
E2
100
AcDbEntity
  8
0
  6
ByBlock
 62
     0
370
    -2
100
AcDbLine
 10
0.0
 20
0.0
 30
0.0
 11
-1.0
 21
-0.26794919
 31
0.0
  0
LINE
  5
E5
330
E2
100
AcDbEntity
  8
0
  6
ByBlock
 62
     0
370
    -2
100
AcDbLine
 10
0.0
 20
0.0
 30
0.0
 11
-1.0
 21
0.0
 31
0.0
  0
ENDBLK
  5
E7
330
E2
100
AcDbEntity
  8
0
100
AcDbBlockEnd
  0
BLOCK
  5
AD
330
69
100
AcDbEntity
  8
0
100
AcDbBlockBegin
  2
GIB詳細
 70
     0
 10
0.0
 20
0.0
 30
0.0
  3
GIB詳細
  1

  0
LINE
  5
6A
330
69
100
AcDbEntity
  8
エンボス
  6
Continuous
370
     0
100
AcDbLine
 10
26.66967878750091
 20
-77.78386766485943
 30
0.0
 11
26.66967878750109
 21
-100.7518676648589
 31
0.0
  0
LINE
  5
6C
330
69
100
AcDbEntity
  8
エンボス
  6
Continuous
370
     0
100
AcDbLine
 10
20.62167878750051
 20
-97.43986766485926
 30
0.0
 11
20.62167878750057
 21
-100.7518676648589
 31
0.0
  0
LINE
  5
6D
330
69
100
AcDbEntity
  8
本体
370
     0
100
AcDbLine
 10
37.90167878750151
 20
79.24813233514118
 30
0.0
 11
37.90167878750151
 21
-100.7518676648589
 31
0.0
  0
LINE
  5
6F
330
69
100
AcDbEntity
  8
エンボス
370
     0
100
AcDbLine
 10
26.66967878750091
 20
38.64013233514075
 30
0.0
 11
26.66967878750091
 21
12.93613233514055
 31
0.0
  0
LINE
  5
70
330
69
100
AcDbEntity
  8
エンボス
370
     0
100
AcDbLine
 10
26.66967878750091
 20
40.15213233514034
 30
0.0
 11
26.66967878750091
 21
12.93613233514055
 31
0.0
  0
LINE
  5
71
330
69
100
AcDbEntity
  8
エンボス
370
     0
100
AcDbLine
 10
20.62167878750051
 20
59.80813233514115
 30
0.0
 11
20.62167878750051
 21
32.59213233514036
 31
0.0
  0
LINE
  5
72
330
69
100
AcDbEntity
  8
エンボス
  6
Continuous
370
     0
100
AcDbLine
 10
8.525678787500737
 20
26.54413233514095
 30
0.0
 11
20.62167878750051
 21
20.49613233514056
 31
0.0
  0
LINE
  5
73
330
69
100
AcDbEntity
  8
エンボス
  6
Continuous
370
     0
100
AcDbLine
 10
8.525678787500737
 20
26.54413233514095
 30
0.0
 11
20.62167878750051
 21
32.59213233514036
 31
0.0
  0
LINE
  5
74
330
69
100
AcDbEntity
  8
エンボス
  6
Continuous
370
     0
100
AcDbLine
 10
8.525678787500737
 20
-91.39186766485886
 30
0.0
 11
20.62167878750051
 21
-85.34386766485942
 31
0.0
  0
LINE
  5
75
330
69
100
AcDbEntity
  8
エンボス
  6
Continuous
370
     0
100
AcDbLine
 10
8.525678787500737
 20
-91.39186766485886
 30
0.0
 11
20.62167878750051
 21
-97.43986766485926
 31
0.0
  0
LINE
  5
76
330
69
100
AcDbEntity
  8
エンボス
  6
Continuous
370
     0
100
AcDbLine
 10
8.525678787500737
 20
-52.07986766485925
 30
0.0
 11
20.62167878750051
 21
-58.12786766485965
 31
0.0
  0
LINE
  5
77
330
69
100
AcDbEntity
  8
エンボス
  6
Continuous
370
     0
100
AcDbLine
 10
8.525678787500737
 20
-52.07986766485925
 30
0.0
 11
20.62167878750051
 21
-46.03186766485886
 31
0.0
  0
LINE
  5
78
330
69
100
AcDbEntity
  8
エンボス
  6
Continuous
370
     0
100
AcDbLine
 10
8.525678787500737
 20
-12.76786766485964
 30
0.0
 11
20.62167878750051
 21
-6.719867664859251
 31
0.0
  0
LINE
  5
79
330
69
100
AcDbEntity
  8
エンボス
  6
Continuous
370
     0
100
AcDbLine
 10
8.525678787500737
 20
-12.76786766485964
 30
0.0
 11
20.62167878750051
 21
-18.81586766485905
 31
0.0
  0
LINE
  5
7A
330
69
100
AcDbEntity
  8
エンボス
  6
Continuous
370
     0
100
AcDbLine
 10
38.76567878750075
 20
6.888132335141136
 30
0.0
 11
26.66967878750091
 21
12.93613233514055
 31
0.0
  0
LINE
  5
7B
330
69
100
AcDbEntity
  8
エンボス
  6
Continuous
370
     0
100
AcDbLine
 10
38.76567878750075
 20
-32.42386766485945
 30
0.0
 11
26.66967878750091
 21
-26.37586766485906
 31
0.0
  0
LINE
  5
7C
330
69
100
AcDbEntity
  8
エンボス
  6
Continuous
370
     0
100
AcDbLine
 10
38.76567878750075
 20
-32.42386766485945
 30
0.0
 11
26.66967878750091
 21
-26.37586766485906
 31
0.0
  0
LINE
  5
7D
330
69
100
AcDbEntity
  8
エンボス
  6
Continuous
370
     0
100
AcDbLine
 10
38.76567878750075
 20
-71.73586766485906
 30
0.0
 11
26.66967878750091
 21
-77.78386766485943
 31
0.0
  0
LINE
  5
7E
330
69
100
AcDbEntity
  8
エンボス
  6
Continuous
370
     0
100
AcDbLine
 10
38.76567878750075
 20
-71.73586766485906
 30
0.0
 11
26.66967878750091
 21
-77.78386766485943
 31
0.0
  0
LINE
  5
7F
330
69
100
AcDbEntity
  8
エンボス
  6
Continuous
370
     0
100
AcDbLine
 10
38.76567878750075
 20
-71.73586766485906
 30
0.0
 11
26.66967878750091
 21
-77.78386766485943
 31
0.0
  0
LINE
  5
80
330
69
100
AcDbEntity
  8
エンボス
  6
Continuous
370
     0
100
AcDbLine
 10
38.76567878750075
 20
-32.42386766485945
 30
0.0
 11
26.66967878750091
 21
-38.47186766485886
 31
0.0
  0
LINE
  5
81
330
69
100
AcDbEntity
  8
エンボス
  6
Continuous
370
     0
100
AcDbLine
 10
38.76567878750075
 20
-32.42386766485945
 30
0.0
 11
26.66967878750091
 21
-38.47186766485886
 31
0.0
  0
LINE
  5
82
330
69
100
AcDbEntity
  8
エンボス
  6
Continuous
370
     0
100
AcDbLine
 10
38.76567878750075
 20
-71.73586766485906
 30
0.0
 11
26.66967878750091
 21
-65.68786766485965
 31
0.0
  0
LINE
  5
83
330
69
100
AcDbEntity
  8
エンボス
  6
Continuous
370
     0
100
AcDbLine
 10
38.76567878750075
 20
-71.73586766485906
 30
0.0
 11
26.66967878750091
 21
-65.68786766485965
 31
0.0
  0
LINE
  5
84
330
69
100
AcDbEntity
  8
エンボス
  6
Continuous
370
     0
100
AcDbLine
 10
38.76567878750075
 20
-71.73586766485906
 30
0.0
 11
26.66967878750091
 21
-65.68786766485965
 31
0.0
  0
LINE
  5
85
330
69
100
AcDbEntity
  8
エンボス
  6
Continuous
370
     0
100
AcDbLine
 10
26.66967878750091
 20
-38.47186766485886
 30
0.0
 11
26.66967878750091
 21
-65.68786766485965
 31
0.0
  0
LINE
  5
86
330
69
100
AcDbEntity
  8
エンボス
  6
Continuous
370
     0
100
AcDbLine
 10
26.66967878750091
 20
0.8401323351407512
 30
0.0
 11
26.66967878750091
 21
-26.37586766485906
 31
0.0
  0
LINE
  5
87
330
69
100
AcDbEntity
  8
エンボス
  6
Continuous
370
     0
100
AcDbLine
 10
20.62167878750051
 20
-18.81586766485905
 30
0.0
 11
20.62167878750051
 21
-46.03186766485886
 31
0.0
  0
LINE
  5
88
330
69
100
AcDbEntity
  8
エンボス
  6
Continuous
370
     0
100
AcDbLine
 10
20.62167878750051
 20
-58.12786766485965
 30
0.0
 11
20.62167878750051
 21
-85.34386766485942
 31
0.0
  0
LINE
  5
89
330
69
100
AcDbEntity
  8
エンボス
  6
Continuous
370
     0
100
AcDbLine
 10
20.62167878750051
 20
20.49613233514056
 30
0.0
 11
20.62167878750051
 21
-6.719867664859251
 31
0.0
  0
LINE
  5
8A
330
69
100
AcDbEntity
  8
エンボス
  6
Continuous
370
     0
100
AcDbLine
 10
38.76567878750075
 20
6.888132335141136
 30
0.0
 11
26.66967878750091
 21
0.8401323351407512
 31
0.0
  0
LINE
  5
8B
330
69
100
AcDbEntity
  8
エンボス
  6
Continuous
370
     0
100
AcDbLine
 10
8.525678787500737
 20
73.20013233514075
 30
0.0
 11
20.62167878750051
 21
79.24813233514118
 31
0.0
  0
LINE
  5
8C
330
69
100
AcDbEntity
  8
エンボス
  6
Continuous
370
     0
100
AcDbLine
 10
8.525678787500737
 20
73.20013233514075
 30
0.0
 11
20.62167878750051
 21
59.80813233514115
 31
0.0
  0
LINE
  5
8D
330
69
100
AcDbEntity
  8
エンボス
370
     0
100
AcDbLine
 10
26.66967878750091
 20
79.24813233514118
 30
0.0
 11
26.66967878750091
 21
52.24813233514115
 31
0.0
  0
LINE
  5
8E
330
69
100
AcDbEntity
  8
エンボス
  6
Continuous
370
     0
100
AcDbLine
 10
38.76567878750075
 20
46.20013233514074
 30
0.0
 11
26.66967878750091
 21
52.24813233514115
 31
0.0
  0
LINE
  5
8F
330
69
100
AcDbEntity
  8
エンボス
  6
Continuous
370
     0
100
AcDbLine
 10
38.76567878750075
 20
46.20013233514074
 30
0.0
 11
26.66967878750091
 21
40.15213233514034
 31
0.0
  0
LINE
  5
90
330
69
100
AcDbEntity
  8
本体
370
     0
100
AcDbLine
 10
7.6616787875015
 20
79.24813233514118
 30
0.0
 11
7.6616787875015
 21
-100.7518676648589
 31
0.0
  0
MTEXT
  5
91
330
69
100
AcDbEntity
  8
本体
  6
Continuous
370
     0
100
AcDbMText
 10
-96.91195000051369
 20
158.2682376554469
 30
0.0
 40
30.0
 41
252.8401
 71
     1
 72
     5
  1
GIB形状詳細
 73
     1
 44
1.0
1001
ACAD
1000
MTEXTBEGIN
1070
    73
1070
     1
1070
    44
1040
1.0
1070
    74
1070
     0
1000
MTEXTEND
  0
MTEXT
  5
92
330
69
100
AcDbEntity
  8
寸法線
  6
Continuous
100
AcDbMText
 10
-147.3028652710904
 20
1772.180188660315
 30
0.0
 40
20.0
 41
17.2146
 71
     7
 72
     1
  1

 73
     1
 44
1.0
1001
ACAD
1000
MTEXTBEGIN
1070
    73
1070
     1
1070
    44
1040
1.0
1070
    74
1070
     0
1000
MTEXTEND
  0
MTEXT
  5
93
330
69
100
AcDbEntity
  8
寸法線
  6
Continuous
100
AcDbMText
 10
125.7829597280838
 20
3773.683923873501
 30
0.0
 40
30.0
 41
17.2146
 71
     7
 72
     1
  1

 73
     1
 44
1.0
1001
ACAD
1000
MTEXTBEGIN
1070
    73
1070
     1
1070
    44
1040
1.0
1070
    74
1070
     0
1000
MTEXTEND
  0
MTEXT
  5
94
330
69
100
AcDbEntity
  8
寸法線
  6
Continuous
100
AcDbMText
 10
-609.4758544225992
 20
3746.116575025764
 30
0.0
 40
20.0
 41
17.2146
 71
     7
 72
     1
  1

 73
     1
 44
1.0
1001
ACAD
1000
MTEXTBEGIN
1070
    73
1070
     1
1070
    44
1040
1.0
1070
    74
1070
     0
1000
MTEXTEND
  0
MTEXT
  5
95
330
69
100
AcDbEntity
  8
寸法線
  6
Continuous
100
AcDbMText
 10
-147.3028652710904
 20
1754.680188660315
 30
0.0
 40
20.0
 41
17.2146
 71
     7
 72
     1
  1

 73
     1
 44
1.0
1001
ACAD
1000
MTEXTBEGIN
1070
    73
1070
     1
1070
    44
1040
1.0
1070
    74
1070
     0
1000
MTEXTEND
  0
MTEXT
  5
96
330
69
100
AcDbEntity
  8
寸法線
  6
Continuous
100
AcDbMText
 10
125.7829597280838
 20
3756.183923873501
 30
0.0
 40
30.0
 41
17.2146
 71
     7
 72
     1
  1

 73
     1
 44
1.0
1001
ACAD
1000
MTEXTBEGIN
1070
    73
1070
     1
1070
    44
1040
1.0
1070
    74
1070
     0
1000
MTEXTEND
  0
MTEXT
  5
97
330
69
100
AcDbEntity
  8
寸法線
  6
Continuous
100
AcDbMText
 10
-609.4758544225992
 20
3728.616575025763
 30
0.0
 40
20.0
 41
17.2146
 71
     7
 72
     1
  1

 73
     1
 44
1.0
1001
ACAD
1000
MTEXTBEGIN
1070
    73
1070
     1
1070
    44
1040
1.0
1070
    74
1070
     0
1000
MTEXTEND
  0
MTEXT
  5
98
330
69
100
AcDbEntity
  8
寸法線
  6
Continuous
100
AcDbMText
 10
-147.3028652710904
 20
1704.680188660315
 30
0.0
 40
20.0
 41
17.2146
 71
     7
 72
     1
  1

 73
     1
 44
1.0
1001
ACAD
1000
MTEXTBEGIN
1070
    73
1070
     1
1070
    44
1040
1.0
1070
    74
1070
     0
1000
MTEXTEND
  0
MTEXT
  5
99
330
69
100
AcDbEntity
  8
寸法線
  6
Continuous
100
AcDbMText
 10
125.7829597280838
 20
3706.183923873501
 30
0.0
 40
30.0
 41
17.2146
 71
     7
 72
     1
  1

 73
     1
 44
1.0
1001
ACAD
1000
MTEXTBEGIN
1070
    73
1070
     1
1070
    44
1040
1.0
1070
    74
1070
     0
1000
MTEXTEND
  0
MTEXT
  5
9A
330
69
100
AcDbEntity
  8
寸法線
  6
Continuous
100
AcDbMText
 10
-609.4758544225992
 20
3678.616575025763
 30
0.0
 40
20.0
 41
17.2146
 71
     7
 72
     1
  1

 73
     1
 44
1.0
1001
ACAD
1000
MTEXTBEGIN
1070
    73
1070
     1
1070
    44
1040
1.0
1070
    74
1070
     0
1000
MTEXTEND
  0
MTEXT
  5
9B
330
69
100
AcDbEntity
  8
寸法線
  6
Continuous
100
AcDbMText
 10
-147.3028652710904
 20
1654.680188660315
 30
0.0
 40
20.0
 41
17.2146
 71
     7
 72
     1
  1

 73
     1
 44
1.0
1001
ACAD
1000
MTEXTBEGIN
1070
    73
1070
     1
1070
    44
1040
1.0
1070
    74
1070
     0
1000
MTEXTEND
  0
MTEXT
  5
9C
330
69
100
AcDbEntity
  8
寸法線
  6
Continuous
100
AcDbMText
 10
125.7829597280838
 20
3656.183923873501
 30
0.0
 40
30.0
 41
17.2146
 71
     7
 72
     1
  1

 73
     1
 44
1.0
1001
ACAD
1000
MTEXTBEGIN
1070
    73
1070
     1
1070
    44
1040
1.0
1070
    74
1070
     0
1000
MTEXTEND
  0
MTEXT
  5
9D
330
69
100
AcDbEntity
  8
寸法線
  6
Continuous
100
AcDbMText
 10
-609.4758544225992
 20
3628.616575025763
 30
0.0
 40
20.0
 41
17.2146
 71
     7
 72
     1
  1

 73
     1
 44
1.0
1001
ACAD
1000
MTEXTBEGIN
1070
    73
1070
     1
1070
    44
1040
1.0
1070
    74
1070
     0
1000
MTEXTEND
  0
MTEXT
  5
9E
330
69
100
AcDbEntity
  8
寸法線
  6
Continuous
100
AcDbMText
 10
-147.3028652710904
 20
1604.680188660315
 30
0.0
 40
20.0
 41
17.2146
 71
     7
 72
     1
  1

 73
     1
 44
1.0
1001
ACAD
1000
MTEXTBEGIN
1070
    73
1070
     1
1070
    44
1040
1.0
1070
    74
1070
     0
1000
MTEXTEND
  0
MTEXT
  5
9F
330
69
100
AcDbEntity
  8
寸法線
  6
Continuous
100
AcDbMText
 10
125.7829597280838
 20
3606.183923873501
 30
0.0
 40
30.0
 41
17.2146
 71
     7
 72
     1
  1

 73
     1
 44
1.0
1001
ACAD
1000
MTEXTBEGIN
1070
    73
1070
     1
1070
    44
1040
1.0
1070
    74
1070
     0
1000
MTEXTEND
  0
MTEXT
  5
A0
330
69
100
AcDbEntity
  8
寸法線
  6
Continuous
100
AcDbMText
 10
-609.4758544225992
 20
3578.616575025763
 30
0.0
 40
20.0
 41
17.2146
 71
     7
 72
     1
  1

 73
     1
 44
1.0
1001
ACAD
1000
MTEXTBEGIN
1070
    73
1070
     1
1070
    44
1040
1.0
1070
    74
1070
     0
1000
MTEXTEND
  0
MTEXT
  5
A1
330
69
100
AcDbEntity
  8
寸法線
  6
Continuous
100
AcDbMText
 10
-147.3028652710904
 20
1554.680188660315
 30
0.0
 40
20.0
 41
17.2146
 71
     7
 72
     1
  1

 73
     1
 44
1.0
1001
ACAD
1000
MTEXTBEGIN
1070
    73
1070
     1
1070
    44
1040
1.0
1070
    74
1070
     0
1000
MTEXTEND
  0
MTEXT
  5
A2
330
69
100
AcDbEntity
  8
寸法線
  6
Continuous
100
AcDbMText
 10
125.7829597280838
 20
3556.183923873501
 30
0.0
 40
30.0
 41
17.2146
 71
     7
 72
     1
  1

 73
     1
 44
1.0
1001
ACAD
1000
MTEXTBEGIN
1070
    73
1070
     1
1070
    44
1040
1.0
1070
    74
1070
     0
1000
MTEXTEND
  0
MTEXT
  5
A3
330
69
100
AcDbEntity
  8
寸法線
  6
Continuous
100
AcDbMText
 10
-609.4758544225992
 20
3528.616575025763
 30
0.0
 40
20.0
 41
17.2146
 71
     7
 72
     1
  1

 73
     1
 44
1.0
1001
ACAD
1000
MTEXTBEGIN
1070
    73
1070
     1
1070
    44
1040
1.0
1070
    74
1070
     0
1000
MTEXTEND
  0
MTEXT
  5
A4
330
69
100
AcDbEntity
  8
寸法線
  6
Continuous
100
AcDbMText
 10
-147.3028652710904
 20
1504.680188660315
 30
0.0
 40
20.0
 41
17.2146
 71
     7
 72
     1
  1

 73
     1
 44
1.0
1001
ACAD
1000
MTEXTBEGIN
1070
    73
1070
     1
1070
    44
1040
1.0
1070
    74
1070
     0
1000
MTEXTEND
  0
MTEXT
  5
A5
330
69
100
AcDbEntity
  8
寸法線
  6
Continuous
100
AcDbMText
 10
125.7829597280838
 20
3506.183923873501
 30
0.0
 40
30.0
 41
17.2146
 71
     7
 72
     1
  1

 73
     1
 44
1.0
1001
ACAD
1000
MTEXTBEGIN
1070
    73
1070
     1
1070
    44
1040
1.0
1070
    74
1070
     0
1000
MTEXTEND
  0
MTEXT
  5
A6
330
69
100
AcDbEntity
  8
寸法線
  6
Continuous
100
AcDbMText
 10
-609.4758544225992
 20
3478.616575025763
 30
0.0
 40
20.0
 41
17.2146
 71
     7
 72
     1
  1

 73
     1
 44
1.0
1001
ACAD
1000
MTEXTBEGIN
1070
    73
1070
     1
1070
    44
1040
1.0
1070
    74
1070
     0
1000
MTEXTEND
  0
MTEXT
  5
A7
330
69
100
AcDbEntity
  8
寸法線
  6
Continuous
100
AcDbMText
 10
-147.3028652710904
 20
1454.680188660315
 30
0.0
 40
20.0
 41
17.2146
 71
     7
 72
     1
  1

 73
     1
 44
1.0
1001
ACAD
1000
MTEXTBEGIN
1070
    73
1070
     1
1070
    44
1040
1.0
1070
    74
1070
     0
1000
MTEXTEND
  0
MTEXT
  5
A8
330
69
100
AcDbEntity
  8
寸法線
  6
Continuous
100
AcDbMText
 10
125.7829597280838
 20
3456.183923873501
 30
0.0
 40
30.0
 41
17.2146
 71
     7
 72
     1
  1

 73
     1
 44
1.0
1001
ACAD
1000
MTEXTBEGIN
1070
    73
1070
     1
1070
    44
1040
1.0
1070
    74
1070
     0
1000
MTEXTEND
  0
MTEXT
  5
A9
330
69
100
AcDbEntity
  8
寸法線
  6
Continuous
100
AcDbMText
 10
-609.4758544225992
 20
3428.616575025763
 30
0.0
 40
20.0
 41
17.2146
 71
     7
 72
     1
  1

 73
     1
 44
1.0
1001
ACAD
1000
MTEXTBEGIN
1070
    73
1070
     1
1070
    44
1040
1.0
1070
    74
1070
     0
1000
MTEXTEND
  0
LWPOLYLINE
  5
AA
330
69
100
AcDbEntity
  8
本体
  6
Continuous
100
AcDbPolyline
 90
        4
 70
     1
 43
0.0
 10
-139.6145379512674
 20
168.6157088891093
 10
194.701175139303
 20
168.6157088891093
 10
194.701175139303
 20
-117.6274822929807
 10
-139.6145379512674
 20
-117.6274822929807
  0
HATCH
  5
AB
330
69
100
AcDbEntity
  8
エンボス
  6
Continuous
100
AcDbHatch
 10
0.0
 20
0.0
 30
0.0
210
0.0
220
0.0
230
1.0
  2
ANSI31
 70
     0
 71
     0
 91
        1
 92
        7
 72
     0
 73
     1
 93
       34
 10
26.66967878750092
 20
40.15213233514035
 10
37.90167878750151
 20
45.76813233514108
 10
37.90167878750151
 20
46.63213233514041
 10
26.66967878750092
 20
52.24813233514115
 10
26.66967878750091
 20
79.24813233514116
 10
20.62167878750047
 20
79.24813233514116
 10
8.525678787500744
 20
73.20013233514076
 10
20.62167878750051
 20
59.80813233514115
 10
20.62167878750051
 20
32.59213233514036
 10
8.525678787500737
 20
26.54413233514094
 10
20.62167878750051
 20
20.49613233514056
 10
20.62167878750051
 20
-6.719867664859251
 10
8.525678787500737
 20
-12.76786766485964
 10
20.62167878750051
 20
-18.81586766485905
 10
20.62167878750051
 20
-46.03186766485887
 10
8.525678787500737
 20
-52.07986766485925
 10
20.62167878750051
 20
-58.12786766485965
 10
20.62167878750051
 20
-85.34386766485944
 10
8.525678787500737
 20
-91.39186766485885
 10
20.62167878750051
 20
-97.43986766485924
 10
20.62167878750057
 20
-100.7518676648588
 10
26.66967878750109
 20
-100.7518676648589
 10
26.66967878750091
 20
-77.78386766485944
 10
37.90167878750151
 20
-72.16786766485872
 10
37.90167878750151
 20
-71.30386766485948
 10
26.66967878750091
 20
-65.68786766485963
 10
26.66967878750091
 20
-38.47186766485886
 10
37.90167878750151
 20
-32.85586766485902
 10
37.90167878750151
 20
-31.99186766485979
 10
26.66967878750091
 20
-26.37586766485906
 10
26.66967878750091
 20
0.8401323351407494
 10
37.90167878750151
 20
6.456132335141482
 10
37.90167878750151
 20
7.320132335140719
 10
26.66967878750091
 20
12.93613233514056
 97
        0
 75
     0
 76
     1
 52
0.0
 41
0.5
 77
     0
 78
     1
 53
45.0
 43
8.525678787500737
 44
-12.76786766485964
 45
-1.122532015133643
 46
1.122532015133644
 79
     0
 47
0.5074757335946297
 98
        1
 10
23.11907519037527
 20
30.63971558616095
  0
MTEXT
  5
AC
330
69
100
AcDbEntity
  8
本体
  6
Continuous
100
AcDbMText
 10
-79.8847425412946
 20
110.9530386434795
 30
0.0
 40
15.0
 41
230.6957
 71
     1
 72
     5
  1
※塗りつぶし部分突起
 73
     1
 44
1.0
1001
ACAD
1000
MTEXTBEGIN
1070
    73
1070
     1
1070
    44
1040
1.0
1070
    74
1070
     0
1000
MTEXTEND
  0
ENDBLK
  5
AE
330
69
100
AcDbEntity
  8
0
100
AcDbBlockEnd
  0
BLOCK
  5
132
330
125
100
AcDbEntity
  8
0
100
AcDbBlockBegin
  2
IB7x4x50
 70
     0
 10
0.0
 20
0.0
 30
0.0
  3
IB7x4x50
  1

  0
LINE
  5
126
330
125
100
AcDbEntity
  8
0
100
AcDbLine
 10
0.0
 20
0.0
 30
0.0
 11
7.0
 21
0.0
 31
0.0
  0
LINE
  5
127
330
125
100
AcDbEntity
  8
0
100
AcDbLine
 10
0.0
 20
0.0
 30
0.0
 11
0.0
 21
-10.0
 31
0.0
  0
LINE
  5
128
330
125
100
AcDbEntity
  8
0
100
AcDbLine
 10
0.0
 20
-10.0
 30
0.0
 11
1.5
 21
-11.0
 31
0.0
  0
LINE
  5
129
330
125
100
AcDbEntity
  8
0
100
AcDbLine
 10
7.0
 20
0.0
 30
0.0
 11
7.0
 21
-10.0
 31
0.0
  0
LINE
  5
12A
330
125
100
AcDbEntity
  8
0
100
AcDbLine
 10
7.0
 20
-10.0
 30
0.0
 11
5.5
 21
-11.0
 31
0.0
  0
LINE
  5
12B
330
125
100
AcDbEntity
  8
0
100
AcDbLine
 10
0.0
 20
-50.0
 30
0.0
 11
7.0
 21
-50.0
 31
0.0
  0
LINE
  5
12C
330
125
100
AcDbEntity
  8
0
100
AcDbLine
 10
0.0
 20
-50.0
 30
0.0
 11
0.0
 21
-40.0
 31
0.0
  0
LINE
  5
12D
330
125
100
AcDbEntity
  8
0
100
AcDbLine
 10
0.0
 20
-40.0
 30
0.0
 11
1.5
 21
-39.0
 31
0.0
  0
LINE
  5
12E
330
125
100
AcDbEntity
  8
0
100
AcDbLine
 10
7.0
 20
-50.0
 30
0.0
 11
7.0
 21
-40.0
 31
0.0
  0
LINE
  5
12F
330
125
100
AcDbEntity
  8
0
100
AcDbLine
 10
7.0
 20
-40.0
 30
0.0
 11
5.5
 21
-39.0
 31
0.0
  0
LINE
  5
130
330
125
100
AcDbEntity
  8
0
100
AcDbLine
 10
1.5
 20
-11.0
 30
0.0
 11
1.5
 21
-39.0
 31
0.0
  0
LINE
  5
131
330
125
100
AcDbEntity
  8
0
100
AcDbLine
 10
5.5
 20
-11.0
 30
0.0
 11
5.5
 21
-39.0
 31
0.0
  0
ENDBLK
  5
133
330
125
100
AcDbEntity
  8
0
100
AcDbBlockEnd
  0
BLOCK
  5
139
330
134
100
AcDbEntity
  8
0
100
AcDbBlockBegin
  2
TB8
 70
     0
 10
0.0
 20
0.0
 30
0.0
  3
TB8
  1

  0
MTEXT
  5
135
330
134
100
AcDbEntity
  8
寸法線
  6
Continuous
100
AcDbMText
 10
917.3216494432054
 20
235.349302881973
 30
0.0
 40
20.0
 41
17.2146
 71
     7
 72
     1
  1

 73
     1
 44
1.0
1001
ACAD
1000
MTEXTBEGIN
1070
    73
1070
     1
1070
    44
1040
1.0
1070
    74
1070
     0
1000
MTEXTEND
  0
LINE
  5
136
330
134
100
AcDbEntity
  8
本体
  6
CENTER
 62
     1
 48
0.3
100
AcDbLine
 10
10.0
 20
0.0
 30
0.0
 11
-2.0
 21
0.0
 31
0.0
  0
LINE
  5
137
330
134
100
AcDbEntity
  8
本体
  6
CENTER
 62
     1
 48
0.3
100
AcDbLine
 10
4.0
 20
6.0
 30
0.0
 11
4.0
 21
-6.0
 31
0.0
  0
CIRCLE
  5
138
330
134
100
AcDbEntity
  8
本体
  6
Continuous
 62
     0
100
AcDbCircle
 10
4.0
 20
0.0
 30
0.0
 40
4.0
  0
ENDBLK
  5
13A
330
134
100
AcDbEntity
  8
0
100
AcDbBlockEnd
  0
BLOCK
  5
1A2
330
193
100
AcDbEntity
  8
0
100
AcDbBlockBegin
  2
平ゴムパッキン
 70
     0
 10
0.0
 20
0.0
 30
0.0
  3
平ゴムパッキン
  1

  0
LINE
  5
15B7
330
193
100
AcDbEntity
  8
ゴム
100
AcDbLine
 10
3.000005000000001
 20
-0.0000109999999998
 30
0.0
 11
3.000005000000001
 21
-40.000011
 31
0.0
  0
LINE
  5
15B8
330
193
100
AcDbEntity
  8
ゴム
100
AcDbLine
 10
3.000005000000001
 20
-0.0000109999999998
 30
0.0
 11
8.000005000000001
 21
-0.0000109999999998
 31
0.0
  0
LINE
  5
15B9
330
193
100
AcDbEntity
  8
ゴム
100
AcDbLine
 10
3.000005000000001
 20
-40.000011
 30
0.0
 11
8.000005000000001
 21
-40.000011
 31
0.0
  0
LINE
  5
15BA
330
193
100
AcDbEntity
  8
ゴム
100
AcDbLine
 10
8.000005000000001
 20
-0.0000109999999998
 30
0.0
 11
8.000005000000001
 21
-10.000011
 31
0.0
  0
LINE
  5
15BB
330
193
100
AcDbEntity
  8
ゴム
100
AcDbLine
 10
8.000005000000001
 20
-30.000011
 30
0.0
 11
8.000005000000001
 21
-40.000011
 31
0.0
  0
LINE
  5
15BC
330
193
100
AcDbEntity
  8
ゴム
100
AcDbLine
 10
8.000005000000001
 20
-10.000011
 30
0.0
 11
8.000005000000001
 21
-30.000011
 31
0.0
  0
LINE
  5
15BD
330
193
100
AcDbEntity
  8
ゴム
100
AcDbLine
 10
5.874546000000002
 20
-40.000011
 30
0.0
 11
8.000005000000001
 21
-36.318608
 31
0.0
  0
LINE
  5
15BE
330
193
100
AcDbEntity
  8
ゴム
100
AcDbLine
 10
3.000005000000001
 20
-38.978862
 30
0.0
 11
8.000005000000001
 21
-30.318608
 31
0.0
  0
LINE
  5
15BF
330
193
100
AcDbEntity
  8
ゴム
100
AcDbLine
 10
3.000005000000001
 20
-32.978862
 30
0.0
 11
8.000005000000001
 21
-24.31860866666666
 31
0.0
  0
LINE
  5
15C0
330
193
100
AcDbEntity
  8
ゴム
100
AcDbLine
 10
3.000005000000001
 20
-26.978862
 30
0.0
 11
8.000005000000001
 21
-18.31860866666667
 31
0.0
  0
LINE
  5
15C1
330
193
100
AcDbEntity
  8
ゴム
100
AcDbLine
 10
3.000005000000001
 20
-20.978862
 30
0.0
 11
8.000005000000001
 21
-12.31860866666666
 31
0.0
  0
LINE
  5
15C2
330
193
100
AcDbEntity
  8
ゴム
100
AcDbLine
 10
3.000005000000001
 20
-14.978862
 30
0.0
 11
8.000005000000001
 21
-6.318608000000001
 31
0.0
  0
LINE
  5
15C3
330
193
100
AcDbEntity
  8
ゴム
100
AcDbLine
 10
3.000005000000001
 20
-8.978861999999999
 30
0.0
 11
8.000005000000001
 21
-0.3186080000000002
 31
0.0
  0
LINE
  5
15C4
330
193
100
AcDbEntity
  8
ゴム
100
AcDbLine
 10
3.000005000000001
 20
-2.978861999999999
 30
0.0
 11
4.719844999999999
 21
-0.0000109999999998
 31
0.0
  0
ENDBLK
  5
1A3
330
193
100
AcDbEntity
  8
0
100
AcDbBlockEnd
  0
BLOCK
  5
DF2
330
DE8
100
AcDbEntity
  8
0
 48
3.0
100
AcDbBlockBegin
  2
*D6
 70
     1
 10
0.0
 20
0.0
 30
0.0
  3
*D6
  1

  0
LINE
  5
1740
330
DE8
100
AcDbEntity
  8
寸法線
  6
Continuous
 62
     0
370
    -2
100
AcDbLine
 10
1986.915452142542
 20
1267.634464030358
 30
0.0
 11
2061.915457071114
 21
1267.634464030358
 31
0.0
  0
LINE
  5
1741
330
DE8
100
AcDbEntity
  8
寸法線
  6
Continuous
 62
     0
370
    -2
100
AcDbLine
 10
1986.915452142542
 20
1637.634466030358
 30
0.0
 11
2061.915457071114
 21
1637.634466030358
 31
0.0
  0
LINE
  5
1742
330
DE8
100
AcDbEntity
  8
寸法線
  6
Continuous
 62
     0
370
    -2
100
AcDbLine
 10
2046.915457071114
 20
1282.634464030358
 30
0.0
 11
2046.915457071114
 21
1622.634466030358
 31
0.0
  0
INSERT
  5
1743
330
DE8
100
AcDbEntity
  8
寸法線
  6
Continuous
 62
     0
370
    -2
100
AcDbBlockReference
  2
_Open30
 10
2046.915457071114
 20
1267.634464030358
 30
0.0
 41
15.0
 42
15.0
 43
15.0
 50
270.0
  0
INSERT
  5
1744
330
DE8
100
AcDbEntity
  8
寸法線
  6
Continuous
 62
     0
370
    -2
100
AcDbBlockReference
  2
_Open30
 10
2046.915457071114
 20
1637.634466030358
 30
0.0
 41
15.0
 42
15.0
 43
15.0
 50
90.0
  0
MTEXT
  5
1745
330
DE8
100
AcDbEntity
  8
寸法線
  6
Continuous
 62
     0
100
AcDbMText
 10
2026.915457071114
 20
1452.634465030359
 30
0.0
 40
30.0
 41
0.0
 71
     5
 72
     1
  1
370
 11
0.0000000000000001
 21
1.0
 31
0.0
 73
     1
 44
1.0
1001
ACAD
1000
MTEXTBEGIN
1070
    73
1070
     1
1070
    44
1040
1.0
1070
    74
1070
     0
1000
MTEXTEND
  0
POINT
  5
1746
330
DE8
100
AcDbEntity
  8
Defpoints
  6
Continuous
 62
     0
100
AcDbPoint
 10
1966.915452142542
 20
1267.634464030358
 30
0.0
  0
POINT
  5
1747
330
DE8
100
AcDbEntity
  8
Defpoints
  6
Continuous
 62
     0
100
AcDbPoint
 10
1966.915452142542
 20
1637.634466030358
 30
0.0
  0
POINT
  5
1748
330
DE8
100
AcDbEntity
  8
Defpoints
  6
Continuous
 62
     0
100
AcDbPoint
 10
2046.915457071114
 20
1637.634466030358
 30
0.0
  0
ENDBLK
  5
DF3
330
DE8
100
AcDbEntity
  8
0
 48
3.0
100
AcDbBlockEnd
  0
BLOCK
  5
DFE
330
DF4
100
AcDbEntity
  8
0
 48
3.0
100
AcDbBlockBegin
  2
*D7
 70
     1
 10
0.0
 20
0.0
 30
0.0
  3
*D7
  1

  0
LINE
  5
172E
330
DF4
100
AcDbEntity
  8
寸法線
  6
Continuous
 62
     0
370
    -2
100
AcDbLine
 10
1846.915455142542
 20
1647.634465030358
 30
0.0
 11
1691.915455142543
 21
1647.634465030358
 31
0.0
  0
LINE
  5
172F
330
DF4
100
AcDbEntity
  8
寸法線
  6
Continuous
 62
     0
370
    -2
100
AcDbLine
 10
1846.915455142542
 20
1257.634465030358
 30
0.0
 11
1691.915455142543
 21
1257.634465030358
 31
0.0
  0
LINE
  5
1730
330
DF4
100
AcDbEntity
  8
寸法線
  6
Continuous
 62
     0
370
    -2
100
AcDbLine
 10
1706.915455142543
 20
1632.634465030358
 30
0.0
 11
1706.915455142542
 21
1272.634465030358
 31
0.0
  0
INSERT
  5
1731
330
DF4
100
AcDbEntity
  8
寸法線
  6
Continuous
 62
     0
370
    -2
100
AcDbBlockReference
  2
_Open30
 10
1706.915455142543
 20
1647.634465030358
 30
0.0
 41
15.0
 42
15.0
 43
15.0
 50
90.0
  0
INSERT
  5
1732
330
DF4
100
AcDbEntity
  8
寸法線
  6
Continuous
 62
     0
370
    -2
100
AcDbBlockReference
  2
_Open30
 10
1706.915455142542
 20
1257.634465030358
 30
0.0
 41
15.0
 42
15.0
 43
15.0
 50
270.0
  0
MTEXT
  5
1733
330
DF4
100
AcDbEntity
  8
寸法線
  6
Continuous
 62
     0
100
AcDbMText
 10
1686.915455142542
 20
1452.634465030359
 30
0.0
 40
30.0
 41
0.0
 71
     5
 72
     1
  1
390
 11
0.0000000000000001
 21
1.0
 31
0.0
 73
     1
 44
1.0
1001
ACAD
1000
MTEXTBEGIN
1070
    73
1070
     1
1070
    44
1040
1.0
1070
    74
1070
     0
1000
MTEXTEND
  0
POINT
  5
1734
330
DF4
100
AcDbEntity
  8
Defpoints
  6
Continuous
 62
     0
100
AcDbPoint
 10
1866.915455142543
 20
1647.634465030358
 30
0.0
  0
POINT
  5
1735
330
DF4
100
AcDbEntity
  8
Defpoints
  6
Continuous
 62
     0
100
AcDbPoint
 10
1866.915455142543
 20
1257.634465030358
 30
0.0
  0
POINT
  5
1736
330
DF4
100
AcDbEntity
  8
Defpoints
  6
Continuous
 62
     0
100
AcDbPoint
 10
1706.915455142542
 20
1257.634465030358
 30
0.0
  0
ENDBLK
  5
DFF
330
DF4
100
AcDbEntity
  8
0
 48
3.0
100
AcDbBlockEnd
  0
BLOCK
  5
E16
330
E0C
100
AcDbEntity
  8
0
 48
3.0
100
AcDbBlockBegin
  2
*D8
 70
     1
 10
0.0
 20
0.0
 30
0.0
  3
*D8
  1

  0
LINE
  5
18AB
330
E0C
100
AcDbEntity
  8
寸法線
  6
Continuous
 62
     0
370
    -2
100
AcDbLine
 10
1141.402899314941
 20
618.5503863072106
 30
0.0
 11
1249.902899314941
 21
618.5503863072106
 31
0.0
  0
LINE
  5
18AC
330
E0C
100
AcDbEntity
  8
寸法線
  6
Continuous
 62
     0
370
    -2
100
AcDbLine
 10
1141.402899314941
 20
663.5503863072107
 30
0.0
 11
1249.902899314941
 21
663.5503863072107
 31
0.0
  0
LINE
  5
18AD
330
E0C
100
AcDbEntity
  8
寸法線
  6
Continuous
 62
     0
370
    -2
100
AcDbLine
 10
1234.902899314941
 20
633.5503863072107
 30
0.0
 11
1234.902899314941
 21
648.5503863072107
 31
0.0
  0
INSERT
  5
18AE
330
E0C
100
AcDbEntity
  8
寸法線
  6
Continuous
 62
     0
370
    -2
100
AcDbBlockReference
  2
_Open30
 10
1234.902899314941
 20
618.5503863072106
 30
0.0
 41
15.0
 42
15.0
 43
15.0
 50
270.0
  0
INSERT
  5
18AF
330
E0C
100
AcDbEntity
  8
寸法線
  6
Continuous
 62
     0
370
    -2
100
AcDbBlockReference
  2
_Open30
 10
1234.902899314941
 20
663.5503863072107
 30
0.0
 41
15.0
 42
15.0
 43
15.0
 50
90.0
  0
MTEXT
  5
18B0
330
E0C
100
AcDbEntity
  8
寸法線
  6
Continuous
 62
     0
100
AcDbMText
 10
1214.902899314941
 20
641.0503863072108
 30
0.0
 40
30.0
 41
0.0
 71
     5
 72
     1
  1
45
 11
0.0000000000000001
 21
1.0
 31
0.0
 73
     1
 44
1.0
1001
ACAD
1000
MTEXTBEGIN
1070
    73
1070
     1
1070
    44
1040
1.0
1070
    74
1070
     0
1000
MTEXTEND
  0
POINT
  5
18B1
330
E0C
100
AcDbEntity
  8
Defpoints
  6
Continuous
 62
     0
100
AcDbPoint
 10
1121.402899314941
 20
618.5503863072106
 30
0.0
  0
POINT
  5
18B2
330
E0C
100
AcDbEntity
  8
Defpoints
  6
Continuous
 62
     0
100
AcDbPoint
 10
1121.402899314941
 20
663.5503863072107
 30
0.0
  0
POINT
  5
18B3
330
E0C
100
AcDbEntity
  8
Defpoints
  6
Continuous
 62
     0
100
AcDbPoint
 10
1234.902899314941
 20
663.5503863072107
 30
0.0
  0
ENDBLK
  5
E17
330
E0C
100
AcDbEntity
  8
0
 48
3.0
100
AcDbBlockEnd
  0
BLOCK
  5
E22
330
E18
100
AcDbEntity
  8
0
 48
3.0
100
AcDbBlockBegin
  2
*D9
 70
     1
 10
0.0
 20
0.0
 30
0.0
  3
*D9
  1

  0
LINE
  5
18A2
330
E18
100
AcDbEntity
  8
寸法線
  6
Continuous
 62
     0
370
    -2
100
AcDbLine
 10
1141.402899314941
 20
663.5503863072107
 30
0.0
 11
1249.902899314941
 21
663.5503863072107
 31
0.0
  0
LINE
  5
18A3
330
E18
100
AcDbEntity
  8
寸法線
  6
Continuous
 62
     0
370
    -2
100
AcDbLine
 10
1144.902899314941
 20
713.5503863072107
 30
0.0
 11
1249.902899314941
 21
713.5503863072107
 31
0.0
  0
LINE
  5
18A4
330
E18
100
AcDbEntity
  8
寸法線
  6
Continuous
 62
     0
370
    -2
100
AcDbLine
 10
1234.902899314941
 20
678.5503863072107
 30
0.0
 11
1234.902899314941
 21
698.5503863072107
 31
0.0
  0
INSERT
  5
18A5
330
E18
100
AcDbEntity
  8
寸法線
  6
Continuous
 62
     0
370
    -2
100
AcDbBlockReference
  2
_Open30
 10
1234.902899314941
 20
663.5503863072107
 30
0.0
 41
15.0
 42
15.0
 43
15.0
 50
270.0
  0
INSERT
  5
18A6
330
E18
100
AcDbEntity
  8
寸法線
  6
Continuous
 62
     0
370
    -2
100
AcDbBlockReference
  2
_Open30
 10
1234.902899314941
 20
713.5503863072107
 30
0.0
 41
15.0
 42
15.0
 43
15.0
 50
90.0
  0
MTEXT
  5
18A7
330
E18
100
AcDbEntity
  8
寸法線
  6
Continuous
 62
     0
100
AcDbMText
 10
1214.902899314941
 20
688.5503863072108
 30
0.0
 40
30.0
 41
0.0
 71
     5
 72
     1
  1
50
 11
0.0000000000000001
 21
1.0
 31
0.0
 73
     1
 44
1.0
1001
ACAD
1000
MTEXTBEGIN
1070
    73
1070
     1
1070
    44
1040
1.0
1070
    74
1070
     0
1000
MTEXTEND
  0
POINT
  5
18A8
330
E18
100
AcDbEntity
  8
Defpoints
  6
Continuous
 62
     0
100
AcDbPoint
 10
1121.402899314941
 20
663.5503863072107
 30
0.0
  0
POINT
  5
18A9
330
E18
100
AcDbEntity
  8
Defpoints
  6
Continuous
 62
     0
100
AcDbPoint
 10
1124.902899314941
 20
713.5503863072107
 30
0.0
  0
POINT
  5
18AA
330
E18
100
AcDbEntity
  8
Defpoints
  6
Continuous
 62
     0
100
AcDbPoint
 10
1234.902899314941
 20
713.5503863072107
 30
0.0
  0
ENDBLK
  5
E23
330
E18
100
AcDbEntity
  8
0
 48
3.0
100
AcDbBlockEnd
  0
BLOCK
  5
E2E
330
E24
100
AcDbEntity
  8
0
 48
3.0
100
AcDbBlockBegin
  2
*D10
 70
     1
 10
0.0
 20
0.0
 30
0.0
  3
*D10
  1

  0
LINE
  5
188E
330
E24
100
AcDbEntity
  8
寸法線
  6
Continuous
 62
     0
370
    -2
100
AcDbLine
 10
1164.902899314941
 20
713.5503863072107
 30
0.0
 11
1329.902899314941
 21
713.5503863072106
 31
0.0
  0
LINE
  5
188F
330
E24
100
AcDbEntity
  8
寸法線
  6
Continuous
 62
     0
370
    -2
100
AcDbLine
 10
1164.902899314941
 20
613.5503863072108
 30
0.0
 11
1329.902899314941
 21
613.5503863072107
 31
0.0
  0
LINE
  5
1890
330
E24
100
AcDbEntity
  8
寸法線
  6
Continuous
 62
     0
370
    -2
100
AcDbLine
 10
1314.902899314941
 20
698.5503863072105
 30
0.0
 11
1314.902899314941
 21
628.5503863072107
 31
0.0
  0
INSERT
  5
1891
330
E24
100
AcDbEntity
  8
寸法線
  6
Continuous
 62
     0
370
    -2
100
AcDbBlockReference
  2
_Open30
 10
1314.902899314941
 20
713.5503863072106
 30
0.0
 41
15.0
 42
15.0
 43
15.0
 50
90.0
  0
INSERT
  5
1892
330
E24
100
AcDbEntity
  8
寸法線
  6
Continuous
 62
     0
370
    -2
100
AcDbBlockReference
  2
_Open30
 10
1314.902899314941
 20
613.5503863072107
 30
0.0
 41
15.0
 42
15.0
 43
15.0
 50
270.0
  0
MTEXT
  5
1893
330
E24
100
AcDbEntity
  8
寸法線
  6
Continuous
 62
     0
100
AcDbMText
 10
1294.90289931494
 20
663.5503863072109
 30
0.0
 40
30.0
 41
0.0
 71
     5
 72
     1
  1
100
 11
0.0000000000000001
 21
1.0
 31
0.0
 73
     1
 44
1.0
1001
ACAD
1000
MTEXTBEGIN
1070
    73
1070
     1
1070
    44
1040
1.0
1070
    74
1070
     0
1000
MTEXTEND
  0
POINT
  5
1894
330
E24
100
AcDbEntity
  8
Defpoints
  6
Continuous
 62
     0
100
AcDbPoint
 10
1144.902899314941
 20
713.5503863072107
 30
0.0
  0
POINT
  5
1895
330
E24
100
AcDbEntity
  8
Defpoints
  6
Continuous
 62
     0
100
AcDbPoint
 10
1144.902899314941
 20
613.5503863072108
 30
0.0
  0
POINT
  5
1896
330
E24
100
AcDbEntity
  8
Defpoints
  6
Continuous
 62
     0
100
AcDbPoint
 10
1314.902899314941
 20
613.5503863072107
 30
0.0
  0
ENDBLK
  5
E2F
330
E24
100
AcDbEntity
  8
0
 48
3.0
100
AcDbBlockEnd
  0
BLOCK
  5
E3C
330
E30
100
AcDbEntity
  8
0
 48
3.0
100
AcDbBlockBegin
  2
*D11
 70
     1
 10
0.0
 20
0.0
 30
0.0
  3
*D11
  1

  0
LINE
  5
1967
330
E30
100
AcDbEntity
  8
寸法線
  6
Continuous
 62
     0
370
    -2
100
AcDbLine
 10
909.7028993149406
 20
733.5503863072107
 30
0.0
 11
909.7028993149406
 21
808.5503863072108
 31
0.0
  0
LINE
  5
1968
330
E30
100
AcDbEntity
  8
寸法線
  6
Continuous
 62
     0
370
    -2
100
AcDbLine
 10
945.0028993149407
 20
733.5503863072107
 30
0.0
 11
945.0028993149407
 21
808.5503863072108
 31
0.0
  0
LINE
  5
1969
330
E30
100
AcDbEntity
  8
寸法線
  6
Continuous
 62
     0
370
    -2
100
AcDbLine
 10
894.7028993149405
 20
793.5503863072108
 30
0.0
 11
879.7028993149407
 21
793.5503863072108
 31
0.0
  0
LINE
  5
196A
330
E30
100
AcDbEntity
  8
寸法線
  6
Continuous
 62
     0
370
    -2
100
AcDbLine
 10
960.0028993149408
 20
793.5503863072108
 30
0.0
 11
1059.013051599205
 21
793.5503863072108
 31
0.0
  0
LINE
  5
196B
330
E30
100
AcDbEntity
  8
寸法線
  6
Continuous
 62
     0
370
    -2
100
AcDbLine
 10
909.7028993149406
 20
793.5503863072108
 30
0.0
 11
945.0028993149407
 21
793.5503863072108
 31
0.0
  0
INSERT
  5
196C
330
E30
100
AcDbEntity
  8
寸法線
  6
Continuous
 62
     0
370
    -2
100
AcDbBlockReference
  2
_Open30
 10
909.7028993149406
 20
793.5503863072108
 30
0.0
 41
15.0
 42
15.0
 43
15.0
  0
INSERT
  5
196D
330
E30
100
AcDbEntity
  8
寸法線
  6
Continuous
 62
     0
370
    -2
100
AcDbBlockReference
  2
_Open30
 10
945.0028993149407
 20
793.5503863072108
 30
0.0
 41
15.0
 42
15.0
 43
15.0
 50
180.0
  0
MTEXT
  5
196E
330
E30
100
AcDbEntity
  8
寸法線
  6
Continuous
 62
     0
100
AcDbMText
 10
1017.007975457073
 20
813.5503863072107
 30
0.0
 40
30.0
 41
0.0
 71
     5
 72
     1
  1
35.3
 73
     1
 44
1.0
1001
ACAD
1000
MTEXTBEGIN
1070
    73
1070
     1
1070
    44
1040
1.0
1070
    74
1070
     0
1000
MTEXTEND
  0
POINT
  5
196F
330
E30
100
AcDbEntity
  8
Defpoints
  6
Continuous
 62
     0
100
AcDbPoint
 10
909.7028993149406
 20
713.5503863072107
 30
0.0
  0
POINT
  5
1970
330
E30
100
AcDbEntity
  8
Defpoints
  6
Continuous
 62
     0
100
AcDbPoint
 10
945.0028993149407
 20
713.5503863072107
 30
0.0
  0
POINT
  5
1971
330
E30
100
AcDbEntity
  8
Defpoints
  6
Continuous
 62
     0
100
AcDbPoint
 10
945.0028993149407
 20
793.5503863072108
 30
0.0
  0
ENDBLK
  5
E3D
330
E30
100
AcDbEntity
  8
0
 48
3.0
100
AcDbBlockEnd
  0
BLOCK
  5
E4A
330
E3E
100
AcDbEntity
  8
0
 48
3.0
100
AcDbBlockBegin
  2
*D12
 70
     1
 10
0.0
 20
0.0
 30
0.0
  3
*D12
  1

  0
LINE
  5
18B4
330
E3E
100
AcDbEntity
  8
寸法線
  6
Continuous
 62
     0
370
    -2
100
AcDbLine
 10
1141.402899314941
 20
618.5503863072106
 30
0.0
 11
1249.902899314941
 21
618.5503863072106
 31
0.0
  0
LINE
  5
18B5
330
E3E
100
AcDbEntity
  8
寸法線
  6
Continuous
 62
     0
370
    -2
100
AcDbLine
 10
1140.402899314941
 20
613.5503863072108
 30
0.0
 11
1249.902899314941
 21
613.5503863072108
 31
0.0
  0
LINE
  5
18B6
330
E3E
100
AcDbEntity
  8
寸法線
  6
Continuous
 62
     0
370
    -2
100
AcDbLine
 10
1234.902899314941
 20
633.5503863072107
 30
0.0
 11
1234.902899314941
 21
648.5503863072107
 31
0.0
  0
LINE
  5
18B7
330
E3E
100
AcDbEntity
  8
寸法線
  6
Continuous
 62
     0
370
    -2
100
AcDbLine
 10
1234.902899314941
 20
598.5503863072108
 30
0.0
 11
1234.902899314941
 21
558.017391383353
 31
0.0
  0
LINE
  5
18B8
330
E3E
100
AcDbEntity
  8
寸法線
  6
Continuous
 62
     0
370
    -2
100
AcDbLine
 10
1234.902899314941
 20
618.5503863072106
 30
0.0
 11
1234.902899314941
 21
613.5503863072108
 31
0.0
  0
INSERT
  5
18B9
330
E3E
100
AcDbEntity
  8
寸法線
  6
Continuous
 62
     0
370
    -2
100
AcDbBlockReference
  2
_Open30
 10
1234.902899314941
 20
618.5503863072106
 30
0.0
 41
15.0
 42
15.0
 43
15.0
 50
270.0
  0
INSERT
  5
18BA
330
E3E
100
AcDbEntity
  8
寸法線
  6
Continuous
 62
     0
370
    -2
100
AcDbBlockReference
  2
_Open30
 10
1234.902899314941
 20
613.5503863072108
 30
0.0
 41
15.0
 42
15.0
 43
15.0
 50
90.0
  0
MTEXT
  5
18BB
330
E3E
100
AcDbEntity
  8
寸法線
  6
Continuous
 62
     0
100
AcDbMText
 10
1214.902899314941
 20
570.783888845282
 30
0.0
 40
30.0
 41
0.0
 71
     5
 72
     1
  1
5
 11
0.0000000000000001
 21
1.0
 31
0.0
 73
     1
 44
1.0
1001
ACAD
1000
MTEXTBEGIN
1070
    73
1070
     1
1070
    44
1040
1.0
1070
    74
1070
     0
1000
MTEXTEND
  0
POINT
  5
18BC
330
E3E
100
AcDbEntity
  8
Defpoints
  6
Continuous
 62
     0
100
AcDbPoint
 10
1121.402899314941
 20
618.5503863072106
 30
0.0
  0
POINT
  5
18BD
330
E3E
100
AcDbEntity
  8
Defpoints
  6
Continuous
 62
     0
100
AcDbPoint
 10
1120.402899314941
 20
613.5503863072108
 30
0.0
  0
POINT
  5
18BE
330
E3E
100
AcDbEntity
  8
Defpoints
  6
Continuous
 62
     0
100
AcDbPoint
 10
1234.902899314941
 20
613.5503863072108
 30
0.0
  0
ENDBLK
  5
E4B
330
E3E
100
AcDbEntity
  8
0
 48
3.0
100
AcDbBlockEnd
  0
BLOCK
  5
F72
330
F68
100
AcDbEntity
  8
0
 48
3.0
100
AcDbBlockBegin
  2
*D13
 70
     1
 10
0.0
 20
0.0
 30
0.0
  3
*D13
  1

  0
LINE
  5
1725
330
F68
100
AcDbEntity
  8
寸法線
 62
     0
 48
3.0
370
    -2
100
AcDbLine
 10
1844.915455142542
 20
1602.634465030358
 30
0.0
 11
1771.915455142542
 21
1602.634465030358
 31
0.0
  0
LINE
  5
1726
330
F68
100
AcDbEntity
  8
寸法線
 62
     0
 48
3.0
370
    -2
100
AcDbLine
 10
1844.915455142542
 20
1552.634465030358
 30
0.0
 11
1771.915455142542
 21
1552.634465030358
 31
0.0
  0
LINE
  5
1727
330
F68
100
AcDbEntity
  8
寸法線
 62
     0
 48
3.0
370
    -2
100
AcDbLine
 10
1786.915455142542
 20
1587.634465030358
 30
0.0
 11
1786.915455142542
 21
1567.634465030358
 31
0.0
  0
INSERT
  5
1728
330
F68
100
AcDbEntity
  8
寸法線
 62
     0
 48
3.0
370
    -2
100
AcDbBlockReference
  2
_Open30
 10
1786.915455142542
 20
1602.634465030358
 30
0.0
 41
15.0
 42
15.0
 43
15.0
 50
90.0
  0
INSERT
  5
1729
330
F68
100
AcDbEntity
  8
寸法線
 62
     0
 48
3.0
370
    -2
100
AcDbBlockReference
  2
_Open30
 10
1786.915455142542
 20
1552.634465030358
 30
0.0
 41
15.0
 42
15.0
 43
15.0
 50
270.0
  0
MTEXT
  5
172A
330
F68
100
AcDbEntity
  8
寸法線
 62
     0
 48
3.0
100
AcDbMText
 10
1766.915455142542
 20
1577.634465030359
 30
0.0
 40
30.0
 41
0.0
 71
     5
 72
     1
  1
50
 11
0.0000000000000001
 21
1.0
 31
0.0
 73
     1
 44
1.0
1001
ACAD
1000
MTEXTBEGIN
1070
    73
1070
     1
1070
    44
1040
1.0
1070
    74
1070
     0
1000
MTEXTEND
  0
POINT
  5
172B
330
F68
100
AcDbEntity
  8
Defpoints
 62
     0
 48
3.0
100
AcDbPoint
 10
1864.915455142542
 20
1602.634465030358
 30
0.0
  0
POINT
  5
172C
330
F68
100
AcDbEntity
  8
Defpoints
 62
     0
 48
3.0
100
AcDbPoint
 10
1864.915455142542
 20
1552.634465030358
 30
0.0
  0
POINT
  5
172D
330
F68
100
AcDbEntity
  8
Defpoints
 62
     0
 48
3.0
100
AcDbPoint
 10
1786.915455142542
 20
1552.634465030358
 30
0.0
  0
ENDBLK
  5
F73
330
F68
100
AcDbEntity
  8
0
 48
3.0
100
AcDbBlockEnd
  0
BLOCK
  5
15A8
330
15A4
100
AcDbEntity
  8
0
 48
3.0
100
AcDbBlockBegin
  2
清水
 70
     0
 10
0.0
 20
0.0
 30
0.0
  3
清水
  1

  0
ELLIPSE
  5
15A5
330
15A4
100
AcDbEntity
  8
外枠
  6
Continuous
100
AcDbEllipse
 10
61.95950207238002
 20
-84.98104152054944
 30
0.0
 11
0.0
 21
-48.07578326062735
 31
0.0
210
0.0
220
0.0
230
1.0
 40
0.7999999999999857
 41
0.0
 42
6.283185307179586
  0
MTEXT
  5
15A6
330
15A4
100
AcDbEntity
  8
外枠
  6
Continuous
100
AcDbMText
 10
43.62136371980841
 20
-91.25020745848743
 30
0.0
 40
25.0
 41
38.0342
 71
     1
 72
     5
  1
{\fHG正楷書体-PRO|b0|i0|c128|p65;水}
 73
     1
 44
1.0
1001
ACAD
1000
MTEXTBEGIN
1070
    73
1070
     1
1070
    44
1040
1.0
1070
    74
1070
     0
1000
MTEXTEND
  0
MTEXT
  5
15A7
330
15A4
100
AcDbEntity
  8
外枠
  6
Continuous
100
AcDbMText
 10
44.0164673811646
 20
-47.73028505679667
 30
0.0
 40
25.0
 41
37.8613
 71
     1
 72
     5
  1
{\fHG正楷書体-PRO|b0|i0|c128|p65;清}
 73
     1
 44
1.0
1001
ACAD
1000
MTEXTBEGIN
1070
    73
1070
     1
1070
    44
1040
1.0
1070
    74
1070
     0
1000
MTEXTEND
  0
ENDBLK
  5
15A9
330
15A4
100
AcDbEntity
  8
0
 48
3.0
100
AcDbBlockEnd
  0
BLOCK
  5
1692
330
1690
100
AcDbEntity
  8
0
 48
3.0
100
AcDbBlockBegin
  2
鎌下
 70
     0
 10
0.0
 20
0.0
 30
0.0
  3
鎌下
  1

  0
MTEXT
  5
1693
330
1690
100
AcDbEntity
  8
外枠
  6
Continuous
100
AcDbMText
 10
40.55333581259037
 20
-88.14888116777728
 30
0.0
 40
28.17460800000001
 41
43.8527
 71
     1
 72
     5
  1
{\fHGSeikaishotaiPRO|b0|i0|c128|p65;下}
 73
     1
 44
1.0
1001
ACAD
1000
MTEXTBEGIN
1070
    73
1070
     1
1070
    44
1040
1.0
1070
    74
1070
     0
1000
MTEXTEND
  0
MTEXT
  5
1694
330
1690
100
AcDbEntity
  8
外枠
  6
Continuous
100
AcDbMText
 10
40.55333581259037
 20
-45.61885629864991
 30
0.0
 40
28.17460800000001
 41
43.8527
 71
     1
 72
     5
  1
{\fHGSeikaishotaiPRO|b0|i0|c128|p65;鎌}
 73
     1
 44
1.0
1001
ACAD
1000
MTEXTBEGIN
1070
    73
1070
     1
1070
    44
1040
1.0
1070
    74
1070
     0
1000
MTEXTEND
  0
ELLIPSE
  5
1695
330
1690
100
AcDbEntity
  8
外枠
  6
Continuous
100
AcDbEllipse
 10
61.68068686355036
 20
-84.59863033186412
 30
0.0
 11
0.0
 21
-47.8594442149426
 31
0.0
210
0.0
220
0.0
230
1.0
 40
0.7999999999999857
 41
0.0
 42
6.283185307179586
  0
ENDBLK
  5
1696
330
1690
100
AcDbEntity
  8
0
 48
3.0
100
AcDbBlockEnd
  0
BLOCK
  5
1708
330
1707
100
AcDbEntity
  8
0
100
AcDbBlockBegin
  2
P-H45
 70
     0
 10
0.0
 20
0.0
 30
0.0
  3
P-H45
  1

  0
LINE
  5
1709
330
1707
100
AcDbEntity
  8
嵩上断面
100
AcDbLine
 10
2.999997
 20
0.000001
 30
0.0
 11
41.999997
 21
0.000001
 31
0.0
  0
LINE
  5
170A
330
1707
100
AcDbEntity
  8
嵩上断面
100
AcDbLine
 10
-0.000003
 20
-2.999999
 30
0.0
 11
-0.000003
 21
-36.999999
 31
0.0
  0
LINE
  5
170B
330
1707
100
AcDbEntity
  8
嵩上断面
100
AcDbLine
 10
2.999997
 20
-39.999999
 30
0.0
 11
41.999997
 21
-39.999999
 31
0.0
  0
ARC
  5
170C
330
1707
100
AcDbEntity
  8
嵩上断面
100
AcDbCircle
 10
2.999997
 20
-36.999999
 30
0.0
 40
3.0
100
AcDbArc
 50
180.0
 51
270.0
  0
ARC
  5
170D
330
1707
100
AcDbEntity
  8
嵩上断面
100
AcDbCircle
 10
2.999997
 20
-2.999999
 30
0.0
 40
3.0
100
AcDbArc
 50
90.0
 51
180.0
  0
LINE
  5
170E
330
1707
100
AcDbEntity
  8
嵩上断面
100
AcDbLine
 10
44.999997
 20
-36.999999
 30
0.0
 11
44.999997
 21
-2.999999
 31
0.0
  0
ARC
  5
170F
330
1707
100
AcDbEntity
  8
嵩上断面
100
AcDbCircle
 10
41.999997
 20
-2.999999
 30
0.0
 40
3.0
100
AcDbArc
 50
0.0
 51
90.0
  0
ARC
  5
1710
330
1707
100
AcDbEntity
  8
嵩上断面
100
AcDbCircle
 10
41.999997
 20
-36.999999
 30
0.0
 40
3.0
100
AcDbArc
 50
270.0
 51
0.0
  0
LWPOLYLINE
  5
1711
330
1707
100
AcDbEntity
  8
嵩上断面
  6
Continuous
100
AcDbPolyline
 90
        4
 70
     1
 43
0.0
 10
2.299996999999999
 20
-37.69999900000001
 10
42.699997
 20
-37.69999900000001
 10
42.699997
 20
-2.299998999999999
 10
2.299996999999999
 20
-2.299998999999999
  0
ENDBLK
  5
1712
330
1707
100
AcDbEntity
  8
0
100
AcDbBlockEnd
  0
BLOCK
  5
174E
330
174D
100
AcDbEntity
  8
0
 48
3.0
100
AcDbBlockBegin
  2
*D17
 70
     1
 10
0.0
 20
0.0
 30
0.0
  3
*D17
  1

  0
LINE
  5
1972
330
174D
100
AcDbEntity
  8
寸法線
 62
     0
 48
3.0
370
    -2
100
AcDbLine
 10
517.9028993149404
 20
733.5503863072108
 30
0.0
 11
517.9028993149404
 21
888.5503863072107
 31
0.0
  0
LINE
  5
1973
330
174D
100
AcDbEntity
  8
寸法線
 62
     0
 48
3.0
370
    -2
100
AcDbLine
 10
1124.902899314941
 20
733.5503863072108
 30
0.0
 11
1124.902899314941
 21
888.5503863072107
 31
0.0
  0
LINE
  5
1974
330
174D
100
AcDbEntity
  8
寸法線
 62
     0
 48
3.0
370
    -2
100
AcDbLine
 10
532.9028993149404
 20
873.5503863072109
 30
0.0
 11
1109.902899314941
 21
873.5503863072109
 31
0.0
  0
INSERT
  5
1975
330
174D
100
AcDbEntity
  8
寸法線
 62
     0
 48
3.0
370
    -2
100
AcDbBlockReference
  2
_Open30
 10
517.9028993149404
 20
873.5503863072109
 30
0.0
 41
15.0
 42
15.0
 43
15.0
 50
180.0
  0
INSERT
  5
1976
330
174D
100
AcDbEntity
  8
寸法線
 62
     0
 48
3.0
370
    -2
100
AcDbBlockReference
  2
_Open30
 10
1124.902899314941
 20
873.5503863072109
 30
0.0
 41
15.0
 42
15.0
 43
15.0
  0
MTEXT
  5
1977
330
174D
100
AcDbEntity
  8
寸法線
 62
     0
 48
3.0
100
AcDbMText
 10
821.4028993149407
 20
893.5503863072108
 30
0.0
 40
30.0
 41
0.0
 71
     5
 72
     1
  1
607
 73
     1
 44
1.0
1001
ACAD
1000
MTEXTBEGIN
1070
    73
1070
     1
1070
    44
1040
1.0
1070
    74
1070
     0
1000
MTEXTEND
  0
POINT
  5
1978
330
174D
100
AcDbEntity
  8
Defpoints
 62
     0
 48
3.0
100
AcDbPoint
 10
517.9028993149404
 20
713.5503863072108
 30
0.0
  0
POINT
  5
1979
330
174D
100
AcDbEntity
  8
Defpoints
 62
     0
 48
3.0
100
AcDbPoint
 10
1124.902899314941
 20
713.5503863072108
 30
0.0
  0
POINT
  5
197A
330
174D
100
AcDbEntity
  8
Defpoints
 62
     0
 48
3.0
100
AcDbPoint
 10
1124.902899314941
 20
873.5503863072109
 30
0.0
  0
ENDBLK
  5
174F
330
174D
100
AcDbEntity
  8
0
 48
3.0
100
AcDbBlockEnd
  0
BLOCK
  5
1767
330
1766
100
AcDbEntity
  8
0
 48
3.0
100
AcDbBlockBegin
  2
*D18
 70
     1
 10
0.0
 20
0.0
 30
0.0
  3
*D18
  1

  0
LINE
  5
1877
330
1766
100
AcDbEntity
  8
寸法線
 62
     0
 48
3.0
370
    -2
100
AcDbLine
 10
521.4028993149404
 20
593.5503863072108
 30
0.0
 11
521.4028993149404
 21
524.4315113127349
 31
0.0
  0
LINE
  5
1878
330
1766
100
AcDbEntity
  8
寸法線
 62
     0
 48
3.0
370
    -2
100
AcDbLine
 10
1121.40289931494
 20
593.5503863072108
 30
0.0
 11
1121.40289931494
 21
524.4315113127349
 31
0.0
  0
LINE
  5
1879
330
1766
100
AcDbEntity
  8
寸法線
 62
     0
 48
3.0
370
    -2
100
AcDbLine
 10
536.4028993149404
 20
539.4315113127349
 30
0.0
 11
1106.40289931494
 21
539.4315113127349
 31
0.0
  0
INSERT
  5
187A
330
1766
100
AcDbEntity
  8
寸法線
 62
     0
 48
3.0
370
    -2
100
AcDbBlockReference
  2
_Open30
 10
521.4028993149404
 20
539.4315113127349
 30
0.0
 41
15.0
 42
15.0
 43
15.0
 50
180.0
  0
INSERT
  5
187B
330
1766
100
AcDbEntity
  8
寸法線
 62
     0
 48
3.0
370
    -2
100
AcDbBlockReference
  2
_Open30
 10
1121.40289931494
 20
539.4315113127349
 30
0.0
 41
15.0
 42
15.0
 43
15.0
  0
MTEXT
  5
187C
330
1766
100
AcDbEntity
  8
寸法線
 62
     0
 48
3.0
100
AcDbMText
 10
821.4028993149405
 20
559.431511312735
 30
0.0
 40
30.0
 41
0.0
 71
     5
 72
     1
  1
600
 73
     1
 44
1.0
1001
ACAD
1000
MTEXTBEGIN
1070
    73
1070
     1
1070
    44
1040
1.0
1070
    74
1070
     0
1000
MTEXTEND
  0
POINT
  5
187D
330
1766
100
AcDbEntity
  8
Defpoints
 62
     0
 48
3.0
100
AcDbPoint
 10
521.4028993149404
 20
613.5503863072108
 30
0.0
  0
POINT
  5
187E
330
1766
100
AcDbEntity
  8
Defpoints
 62
     0
 48
3.0
100
AcDbPoint
 10
1121.40289931494
 20
613.5503863072108
 30
0.0
  0
POINT
  5
187F
330
1766
100
AcDbEntity
  8
Defpoints
 62
     0
 48
3.0
100
AcDbPoint
 10
1121.40289931494
 20
539.4315113127349
 30
0.0
  0
ENDBLK
  5
1768
330
1766
100
AcDbEntity
  8
0
 48
3.0
100
AcDbBlockEnd
  0
BLOCK
  5
1989
330
1988
100
AcDbEntity
  8
0
 48
3.0
100
AcDbBlockBegin
  2
*U19
 70
     1
 10
0.0
 20
0.0
 30
0.0
  3
*U19
  1

  0
LINE
  5
198F
330
1988
100
AcDbEntity
  8
本体
  6
Continuous
100
AcDbLine
 10
14.15000000000009
 20
190.5
 30
0.0
 11
14.15000000000009
 21
153.0
 31
0.0
  0
LINE
  5
1990
330
1988
100
AcDbEntity
  8
本体
  6
Continuous
100
AcDbLine
 10
21.15000000000009
 20
147.0
 30
0.0
 11
21.15000000000009
 21
103.0
 31
0.0
  0
LINE
  5
1991
330
1988
100
AcDbEntity
  8
本体
  6
Continuous
100
AcDbLine
 10
14.15000000000009
 20
147.0
 30
0.0
 11
14.15000000000009
 21
103.0
 31
0.0
  0
LINE
  5
1992
330
1988
100
AcDbEntity
  8
本体
  6
Continuous
100
AcDbLine
 10
14.15000000000009
 20
-190.5
 30
0.0
 11
14.15000000000009
 21
-153.0
 31
0.0
  0
LINE
  5
1993
330
1988
100
AcDbEntity
  8
本体
  6
Continuous
100
AcDbLine
 10
21.15000000000009
 20
-190.5
 30
0.0
 11
21.15000000000009
 21
-153.0
 31
0.0
  0
LINE
  5
1994
330
1988
100
AcDbEntity
  8
本体
  6
Continuous
100
AcDbLine
 10
21.15000000000009
 20
190.5
 30
0.0
 11
21.15000000000009
 21
153.0
 31
0.0
  0
LINE
  5
1995
330
1988
100
AcDbEntity
  8
本体
  6
Continuous
100
AcDbLine
 10
-21.15000000000009
 20
147.0
 30
0.0
 11
14.15000000000009
 21
153.0
 31
0.0
  0
LINE
  5
1996
330
1988
100
AcDbEntity
  8
エンボス
  6
Continuous
100
AcDbLine
 10
21.15000000000009
 20
-171.864094
 30
0.0
 11
14.15000000000009
 21
-173.864094
 31
0.0
  0
LINE
  5
1997
330
1988
100
AcDbEntity
  8
エンボス
  6
Continuous
100
AcDbLine
 10
21.15000000000009
 20
-187.864094
 30
0.0
 11
14.15000000000009
 21
-185.864094
 31
0.0
  0
LINE
  5
1998
330
1988
100
AcDbEntity
  8
エンボス
  6
Continuous
100
AcDbLine
 10
14.15000000000009
 20
-176.864094
 30
0.0
 11
21.15000000000009
 21
-178.864094
 31
0.0
  0
LINE
  5
1999
330
1988
100
AcDbEntity
  8
エンボス
  6
Continuous
100
AcDbLine
 10
14.15000000000009
 20
-164.864094
 30
0.0
 11
21.15000000000009
 21
-162.864094
 31
0.0
  0
LINE
  5
199A
330
1988
100
AcDbEntity
  8
エンボス
  6
Continuous
100
AcDbLine
 10
21.15000000000009
 20
-159.864094
 30
0.0
 11
14.15000000000009
 21
-157.864094
 31
0.0
  0
LINE
  5
199B
330
1988
100
AcDbEntity
  8
エンボス
  6
Continuous
100
AcDbLine
 10
14.15000000000009
 20
125.5
 30
0.0
 11
21.15000000000009
 21
123.5
 31
0.0
  0
LINE
  5
199C
330
1988
100
AcDbEntity
  8
エンボス
  6
Continuous
100
AcDbLine
 10
14.15000000000009
 20
106.5
 30
0.0
 11
21.15000000000009
 21
104.5
 31
0.0
  0
LINE
  5
199D
330
1988
100
AcDbEntity
  8
エンボス
  6
Continuous
100
AcDbLine
 10
21.15000000000009
 20
111.5
 30
0.0
 11
14.15000000000009
 21
109.5
 31
0.0
  0
LINE
  5
199E
330
1988
100
AcDbEntity
  8
エンボス
  6
Continuous
100
AcDbLine
 10
21.15000000000009
 20
120.5
 30
0.0
 11
14.15000000000009
 21
118.5
 31
0.0
  0
LINE
  5
199F
330
1988
100
AcDbEntity
  8
エンボス
  6
Continuous
100
AcDbLine
 10
14.15000000000009
 20
134.5
 30
0.0
 11
21.15000000000009
 21
132.5
 31
0.0
  0
LINE
  5
19A0
330
1988
100
AcDbEntity
  8
エンボス
  6
Continuous
100
AcDbLine
 10
21.15000000000009
 20
139.5
 30
0.0
 11
14.15000000000009
 21
137.5
 31
0.0
  0
LINE
  5
19A1
330
1988
100
AcDbEntity
  8
エンボス
  6
Continuous
100
AcDbLine
 10
21.15000000000009
 20
159.864094
 30
0.0
 11
14.15000000000009
 21
157.864094
 31
0.0
  0
LINE
  5
19A2
330
1988
100
AcDbEntity
  8
エンボス
  6
Continuous
100
AcDbLine
 10
14.15000000000009
 20
164.864094
 30
0.0
 11
21.15000000000009
 21
162.864094
 31
0.0
  0
LINE
  5
19A3
330
1988
100
AcDbEntity
  8
エンボス
  6
Continuous
100
AcDbLine
 10
21.15000000000009
 20
171.864094
 30
0.0
 11
14.15000000000009
 21
173.864094
 31
0.0
  0
LINE
  5
19A4
330
1988
100
AcDbEntity
  8
エンボス
  6
Continuous
100
AcDbLine
 10
14.15000000000009
 20
176.864094
 30
0.0
 11
21.15000000000009
 21
178.864094
 31
0.0
  0
LINE
  5
19A5
330
1988
100
AcDbEntity
  8
エンボス
  6
Continuous
100
AcDbLine
 10
21.15000000000009
 20
187.864094
 30
0.0
 11
14.15000000000009
 21
185.864094
 31
0.0
  0
LINE
  5
19A6
330
1988
100
AcDbEntity
  8
本体
  6
Continuous
100
AcDbLine
 10
-21.15000000000009
 20
97.0
 30
0.0
 11
14.15000000000009
 21
103.0
 31
0.0
  0
LINE
  5
19A7
330
1988
100
AcDbEntity
  8
本体
  6
Continuous
100
AcDbLine
 10
21.15000000000009
 20
97.0
 30
0.0
 11
21.15000000000009
 21
53.0
 31
0.0
  0
LINE
  5
19A8
330
1988
100
AcDbEntity
  8
本体
  6
Continuous
100
AcDbLine
 10
14.15000000000009
 20
97.0
 30
0.0
 11
14.15000000000009
 21
53.0
 31
0.0
  0
LINE
  5
19A9
330
1988
100
AcDbEntity
  8
エンボス
  6
Continuous
100
AcDbLine
 10
21.15000000000009
 20
61.5
 30
0.0
 11
14.15000000000009
 21
59.5
 31
0.0
  0
LINE
  5
19AA
330
1988
100
AcDbEntity
  8
エンボス
  6
Continuous
100
AcDbLine
 10
14.15000000000009
 20
56.5
 30
0.0
 11
21.15000000000009
 21
54.5
 31
0.0
  0
LINE
  5
19AB
330
1988
100
AcDbEntity
  8
エンボス
  6
Continuous
100
AcDbLine
 10
21.15000000000009
 20
89.50000000000001
 30
0.0
 11
14.15000000000009
 21
87.5
 31
0.0
  0
LINE
  5
19AC
330
1988
100
AcDbEntity
  8
エンボス
  6
Continuous
100
AcDbLine
 10
14.15000000000009
 20
84.50000000000001
 30
0.0
 11
21.15000000000009
 21
82.5
 31
0.0
  0
LINE
  5
19AD
330
1988
100
AcDbEntity
  8
エンボス
  6
Continuous
100
AcDbLine
 10
21.15000000000009
 20
70.5
 30
0.0
 11
14.15000000000009
 21
68.5
 31
0.0
  0
LINE
  5
19AE
330
1988
100
AcDbEntity
  8
エンボス
  6
Continuous
100
AcDbLine
 10
14.15000000000009
 20
75.5
 30
0.0
 11
21.15000000000009
 21
73.5
 31
0.0
  0
LINE
  5
19AF
330
1988
100
AcDbEntity
  8
本体
  6
Continuous
100
AcDbLine
 10
-21.15000000000009
 20
47.0
 30
0.0
 11
14.15000000000009
 21
53.0
 31
0.0
  0
LINE
  5
19B0
330
1988
100
AcDbEntity
  8
本体
  6
Continuous
100
AcDbLine
 10
21.15000000000009
 20
47.0
 30
0.0
 11
21.15000000000009
 21
3.0
 31
0.0
  0
LINE
  5
19B1
330
1988
100
AcDbEntity
  8
本体
  6
Continuous
100
AcDbLine
 10
14.15000000000009
 20
47.0
 30
0.0
 11
14.15000000000009
 21
3.0
 31
0.0
  0
LINE
  5
19B2
330
1988
100
AcDbEntity
  8
エンボス
  6
Continuous
100
AcDbLine
 10
21.15000000000009
 20
11.5
 30
0.0
 11
14.15000000000009
 21
9.5
 31
0.0
  0
LINE
  5
19B3
330
1988
100
AcDbEntity
  8
エンボス
  6
Continuous
100
AcDbLine
 10
14.15000000000009
 20
6.5
 30
0.0
 11
21.15000000000009
 21
4.5
 31
0.0
  0
LINE
  5
19B4
330
1988
100
AcDbEntity
  8
エンボス
  6
Continuous
100
AcDbLine
 10
21.15000000000009
 20
39.5
 30
0.0
 11
14.15000000000009
 21
37.5
 31
0.0
  0
LINE
  5
19B5
330
1988
100
AcDbEntity
  8
エンボス
  6
Continuous
100
AcDbLine
 10
14.15000000000009
 20
34.5
 30
0.0
 11
21.15000000000009
 21
32.5
 31
0.0
  0
LINE
  5
19B6
330
1988
100
AcDbEntity
  8
エンボス
  6
Continuous
100
AcDbLine
 10
21.15000000000009
 20
20.5
 30
0.0
 11
14.15000000000009
 21
18.5
 31
0.0
  0
LINE
  5
19B7
330
1988
100
AcDbEntity
  8
エンボス
  6
Continuous
100
AcDbLine
 10
14.15000000000009
 20
25.5
 30
0.0
 11
21.15000000000009
 21
23.5
 31
0.0
  0
LINE
  5
19B8
330
1988
100
AcDbEntity
  8
本体
  6
Continuous
100
AcDbLine
 10
-21.15000000000009
 20
-3.0
 30
0.0
 11
14.15000000000009
 21
3.0
 31
0.0
  0
LINE
  5
19B9
330
1988
100
AcDbEntity
  8
本体
  6
Continuous
100
AcDbLine
 10
21.15000000000009
 20
-3.0
 30
0.0
 11
21.15000000000009
 21
-47.0
 31
0.0
  0
LINE
  5
19BA
330
1988
100
AcDbEntity
  8
本体
  6
Continuous
100
AcDbLine
 10
14.15000000000009
 20
-3.0
 30
0.0
 11
14.15000000000009
 21
-47.0
 31
0.0
  0
LINE
  5
19BB
330
1988
100
AcDbEntity
  8
エンボス
  6
Continuous
100
AcDbLine
 10
21.15000000000009
 20
-38.5
 30
0.0
 11
14.15000000000009
 21
-40.49999999999999
 31
0.0
  0
LINE
  5
19BC
330
1988
100
AcDbEntity
  8
エンボス
  6
Continuous
100
AcDbLine
 10
14.15000000000009
 20
-43.5
 30
0.0
 11
21.15000000000009
 21
-45.49999999999999
 31
0.0
  0
LINE
  5
19BD
330
1988
100
AcDbEntity
  8
エンボス
  6
Continuous
100
AcDbLine
 10
21.15000000000009
 20
-10.5
 30
0.0
 11
14.15000000000009
 21
-12.5
 31
0.0
  0
LINE
  5
19BE
330
1988
100
AcDbEntity
  8
エンボス
  6
Continuous
100
AcDbLine
 10
14.15000000000009
 20
-15.5
 30
0.0
 11
21.15000000000009
 21
-17.5
 31
0.0
  0
LINE
  5
19BF
330
1988
100
AcDbEntity
  8
エンボス
  6
Continuous
100
AcDbLine
 10
21.15000000000009
 20
-29.5
 30
0.0
 11
14.15000000000009
 21
-31.5
 31
0.0
  0
LINE
  5
19C0
330
1988
100
AcDbEntity
  8
エンボス
  6
Continuous
100
AcDbLine
 10
14.15000000000009
 20
-24.5
 30
0.0
 11
21.15000000000009
 21
-26.5
 31
0.0
  0
LINE
  5
19C1
330
1988
100
AcDbEntity
  8
本体
  6
Continuous
100
AcDbLine
 10
-21.15000000000009
 20
-53.0
 30
0.0
 11
14.15000000000009
 21
-47.0
 31
0.0
  0
LINE
  5
19C2
330
1988
100
AcDbEntity
  8
本体
  6
Continuous
100
AcDbLine
 10
21.15000000000009
 20
-53.0
 30
0.0
 11
21.15000000000009
 21
-97.0
 31
0.0
  0
LINE
  5
19C3
330
1988
100
AcDbEntity
  8
本体
  6
Continuous
100
AcDbLine
 10
14.15000000000009
 20
-53.0
 30
0.0
 11
14.15000000000009
 21
-97.0
 31
0.0
  0
LINE
  5
19C4
330
1988
100
AcDbEntity
  8
エンボス
  6
Continuous
100
AcDbLine
 10
21.15000000000009
 20
-88.49999999999999
 30
0.0
 11
14.15000000000009
 21
-90.5
 31
0.0
  0
LINE
  5
19C5
330
1988
100
AcDbEntity
  8
エンボス
  6
Continuous
100
AcDbLine
 10
14.15000000000009
 20
-93.49999999999999
 30
0.0
 11
21.15000000000009
 21
-95.5
 31
0.0
  0
LINE
  5
19C6
330
1988
100
AcDbEntity
  8
エンボス
  6
Continuous
100
AcDbLine
 10
21.15000000000009
 20
-60.5
 30
0.0
 11
14.15000000000009
 21
-62.5
 31
0.0
  0
LINE
  5
19C7
330
1988
100
AcDbEntity
  8
エンボス
  6
Continuous
100
AcDbLine
 10
14.15000000000009
 20
-65.5
 30
0.0
 11
21.15000000000009
 21
-67.5
 31
0.0
  0
LINE
  5
19C8
330
1988
100
AcDbEntity
  8
エンボス
  6
Continuous
100
AcDbLine
 10
21.15000000000009
 20
-79.5
 30
0.0
 11
14.15000000000009
 21
-81.5
 31
0.0
  0
LINE
  5
19C9
330
1988
100
AcDbEntity
  8
エンボス
  6
Continuous
100
AcDbLine
 10
14.15000000000009
 20
-74.5
 30
0.0
 11
21.15000000000009
 21
-76.5
 31
0.0
  0
LINE
  5
19CA
330
1988
100
AcDbEntity
  8
本体
  6
Continuous
100
AcDbLine
 10
-21.15000000000009
 20
-103.0
 30
0.0
 11
14.15000000000009
 21
-97.0
 31
0.0
  0
LINE
  5
19CB
330
1988
100
AcDbEntity
  8
本体
  6
Continuous
100
AcDbLine
 10
21.15000000000009
 20
-103.0
 30
0.0
 11
21.15000000000009
 21
-147.0
 31
0.0
  0
LINE
  5
19CC
330
1988
100
AcDbEntity
  8
本体
  6
Continuous
100
AcDbLine
 10
14.15000000000009
 20
-103.0
 30
0.0
 11
14.15000000000009
 21
-147.0
 31
0.0
  0
LINE
  5
19CD
330
1988
100
AcDbEntity
  8
エンボス
  6
Continuous
100
AcDbLine
 10
21.15000000000009
 20
-138.5
 30
0.0
 11
14.15000000000009
 21
-140.5
 31
0.0
  0
LINE
  5
19CE
330
1988
100
AcDbEntity
  8
エンボス
  6
Continuous
100
AcDbLine
 10
14.15000000000009
 20
-143.5
 30
0.0
 11
21.15000000000009
 21
-145.5
 31
0.0
  0
LINE
  5
19CF
330
1988
100
AcDbEntity
  8
エンボス
  6
Continuous
100
AcDbLine
 10
21.15000000000009
 20
-110.5
 30
0.0
 11
14.15000000000009
 21
-112.5
 31
0.0
  0
LINE
  5
19D0
330
1988
100
AcDbEntity
  8
エンボス
  6
Continuous
100
AcDbLine
 10
14.15000000000009
 20
-115.5
 30
0.0
 11
21.15000000000009
 21
-117.5
 31
0.0
  0
LINE
  5
19D1
330
1988
100
AcDbEntity
  8
エンボス
  6
Continuous
100
AcDbLine
 10
21.15000000000009
 20
-129.5
 30
0.0
 11
14.15000000000009
 21
-131.5
 31
0.0
  0
LINE
  5
19D2
330
1988
100
AcDbEntity
  8
エンボス
  6
Continuous
100
AcDbLine
 10
14.15000000000009
 20
-124.5
 30
0.0
 11
21.15000000000009
 21
-126.5
 31
0.0
  0
LINE
  5
19D3
330
1988
100
AcDbEntity
  8
本体
  6
Continuous
100
AcDbLine
 10
-21.15000000000009
 20
-153.0
 30
0.0
 11
14.15000000000009
 21
-147.0
 31
0.0
  0
ENDBLK
  5
198A
330
1988
100
AcDbEntity
  8
0
 48
3.0
100
AcDbBlockEnd
  0
BLOCK
  5
198C
330
198B
100
AcDbEntity
  8
0
 48
3.0
100
AcDbBlockBegin
  2
*U20
 70
     1
 10
0.0
 20
0.0
 30
0.0
  3
*U20
  1

  0
INSERT
  5
19E2
330
198B
100
AcDbEntity
  8
本体
  6
ByBlock
 62
     0
370
    -2
380
     1
100
AcDbBlockReference
  2
*U19
 10
0.0
 20
0.0
 30
0.0
  0
INSERT
  5
19E3
330
198B
100
AcDbEntity
  8
本体
  6
ByBlock
 62
     0
370
    -2
380
     1
100
AcDbBlockReference
  2
*U19
 10
35.3
 20
0.0
 30
0.0
  0
INSERT
  5
19E4
330
198B
100
AcDbEntity
  8
本体
  6
ByBlock
 62
     0
370
    -2
380
     1
100
AcDbBlockReference
  2
*U19
 10
70.59999999999999
 20
0.0
 30
0.0
  0
INSERT
  5
19E5
330
198B
100
AcDbEntity
  8
本体
  6
ByBlock
 62
     0
370
    -2
380
     1
100
AcDbBlockReference
  2
*U19
 10
105.9
 20
0.0
 30
0.0
  0
INSERT
  5
19E6
330
198B
100
AcDbEntity
  8
本体
  6
ByBlock
 62
     0
370
    -2
380
     1
100
AcDbBlockReference
  2
*U19
 10
141.2
 20
0.0
 30
0.0
  0
INSERT
  5
19E7
330
198B
100
AcDbEntity
  8
本体
  6
ByBlock
 62
     0
370
    -2
380
     1
100
AcDbBlockReference
  2
*U19
 10
176.5
 20
0.0
 30
0.0
  0
INSERT
  5
19E8
330
198B
100
AcDbEntity
  8
本体
  6
ByBlock
 62
     0
370
    -2
380
     1
100
AcDbBlockReference
  2
*U19
 10
211.8
 20
0.0
 30
0.0
  0
INSERT
  5
19E9
330
198B
100
AcDbEntity
  8
本体
  6
ByBlock
 62
     0
370
    -2
380
     1
100
AcDbBlockReference
  2
*U19
 10
247.1
 20
0.0
 30
0.0
  0
INSERT
  5
19EA
330
198B
100
AcDbEntity
  8
本体
  6
ByBlock
 62
     0
370
    -2
380
     1
100
AcDbBlockReference
  2
*U19
 10
282.4
 20
0.0
 30
0.0
  0
INSERT
  5
19EB
330
198B
100
AcDbEntity
  8
本体
  6
ByBlock
 62
     0
370
    -2
380
     1
100
AcDbBlockReference
  2
*U19
 10
317.7
 20
0.0
 30
0.0
  0
INSERT
  5
19EC
330
198B
100
AcDbEntity
  8
本体
  6
ByBlock
 62
     0
370
    -2
380
     1
100
AcDbBlockReference
  2
*U19
 10
353.0
 20
0.0
 30
0.0
  0
INSERT
  5
19ED
330
198B
100
AcDbEntity
  8
本体
  6
ByBlock
 62
     0
370
    -2
380
     1
100
AcDbBlockReference
  2
*U19
 10
388.3
 20
0.0
 30
0.0
  0
INSERT
  5
19EE
330
198B
100
AcDbEntity
  8
本体
  6
ByBlock
 62
     0
370
    -2
380
     1
100
AcDbBlockReference
  2
*U19
 10
423.5999999999999
 20
0.0
 30
0.0
  0
INSERT
  5
19EF
330
198B
100
AcDbEntity
  8
本体
  6
ByBlock
 62
     0
370
    -2
380
     1
100
AcDbBlockReference
  2
*U19
 10
458.8999999999999
 20
0.0
 30
0.0
  0
INSERT
  5
19F0
330
198B
100
AcDbEntity
  8
本体
  6
ByBlock
 62
     0
370
    -2
380
     1
100
AcDbBlockReference
  2
*U19
 10
494.1999999999999
 20
0.0
 30
0.0
  0
INSERT
  5
19F1
330
198B
100
AcDbEntity
  8
本体
  6
ByBlock
 62
     0
370
    -2
380
     1
100
AcDbBlockReference
  2
*U19
 10
529.4999999999999
 20
0.0
 30
0.0
  0
ENDBLK
  5
198D
330
198B
100
AcDbEntity
  8
0
 48
3.0
100
AcDbBlockEnd
  0
BLOCK
  5
19F4
330
19F3
100
AcDbEntity
  8
0
 48
3.0
100
AcDbBlockBegin
  2
*U21
 70
     1
 10
0.0
 20
0.0
 30
0.0
  3
*U21
  1

  0
INSERT
  5
19FA
330
19F3
100
AcDbEntity
  8
本体
  6
Continuous
100
AcDbBlockReference
  2
IB7x4x50
 10
11.40000000000009
 20
25.0
 30
0.0
  0
LINE
  5
19FB
330
19F3
100
AcDbEntity
  8
本体
  6
Continuous
100
AcDbLine
 10
-16.90000000000009
 20
25.0
 30
0.0
 11
11.40000000000009
 21
25.0
 31
0.0
  0
LINE
  5
19FC
330
19F3
100
AcDbEntity
  8
本体
  6
Continuous
100
AcDbLine
 10
-16.90000000000009
 20
17.0
 30
0.0
 11
11.40000000000009
 21
17.0
 31
0.0
  0
LINE
  5
19FD
330
19F3
100
AcDbEntity
  8
本体
  6
Continuous
100
AcDbLine
 10
-16.90000000000009
 20
17.0
 30
0.0
 11
11.40000000000009
 21
25.0
 31
0.0
  0
LINE
  5
19FE
330
19F3
100
AcDbEntity
  8
本体
  6
Continuous
100
AcDbLine
 10
-18.40000000000009
 20
-13.0
 30
0.0
 11
12.90000000000009
 21
-13.0
 31
0.0
  0
ENDBLK
  5
19F5
330
19F3
100
AcDbEntity
  8
0
 48
3.0
100
AcDbBlockEnd
  0
BLOCK
  5
19F7
330
19F6
100
AcDbEntity
  8
0
 48
3.0
100
AcDbBlockBegin
  2
*U22
 70
     1
 10
0.0
 20
0.0
 30
0.0
  3
*U22
  1

  0
INSERT
  5
1A09
330
19F6
100
AcDbEntity
  8
本体
  6
ByBlock
 62
     0
370
    -2
380
     1
100
AcDbBlockReference
  2
*U21
 10
0.0
 20
0.0
 30
0.0
  0
INSERT
  5
1A0A
330
19F6
100
AcDbEntity
  8
本体
  6
ByBlock
 62
     0
370
    -2
380
     1
100
AcDbBlockReference
  2
*U21
 10
35.3
 20
0.0
 30
0.0
  0
INSERT
  5
1A0B
330
19F6
100
AcDbEntity
  8
本体
  6
ByBlock
 62
     0
370
    -2
380
     1
100
AcDbBlockReference
  2
*U21
 10
70.59999999999999
 20
0.0
 30
0.0
  0
INSERT
  5
1A0C
330
19F6
100
AcDbEntity
  8
本体
  6
ByBlock
 62
     0
370
    -2
380
     1
100
AcDbBlockReference
  2
*U21
 10
105.9
 20
0.0
 30
0.0
  0
INSERT
  5
1A0D
330
19F6
100
AcDbEntity
  8
本体
  6
ByBlock
 62
     0
370
    -2
380
     1
100
AcDbBlockReference
  2
*U21
 10
141.2
 20
0.0
 30
0.0
  0
INSERT
  5
1A0E
330
19F6
100
AcDbEntity
  8
本体
  6
ByBlock
 62
     0
370
    -2
380
     1
100
AcDbBlockReference
  2
*U21
 10
176.5
 20
0.0
 30
0.0
  0
INSERT
  5
1A0F
330
19F6
100
AcDbEntity
  8
本体
  6
ByBlock
 62
     0
370
    -2
380
     1
100
AcDbBlockReference
  2
*U21
 10
211.8
 20
0.0
 30
0.0
  0
INSERT
  5
1A10
330
19F6
100
AcDbEntity
  8
本体
  6
ByBlock
 62
     0
370
    -2
380
     1
100
AcDbBlockReference
  2
*U21
 10
247.1
 20
0.0
 30
0.0
  0
INSERT
  5
1A11
330
19F6
100
AcDbEntity
  8
本体
  6
ByBlock
 62
     0
370
    -2
380
     1
100
AcDbBlockReference
  2
*U21
 10
282.4
 20
0.0
 30
0.0
  0
INSERT
  5
1A12
330
19F6
100
AcDbEntity
  8
本体
  6
ByBlock
 62
     0
370
    -2
380
     1
100
AcDbBlockReference
  2
*U21
 10
317.7
 20
0.0
 30
0.0
  0
INSERT
  5
1A13
330
19F6
100
AcDbEntity
  8
本体
  6
ByBlock
 62
     0
370
    -2
380
     1
100
AcDbBlockReference
  2
*U21
 10
353.0
 20
0.0
 30
0.0
  0
INSERT
  5
1A14
330
19F6
100
AcDbEntity
  8
本体
  6
ByBlock
 62
     0
370
    -2
380
     1
100
AcDbBlockReference
  2
*U21
 10
388.3
 20
0.0
 30
0.0
  0
INSERT
  5
1A15
330
19F6
100
AcDbEntity
  8
本体
  6
ByBlock
 62
     0
370
    -2
380
     1
100
AcDbBlockReference
  2
*U21
 10
423.5999999999999
 20
0.0
 30
0.0
  0
INSERT
  5
1A16
330
19F6
100
AcDbEntity
  8
本体
  6
ByBlock
 62
     0
370
    -2
380
     1
100
AcDbBlockReference
  2
*U21
 10
458.8999999999999
 20
0.0
 30
0.0
  0
INSERT
  5
1A17
330
19F6
100
AcDbEntity
  8
本体
  6
ByBlock
 62
     0
370
    -2
380
     1
100
AcDbBlockReference
  2
*U21
 10
494.1999999999999
 20
0.0
 30
0.0
  0
INSERT
  5
1A18
330
19F6
100
AcDbEntity
  8
本体
  6
ByBlock
 62
     0
370
    -2
380
     1
100
AcDbBlockReference
  2
*U21
 10
529.4999999999999
 20
0.0
 30
0.0
  0
ENDBLK
  5
19F8
330
19F6
100
AcDbEntity
  8
0
 48
3.0
100
AcDbBlockEnd
  0
ENDSEC
  0
SECTION
  2
ENTITIES
  0
LINE
  5
12
330
2
100
AcDbEntity
  8
外枠
 48
80.0
370
     9
100
AcDbLine
 10
0.0
 20
0.0
 30
0.0
 11
2789.511161023067
 21
0.0
 31
0.0
  0
LINE
  5
13
330
2
100
AcDbEntity
  8
外枠
 48
80.0
370
     9
100
AcDbLine
 10
2789.511161023071
 20
1973.26911249564
 30
0.0
 11
0.0
 21
1973.26911249564
 31
0.0
  0
LINE
  5
14
330
2
100
AcDbEntity
  8
外枠
 48
100.0
370
     9
100
AcDbLine
 10
10.0
 20
10.0
 30
0.0
 11
2780.119625023061
 21
10.0
 31
0.0
  0
LINE
  5
18
330
2
100
AcDbEntity
  8
外枠
  6
Continuous
 48
100.0
370
     9
100
AcDbLine
 10
9.999999999996362
 20
155.3992728208031
 30
0.0
 11
2780.119625023061
 21
155.3992728207995
 31
0.0
  0
LINE
  5
19
330
2
100
AcDbEntity
  8
外枠
  6
Continuous
 48
100.0
370
     9
100
AcDbLine
 10
9.999999999996362
 20
160.0950408208045
 30
0.0
 11
2780.119625023061
 21
160.0950408207973
 31
0.0
  0
LINE
  5
1A
330
2
100
AcDbEntity
  8
外枠
 48
100.0
370
     9
100
AcDbLine
 10
10.0
 20
1963.877576495633
 30
0.0
 11
2780.119625023053
 21
1963.877576495637
 31
0.0
  0
LINE
  5
1B
330
2
100
AcDbEntity
  8
外枠
 48
80.0
370
     9
100
AcDbLine
 10
0.0
 20
0.0
 30
0.0
 11
0.0
 21
1973.26911249564
 31
0.0
  0
LINE
  5
1C
330
2
100
AcDbEntity
  8
外枠
 48
100.0
370
     9
100
AcDbLine
 10
10.0
 20
1963.877576495633
 30
0.0
 11
10.0
 21
10.0
 31
0.0
  0
LINE
  5
1D
330
2
100
AcDbEntity
  8
外枠
  6
Continuous
 48
100.0
370
     9
100
AcDbLine
 10
10.0
 20
82.69963641040158
 30
0.0
 11
1153.530108552004
 21
82.69963641039794
 31
0.0
  0
MTEXT
  5
1E
330
2
100
AcDbEntity
  8
外枠
  6
Continuous
 48
100.0
370
     9
100
AcDbMText
 10
532.8934032018532
 20
136.1535564242149
 30
0.0
 40
30.0
 41
664.6118999999999
 71
     1
 72
     5
  1
一般側溝用かさあげグレーチング
 73
     1
 44
1.0
1001
ACAD
1000
MTEXTBEGIN
1070
    73
1070
     1
1070
    44
1040
1.0
1070
    74
1070
     0
1000
MTEXTEND
  0
MTEXT
  5
1F
330
2
100
AcDbEntity
  8
外枠
  6
Continuous
 48
100.0
370
     9
100
AcDbMText
 10
246.8574963386418
 20
64.81814764649607
 30
0.0
 40
35.0
 41
532.9183
 71
     1
 72
     5
  1
390\U+00D7607\U+00D750/100
 73
     1
 44
1.0
1001
ACAD
1000
MTEXTBEGIN
1070
    73
1070
     1
1070
    44
1040
1.0
1070
    74
1070
     0
1000
MTEXTEND
  0
MTEXT
  5
20
330
2
100
AcDbEntity
  8
外枠
  6
Continuous
 48
100.0
370
     9
100
AcDbMText
 10
76.61659604009765
 20
137.3760680266387
 30
0.0
 40
30.0
 41
126.3036
 71
     1
 72
     5
  1
T-25
 73
     1
 44
1.0
1001
ACAD
1000
MTEXTBEGIN
1070
    73
1070
     1
1070
    44
1040
1.0
1070
    74
1070
     0
1000
MTEXTEND
  0
MTEXT
  5
21
330
2
100
AcDbEntity
  8
外枠
  6
Continuous
 48
100.0
370
     9
100
AcDbMText
 10
72.93258377064922
 20
59.95966632915224
 30
0.0
 40
35.0
 41
88.86979999999999
 71
     1
 72
     5
  1
TGFP
 73
     1
 44
1.0
1001
ACAD
1000
MTEXTBEGIN
1070
    73
1070
     1
1070
    44
1040
1.0
1070
    74
1070
     0
1000
MTEXTEND
  0
LINE
  5
22
330
2
100
AcDbEntity
  8
外枠
 48
100.0
370
     9
100
AcDbLine
 10
45.0
 20
155.3992728208031
 30
0.0
 11
45.0
 21
10.0
 31
0.0
  0
MTEXT
  5
23
330
2
100
AcDbEntity
  8
外枠
  6
Continuous
 48
100.0
370
     9
100
AcDbMText
 10
15.05670849094895
 20
75.82038473524153
 30
0.0
 40
20.0
 41
23.52947333656417
 71
     1
 72
     5
  1
品\P番
 73
     1
 44
1.0
1001
ACAD
1000
MTEXTBEGIN
1070
    73
1070
     1
1070
    44
1040
1.0
1070
    74
1070
     0
1000
MTEXTEND
  0
MTEXT
  5
24
330
2
100
AcDbEntity
  8
外枠
  6
Continuous
 48
100.0
370
     9
100
AcDbMText
 10
14.92010060012399
 20
149.3317229429121
 30
0.0
 40
20.0
 41
30.07989939987533
 71
     1
 72
     5
  1
荷\P重
 73
     1
 44
1.0
1001
ACAD
1000
MTEXTBEGIN
1070
    73
1070
     1
1070
    44
1040
1.0
1070
    74
1070
     0
1000
MTEXTEND
  0
LINE
  5
25
330
2
100
AcDbEntity
  8
外枠
 48
100.0
370
     9
100
AcDbLine
 10
179.1040495562847
 20
155.3992728208031
 30
0.0
 11
179.1040495562847
 21
10.0
 31
0.0
  0
MTEXT
  5
26
330
2
100
AcDbEntity
  8
外枠
  6
Continuous
 48
100.0
370
     9
100
AcDbMText
 10
271.7517807368968
 20
133.8572910967996
 30
0.0
 40
30.0
 41
271.6208
 71
     1
 72
     5
  1
300用
 73
     1
 44
1.0
1001
ACAD
1000
MTEXTBEGIN
1070
    73
1070
     1
1070
    44
1040
1.0
1070
    74
1070
     0
1000
MTEXTEND
  0
MTEXT
  5
27
330
2
100
AcDbEntity
  8
外枠
  6
Continuous
 48
100.0
370
     9
100
AcDbMText
 10
184.4346535744698
 20
149.3074501239389
 30
0.0
 40
20.0
 41
29.6694
 71
     1
 72
     5
  1
溝幅
 73
     1
 44
1.0
1001
ACAD
1000
MTEXTBEGIN
1070
    73
1070
     1
1070
    44
1040
1.0
1070
    74
1070
     0
1000
MTEXTEND
  0
LINE
  5
28
330
2
100
AcDbEntity
  8
外枠
 48
100.0
370
     9
100
AcDbLine
 10
214.1040495562847
 20
155.3992728208031
 30
0.0
 11
214.1040495562847
 21
82.69963641040158
 31
0.0
  0
MTEXT
  5
29
330
2
100
AcDbEntity
  8
外枠
  6
Continuous
 48
100.0
370
     9
100
AcDbMText
 10
477.8955451146976
 20
149.3074501239389
 30
0.0
 40
20.0
 41
29.6694
 71
     1
 72
     5
  1
品名
 73
     1
 44
1.0
1001
ACAD
1000
MTEXTBEGIN
1070
    73
1070
     1
1070
    44
1040
1.0
1070
    74
1070
     0
1000
MTEXTEND
  0
LINE
  5
2A
330
2
100
AcDbEntity
  8
外枠
 48
100.0
370
     9
100
AcDbLine
 10
472.5649410965124
 20
155.3992728208031
 30
0.0
 11
472.5649410965124
 21
82.69963641040158
 31
0.0
  0
LINE
  5
2B
330
2
100
AcDbEntity
  8
外枠
 48
100.0
370
     9
100
AcDbLine
 10
507.5649410965125
 20
155.3992728208031
 30
0.0
 11
507.5649410965125
 21
82.69963641040158
 31
0.0
  0
MTEXT
  5
2C
330
2
100
AcDbEntity
  8
外枠
  6
Continuous
 48
100.0
370
     9
100
AcDbMText
 10
728.477887653953
 20
76.92551173516403
 30
0.0
 40
20.0
 41
664.6118999999999
 71
     1
 72
     5
  1
摘\P要
 73
     1
 44
1.0
1001
ACAD
1000
MTEXTBEGIN
1070
    73
1070
     1
1070
    44
1040
1.0
1070
    74
1070
     0
1000
MTEXTEND
  0
LINE
  5
2D
330
2
100
AcDbEntity
  8
外枠
 48
100.0
370
     9
100
AcDbLine
 10
723.8282373115871
 20
82.6996364103943
 30
0.0
 11
723.8282373115871
 21
9.999999999992724
 31
0.0
  0
LINE
  5
30
330
2
100
AcDbEntity
  8
外枠
 48
100.0
370
     9
100
AcDbLine
 10
758.8282373115871
 20
82.6996364103943
 30
0.0
 11
758.8282373115871
 21
9.999999999992724
 31
0.0
  0
LINE
  5
32
330
2
100
AcDbEntity
  8
外枠
 48
100.0
370
     9
100
AcDbLine
 10
974.9513069700951
 20
82.6996364103943
 30
0.0
 11
974.9513069700951
 21
9.999999999992724
 31
0.0
  0
MTEXT
  5
33
330
2
100
AcDbEntity
  8
外枠
  6
Continuous
 48
100.0
370
     9
100
AcDbMText
 10
979.7329598959768
 20
74.84825461820583
 30
0.0
 40
20.0
 41
31.38947761565365
 71
     1
 72
     5
  1
材\P質
 73
     1
 44
1.0
1001
ACAD
1000
MTEXTBEGIN
1070
    73
1070
     1
1070
    44
1040
1.0
1070
    74
1070
     0
1000
MTEXTEND
  0
LINE
  5
34
330
2
100
AcDbEntity
  8
外枠
 48
100.0
370
     9
100
AcDbLine
 10
1009.951306970095
 20
82.6996364103943
 30
0.0
 11
1009.951306970095
 21
9.999999999992724
 31
0.0
  0
LINE
  5
39
330
2
100
AcDbEntity
  8
外枠
 48
80.0
370
     9
100
AcDbLine
 10
2789.511161023067
 20
0.0
 30
0.0
 11
2789.511161023071
 21
1973.26911249564
 31
0.0
  0
LINE
  5
3A
330
2
100
AcDbEntity
  8
外枠
 48
100.0
370
     9
100
AcDbLine
 10
2780.119625023053
 20
1963.877576495637
 30
0.0
 11
2780.119625023061
 21
10.0
 31
0.0
  0
LINE
  5
3C
330
2
100
AcDbEntity
  8
外枠
 48
3.0
100
AcDbLine
 10
1607.072254912545
 20
61.67068719952067
 30
0.0
 11
2262.173600934632
 21
61.67068719952067
 31
0.0
  0
MTEXT
  5
3D
330
2
100
AcDbEntity
  8
外枠
  6
Continuous
 48
100.0
370
     9
100
AcDbMText
 10
1683.622173868318
 20
50.71504764095289
 30
0.0
 40
30.00024
 41
539.4827578564582
 71
     1
 72
     5
  1
T A K A R A   G R A T I N G
 73
     1
 44
1.0
1001
ACAD
1000
MTEXTBEGIN
1070
    73
1070
     1
1070
    44
1040
1.0
1070
    74
1070
     0
1000
MTEXTEND
  0
MTEXT
  5
3E
330
2
100
AcDbEntity
  8
外枠
  6
Continuous
 48
100.0
370
     9
100
AcDbMText
 10
1728.02061463669
 20
127.1672938476838
 30
0.0
 40
30.0
 41
282.8297
 71
     1
 72
     5
  1
株 式 会 社
 73
     1
 44
1.0
1001
ACAD
1000
MTEXTBEGIN
1070
    73
1070
     1
1070
    44
1040
1.0
1070
    74
1070
     0
1000
MTEXTEND
  0
LINE
  5
3F
330
2
100
AcDbEntity
  8
外枠
  6
Continuous
 48
100.0
370
     9
100
AcDbLine
 10
1508.680137877982
 20
155.3992728208068
 30
0.0
 11
1508.680137877982
 21
10.00000000000364
 31
0.0
  0
LINE
  5
40
330
2
100
AcDbEntity
  8
外枠
  6
Continuous
 48
100.0
370
     9
100
AcDbLine
 10
1593.95141853916
 20
155.3992728207995
 30
0.0
 11
1593.95141853916
 21
9.999999999996362
 31
0.0
  0
LINE
  5
43
330
2
100
AcDbEntity
  8
外枠
  6
Continuous
 48
100.0
370
     9
100
AcDbLine
 10
1616.777813337499
 20
106.634063069062
 30
0.0
 11
1612.463999974505
 21
110.08511375945
 31
0.0
  0
LINE
  5
44
330
2
100
AcDbEntity
  8
外枠
  6
Continuous
 48
100.0
370
     9
100
AcDbLine
 10
1616.777813337499
 20
106.634063069062
 30
0.0
 11
1612.463999974505
 21
103.183012378663
 31
0.0
  0
LINE
  5
45
330
2
100
AcDbEntity
  8
外枠
  6
Continuous
 48
100.0
370
     9
100
AcDbLine
 10
1616.777813337505
 20
113.5361644498489
 30
0.0
 11
1612.463999974505
 21
110.08511375945
 31
0.0
  0
LINE
  5
46
330
2
100
AcDbEntity
  8
外枠
  6
Continuous
 48
100.0
370
     9
100
AcDbLine
 10
1616.777813337499
 20
99.73196168827508
 30
0.0
 11
1612.463999974505
 21
103.183012378663
 31
0.0
  0
MTEXT
  5
47
330
2
100
AcDbEntity
  8
外枠
  6
Continuous
 48
100.0
370
     9
100
AcDbMText
 10
1520.476936402745
 20
137.4995509975779
 30
0.0
 40
20.0
 41
1015.1375
 71
     1
 72
     5
  1
20.5
 73
     1
 44
1.0
1001
ACAD
1000
MTEXTBEGIN
1070
    73
1070
     1
1070
    44
1040
1.0
1070
    74
1070
     0
1000
MTEXTEND
  0
MTEXT
  5
48
330
2
100
AcDbEntity
  8
外枠
  6
Continuous
 48
100.0
370
     9
100
AcDbMText
 10
1568.464698185987
 20
108.4136993179927
 30
0.0
 40
18.0
 41
25.456
 71
     1
 72
     5
  1
kg
 73
     1
 44
1.0
1001
ACAD
1000
MTEXTBEGIN
1070
    73
1070
     1
1070
    44
1040
1.0
1070
    74
1070
     0
1000
MTEXTEND
  0
LINE
  5
49
330
2
100
AcDbEntity
  8
外枠
  6
Continuous
 48
100.0
370
     9
100
AcDbLine
 10
1649.122643507042
 20
139.4120285854742
 30
0.0
 11
1653.436456870031
 21
135.9609778950862
 31
0.0
  0
LINE
  5
4A
330
2
100
AcDbEntity
  8
外枠
  6
Continuous
 48
100.0
370
     9
100
AcDbLine
 10
1666.377896959009
 20
139.4120285854742
 30
0.0
 11
1662.06408359602
 21
135.9609778950862
 31
0.0
  0
MTEXT
  5
4B
330
2
100
AcDbEntity
  8
外枠
  6
Continuous
 48
100.0
370
     9
100
AcDbMText
 10
1642.840555134189
 20
120.8184913847756
 30
0.0
 40
23.95393639053264
 41
23.85059431815661
 71
     1
 72
     5
  1
{\fＭＳ ゴシック|b0|i0|c128|p49;宝}
 73
     1
 44
1.0
1001
ACAD
1000
MTEXTBEGIN
1070
    73
1070
     1
1070
    44
1040
1.0
1070
    74
1070
     0
1000
MTEXTEND
  0
LINE
  5
4C
330
2
100
AcDbEntity
  8
外枠
  6
Continuous
 48
100.0
370
     9
100
AcDbLine
 10
1662.06408359602
 20
135.9609778950862
 30
0.0
 11
1694.408913765557
 21
110.08511375945
 31
0.0
  0
LINE
  5
4D
330
2
100
AcDbEntity
  8
外枠
  6
Continuous
 48
100.0
370
     9
100
AcDbLine
 10
1657.750270233026
 20
132.5099272046927
 30
0.0
 11
1690.095100402563
 21
106.634063069062
 31
0.0
  0
LINE
  5
4E
330
2
100
AcDbEntity
  8
外枠
  6
Continuous
 48
100.0
370
     9
100
AcDbLine
 10
1690.095100402563
 20
106.634063069062
 30
0.0
 11
1657.750270233026
 21
80.75819893343123
 31
0.0
  0
LINE
  5
4F
330
2
100
AcDbEntity
  8
外枠
  6
Continuous
 48
100.0
370
     9
100
AcDbLine
 10
1694.408913765557
 20
103.183012378663
 30
0.0
 11
1662.06408359602
 21
77.30714824303777
 31
0.0
  0
LINE
  5
50
330
2
100
AcDbEntity
  8
外枠
  6
Continuous
 48
100.0
370
     9
100
AcDbLine
 10
1657.750270233026
 20
80.75819893342577
 30
0.0
 11
1625.405440063488
 21
106.634063069062
 31
0.0
  0
LINE
  5
51
330
2
100
AcDbEntity
  8
外枠
  6
Continuous
 48
100.0
370
     9
100
AcDbLine
 10
1653.436456870031
 20
77.30714824303777
 30
0.0
 11
1621.0916267005
 21
103.183012378663
 31
0.0
  0
LINE
  5
52
330
2
100
AcDbEntity
  8
外枠
  6
Continuous
 48
100.0
370
     9
100
AcDbLine
 10
1621.0916267005
 20
103.183012378663
 30
0.0
 11
1616.777813337505
 21
99.73196168827508
 31
0.0
  0
LINE
  5
53
330
2
100
AcDbEntity
  8
外枠
  6
Continuous
 48
100.0
370
     9
100
AcDbLine
 10
1653.436456870031
 20
77.30714824303777
 30
0.0
 11
1649.122643507042
 21
73.85609755263885
 31
0.0
  0
LINE
  5
54
330
2
100
AcDbEntity
  8
外枠
  6
Continuous
 48
100.0
370
     9
100
AcDbLine
 10
1653.436456870031
 20
70.4050468622454
 30
0.0
 11
1649.122643507042
 21
73.85609755263885
 31
0.0
  0
LINE
  5
55
330
2
100
AcDbEntity
  8
外枠
  6
Continuous
 48
100.0
370
     9
100
AcDbLine
 10
1657.750270233026
 20
73.85609755263885
 30
0.0
 11
1653.436456870031
 21
70.4050468622454
 31
0.0
  0
LINE
  5
56
330
2
100
AcDbEntity
  8
外枠
  6
Continuous
 48
100.0
370
     9
100
AcDbLine
 10
1666.377896959009
 20
73.85609755263885
 30
0.0
 11
1662.06408359602
 21
70.4050468622454
 31
0.0
  0
LINE
  5
57
330
2
100
AcDbEntity
  8
外枠
  6
Continuous
 48
100.0
370
     9
100
AcDbLine
 10
1662.06408359602
 20
70.4050468622454
 30
0.0
 11
1657.750270233026
 21
73.85609755263885
 31
0.0
  0
LINE
  5
58
330
2
100
AcDbEntity
  8
外枠
  6
Continuous
 48
100.0
370
     9
100
AcDbLine
 10
1666.377896959009
 20
73.85609755263885
 30
0.0
 11
1662.06408359602
 21
77.30714824303777
 31
0.0
  0
LINE
  5
59
330
2
100
AcDbEntity
  8
外枠
  6
Continuous
 48
100.0
370
     9
100
AcDbLine
 10
1657.750270233026
 20
132.5099272046927
 30
0.0
 11
1625.405440063483
 21
106.634063069062
 31
0.0
  0
LINE
  5
5A
330
2
100
AcDbEntity
  8
外枠
  6
Continuous
 48
100.0
370
     9
100
AcDbLine
 10
1653.436456870031
 20
135.9609778950862
 30
0.0
 11
1621.0916267005
 21
110.08511375945
 31
0.0
  0
LINE
  5
5B
330
2
100
AcDbEntity
  8
外枠
  6
Continuous
 48
100.0
370
     9
100
AcDbLine
 10
1621.0916267005
 20
110.08511375945
 30
0.0
 11
1616.777813337505
 21
113.5361644498489
 31
0.0
  0
LINE
  5
5C
330
2
100
AcDbEntity
  8
外枠
  6
Continuous
 48
100.0
370
     9
100
AcDbLine
 10
1694.408913765557
 20
103.183012378663
 30
0.0
 11
1698.722727128541
 21
99.73196168827508
 31
0.0
  0
LINE
  5
5D
330
2
100
AcDbEntity
  8
外枠
  6
Continuous
 48
100.0
370
     9
100
AcDbLine
 10
1703.036540491541
 20
103.183012378663
 30
0.0
 11
1698.722727128541
 21
99.73196168827508
 31
0.0
  0
LINE
  5
5E
330
2
100
AcDbEntity
  8
外枠
  6
Continuous
 48
100.0
370
     9
100
AcDbLine
 10
1698.722727128541
 20
113.5361644498489
 30
0.0
 11
1694.408913765557
 21
110.08511375945
 31
0.0
  0
LINE
  5
5F
330
2
100
AcDbEntity
  8
外枠
  6
Continuous
 48
100.0
370
     9
100
AcDbLine
 10
1698.722727128541
 20
106.634063069062
 30
0.0
 11
1703.036540491541
 21
103.183012378663
 31
0.0
  0
LINE
  5
60
330
2
100
AcDbEntity
  8
外枠
  6
Continuous
 48
100.0
370
     9
100
AcDbLine
 10
1698.722727128541
 20
113.5361644498489
 30
0.0
 11
1703.036540491541
 21
110.08511375945
 31
0.0
  0
LINE
  5
61
330
2
100
AcDbEntity
  8
外枠
  6
Continuous
 48
100.0
370
     9
100
AcDbLine
 10
1703.036540491541
 20
110.08511375945
 30
0.0
 11
1698.722727128541
 21
106.634063069062
 31
0.0
  0
LINE
  5
62
330
2
100
AcDbEntity
  8
外枠
  6
Continuous
 48
100.0
370
     9
100
AcDbLine
 10
1653.436456870031
 20
142.8630792758676
 30
0.0
 11
1649.122643507042
 21
139.4120285854742
 31
0.0
  0
LINE
  5
63
330
2
100
AcDbEntity
  8
外枠
  6
Continuous
 48
100.0
370
     9
100
AcDbLine
 10
1662.06408359602
 20
142.8630792758676
 30
0.0
 11
1666.377896959009
 21
139.4120285854742
 31
0.0
  0
LINE
  5
64
330
2
100
AcDbEntity
  8
外枠
  6
Continuous
 48
100.0
370
     9
100
AcDbLine
 10
1653.436456870031
 20
142.8630792758676
 30
0.0
 11
1657.750270233026
 21
139.4120285854742
 31
0.0
  0
LINE
  5
65
330
2
100
AcDbEntity
  8
外枠
  6
Continuous
 48
100.0
370
     9
100
AcDbLine
 10
1662.06408359602
 20
142.8630792758676
 30
0.0
 11
1657.750270233026
 21
139.4120285854742
 31
0.0
  0
MTEXT
  5
66
330
2
100
AcDbEntity
  8
外枠
  6
Continuous
 48
100.0
370
     9
100
AcDbMText
 10
1982.246612759803
 20
141.5312822365363
 30
0.0
 40
50.0
 41
269.1378
 71
     1
 72
     5
  1
宝 機 材
 73
     1
 44
1.0
1001
ACAD
1000
MTEXTBEGIN
1070
    73
1070
     1
1070
    44
1040
1.0
1070
    74
1070
     0
1000
MTEXTEND
  0
INSERT
  5
67
330
2
100
AcDbEntity
  8
0
100
AcDbBlockReference
  2
GIB詳細
 10
2565.418449883758
 20
297.722523113778
 30
0.0
  0
LINE
  5
AF
330
2
100
AcDbEntity
  8
外枠
  6
Continuous
 48
100.0
370
     9
100
AcDbLine
 10
2694.775480668144
 20
78.59726492113622
 30
0.0
 11
2729.639779322774
 21
43.73296626650699
 31
0.0
  0
LINE
  5
B0
330
2
100
AcDbEntity
  8
外枠
  6
Continuous
 48
100.0
370
     9
100
AcDbLine
 10
2729.639779322774
 20
113.4615635757691
 30
0.0
 11
2694.775480668144
 21
78.59726492113622
 31
0.0
  0
LINE
  5
B2
330
2
100
AcDbEntity
  8
外枠
  6
Continuous
 48
100.0
370
     9
100
AcDbLine
 10
2271.730765417811
 20
155.3992728207995
 30
0.0
 11
2271.730765417811
 21
10.0
 31
0.0
  0
LINE
  5
B3
330
2
100
AcDbEntity
  8
外枠
  6
Continuous
 48
100.0
370
     9
100
AcDbLine
 10
2387.385592047314
 20
155.3992728207995
 30
0.0
 11
2387.385592047314
 21
9.999999999996362
 31
0.0
  0
MTEXT
  5
B4
330
2
100
AcDbEntity
  8
外枠
  6
Continuous
 48
100.0
370
     9
100
AcDbMText
 10
2518.897970034654
 20
80.52451510381798
 30
0.0
 40
16.435188
 41
274.138099993296
 71
     1
 72
     5
  1
縮尺（A4用紙)
 73
     1
 44
1.0
1001
ACAD
1000
MTEXTBEGIN
1070
    73
1070
     1
1070
    44
1040
1.0
1070
    74
1070
     0
1000
MTEXTEND
  0
LINE
  5
B5
330
2
100
AcDbEntity
  8
外枠
  6
Continuous
 48
100.0
370
     9
100
AcDbLine
 10
2503.04041867681
 20
155.3992728207995
 30
0.0
 11
2503.04041867681
 21
9.999999999996362
 31
0.0
  0
LINE
  5
B6
330
2
100
AcDbEntity
  8
外枠
  6
Continuous
 48
100.0
370
     9
100
AcDbLine
 10
2676.662359028593
 20
155.3992728207995
 30
0.0
 11
2676.662359028593
 21
10.0
 31
0.0
  0
MTEXT
  5
B7
330
2
100
AcDbEntity
  8
外枠
  6
Continuous
 48
100.0
370
     9
100
AcDbMText
 10
2557.587330290393
 20
42.24161905183791
 30
0.0
 40
23.47884
 41
274.138099993296
 71
     1
 72
     5
  1
1：10
 73
     1
 44
1.0
1001
ACAD
1000
MTEXTBEGIN
1070
    73
1070
     1
1070
    44
1040
1.0
1070
    74
1070
     0
1000
MTEXTEND
  0
MTEXT
  5
B8
330
2
100
AcDbEntity
  8
外枠
  6
Continuous
 48
100.0
370
     9
100
AcDbMText
 10
2280.290404386422
 20
149.5129012429788
 30
0.0
 40
18.783072
 41
274.13809060176
 71
     1
 72
     5
  1
Check
 73
     1
 44
1.0
1001
ACAD
1000
MTEXTBEGIN
1070
    73
1070
     1
1070
    44
1040
1.0
1070
    74
1070
     0
1000
MTEXTEND
  0
MTEXT
  5
B9
330
2
100
AcDbEntity
  8
外枠
  6
Continuous
 48
100.0
370
     9
100
AcDbMText
 10
2398.03460165154
 20
149.5129012429788
 30
0.0
 40
18.783072
 41
274.13809060176
 71
     1
 72
     5
  1
Draw
 73
     1
 44
1.0
1001
ACAD
1000
MTEXTBEGIN
1070
    73
1070
     1
1070
    44
1040
1.0
1070
    74
1070
     0
1000
MTEXTEND
  0
LINE
  5
BB
330
2
100
AcDbEntity
  8
外枠
  6
Continuous
 48
100.0
370
     9
100
AcDbLine
 10
2676.662359028593
 20
85.04752041039683
 30
0.0
 11
2503.04041867681
 21
85.04752041039683
 31
0.0
  0
MTEXT
  5
BC
330
2
100
AcDbEntity
  8
外枠
  6
Continuous
 48
100.0
370
     9
100
AcDbMText
 10
2518.897970034654
 20
153.7304166203976
 30
0.0
 40
16.435188
 41
274.138099993296
 71
     1
 72
     5
  1
図面作成日
 73
     1
 44
1.0
1001
ACAD
1000
MTEXTBEGIN
1070
    73
1070
     1
1070
    44
1040
1.0
1070
    74
1070
     0
1000
MTEXTEND
  0
LINE
  5
BE
330
2
100
AcDbEntity
  8
外枠
  6
Continuous
 48
100.0
370
     9
100
AcDbLine
 10
2729.639779322774
 20
43.73296626650699
 30
0.0
 11
2764.504077977396
 21
78.59726492113622
 31
0.0
  0
LINE
  5
BF
330
2
100
AcDbEntity
  8
外枠
  6
Continuous
 48
100.0
370
     9
100
AcDbLine
 10
2764.504077977396
 20
78.59726492113622
 30
0.0
 11
2729.639779322774
 21
113.4615635757691
 31
0.0
  0
LINE
  5
871
330
2
100
AcDbEntity
  8
本体
  6
Continuous
100
AcDbLine
 10
517.9028993149404
 20
1605.634465030358
 30
0.0
 11
1124.90289931494
 21
1605.634465030358
 31
0.0
  0
LINE
  5
872
330
2
100
AcDbEntity
  8
本体
  6
Continuous
100
AcDbLine
 10
517.9028993149404
 20
1599.634465030358
 30
0.0
 11
1124.90289931494
 21
1599.634465030358
 31
0.0
  0
LINE
  5
875
330
2
100
AcDbEntity
  8
本体
  6
Continuous
100
AcDbLine
 10
517.9028993149404
 20
1647.634465030358
 30
0.0
 11
517.9028993149404
 21
1257.634465030358
 31
0.0
  0
LINE
  5
876
330
2
100
AcDbEntity
  8
本体
  6
Continuous
100
AcDbLine
 10
517.9028993149404
 20
1643.134465030358
 30
0.0
 11
517.9028993149404
 21
1605.634465030358
 31
0.0
  0
LINE
  5
878
330
2
100
AcDbEntity
  8
本体
  6
Continuous
100
AcDbLine
 10
517.9028993149404
 20
1599.634465030358
 30
0.0
 11
517.9028993149404
 21
1555.634465030358
 31
0.0
  0
LINE
  5
87A
330
2
100
AcDbEntity
  8
本体
  6
Continuous
100
AcDbLine
 10
524.9028993149404
 20
1643.134465030358
 30
0.0
 11
524.9028993149404
 21
1605.634465030358
 31
0.0
  0
LINE
  5
87B
330
2
100
AcDbEntity
  8
本体
  6
Continuous
100
AcDbLine
 10
524.9028993149404
 20
1599.634465030358
 30
0.0
 11
524.9028993149404
 21
1555.634465030358
 31
0.0
  0
LINE
  5
8BC
330
2
100
AcDbEntity
  8
本体
  6
Continuous
100
AcDbLine
 10
1124.90289931494
 20
1643.134465030358
 30
0.0
 11
1124.90289931494
 21
1605.634465030358
 31
0.0
  0
LINE
  5
8BE
330
2
100
AcDbEntity
  8
本体
  6
Continuous
100
AcDbLine
 10
1124.90289931494
 20
1599.634465030358
 30
0.0
 11
1124.90289931494
 21
1555.634465030358
 31
0.0
  0
LINE
  5
8BF
330
2
100
AcDbEntity
  8
本体
  6
Continuous
100
AcDbLine
 10
1117.90289931494
 20
1599.634465030358
 30
0.0
 11
1117.90289931494
 21
1555.634465030358
 31
0.0
  0
LINE
  5
90E
330
2
100
AcDbEntity
  8
本体
  6
Continuous
100
AcDbLine
 10
1117.90289931494
 20
1262.134465030358
 30
0.0
 11
1117.90289931494
 21
1299.634465030358
 31
0.0
  0
LINE
  5
90F
330
2
100
AcDbEntity
  8
本体
  6
Continuous
100
AcDbLine
 10
1124.90289931494
 20
1262.134465030358
 30
0.0
 11
1124.90289931494
 21
1299.634465030358
 31
0.0
  0
LINE
  5
912
330
2
100
AcDbEntity
  8
本体
  6
Continuous
100
AcDbLine
 10
517.9028993149404
 20
1262.134465030358
 30
0.0
 11
517.9028993149404
 21
1299.634465030358
 31
0.0
  0
LINE
  5
984
330
2
100
AcDbEntity
  8
本体
  6
Continuous
100
AcDbLine
 10
1089.70289931494
 20
705.5503863072108
 30
0.0
 11
1117.902899314941
 21
713.5503863072108
 31
0.0
  0
LINE
  5
986
330
2
100
AcDbEntity
  8
本体
  6
Continuous
100
AcDbLine
 10
1089.70289931494
 20
705.5503863072108
 30
0.0
 11
1117.902899314941
 21
705.5503863072108
 31
0.0
  0
LINE
  5
987
330
2
100
AcDbEntity
  8
本体
  6
Continuous
100
AcDbLine
 10
1089.70289931494
 20
713.5503863072108
 30
0.0
 11
1117.902899314941
 21
713.5503863072108
 31
0.0
  0
LINE
  5
988
330
2
100
AcDbEntity
  8
嵩上断面
  6
Continuous
100
AcDbLine
 10
521.4028993149404
 20
618.5503863072108
 30
0.0
 11
521.4028993149404
 21
663.5503863072108
 31
0.0
  0
LINE
  5
989
330
2
100
AcDbEntity
  8
嵩上断面
  6
Continuous
100
AcDbLine
 10
521.4028993149404
 20
663.5503863072108
 30
0.0
 11
1124.80289931494
 21
663.5503863072108
 31
0.0
  0
LINE
  5
98A
330
2
100
AcDbEntity
  8
嵩上断面
  6
HIDDEN
 48
3.0
100
AcDbLine
 10
521.4028993149404
 20
661.2503863072105
 30
0.0
 11
1121.402899314941
 21
661.2503863072105
 31
0.0
  0
LINE
  5
98C
330
2
100
AcDbEntity
  8
本体
  6
Continuous
100
AcDbLine
 10
1866.915455142543
 20
1647.634465030358
 30
0.0
 11
1866.915455142543
 21
1257.634465030358
 31
0.0
  0
LINE
  5
98D
330
2
100
AcDbEntity
  8
本体
  6
Continuous
100
AcDbLine
 10
1874.915455142543
 20
1643.134465030358
 30
0.0
 11
1874.915455142543
 21
1262.134465030358
 31
0.0
  0
LINE
  5
98E
330
2
100
AcDbEntity
  8
本体
  6
Continuous
100
AcDbLine
 10
1916.915455142543
 20
1643.134465030358
 30
0.0
 11
1916.915455142543
 21
1262.134465030358
 31
0.0
  0
LINE
  5
98F
330
2
100
AcDbEntity
  8
本体
  6
Continuous
100
AcDbLine
 10
1908.915455142542
 20
1643.134465030359
 30
0.0
 11
1908.915455142542
 21
1262.134465030358
 31
0.0
  0
LINE
  5
990
330
2
100
AcDbEntity
  8
本体
  6
Continuous
100
AcDbLine
 10
1866.915455142543
 20
1647.634465030358
 30
0.0
 11
1904.915455142543
 21
1647.634465030358
 31
0.0
  0
LINE
  5
991
330
2
100
AcDbEntity
  8
本体
  6
Continuous
100
AcDbLine
 10
1866.915455142543
 20
1643.134465030358
 30
0.0
 11
1916.915455142543
 21
1643.134465030358
 31
0.0
  0
LINE
  5
992
330
2
100
AcDbEntity
  8
本体
  6
Continuous
100
AcDbLine
 10
1866.915455142543
 20
1262.134465030358
 30
0.0
 11
1916.915455142543
 21
1262.134465030358
 31
0.0
  0
LINE
  5
993
330
2
100
AcDbEntity
  8
本体
  6
Continuous
100
AcDbLine
 10
1866.915455142543
 20
1257.634465030358
 30
0.0
 11
1904.915455142543
 21
1257.634465030358
 31
0.0
  0
INSERT
  5
994
330
2
100
AcDbEntity
  8
本体
  6
Continuous
100
AcDbBlockReference
  2
TB8
 10
1866.915455142543
 20
1602.634465030358
 30
0.0
  0
INSERT
  5
995
330
2
100
AcDbEntity
  8
本体
  6
Continuous
100
AcDbBlockReference
  2
TB8
 10
1866.915455142543
 20
1502.634465030358
 30
0.0
  0
INSERT
  5
996
330
2
100
AcDbEntity
  8
本体
  6
Continuous
100
AcDbBlockReference
  2
TB8
 10
1866.915455142543
 20
1402.634465030358
 30
0.0
  0
INSERT
  5
997
330
2
100
AcDbEntity
  8
本体
  6
Continuous
100
AcDbBlockReference
  2
TB8
 10
1866.915455142543
 20
1302.634465030358
 30
0.0
  0
LINE
  5
998
330
2
100
AcDbEntity
  8
本体
  6
Continuous
100
AcDbLine
 10
517.9028993149404
 20
1647.634465030358
 30
0.0
 11
1124.90289931494
 21
1647.634465030358
 31
0.0
  0
LINE
  5
999
330
2
100
AcDbEntity
  8
本体
  6
Continuous
100
AcDbLine
 10
517.9028993149404
 20
1643.134465030358
 30
0.0
 11
1124.90289931494
 21
1643.134465030358
 31
0.0
  0
LINE
  5
99A
330
2
100
AcDbEntity
  8
本体
  6
Continuous
100
AcDbLine
 10
517.9028993149404
 20
1257.634465030358
 30
0.0
 11
1124.90289931494
 21
1257.634465030358
 31
0.0
  0
LINE
  5
99B
330
2
100
AcDbEntity
  8
本体
  6
Continuous
100
AcDbLine
 10
517.9028993149404
 20
1262.134465030358
 30
0.0
 11
1124.90289931494
 21
1262.134465030358
 31
0.0
  0
DIMENSION
  5
9DD
330
2
100
AcDbEntity
  8
寸法線
  6
Continuous
100
AcDbDimension
  2
*D7
 10
1706.915455142542
 20
1257.634465030358
 30
0.0
 11
1686.915455142542
 21
1452.634465030359
 31
0.0
 70
    32
 71
     5
 42
390.0
  3
ISO-25
100
AcDbAlignedDimension
 13
1866.915455142543
 23
1647.634465030358
 33
0.0
 14
1866.915455142543
 24
1257.634465030358
 34
0.0
 50
90.0
100
AcDbRotatedDimension
  0
LINE
  5
9E1
330
2
100
AcDbEntity
  8
本体
100
AcDbLine
 10
517.9028993149404
 20
713.5503863072108
 30
0.0
 11
524.9028993149404
 21
713.5503863072108
 31
0.0
  0
LINE
  5
9E2
330
2
100
AcDbEntity
  8
本体
100
AcDbLine
 10
517.9028993149404
 20
713.5503863072108
 30
0.0
 11
517.9028993149404
 21
703.5503863072108
 31
0.0
  0
LINE
  5
9E3
330
2
100
AcDbEntity
  8
本体
100
AcDbLine
 10
517.9028993149404
 20
703.5503863072108
 30
0.0
 11
519.4028993149404
 21
702.5503863072108
 31
0.0
  0
LINE
  5
9E4
330
2
100
AcDbEntity
  8
本体
100
AcDbLine
 10
524.9028993149404
 20
713.5503863072108
 30
0.0
 11
524.9028993149404
 21
703.5503863072108
 31
0.0
  0
LINE
  5
9E5
330
2
100
AcDbEntity
  8
本体
100
AcDbLine
 10
524.9028993149404
 20
703.5503863072108
 30
0.0
 11
523.4028993149404
 21
702.5503863072108
 31
0.0
  0
LINE
  5
9E6
330
2
100
AcDbEntity
  8
本体
100
AcDbLine
 10
517.9028993149404
 20
663.5503863072108
 30
0.0
 11
524.9028993149404
 21
663.5503863072108
 31
0.0
  0
LINE
  5
9E7
330
2
100
AcDbEntity
  8
本体
100
AcDbLine
 10
517.9028993149404
 20
663.5503863072108
 30
0.0
 11
517.9028993149404
 21
673.5503863072108
 31
0.0
  0
LINE
  5
9E8
330
2
100
AcDbEntity
  8
本体
100
AcDbLine
 10
517.9028993149404
 20
673.5503863072108
 30
0.0
 11
519.4028993149404
 21
674.5503863072108
 31
0.0
  0
LINE
  5
9E9
330
2
100
AcDbEntity
  8
本体
100
AcDbLine
 10
524.9028993149404
 20
663.5503863072108
 30
0.0
 11
524.9028993149404
 21
673.5503863072108
 31
0.0
  0
LINE
  5
9EA
330
2
100
AcDbEntity
  8
本体
100
AcDbLine
 10
524.9028993149404
 20
673.5503863072108
 30
0.0
 11
523.4028993149404
 21
674.5503863072108
 31
0.0
  0
LINE
  5
9EB
330
2
100
AcDbEntity
  8
本体
100
AcDbLine
 10
519.4028993149404
 20
702.5503863072108
 30
0.0
 11
519.4028993149404
 21
674.5503863072108
 31
0.0
  0
LINE
  5
9EC
330
2
100
AcDbEntity
  8
本体
100
AcDbLine
 10
523.4028993149404
 20
702.5503863072108
 30
0.0
 11
523.4028993149404
 21
674.5503863072108
 31
0.0
  0
LEADER
  5
9ED
330
2
100
AcDbEntity
  8
寸法線
  6
Continuous
100
AcDbLeader
  3
ISO-25
 73
     0
 74
     0
 75
     1
 40
30.0
 41
171.472081218274
 76
     3
 10
1123.965968718091
 20
1647.634465030358
 30
0.0
 10
1179.676646836746
 20
1718.345143149013
 30
0.0
 10
1194.676646836746
 20
1718.345143149013
 30
0.0
340
9EE
1001
ACAD
1000
DSTYLE
1002
{
1070
     5
1000
OPEN30
1070
    77
1070
     1
1070
   147
1040
0.5
1070
   342
1005
E2
1002
}
  0
MTEXT
  5
9EE
102
{ACAD_REACTORS
330
9ED
102
}
330
2
100
AcDbEntity
  8
寸法線
  6
Continuous
100
AcDbMText
 10
1199.676646836746
 20
1723.345143149013
 30
0.0
 40
30.0
 41
0.0
 71
     7
 72
     1
  1
FB4.5\U+00D738
 73
     1
 44
1.0
1001
ACAD
1000
MTEXTBEGIN
1070
    73
1070
     1
1070
    44
1040
1.0
1070
    74
1070
     0
1000
MTEXTEND
  0
DIMENSION
  5
9EF
330
2
100
AcDbEntity
  8
寸法線
  6
Continuous
100
AcDbDimension
  2
*D8
 10
1234.902899314941
 20
663.5503863072107
 30
0.0
 11
1234.902899314941
 21
641.0503863072108
 31
0.0
 70
   160
 71
     5
 42
45.0
  3
ISO-25
100
AcDbAlignedDimension
 13
1121.402899314941
 23
618.5503863072106
 33
0.0
 14
1121.402899314941
 24
663.5503863072107
 34
0.0
 50
270.0
100
AcDbRotatedDimension
  0
DIMENSION
  5
9F0
330
2
100
AcDbEntity
  8
寸法線
  6
Continuous
100
AcDbDimension
  2
*D9
 10
1234.902899314941
 20
713.5503863072107
 30
0.0
 11
1214.902899314941
 21
688.5503863072108
 31
0.0
 70
    32
 71
     5
 42
50.0
  3
ISO-25
100
AcDbAlignedDimension
 13
1121.402899314941
 23
663.5503863072107
 33
0.0
 14
1124.902899314941
 24
713.5503863072107
 34
0.0
 50
270.0
100
AcDbRotatedDimension
  0
DIMENSION
  5
9F1
330
2
100
AcDbEntity
  8
寸法線
  6
Continuous
100
AcDbDimension
  2
*D10
 10
1314.902899314941
 20
613.5503863072107
 30
0.0
 11
1294.90289931494
 21
663.5503863072109
 31
0.0
 70
    32
 71
     5
 42
99.99999999999989
  3
ISO-25
100
AcDbAlignedDimension
 13
1144.902899314941
 23
713.5503863072107
 33
0.0
 14
1144.902899314941
 24
613.5503863072108
 34
0.0
 50
90.0
100
AcDbRotatedDimension
  0
LINE
  5
9F3
330
2
100
AcDbEntity
  8
本体
  6
Continuous
100
AcDbLine
 10
524.9028993149404
 20
1262.134465030358
 30
0.0
 11
524.9028993149404
 21
1299.634465030358
 31
0.0
  0
LINE
  5
A14
330
2
100
AcDbEntity
  8
本体
  6
Continuous
100
AcDbLine
 10
1117.90289931494
 20
1643.134465030358
 30
0.0
 11
1117.90289931494
 21
1605.634465030358
 31
0.0
  0
LEADER
  5
A16
330
2
100
AcDbEntity
  8
寸法線
  6
Continuous
100
AcDbLeader
  3
ISO-25
 73
     0
 74
     0
 75
     1
 40
31.82741116751269
 41
385.4314720812182
 76
     3
 10
1941.915452142542
 20
1637.634466030358
 30
0.0
 10
1997.626130261197
 20
1713.345144149013
 30
0.0
 10
2012.626130261198
 20
1713.345144149013
 30
0.0
340
A17
1001
ACAD
1000
DSTYLE
1002
{
1070
     5
1000
OPEN30
1070
    77
1070
     1
1070
   147
1040
0.5
1070
   342
1005
E2
1002
}
  0
MTEXT
  5
A17
102
{ACAD_REACTORS
330
A16
102
}
330
2
100
AcDbEntity
  8
寸法線
  6
Continuous
100
AcDbMText
 10
2017.626130261197
 20
1718.345144149013
 30
0.0
 40
30.0
 41
0.0
 71
     7
 72
     1
  1
P2.3\U+00D745\U+00D740+HGRゴム
 73
     1
 44
1.0
1001
ACAD
1000
MTEXTBEGIN
1070
    73
1070
     1
1070
    44
1040
1.0
1070
    74
1070
     0
1000
MTEXTEND
  0
LINE
  5
A5B
330
2
100
AcDbEntity
  8
本体
  6
Continuous
100
AcDbLine
 10
1082.702899314941
 20
1599.634465030358
 30
0.0
 11
1118.002899314941
 21
1605.634465030358
 31
0.0
  0
LINE
  5
A5F
330
2
100
AcDbEntity
  8
本体
  6
Continuous
100
AcDbLine
 10
1118.002899314941
 20
1599.634465030358
 30
0.0
 11
1124.90289931494
 21
1600.807269562936
 31
0.0
  0
DIMENSION
  5
A62
330
2
100
AcDbEntity
  8
寸法線
  6
Continuous
100
AcDbDimension
  2
*D11
 10
945.0028993149407
 20
793.5503863072108
 30
0.0
 11
1017.007975457073
 21
813.5503863072107
 31
0.0
 70
    32
 71
     5
 42
35.30000000000018
  3
ISO-25
100
AcDbAlignedDimension
 13
909.7028993149406
 23
713.5503863072107
 33
0.0
 14
945.0028993149407
 24
713.5503863072107
 34
0.0
100
AcDbRotatedDimension
1001
ACAD
1000
DSTYLE
1002
{
1070
   279
1070
     0
1002
}
  0
LINE
  5
A69
330
2
100
AcDbEntity
  8
嵩上断面
  6
Continuous
100
AcDbLine
 10
521.4028993149404
 20
618.5503863072108
 30
0.0
 11
1121.402899314941
 21
618.5503863072108
 31
0.0
  0
LINE
  5
A6A
330
2
100
AcDbEntity
  8
嵩上断面
  6
Continuous
100
AcDbLine
 10
1121.402899314941
 20
618.5503863072108
 30
0.0
 11
1121.402899314941
 21
663.5503863072108
 31
0.0
  0
LINE
  5
A6B
330
2
100
AcDbEntity
  8
エンボス
  6
Continuous
100
AcDbLine
 10
524.9028993149404
 20
1640.498559030358
 30
0.0
 11
517.9028993149404
 21
1638.498559030358
 31
0.0
  0
LINE
  5
A6C
330
2
100
AcDbEntity
  8
エンボス
  6
Continuous
100
AcDbLine
 10
517.9028993149404
 20
1629.498559030358
 30
0.0
 11
524.9028993149404
 21
1631.498559030358
 31
0.0
  0
LINE
  5
A6D
330
2
100
AcDbEntity
  8
エンボス
  6
Continuous
100
AcDbLine
 10
524.9028993149404
 20
1624.498559030358
 30
0.0
 11
517.9028993149404
 21
1626.498559030358
 31
0.0
  0
LINE
  5
A6E
330
2
100
AcDbEntity
  8
エンボス
  6
Continuous
100
AcDbLine
 10
524.9028993149404
 20
1612.498559030359
 30
0.0
 11
517.9028993149404
 21
1610.498559030358
 31
0.0
  0
LINE
  5
A6F
330
2
100
AcDbEntity
  8
エンボス
  6
Continuous
100
AcDbLine
 10
517.9028993149404
 20
1617.498559030358
 30
0.0
 11
524.9028993149404
 21
1615.498559030358
 31
0.0
  0
LINE
  5
A70
330
2
100
AcDbEntity
  8
エンボス
  6
Continuous
100
AcDbLine
 10
524.9028993149404
 20
1592.134465030359
 30
0.0
 11
517.9028993149404
 21
1590.134465030359
 31
0.0
  0
LINE
  5
A71
330
2
100
AcDbEntity
  8
エンボス
  6
Continuous
100
AcDbLine
 10
517.9028993149404
 20
1587.134465030358
 30
0.0
 11
524.9028993149404
 21
1585.134465030358
 31
0.0
  0
LINE
  5
A72
330
2
100
AcDbEntity
  8
エンボス
  6
Continuous
100
AcDbLine
 10
517.9028993149404
 20
1578.134465030358
 30
0.0
 11
524.9028993149404
 21
1576.134465030358
 31
0.0
  0
LINE
  5
A73
330
2
100
AcDbEntity
  8
エンボス
  6
Continuous
100
AcDbLine
 10
524.9028993149404
 20
1573.134465030358
 30
0.0
 11
517.9028993149404
 21
1571.134465030358
 31
0.0
  0
LINE
  5
A74
330
2
100
AcDbEntity
  8
エンボス
  6
Continuous
100
AcDbLine
 10
524.9028993149404
 20
1564.134465030358
 30
0.0
 11
517.9028993149404
 21
1562.134465030358
 31
0.0
  0
LINE
  5
A75
330
2
100
AcDbEntity
  8
エンボス
  6
Continuous
100
AcDbLine
 10
517.9028993149404
 20
1559.134465030358
 30
0.0
 11
524.9028993149404
 21
1557.134465030358
 31
0.0
  0
LINE
  5
A7C
330
2
100
AcDbEntity
  8
エンボス
  6
Continuous
100
AcDbLine
 10
1124.90289931494
 20
1612.498559030359
 30
0.0
 11
1117.90289931494
 21
1610.498559030358
 31
0.0
  0
LINE
  5
A7D
330
2
100
AcDbEntity
  8
エンボス
  6
Continuous
100
AcDbLine
 10
1117.90289931494
 20
1617.498559030358
 30
0.0
 11
1124.90289931494
 21
1615.498559030358
 31
0.0
  0
LINE
  5
A7E
330
2
100
AcDbEntity
  8
エンボス
  6
Continuous
100
AcDbLine
 10
1124.90289931494
 20
1624.498559030358
 30
0.0
 11
1117.90289931494
 21
1626.498559030358
 31
0.0
  0
LINE
  5
A7F
330
2
100
AcDbEntity
  8
エンボス
  6
Continuous
100
AcDbLine
 10
1117.90289931494
 20
1629.498559030358
 30
0.0
 11
1124.90289931494
 21
1631.498559030358
 31
0.0
  0
LINE
  5
A80
330
2
100
AcDbEntity
  8
エンボス
  6
Continuous
100
AcDbLine
 10
1124.90289931494
 20
1640.498559030358
 30
0.0
 11
1117.90289931494
 21
1638.498559030358
 31
0.0
  0
LINE
  5
A99
330
2
100
AcDbEntity
  8
エンボス
  6
Continuous
100
AcDbLine
 10
1117.90289931494
 20
1578.134465030358
 30
0.0
 11
1124.90289931494
 21
1576.134465030358
 31
0.0
  0
LINE
  5
AA0
330
2
100
AcDbEntity
  8
エンボス
  6
Continuous
100
AcDbLine
 10
1117.90289931494
 20
1559.134465030358
 30
0.0
 11
1124.90289931494
 21
1557.134465030358
 31
0.0
  0
LINE
  5
AA1
330
2
100
AcDbEntity
  8
エンボス
  6
Continuous
100
AcDbLine
 10
1124.90289931494
 20
1564.134465030358
 30
0.0
 11
1117.90289931494
 21
1562.134465030358
 31
0.0
  0
LINE
  5
AA2
330
2
100
AcDbEntity
  8
エンボス
  6
Continuous
100
AcDbLine
 10
1124.90289931494
 20
1573.134465030358
 30
0.0
 11
1117.90289931494
 21
1571.134465030358
 31
0.0
  0
LINE
  5
AA3
330
2
100
AcDbEntity
  8
エンボス
  6
Continuous
100
AcDbLine
 10
1117.90289931494
 20
1587.134465030358
 30
0.0
 11
1124.90289931494
 21
1585.134465030358
 31
0.0
  0
LINE
  5
AA4
330
2
100
AcDbEntity
  8
エンボス
  6
Continuous
100
AcDbLine
 10
1124.90289931494
 20
1592.134465030359
 30
0.0
 11
1117.90289931494
 21
1590.134465030359
 31
0.0
  0
LINE
  5
ABD
330
2
100
AcDbEntity
  8
エンボス
  6
Continuous
100
AcDbLine
 10
524.9028993149404
 20
1292.770371030358
 30
0.0
 11
517.9028993149404
 21
1294.770371030358
 31
0.0
  0
LINE
  5
ABE
330
2
100
AcDbEntity
  8
エンボス
  6
Continuous
100
AcDbLine
 10
517.9028993149404
 20
1287.770371030358
 30
0.0
 11
524.9028993149404
 21
1289.770371030358
 31
0.0
  0
LINE
  5
ABF
330
2
100
AcDbEntity
  8
エンボス
  6
Continuous
100
AcDbLine
 10
524.9028993149404
 20
1280.770371030358
 30
0.0
 11
517.9028993149404
 21
1278.770371030358
 31
0.0
  0
LINE
  5
AC0
330
2
100
AcDbEntity
  8
エンボス
  6
Continuous
100
AcDbLine
 10
517.9028993149404
 20
1275.770371030358
 30
0.0
 11
524.9028993149404
 21
1273.770371030358
 31
0.0
  0
LINE
  5
AC1
330
2
100
AcDbEntity
  8
エンボス
  6
Continuous
100
AcDbLine
 10
524.9028993149404
 20
1264.770371030359
 30
0.0
 11
517.9028993149404
 21
1266.770371030358
 31
0.0
  0
LINE
  5
AC2
330
2
100
AcDbEntity
  8
エンボス
100
AcDbLine
 10
1124.90289931494
 20
1292.770371030358
 30
0.0
 11
1124.90289931494
 21
1289.770371030358
 31
0.0
  0
LINE
  5
AC5
330
2
100
AcDbEntity
  8
エンボス
  6
Continuous
100
AcDbLine
 10
1124.90289931494
 20
1292.770371030358
 30
0.0
 11
1117.90289931494
 21
1294.770371030358
 31
0.0
  0
LINE
  5
AC7
330
2
100
AcDbEntity
  8
エンボス
  6
Continuous
100
AcDbLine
 10
1124.90289931494
 20
1264.770371030359
 30
0.0
 11
1117.90289931494
 21
1266.770371030358
 31
0.0
  0
LINE
  5
AC9
330
2
100
AcDbEntity
  8
エンボス
  6
Continuous
100
AcDbLine
 10
1117.90289931494
 20
1275.770371030358
 30
0.0
 11
1124.90289931494
 21
1273.770371030358
 31
0.0
  0
LINE
  5
ACA
330
2
100
AcDbEntity
  8
エンボス
  6
Continuous
100
AcDbLine
 10
1124.90289931494
 20
1280.770371030358
 30
0.0
 11
1117.90289931494
 21
1278.770371030358
 31
0.0
  0
LINE
  5
ACD
330
2
100
AcDbEntity
  8
エンボス
  6
Continuous
100
AcDbLine
 10
1117.90289931494
 20
1287.770371030358
 30
0.0
 11
1124.90289931494
 21
1289.770371030358
 31
0.0
  0
LINE
  5
ACE
330
2
100
AcDbEntity
  8
本体
  6
Continuous
100
AcDbLine
 10
1124.90289931494
 20
1257.634465030358
 30
0.0
 11
1124.90289931494
 21
1647.634465030358
 31
0.0
  0
LINE
  5
AF4
330
2
100
AcDbEntity
  8
ゴム
  6
Continuous
100
AcDbLine
 10
521.4028993149404
 20
618.5503863072108
 30
0.0
 11
521.4028993149404
 21
613.5503863072108
 31
0.0
  0
LINE
  5
AF5
330
2
100
AcDbEntity
  8
ゴム
  6
Continuous
100
AcDbLine
 10
521.4028993149404
 20
613.5503863072108
 30
0.0
 11
1121.402899314941
 21
613.5503863072108
 31
0.0
  0
LINE
  5
AF6
330
2
100
AcDbEntity
  8
ゴム
  6
Continuous
100
AcDbLine
 10
1121.402899314941
 20
613.5503863072108
 30
0.0
 11
1121.402899314941
 21
618.5503863072108
 31
0.0
  0
DIMENSION
  5
AF8
330
2
100
AcDbEntity
  8
寸法線
  6
Continuous
100
AcDbDimension
  2
*D12
 10
1234.902899314941
 20
613.5503863072108
 30
0.0
 11
1214.902899314941
 21
570.783888845282
 31
0.0
 70
    32
 71
     5
 42
4.999999999999886
  3
ISO-25
100
AcDbAlignedDimension
 13
1121.402899314941
 23
618.5503863072106
 33
0.0
 14
1120.402899314941
 24
613.5503863072108
 34
0.0
 50
90.0
100
AcDbRotatedDimension
  0
LINE
  5
B04
330
2
100
AcDbEntity
  8
寸法線
  6
Continuous
100
AcDbLine
 10
909.7028993149406
 20
721.5503863072108
 30
0.0
 11
909.7028993149406
 21
655.5503863072108
 31
0.0
  0
LINE
  5
B05
330
2
100
AcDbEntity
  8
寸法線
  6
Continuous
100
AcDbLine
 10
945.0028993149407
 20
721.5503863072106
 30
0.0
 11
945.0028993149407
 21
655.5503863072106
 31
0.0
  0
DIMENSION
  5
DE7
330
2
100
AcDbEntity
  8
寸法線
  6
Continuous
100
AcDbDimension
  2
*D6
 10
2046.915457071114
 20
1637.634466030358
 30
0.0
 11
2026.915457071114
 21
1452.634465030359
 31
0.0
 70
    32
 71
     5
 42
370.000002
  3
ISO-25
100
AcDbAlignedDimension
 13
1966.915452142542
 23
1267.634464030358
 33
0.0
 14
1966.915452142542
 24
1637.634466030358
 34
0.0
 50
90.0
100
AcDbRotatedDimension
  0
LINE
  5
F40
330
2
100
AcDbEntity
  8
嵩上平面
  6
HIDDEN
 48
3.0
370
     9
100
AcDbLine
 10
520.4028993149404
 20
1637.634466030358
 30
0.0
 11
1122.502899314941
 21
1637.634466030358
 31
0.0
  0
LINE
  5
F41
330
2
100
AcDbEntity
  8
嵩上平面
  6
HIDDEN
 48
3.0
370
     9
100
AcDbLine
 10
520.4028993149404
 20
1597.634466030358
 30
0.0
 11
1122.502899314941
 21
1597.634466030358
 31
0.0
  0
LINE
  5
F43
330
2
100
AcDbEntity
  8
嵩上平面
  6
HIDDEN
 48
3.0
370
     9
100
AcDbLine
 10
520.4028993149404
 20
1267.634464030358
 30
0.0
 11
1122.502899314941
 21
1267.634464030358
 31
0.0
  0
LINE
  5
F44
330
2
100
AcDbEntity
  8
嵩上平面
  6
HIDDEN
 48
3.0
370
     9
100
AcDbLine
 10
1122.502899314941
 20
1637.634466030358
 30
0.0
 11
1122.502899314941
 21
1597.634466030358
 31
0.0
  0
LINE
  5
F45
330
2
100
AcDbEntity
  8
嵩上平面
  6
HIDDEN
 48
3.0
370
     9
100
AcDbLine
 10
520.4028993149404
 20
1637.634466030358
 30
0.0
 11
520.4028993149404
 21
1597.634466030358
 31
0.0
  0
LINE
  5
F46
330
2
100
AcDbEntity
  8
嵩上平面
  6
HIDDEN
 48
3.0
370
     9
100
AcDbLine
 10
520.4028993149404
 20
1307.634464030358
 30
0.0
 11
520.4028993149404
 21
1267.634464030358
 31
0.0
  0
LINE
  5
F47
330
2
100
AcDbEntity
  8
嵩上平面
  6
HIDDEN
 48
3.0
370
     9
100
AcDbLine
 10
1122.502899314941
 20
1307.634464030358
 30
0.0
 11
1122.502899314941
 21
1267.634464030358
 31
0.0
  0
INSERT
  5
F64
330
2
100
AcDbEntity
  8
本体
  6
Continuous
100
AcDbBlockReference
  2
TB8
 10
1866.915455142543
 20
1352.634465030358
 30
0.0
  0
INSERT
  5
F65
330
2
100
AcDbEntity
  8
本体
  6
Continuous
100
AcDbBlockReference
  2
TB8
 10
1866.915455142543
 20
1452.634465030358
 30
0.0
  0
INSERT
  5
F66
330
2
100
AcDbEntity
  8
本体
  6
Continuous
100
AcDbBlockReference
  2
TB8
 10
1866.915455142543
 20
1552.634465030358
 30
0.0
  0
DIMENSION
  5
F67
330
2
100
AcDbEntity
  8
寸法線
 48
3.0
100
AcDbDimension
  2
*D13
 10
1786.915455142542
 20
1552.634465030358
 30
0.0
 11
1766.915455142542
 21
1577.634465030359
 31
0.0
 70
    32
 71
     5
 42
50.0
  3
ISO-25
100
AcDbAlignedDimension
 13
1864.915455142542
 23
1602.634465030358
 33
0.0
 14
1864.915455142542
 24
1552.634465030358
 34
0.0
 50
90.0
100
AcDbRotatedDimension
  0
LINE
  5
F7E
330
2
100
AcDbEntity
  8
エンボス
  6
Continuous
100
AcDbLine
 10
517.9028993149404
 20
1509.134465030358
 30
0.0
 11
524.9028993149404
 21
1507.134465030359
 31
0.0
  0
LINE
  5
F7F
330
2
100
AcDbEntity
  8
エンボス
  6
Continuous
100
AcDbLine
 10
524.9028993149404
 20
1514.134465030358
 30
0.0
 11
517.9028993149404
 21
1512.134465030358
 31
0.0
  0
LINE
  5
F80
330
2
100
AcDbEntity
  8
エンボス
  6
Continuous
100
AcDbLine
 10
524.9028993149404
 20
1523.134465030358
 30
0.0
 11
517.9028993149404
 21
1521.134465030358
 31
0.0
  0
LINE
  5
F81
330
2
100
AcDbEntity
  8
エンボス
  6
Continuous
100
AcDbLine
 10
517.9028993149404
 20
1528.134465030358
 30
0.0
 11
524.9028993149404
 21
1526.134465030358
 31
0.0
  0
LINE
  5
F82
330
2
100
AcDbEntity
  8
エンボス
  6
Continuous
100
AcDbLine
 10
517.9028993149404
 20
1537.134465030358
 30
0.0
 11
524.9028993149404
 21
1535.134465030358
 31
0.0
  0
LINE
  5
F83
330
2
100
AcDbEntity
  8
エンボス
  6
Continuous
100
AcDbLine
 10
524.9028993149404
 20
1542.134465030359
 30
0.0
 11
517.9028993149404
 21
1540.134465030359
 31
0.0
  0
LINE
  5
F85
330
2
100
AcDbEntity
  8
本体
  6
Continuous
100
AcDbLine
 10
517.9028993149404
 20
1549.634465030358
 30
0.0
 11
1124.90289931494
 21
1549.634465030358
 31
0.0
  0
LINE
  5
F86
330
2
100
AcDbEntity
  8
本体
  6
Continuous
100
AcDbLine
 10
517.9028993149404
 20
1555.634465030358
 30
0.0
 11
1124.90289931494
 21
1555.634465030358
 31
0.0
  0
LINE
  5
F88
330
2
100
AcDbEntity
  8
本体
  6
Continuous
100
AcDbLine
 10
517.9028993149404
 20
1549.634465030358
 30
0.0
 11
517.9028993149404
 21
1505.634465030358
 31
0.0
  0
LINE
  5
F8A
330
2
100
AcDbEntity
  8
本体
  6
Continuous
100
AcDbLine
 10
1082.702899314941
 20
1549.634465030358
 30
0.0
 11
1118.002899314941
 21
1555.634465030358
 31
0.0
  0
LINE
  5
F9A
330
2
100
AcDbEntity
  8
本体
  6
Continuous
100
AcDbLine
 10
524.9028993149404
 20
1549.634465030358
 30
0.0
 11
524.9028993149404
 21
1505.634465030358
 31
0.0
  0
LINE
  5
1013
330
2
100
AcDbEntity
  8
エンボス
  6
Continuous
100
AcDbLine
 10
1124.90289931494
 20
1542.134465030359
 30
0.0
 11
1117.90289931494
 21
1540.134465030359
 31
0.0
  0
LINE
  5
1014
330
2
100
AcDbEntity
  8
エンボス
  6
Continuous
100
AcDbLine
 10
1117.90289931494
 20
1537.134465030358
 30
0.0
 11
1124.90289931494
 21
1535.134465030358
 31
0.0
  0
LINE
  5
1015
330
2
100
AcDbEntity
  8
エンボス
  6
Continuous
100
AcDbLine
 10
1124.90289931494
 20
1523.134465030358
 30
0.0
 11
1117.90289931494
 21
1521.134465030358
 31
0.0
  0
LINE
  5
1016
330
2
100
AcDbEntity
  8
エンボス
  6
Continuous
100
AcDbLine
 10
1124.90289931494
 20
1514.134465030358
 30
0.0
 11
1117.90289931494
 21
1512.134465030358
 31
0.0
  0
LINE
  5
1017
330
2
100
AcDbEntity
  8
エンボス
  6
Continuous
100
AcDbLine
 10
1117.90289931494
 20
1509.134465030358
 30
0.0
 11
1124.90289931494
 21
1507.134465030359
 31
0.0
  0
LINE
  5
1018
330
2
100
AcDbEntity
  8
エンボス
  6
Continuous
100
AcDbLine
 10
1117.90289931494
 20
1528.134465030358
 30
0.0
 11
1124.90289931494
 21
1526.134465030358
 31
0.0
  0
LINE
  5
1019
330
2
100
AcDbEntity
  8
本体
  6
Continuous
100
AcDbLine
 10
1118.002899314941
 20
1549.634465030358
 30
0.0
 11
1124.90289931494
 21
1550.807269562937
 31
0.0
  0
LINE
  5
101C
330
2
100
AcDbEntity
  8
本体
  6
Continuous
100
AcDbLine
 10
1117.90289931494
 20
1549.634465030358
 30
0.0
 11
1117.90289931494
 21
1505.634465030358
 31
0.0
  0
LINE
  5
1023
330
2
100
AcDbEntity
  8
本体
  6
Continuous
100
AcDbLine
 10
1124.90289931494
 20
1549.634465030358
 30
0.0
 11
1124.90289931494
 21
1505.634465030358
 31
0.0
  0
LINE
  5
1025
330
2
100
AcDbEntity
  8
エンボス
  6
Continuous
100
AcDbLine
 10
517.9028993149404
 20
1459.134465030358
 30
0.0
 11
524.9028993149404
 21
1457.134465030359
 31
0.0
  0
LINE
  5
1026
330
2
100
AcDbEntity
  8
エンボス
  6
Continuous
100
AcDbLine
 10
524.9028993149404
 20
1464.134465030358
 30
0.0
 11
517.9028993149404
 21
1462.134465030358
 31
0.0
  0
LINE
  5
1027
330
2
100
AcDbEntity
  8
エンボス
  6
Continuous
100
AcDbLine
 10
524.9028993149404
 20
1473.134465030358
 30
0.0
 11
517.9028993149404
 21
1471.134465030358
 31
0.0
  0
LINE
  5
1028
330
2
100
AcDbEntity
  8
エンボス
  6
Continuous
100
AcDbLine
 10
517.9028993149404
 20
1478.134465030358
 30
0.0
 11
524.9028993149404
 21
1476.134465030358
 31
0.0
  0
LINE
  5
1029
330
2
100
AcDbEntity
  8
エンボス
  6
Continuous
100
AcDbLine
 10
517.9028993149404
 20
1487.134465030358
 30
0.0
 11
524.9028993149404
 21
1485.134465030358
 31
0.0
  0
LINE
  5
102A
330
2
100
AcDbEntity
  8
エンボス
  6
Continuous
100
AcDbLine
 10
524.9028993149404
 20
1492.134465030359
 30
0.0
 11
517.9028993149404
 21
1490.134465030358
 31
0.0
  0
LINE
  5
102C
330
2
100
AcDbEntity
  8
本体
  6
Continuous
100
AcDbLine
 10
517.9028993149404
 20
1499.634465030358
 30
0.0
 11
1124.90289931494
 21
1499.634465030358
 31
0.0
  0
LINE
  5
102D
330
2
100
AcDbEntity
  8
本体
  6
Continuous
100
AcDbLine
 10
517.9028993149404
 20
1505.634465030358
 30
0.0
 11
1124.90289931494
 21
1505.634465030358
 31
0.0
  0
LINE
  5
102F
330
2
100
AcDbEntity
  8
本体
  6
Continuous
100
AcDbLine
 10
517.9028993149404
 20
1499.634465030358
 30
0.0
 11
517.9028993149404
 21
1455.634465030358
 31
0.0
  0
LINE
  5
1031
330
2
100
AcDbEntity
  8
本体
  6
Continuous
100
AcDbLine
 10
1082.702899314941
 20
1499.634465030358
 30
0.0
 11
1118.002899314941
 21
1505.634465030358
 31
0.0
  0
LINE
  5
1041
330
2
100
AcDbEntity
  8
本体
  6
Continuous
100
AcDbLine
 10
524.9028993149404
 20
1499.634465030358
 30
0.0
 11
524.9028993149404
 21
1455.634465030358
 31
0.0
  0
LINE
  5
10BA
330
2
100
AcDbEntity
  8
エンボス
  6
Continuous
100
AcDbLine
 10
1124.90289931494
 20
1492.134465030359
 30
0.0
 11
1117.90289931494
 21
1490.134465030358
 31
0.0
  0
LINE
  5
10BB
330
2
100
AcDbEntity
  8
エンボス
  6
Continuous
100
AcDbLine
 10
1117.90289931494
 20
1487.134465030358
 30
0.0
 11
1124.90289931494
 21
1485.134465030358
 31
0.0
  0
LINE
  5
10BC
330
2
100
AcDbEntity
  8
エンボス
  6
Continuous
100
AcDbLine
 10
1124.90289931494
 20
1473.134465030358
 30
0.0
 11
1117.90289931494
 21
1471.134465030358
 31
0.0
  0
LINE
  5
10BD
330
2
100
AcDbEntity
  8
エンボス
  6
Continuous
100
AcDbLine
 10
1124.90289931494
 20
1464.134465030358
 30
0.0
 11
1117.90289931494
 21
1462.134465030358
 31
0.0
  0
LINE
  5
10BE
330
2
100
AcDbEntity
  8
エンボス
  6
Continuous
100
AcDbLine
 10
1117.90289931494
 20
1459.134465030358
 30
0.0
 11
1124.90289931494
 21
1457.134465030359
 31
0.0
  0
LINE
  5
10BF
330
2
100
AcDbEntity
  8
エンボス
  6
Continuous
100
AcDbLine
 10
1117.90289931494
 20
1478.134465030358
 30
0.0
 11
1124.90289931494
 21
1476.134465030358
 31
0.0
  0
LINE
  5
10C0
330
2
100
AcDbEntity
  8
本体
  6
Continuous
100
AcDbLine
 10
1118.002899314941
 20
1499.634465030358
 30
0.0
 11
1124.90289931494
 21
1500.807269562936
 31
0.0
  0
LINE
  5
10C3
330
2
100
AcDbEntity
  8
本体
  6
Continuous
100
AcDbLine
 10
1117.90289931494
 20
1499.634465030358
 30
0.0
 11
1117.90289931494
 21
1455.634465030358
 31
0.0
  0
LINE
  5
10CA
330
2
100
AcDbEntity
  8
本体
  6
Continuous
100
AcDbLine
 10
1124.90289931494
 20
1499.634465030358
 30
0.0
 11
1124.90289931494
 21
1455.634465030358
 31
0.0
  0
LINE
  5
10CC
330
2
100
AcDbEntity
  8
エンボス
  6
Continuous
100
AcDbLine
 10
517.9028993149404
 20
1409.134465030358
 30
0.0
 11
524.9028993149404
 21
1407.134465030359
 31
0.0
  0
LINE
  5
10CD
330
2
100
AcDbEntity
  8
エンボス
  6
Continuous
100
AcDbLine
 10
524.9028993149404
 20
1414.134465030358
 30
0.0
 11
517.9028993149404
 21
1412.134465030358
 31
0.0
  0
LINE
  5
10CE
330
2
100
AcDbEntity
  8
エンボス
  6
Continuous
100
AcDbLine
 10
524.9028993149404
 20
1423.134465030358
 30
0.0
 11
517.9028993149404
 21
1421.134465030358
 31
0.0
  0
LINE
  5
10CF
330
2
100
AcDbEntity
  8
エンボス
  6
Continuous
100
AcDbLine
 10
517.9028993149404
 20
1428.134465030358
 30
0.0
 11
524.9028993149404
 21
1426.134465030358
 31
0.0
  0
LINE
  5
10D0
330
2
100
AcDbEntity
  8
エンボス
  6
Continuous
100
AcDbLine
 10
517.9028993149404
 20
1437.134465030358
 30
0.0
 11
524.9028993149404
 21
1435.134465030358
 31
0.0
  0
LINE
  5
10D1
330
2
100
AcDbEntity
  8
エンボス
  6
Continuous
100
AcDbLine
 10
524.9028993149404
 20
1442.134465030358
 30
0.0
 11
517.9028993149404
 21
1440.134465030358
 31
0.0
  0
LINE
  5
10D3
330
2
100
AcDbEntity
  8
本体
  6
Continuous
100
AcDbLine
 10
517.9028993149404
 20
1449.634465030358
 30
0.0
 11
1124.90289931494
 21
1449.634465030358
 31
0.0
  0
LINE
  5
10D4
330
2
100
AcDbEntity
  8
本体
  6
Continuous
100
AcDbLine
 10
517.9028993149404
 20
1455.634465030358
 30
0.0
 11
1124.90289931494
 21
1455.634465030358
 31
0.0
  0
LINE
  5
10D6
330
2
100
AcDbEntity
  8
本体
  6
Continuous
100
AcDbLine
 10
517.9028993149404
 20
1449.634465030358
 30
0.0
 11
517.9028993149404
 21
1405.634465030358
 31
0.0
  0
LINE
  5
10D8
330
2
100
AcDbEntity
  8
本体
  6
Continuous
100
AcDbLine
 10
1082.702899314941
 20
1449.634465030358
 30
0.0
 11
1118.002899314941
 21
1455.634465030358
 31
0.0
  0
LINE
  5
10E8
330
2
100
AcDbEntity
  8
本体
  6
Continuous
100
AcDbLine
 10
524.9028993149404
 20
1449.634465030358
 30
0.0
 11
524.9028993149404
 21
1405.634465030358
 31
0.0
  0
LINE
  5
1161
330
2
100
AcDbEntity
  8
エンボス
  6
Continuous
100
AcDbLine
 10
1124.90289931494
 20
1442.134465030358
 30
0.0
 11
1117.90289931494
 21
1440.134465030358
 31
0.0
  0
LINE
  5
1162
330
2
100
AcDbEntity
  8
エンボス
  6
Continuous
100
AcDbLine
 10
1117.90289931494
 20
1437.134465030358
 30
0.0
 11
1124.90289931494
 21
1435.134465030358
 31
0.0
  0
LINE
  5
1163
330
2
100
AcDbEntity
  8
エンボス
  6
Continuous
100
AcDbLine
 10
1124.90289931494
 20
1423.134465030358
 30
0.0
 11
1117.90289931494
 21
1421.134465030358
 31
0.0
  0
LINE
  5
1164
330
2
100
AcDbEntity
  8
エンボス
  6
Continuous
100
AcDbLine
 10
1124.90289931494
 20
1414.134465030358
 30
0.0
 11
1117.90289931494
 21
1412.134465030358
 31
0.0
  0
LINE
  5
1165
330
2
100
AcDbEntity
  8
エンボス
  6
Continuous
100
AcDbLine
 10
1117.90289931494
 20
1409.134465030358
 30
0.0
 11
1124.90289931494
 21
1407.134465030359
 31
0.0
  0
LINE
  5
1166
330
2
100
AcDbEntity
  8
エンボス
  6
Continuous
100
AcDbLine
 10
1117.90289931494
 20
1428.134465030358
 30
0.0
 11
1124.90289931494
 21
1426.134465030358
 31
0.0
  0
LINE
  5
1167
330
2
100
AcDbEntity
  8
本体
  6
Continuous
100
AcDbLine
 10
1118.002899314941
 20
1449.634465030358
 30
0.0
 11
1124.90289931494
 21
1450.807269562936
 31
0.0
  0
LINE
  5
116A
330
2
100
AcDbEntity
  8
本体
  6
Continuous
100
AcDbLine
 10
1117.90289931494
 20
1449.634465030358
 30
0.0
 11
1117.90289931494
 21
1405.634465030358
 31
0.0
  0
LINE
  5
1171
330
2
100
AcDbEntity
  8
本体
  6
Continuous
100
AcDbLine
 10
1124.90289931494
 20
1449.634465030358
 30
0.0
 11
1124.90289931494
 21
1405.634465030358
 31
0.0
  0
LINE
  5
1173
330
2
100
AcDbEntity
  8
エンボス
  6
Continuous
100
AcDbLine
 10
517.9028993149404
 20
1359.134465030358
 30
0.0
 11
524.9028993149404
 21
1357.134465030358
 31
0.0
  0
LINE
  5
1174
330
2
100
AcDbEntity
  8
エンボス
  6
Continuous
100
AcDbLine
 10
524.9028993149404
 20
1364.134465030358
 30
0.0
 11
517.9028993149404
 21
1362.134465030358
 31
0.0
  0
LINE
  5
1175
330
2
100
AcDbEntity
  8
エンボス
  6
Continuous
100
AcDbLine
 10
524.9028993149404
 20
1373.134465030358
 30
0.0
 11
517.9028993149404
 21
1371.134465030358
 31
0.0
  0
LINE
  5
1176
330
2
100
AcDbEntity
  8
エンボス
  6
Continuous
100
AcDbLine
 10
517.9028993149404
 20
1378.134465030358
 30
0.0
 11
524.9028993149404
 21
1376.134465030358
 31
0.0
  0
LINE
  5
1177
330
2
100
AcDbEntity
  8
エンボス
  6
Continuous
100
AcDbLine
 10
517.9028993149404
 20
1387.134465030358
 30
0.0
 11
524.9028993149404
 21
1385.134465030358
 31
0.0
  0
LINE
  5
1178
330
2
100
AcDbEntity
  8
エンボス
  6
Continuous
100
AcDbLine
 10
524.9028993149404
 20
1392.134465030358
 30
0.0
 11
517.9028993149404
 21
1390.134465030358
 31
0.0
  0
LINE
  5
117A
330
2
100
AcDbEntity
  8
本体
  6
Continuous
100
AcDbLine
 10
517.9028993149404
 20
1399.634465030358
 30
0.0
 11
1124.90289931494
 21
1399.634465030358
 31
0.0
  0
LINE
  5
117B
330
2
100
AcDbEntity
  8
本体
  6
Continuous
100
AcDbLine
 10
517.9028993149404
 20
1405.634465030358
 30
0.0
 11
1124.90289931494
 21
1405.634465030358
 31
0.0
  0
LINE
  5
117D
330
2
100
AcDbEntity
  8
本体
  6
Continuous
100
AcDbLine
 10
517.9028993149404
 20
1399.634465030358
 30
0.0
 11
517.9028993149404
 21
1355.634465030358
 31
0.0
  0
LINE
  5
117F
330
2
100
AcDbEntity
  8
本体
  6
Continuous
100
AcDbLine
 10
1082.702899314941
 20
1399.634465030358
 30
0.0
 11
1118.002899314941
 21
1405.634465030358
 31
0.0
  0
LINE
  5
118F
330
2
100
AcDbEntity
  8
本体
  6
Continuous
100
AcDbLine
 10
524.9028993149404
 20
1399.634465030358
 30
0.0
 11
524.9028993149404
 21
1355.634465030358
 31
0.0
  0
LINE
  5
1208
330
2
100
AcDbEntity
  8
エンボス
  6
Continuous
100
AcDbLine
 10
1124.90289931494
 20
1392.134465030358
 30
0.0
 11
1117.90289931494
 21
1390.134465030358
 31
0.0
  0
LINE
  5
1209
330
2
100
AcDbEntity
  8
エンボス
  6
Continuous
100
AcDbLine
 10
1117.90289931494
 20
1387.134465030358
 30
0.0
 11
1124.90289931494
 21
1385.134465030358
 31
0.0
  0
LINE
  5
120A
330
2
100
AcDbEntity
  8
エンボス
  6
Continuous
100
AcDbLine
 10
1124.90289931494
 20
1373.134465030358
 30
0.0
 11
1117.90289931494
 21
1371.134465030358
 31
0.0
  0
LINE
  5
120B
330
2
100
AcDbEntity
  8
エンボス
  6
Continuous
100
AcDbLine
 10
1124.90289931494
 20
1364.134465030358
 30
0.0
 11
1117.90289931494
 21
1362.134465030358
 31
0.0
  0
LINE
  5
120C
330
2
100
AcDbEntity
  8
エンボス
  6
Continuous
100
AcDbLine
 10
1117.90289931494
 20
1359.134465030358
 30
0.0
 11
1124.90289931494
 21
1357.134465030358
 31
0.0
  0
LINE
  5
120D
330
2
100
AcDbEntity
  8
エンボス
  6
Continuous
100
AcDbLine
 10
1117.90289931494
 20
1378.134465030358
 30
0.0
 11
1124.90289931494
 21
1376.134465030358
 31
0.0
  0
LINE
  5
120E
330
2
100
AcDbEntity
  8
本体
  6
Continuous
100
AcDbLine
 10
1118.002899314941
 20
1399.634465030358
 30
0.0
 11
1124.90289931494
 21
1400.807269562936
 31
0.0
  0
LINE
  5
1211
330
2
100
AcDbEntity
  8
本体
  6
Continuous
100
AcDbLine
 10
1117.90289931494
 20
1399.634465030358
 30
0.0
 11
1117.90289931494
 21
1355.634465030358
 31
0.0
  0
LINE
  5
1218
330
2
100
AcDbEntity
  8
本体
  6
Continuous
100
AcDbLine
 10
1124.90289931494
 20
1399.634465030358
 30
0.0
 11
1124.90289931494
 21
1355.634465030358
 31
0.0
  0
LINE
  5
121A
330
2
100
AcDbEntity
  8
エンボス
  6
Continuous
100
AcDbLine
 10
517.9028993149404
 20
1309.134465030358
 30
0.0
 11
524.9028993149404
 21
1307.134465030358
 31
0.0
  0
LINE
  5
121B
330
2
100
AcDbEntity
  8
エンボス
  6
Continuous
100
AcDbLine
 10
524.9028993149404
 20
1314.134465030358
 30
0.0
 11
517.9028993149404
 21
1312.134465030358
 31
0.0
  0
LINE
  5
121C
330
2
100
AcDbEntity
  8
エンボス
  6
Continuous
100
AcDbLine
 10
524.9028993149404
 20
1323.134465030358
 30
0.0
 11
517.9028993149404
 21
1321.134465030358
 31
0.0
  0
LINE
  5
121D
330
2
100
AcDbEntity
  8
エンボス
  6
Continuous
100
AcDbLine
 10
517.9028993149404
 20
1328.134465030358
 30
0.0
 11
524.9028993149404
 21
1326.134465030359
 31
0.0
  0
LINE
  5
121E
330
2
100
AcDbEntity
  8
エンボス
  6
Continuous
100
AcDbLine
 10
517.9028993149404
 20
1337.134465030358
 30
0.0
 11
524.9028993149404
 21
1335.134465030358
 31
0.0
  0
LINE
  5
121F
330
2
100
AcDbEntity
  8
エンボス
  6
Continuous
100
AcDbLine
 10
524.9028993149404
 20
1342.134465030359
 30
0.0
 11
517.9028993149404
 21
1340.134465030358
 31
0.0
  0
LINE
  5
1221
330
2
100
AcDbEntity
  8
本体
  6
Continuous
100
AcDbLine
 10
517.9028993149404
 20
1349.634465030358
 30
0.0
 11
1124.90289931494
 21
1349.634465030358
 31
0.0
  0
LINE
  5
1222
330
2
100
AcDbEntity
  8
本体
  6
Continuous
100
AcDbLine
 10
517.9028993149404
 20
1355.634465030358
 30
0.0
 11
1124.90289931494
 21
1355.634465030358
 31
0.0
  0
LINE
  5
1224
330
2
100
AcDbEntity
  8
本体
  6
Continuous
100
AcDbLine
 10
517.9028993149404
 20
1349.634465030358
 30
0.0
 11
517.9028993149404
 21
1305.634465030358
 31
0.0
  0
LINE
  5
1226
330
2
100
AcDbEntity
  8
本体
  6
Continuous
100
AcDbLine
 10
1082.702899314941
 20
1349.634465030358
 30
0.0
 11
1118.002899314941
 21
1355.634465030358
 31
0.0
  0
LINE
  5
1236
330
2
100
AcDbEntity
  8
本体
  6
Continuous
100
AcDbLine
 10
524.9028993149404
 20
1349.634465030358
 30
0.0
 11
524.9028993149404
 21
1305.634465030358
 31
0.0
  0
LINE
  5
12AF
330
2
100
AcDbEntity
  8
エンボス
  6
Continuous
100
AcDbLine
 10
1124.90289931494
 20
1342.134465030359
 30
0.0
 11
1117.90289931494
 21
1340.134465030358
 31
0.0
  0
LINE
  5
12B0
330
2
100
AcDbEntity
  8
エンボス
  6
Continuous
100
AcDbLine
 10
1117.90289931494
 20
1337.134465030358
 30
0.0
 11
1124.90289931494
 21
1335.134465030358
 31
0.0
  0
LINE
  5
12B1
330
2
100
AcDbEntity
  8
エンボス
  6
Continuous
100
AcDbLine
 10
1124.90289931494
 20
1323.134465030358
 30
0.0
 11
1117.90289931494
 21
1321.134465030358
 31
0.0
  0
LINE
  5
12B2
330
2
100
AcDbEntity
  8
エンボス
  6
Continuous
100
AcDbLine
 10
1124.90289931494
 20
1314.134465030358
 30
0.0
 11
1117.90289931494
 21
1312.134465030358
 31
0.0
  0
LINE
  5
12B3
330
2
100
AcDbEntity
  8
エンボス
  6
Continuous
100
AcDbLine
 10
1117.90289931494
 20
1309.134465030358
 30
0.0
 11
1124.90289931494
 21
1307.134465030358
 31
0.0
  0
LINE
  5
12B4
330
2
100
AcDbEntity
  8
エンボス
  6
Continuous
100
AcDbLine
 10
1117.90289931494
 20
1328.134465030358
 30
0.0
 11
1124.90289931494
 21
1326.134465030359
 31
0.0
  0
LINE
  5
12B5
330
2
100
AcDbEntity
  8
本体
  6
Continuous
100
AcDbLine
 10
1118.002899314941
 20
1349.634465030358
 30
0.0
 11
1124.90289931494
 21
1350.807269562936
 31
0.0
  0
LINE
  5
12B8
330
2
100
AcDbEntity
  8
本体
  6
Continuous
100
AcDbLine
 10
1117.90289931494
 20
1349.634465030358
 30
0.0
 11
1117.90289931494
 21
1305.634465030358
 31
0.0
  0
LINE
  5
12BF
330
2
100
AcDbEntity
  8
本体
  6
Continuous
100
AcDbLine
 10
1124.90289931494
 20
1349.634465030358
 30
0.0
 11
1124.90289931494
 21
1305.634465030358
 31
0.0
  0
LINE
  5
12C0
330
2
100
AcDbEntity
  8
本体
  6
Continuous
100
AcDbLine
 10
517.9028993149404
 20
1305.634465030358
 30
0.0
 11
1124.90289931494
 21
1305.634465030358
 31
0.0
  0
LINE
  5
12C1
330
2
100
AcDbEntity
  8
本体
  6
Continuous
100
AcDbLine
 10
517.9028993149404
 20
1299.634465030358
 30
0.0
 11
1124.90289931494
 21
1299.634465030358
 31
0.0
  0
LINE
  5
12D3
330
2
100
AcDbEntity
  8
本体
  6
Continuous
100
AcDbLine
 10
1118.002899314941
 20
1299.634465030358
 30
0.0
 11
1124.90289931494
 21
1300.807269562936
 31
0.0
  0
LINE
  5
12D4
330
2
100
AcDbEntity
  8
本体
  6
Continuous
100
AcDbLine
 10
1082.702899314941
 20
1299.634465030358
 30
0.0
 11
1118.002899314941
 21
1305.634465030358
 31
0.0
  0
LINE
  5
12D6
330
2
100
AcDbEntity
  8
嵩上平面
  6
HIDDEN
 48
3.0
370
     9
100
AcDbLine
 10
520.4028993149404
 20
1307.634464030358
 30
0.0
 11
1122.502899314941
 21
1307.634464030358
 31
0.0
  0
MTEXT
  5
1449
330
2
100
AcDbEntity
  8
外枠
  6
Continuous
 48
100.0
370
     9
100
AcDbMText
 10
1022.193186254242
 20
77.61017986570005
 30
0.0
 40
18.0
 41
122.0406
 71
     1
 72
     5
  1
【主部材】
 73
     1
 44
1.0
1001
ACAD
1000
MTEXTBEGIN
1070
    73
1070
     1
1070
    44
1040
1.0
1070
    74
1070
     0
1000
MTEXTEND
  0
MTEXT
  5
144A
330
2
100
AcDbEntity
  8
外枠
  6
Continuous
 48
100.0
370
     9
100
AcDbMText
 10
1038.975343934131
 20
43.7816999552906
 30
0.0
 40
25.0
 41
122.0406
 71
     1
 72
     5
  1
SS400
 73
     1
 44
1.0
1001
ACAD
1000
MTEXTBEGIN
1070
    73
1070
     1
1070
    44
1040
1.0
1070
    74
1070
     0
1000
MTEXTEND
  0
MTEXT
  5
144C
330
2
100
AcDbEntity
  8
外枠
  6
Continuous
 48
100.0
370
     9
100
AcDbMText
 10
1199.761738767627
 20
151.0819879350613
 30
0.0
 40
18.0
 41
301.8661
 71
     1
 72
     5
  1
【グレーチング】JIS　H8641
 73
     1
 44
1.0
1001
ACAD
1000
MTEXTBEGIN
1070
    73
1070
     1
1070
    44
1040
1.0
1070
    74
1070
     0
1000
MTEXTEND
  0
MTEXT
  5
144D
330
2
100
AcDbEntity
  8
外枠
  6
Continuous
 48
100.0
370
     9
100
AcDbMText
 10
1159.385398923399
 20
148.6111115828462
 30
0.0
 40
20.0
 41
1015.1375
 71
     1
 72
     5
  1
表\P面\P処\P理
 73
     1
 44
1.0
1001
ACAD
1000
MTEXTBEGIN
1070
    73
1070
     1
1070
    44
1040
1.0
1070
    74
1070
     0
1000
MTEXTEND
  0
LINE
  5
144E
330
2
100
AcDbEntity
  8
外枠
  6
Continuous
 48
100.0
370
     9
100
AcDbLine
 10
1188.531791166651
 20
155.3992728207959
 30
0.0
 11
1188.531791166651
 21
9.999999999992724
 31
0.0
  0
LINE
  5
144F
330
2
100
AcDbEntity
  8
外枠
  6
Continuous
 48
100.0
370
     9
100
AcDbLine
 10
1153.531306970095
 20
155.3992728207959
 30
0.0
 11
1153.531306970095
 21
9.999999999992724
 31
0.0
  0
LINE
  5
1450
330
2
100
AcDbEntity
  8
外枠
 48
3.0
100
AcDbLine
 10
1188.531791166651
 20
82.6996364103943
 30
0.0
 11
1593.951336296073
 21
82.6996364103943
 31
0.0
  0
LINE
  5
1458
330
2
100
AcDbEntity
  8
本体
  6
Continuous
100
AcDbLine
 10
1904.915455142543
 20
1647.634465030358
 30
0.0
 11
1904.915455142543
 21
1643.134465030359
 31
0.0
  0
LINE
  5
1459
330
2
100
AcDbEntity
  8
本体
  6
Continuous
100
AcDbLine
 10
1904.915455142543
 20
1262.134465030358
 30
0.0
 11
1904.915455142543
 21
1257.634465030358
 31
0.0
  0
LINE
  5
146A
330
2
100
AcDbEntity
  8
本体
  6
Continuous
100
AcDbLine
 10
1088.20289931494
 20
675.5503863072108
 30
0.0
 11
1119.40289931494
 21
675.5503863072108
 31
0.0
  0
INSERT
  5
15B1
330
2
100
AcDbEntity
  8
本体
 48
3.0
100
AcDbBlockReference
  2
清水
 10
2387.385592047314
 20
155.3992728208
 30
0.0
  0
MTEXT
  5
15B3
330
2
100
AcDbEntity
  8
外枠
  6
Continuous
 48
100.0
370
     9
100
AcDbMText
 10
1202.677957061338
 20
120.1377642323818
 30
0.0
 40
25.0
 41
1015.1375
 71
     1
 72
     5
  1
溶融亜鉛めっき仕上
 73
     1
 44
1.0
1001
ACAD
1000
MTEXTBEGIN
1070
    73
1070
     1
1070
    44
1040
1.0
1070
    74
1070
     0
1000
MTEXTEND
  0
MTEXT
  5
169F
330
2
100
AcDbEntity
  8
外枠
  6
Continuous
 48
100.0
370
     9
100
AcDbMText
 10
2509.985545378613
 20
121.2206105686568
 30
0.0
 40
23.47884
 41
274.1381
 71
     1
 72
     5
  1
'14・09・01
 73
     1
 44
1.0
1001
ACAD
1000
MTEXTBEGIN
1070
    73
1070
     1
1070
    44
1040
1.0
1070
    74
1070
     0
1000
MTEXTEND
  0
INSERT
  5
16A0
330
2
100
AcDbEntity
  8
外枠
 48
3.0
100
AcDbBlockReference
  2
鎌下
 10
2271.730765417811
 20
155.3992728207995
 30
0.0
  0
INSERT
  5
171A
330
2
100
AcDbEntity
  8
寸法線
  6
Continuous
100
AcDbBlockReference
  2
P-H45
 10
1916.915455142543
 20
1637.634476030358
 30
0.0
  0
INSERT
  5
171B
330
2
100
AcDbEntity
  8
寸法線
  6
Continuous
100
AcDbBlockReference
  2
平ゴムパッキン
 10
1958.915452071114
 20
1637.634477030358
 30
0.0
  0
INSERT
  5
171C
330
2
100
AcDbEntity
  8
寸法線
  6
Continuous
100
AcDbBlockReference
  2
P-H45
 10
1916.915455142543
 20
1267.634454030359
 30
0.0
 41
-1.0
 50
180.0
  0
INSERT
  5
171D
330
2
100
AcDbEntity
  8
寸法線
  6
Continuous
100
AcDbBlockReference
  2
平ゴムパッキン
 10
1958.915452071114
 20
1267.634453030358
 30
0.0
 41
-1.0
 50
180.0
  0
LINE
  5
1722
330
2
100
AcDbEntity
  8
嵩上断面
  6
HIDDEN
 48
3.0
100
AcDbLine
 10
521.4028993149404
 20
620.8503863072109
 30
0.0
 11
1121.402899314941
 21
620.8503863072109
 31
0.0
  0
DIMENSION
  5
174C
330
2
100
AcDbEntity
  8
寸法線
 48
3.0
100
AcDbDimension
  2
*D17
 10
1124.902899314941
 20
873.5503863072109
 30
0.0
 11
821.4028993149407
 21
873.5503863072109
 31
0.0
 70
   160
 71
     5
 42
607.0000000000004
  3
ISO-25
100
AcDbAlignedDimension
 13
517.9028993149404
 23
713.5503863072108
 33
0.0
 14
1124.902899314941
 24
713.5503863072108
 34
0.0
100
AcDbRotatedDimension
1001
ACAD
1000
DSTYLE
1002
{
1070
   279
1070
     0
1002
}
  0
DIMENSION
  5
1765
330
2
100
AcDbEntity
  8
寸法線
 48
3.0
100
AcDbDimension
  2
*D18
 10
1121.40289931494
 20
539.4315113127349
 30
0.0
 11
821.4028993149405
 21
559.431511312735
 31
0.0
 70
    32
 71
     5
 42
600.0000000000002
  3
ISO-25
100
AcDbAlignedDimension
 13
521.4028993149404
 23
613.5503863072108
 33
0.0
 14
1121.40289931494
 24
613.5503863072108
 34
0.0
100
AcDbRotatedDimension
  0
LINE
  5
17B6
330
2
100
AcDbEntity
  8
ゴム
  6
Continuous
100
AcDbLine
 10
521.4028993149403
 20
616.8048873821888
 30
0.0
 11
523.0483982399626
 21
618.5503863072109
 31
0.0
  0
LINE
  5
17B7
330
2
100
AcDbEntity
  8
ゴム
  6
Continuous
100
AcDbLine
 10
522.5385263004964
 20
613.5503863072101
 30
0.0
 11
527.5385263004972
 21
618.5503863072109
 31
0.0
  0
LINE
  5
17B8
330
2
100
AcDbEntity
  8
ゴム
  6
Continuous
100
AcDbLine
 10
527.0286543610309
 20
613.5503863072101
 30
0.0
 11
532.0286543610317
 21
618.5503863072108
 31
0.0
  0
LINE
  5
17B9
330
2
100
AcDbEntity
  8
ゴム
  6
Continuous
100
AcDbLine
 10
531.5187824215655
 20
613.5503863072101
 30
0.0
 11
536.5187824215662
 21
618.5503863072108
 31
0.0
  0
LINE
  5
17BA
330
2
100
AcDbEntity
  8
ゴム
  6
Continuous
100
AcDbLine
 10
536.0089104821001
 20
613.5503863072101
 30
0.0
 11
541.0089104821008
 21
618.5503863072109
 31
0.0
  0
LINE
  5
17BB
330
2
100
AcDbEntity
  8
ゴム
  6
Continuous
100
AcDbLine
 10
540.4990385426347
 20
613.5503863072102
 30
0.0
 11
545.4990385426354
 21
618.5503863072109
 31
0.0
  0
LINE
  5
17BC
330
2
100
AcDbEntity
  8
ゴム
  6
Continuous
100
AcDbLine
 10
544.9891666031692
 20
613.5503863072101
 30
0.0
 11
549.9891666031699
 21
618.5503863072109
 31
0.0
  0
LINE
  5
17BD
330
2
100
AcDbEntity
  8
ゴム
  6
Continuous
100
AcDbLine
 10
549.4792946637038
 20
613.5503863072102
 30
0.0
 11
554.4792946637045
 21
618.5503863072109
 31
0.0
  0
LINE
  5
17BE
330
2
100
AcDbEntity
  8
ゴム
  6
Continuous
100
AcDbLine
 10
553.9694227242384
 20
613.5503863072102
 30
0.0
 11
558.9694227242391
 21
618.5503863072109
 31
0.0
  0
LINE
  5
17BF
330
2
100
AcDbEntity
  8
ゴム
  6
Continuous
100
AcDbLine
 10
558.459550784773
 20
613.5503863072102
 30
0.0
 11
563.4595507847737
 21
618.5503863072109
 31
0.0
  0
LINE
  5
17C0
330
2
100
AcDbEntity
  8
ゴム
  6
Continuous
100
AcDbLine
 10
562.9496788453076
 20
613.5503863072101
 30
0.0
 11
567.9496788453083
 21
618.5503863072108
 31
0.0
  0
LINE
  5
17C1
330
2
100
AcDbEntity
  8
ゴム
  6
Continuous
100
AcDbLine
 10
567.4398069058423
 20
613.5503863072102
 30
0.0
 11
572.4398069058428
 21
618.5503863072108
 31
0.0
  0
LINE
  5
17C2
330
2
100
AcDbEntity
  8
ゴム
  6
Continuous
100
AcDbLine
 10
571.9299349663767
 20
613.5503863072102
 30
0.0
 11
576.9299349663774
 21
618.5503863072109
 31
0.0
  0
LINE
  5
17C3
330
2
100
AcDbEntity
  8
ゴム
  6
Continuous
100
AcDbLine
 10
576.4200630269114
 20
613.5503863072102
 30
0.0
 11
581.420063026912
 21
618.5503863072109
 31
0.0
  0
LINE
  5
17C4
330
2
100
AcDbEntity
  8
ゴム
  6
Continuous
100
AcDbLine
 10
580.9101910874459
 20
613.5503863072102
 30
0.0
 11
585.9101910874466
 21
618.5503863072109
 31
0.0
  0
LINE
  5
17C5
330
2
100
AcDbEntity
  8
ゴム
  6
Continuous
100
AcDbLine
 10
585.4003191479805
 20
613.5503863072102
 30
0.0
 11
590.4003191479811
 21
618.5503863072108
 31
0.0
  0
LINE
  5
17C6
330
2
100
AcDbEntity
  8
ゴム
  6
Continuous
100
AcDbLine
 10
589.890447208515
 20
613.5503863072102
 30
0.0
 11
594.8904472085157
 21
618.5503863072109
 31
0.0
  0
LINE
  5
17C7
330
2
100
AcDbEntity
  8
ゴム
  6
Continuous
100
AcDbLine
 10
594.3805752690496
 20
613.5503863072103
 30
0.0
 11
599.3805752690502
 21
618.5503863072109
 31
0.0
  0
LINE
  5
17C8
330
2
100
AcDbEntity
  8
ゴム
  6
Continuous
100
AcDbLine
 10
598.8707033295843
 20
613.5503863072102
 30
0.0
 11
603.8707033295849
 21
618.5503863072108
 31
0.0
  0
LINE
  5
17C9
330
2
100
AcDbEntity
  8
ゴム
  6
Continuous
100
AcDbLine
 10
603.3608313901188
 20
613.5503863072102
 30
0.0
 11
608.3608313901195
 21
618.5503863072109
 31
0.0
  0
LINE
  5
17CA
330
2
100
AcDbEntity
  8
ゴム
  6
Continuous
100
AcDbLine
 10
607.8509594506535
 20
613.5503863072103
 30
0.0
 11
612.850959450654
 21
618.5503863072109
 31
0.0
  0
LINE
  5
17CB
330
2
100
AcDbEntity
  8
ゴム
  6
Continuous
100
AcDbLine
 10
612.3410875111881
 20
613.5503863072103
 30
0.0
 11
617.3410875111886
 21
618.5503863072109
 31
0.0
  0
LINE
  5
17CC
330
2
100
AcDbEntity
  8
ゴム
  6
Continuous
100
AcDbLine
 10
616.8312155717226
 20
613.5503863072102
 30
0.0
 11
621.8312155717232
 21
618.5503863072108
 31
0.0
  0
LINE
  5
17CD
330
2
100
AcDbEntity
  8
ゴム
  6
Continuous
100
AcDbLine
 10
621.3213436322571
 20
613.5503863072102
 30
0.0
 11
626.3213436322578
 21
618.5503863072108
 31
0.0
  0
LINE
  5
17CE
330
2
100
AcDbEntity
  8
ゴム
  6
Continuous
100
AcDbLine
 10
625.8114716927917
 20
613.5503863072103
 30
0.0
 11
630.8114716927923
 21
618.5503863072109
 31
0.0
  0
LINE
  5
17CF
330
2
100
AcDbEntity
  8
ゴム
  6
Continuous
100
AcDbLine
 10
630.3015997533264
 20
613.5503863072103
 30
0.0
 11
635.3015997533269
 21
618.5503863072109
 31
0.0
  0
LINE
  5
17D0
330
2
100
AcDbEntity
  8
ゴム
  6
Continuous
100
AcDbLine
 10
634.7917278138609
 20
613.5503863072102
 30
0.0
 11
639.7917278138615
 21
618.5503863072108
 31
0.0
  0
LINE
  5
17D1
330
2
100
AcDbEntity
  8
ゴム
  6
Continuous
100
AcDbLine
 10
639.2818558743955
 20
613.5503863072103
 30
0.0
 11
644.2818558743961
 21
618.5503863072108
 31
0.0
  0
LINE
  5
17D2
330
2
100
AcDbEntity
  8
ゴム
  6
Continuous
100
AcDbLine
 10
643.7719839349301
 20
613.5503863072103
 30
0.0
 11
648.7719839349306
 21
618.5503863072109
 31
0.0
  0
LINE
  5
17D3
330
2
100
AcDbEntity
  8
ゴム
  6
Continuous
100
AcDbLine
 10
648.2621119954647
 20
613.5503863072102
 30
0.0
 11
653.2621119954653
 21
618.5503863072108
 31
0.0
  0
LINE
  5
17D4
330
2
100
AcDbEntity
  8
ゴム
  6
Continuous
100
AcDbLine
 10
652.7522400559993
 20
613.5503863072103
 30
0.0
 11
657.7522400559999
 21
618.5503863072108
 31
0.0
  0
LINE
  5
17D5
330
2
100
AcDbEntity
  8
ゴム
  6
Continuous
100
AcDbLine
 10
657.2423681165339
 20
613.5503863072103
 30
0.0
 11
662.2423681165344
 21
618.5503863072108
 31
0.0
  0
LINE
  5
17D6
330
2
100
AcDbEntity
  8
ゴム
  6
Continuous
100
AcDbLine
 10
661.7324961770684
 20
613.5503863072103
 30
0.0
 11
666.7324961770689
 21
618.5503863072109
 31
0.0
  0
LINE
  5
17D7
330
2
100
AcDbEntity
  8
ゴム
  6
Continuous
100
AcDbLine
 10
666.222624237603
 20
613.5503863072103
 30
0.0
 11
671.2226242376035
 21
618.5503863072108
 31
0.0
  0
LINE
  5
17D8
330
2
100
AcDbEntity
  8
ゴム
  6
Continuous
100
AcDbLine
 10
670.7127522981377
 20
613.5503863072103
 30
0.0
 11
675.7127522981382
 21
618.5503863072108
 31
0.0
  0
LINE
  5
17D9
330
2
100
AcDbEntity
  8
ゴム
  6
Continuous
100
AcDbLine
 10
675.2028803586722
 20
613.5503863072103
 30
0.0
 11
680.2028803586726
 21
618.5503863072108
 31
0.0
  0
LINE
  5
17DA
330
2
100
AcDbEntity
  8
ゴム
  6
Continuous
100
AcDbLine
 10
679.6930084192068
 20
613.5503863072103
 30
0.0
 11
684.6930084192072
 21
618.5503863072109
 31
0.0
  0
LINE
  5
17DB
330
2
100
AcDbEntity
  8
ゴム
  6
Continuous
100
AcDbLine
 10
684.1831364797415
 20
613.5503863072103
 30
0.0
 11
689.1831364797419
 21
618.5503863072108
 31
0.0
  0
LINE
  5
17DC
330
2
100
AcDbEntity
  8
ゴム
  6
Continuous
100
AcDbLine
 10
688.6732645402759
 20
613.5503863072103
 30
0.0
 11
693.6732645402763
 21
618.5503863072108
 31
0.0
  0
LINE
  5
17DD
330
2
100
AcDbEntity
  8
ゴム
  6
Continuous
100
AcDbLine
 10
693.1633926008105
 20
613.5503863072105
 30
0.0
 11
698.1633926008109
 21
618.5503863072109
 31
0.0
  0
LINE
  5
17DE
330
2
100
AcDbEntity
  8
ゴム
  6
Continuous
100
AcDbLine
 10
697.653520661345
 20
613.5503863072105
 30
0.0
 11
702.6535206613456
 21
618.550386307211
 31
0.0
  0
LINE
  5
17DF
330
2
100
AcDbEntity
  8
ゴム
  6
Continuous
100
AcDbLine
 10
702.1436487218797
 20
613.5503863072103
 30
0.0
 11
707.1436487218802
 21
618.5503863072108
 31
0.0
  0
LINE
  5
17E0
330
2
100
AcDbEntity
  8
ゴム
  6
Continuous
100
AcDbLine
 10
706.6337767824143
 20
613.5503863072103
 30
0.0
 11
711.6337767824147
 21
618.5503863072109
 31
0.0
  0
LINE
  5
17E1
330
2
100
AcDbEntity
  8
ゴム
  6
Continuous
100
AcDbLine
 10
711.1239048429488
 20
613.5503863072105
 30
0.0
 11
716.1239048429493
 21
618.5503863072109
 31
0.0
  0
LINE
  5
17E2
330
2
100
AcDbEntity
  8
ゴム
  6
Continuous
100
AcDbLine
 10
715.6140329034835
 20
613.5503863072103
 30
0.0
 11
720.614032903484
 21
618.5503863072108
 31
0.0
  0
LINE
  5
17E3
330
2
100
AcDbEntity
  8
ゴム
  6
Continuous
100
AcDbLine
 10
720.1041609640181
 20
613.5503863072105
 30
0.0
 11
725.1041609640185
 21
618.5503863072109
 31
0.0
  0
LINE
  5
17E4
330
2
100
AcDbEntity
  8
ゴム
  6
Continuous
100
AcDbLine
 10
724.5942890245526
 20
613.5503863072105
 30
0.0
 11
729.5942890245531
 21
618.550386307211
 31
0.0
  0
LINE
  5
17E5
330
2
100
AcDbEntity
  8
ゴム
  6
Continuous
100
AcDbLine
 10
729.0844170850871
 20
613.5503863072105
 30
0.0
 11
734.0844170850877
 21
618.550386307211
 31
0.0
  0
LINE
  5
17E6
330
2
100
AcDbEntity
  8
ゴム
  6
Continuous
100
AcDbLine
 10
733.5745451456217
 20
613.5503863072103
 30
0.0
 11
738.5745451456223
 21
618.5503863072109
 31
0.0
  0
LINE
  5
17E7
330
2
100
AcDbEntity
  8
ゴム
  6
Continuous
100
AcDbLine
 10
738.0646732061563
 20
613.5503863072105
 30
0.0
 11
743.0646732061568
 21
618.5503863072109
 31
0.0
  0
LINE
  5
17E8
330
2
100
AcDbEntity
  8
ゴム
  6
Continuous
100
AcDbLine
 10
742.5548012666909
 20
613.5503863072105
 30
0.0
 11
747.5548012666913
 21
618.5503863072109
 31
0.0
  0
LINE
  5
17E9
330
2
100
AcDbEntity
  8
ゴム
  6
Continuous
100
AcDbLine
 10
747.0449293272253
 20
613.5503863072105
 30
0.0
 11
752.0449293272259
 21
618.550386307211
 31
0.0
  0
LINE
  5
17EA
330
2
100
AcDbEntity
  8
ゴム
  6
Continuous
100
AcDbLine
 10
751.5350573877602
 20
613.5503863072105
 30
0.0
 11
756.5350573877607
 21
618.550386307211
 31
0.0
  0
LINE
  5
17EB
330
2
100
AcDbEntity
  8
ゴム
  6
Continuous
100
AcDbLine
 10
756.0251854482946
 20
613.5503863072105
 30
0.0
 11
761.0251854482952
 21
618.550386307211
 31
0.0
  0
LINE
  5
17EC
330
2
100
AcDbEntity
  8
ゴム
  6
Continuous
100
AcDbLine
 10
760.5153135088292
 20
613.5503863072105
 30
0.0
 11
765.5153135088299
 21
618.550386307211
 31
0.0
  0
LINE
  5
17ED
330
2
100
AcDbEntity
  8
ゴム
  6
Continuous
100
AcDbLine
 10
765.0054415693639
 20
613.5503863072106
 30
0.0
 11
770.0054415693643
 21
618.550386307211
 31
0.0
  0
LINE
  5
17EE
330
2
100
AcDbEntity
  8
ゴム
  6
Continuous
100
AcDbLine
 10
769.4955696298984
 20
613.5503863072105
 30
0.0
 11
774.4955696298989
 21
618.5503863072109
 31
0.0
  0
LINE
  5
17EF
330
2
100
AcDbEntity
  8
ゴム
  6
Continuous
100
AcDbLine
 10
773.9856976904329
 20
613.5503863072105
 30
0.0
 11
778.9856976904335
 21
618.550386307211
 31
0.0
  0
LINE
  5
17F0
330
2
100
AcDbEntity
  8
ゴム
  6
Continuous
100
AcDbLine
 10
778.4758257509675
 20
613.5503863072106
 30
0.0
 11
783.4758257509681
 21
618.550386307211
 31
0.0
  0
LINE
  5
17F1
330
2
100
AcDbEntity
  8
ゴム
  6
Continuous
100
AcDbLine
 10
782.9659538115021
 20
613.5503863072105
 30
0.0
 11
787.9659538115027
 21
618.550386307211
 31
0.0
  0
LINE
  5
17F2
330
2
100
AcDbEntity
  8
ゴム
  6
Continuous
100
AcDbLine
 10
787.4560818720367
 20
613.5503863072105
 30
0.0
 11
792.4560818720373
 21
618.550386307211
 31
0.0
  0
LINE
  5
17F3
330
2
100
AcDbEntity
  8
ゴム
  6
Continuous
100
AcDbLine
 10
791.9462099325714
 20
613.5503863072106
 30
0.0
 11
796.9462099325719
 21
618.550386307211
 31
0.0
  0
LINE
  5
17F4
330
2
100
AcDbEntity
  8
ゴム
  6
Continuous
100
AcDbLine
 10
796.436337993106
 20
613.5503863072106
 30
0.0
 11
801.4363379931065
 21
618.550386307211
 31
0.0
  0
LINE
  5
17F5
330
2
100
AcDbEntity
  8
ゴム
  6
Continuous
100
AcDbLine
 10
800.9264660536405
 20
613.5503863072105
 30
0.0
 11
805.926466053641
 21
618.5503863072109
 31
0.0
  0
LINE
  5
17F6
330
2
100
AcDbEntity
  8
ゴム
  6
Continuous
100
AcDbLine
 10
805.4165941141752
 20
613.5503863072106
 30
0.0
 11
810.4165941141756
 21
618.550386307211
 31
0.0
  0
LINE
  5
17F7
330
2
100
AcDbEntity
  8
ゴム
  6
Continuous
100
AcDbLine
 10
809.9067221747096
 20
613.5503863072106
 30
0.0
 11
814.9067221747102
 21
618.550386307211
 31
0.0
  0
LINE
  5
17F8
330
2
100
AcDbEntity
  8
ゴム
  6
Continuous
100
AcDbLine
 10
814.3968502352441
 20
613.5503863072106
 30
0.0
 11
819.3968502352447
 21
618.550386307211
 31
0.0
  0
LINE
  5
17F9
330
2
100
AcDbEntity
  8
ゴム
  6
Continuous
100
AcDbLine
 10
818.8869782957789
 20
613.5503863072106
 30
0.0
 11
823.8869782957795
 21
618.550386307211
 31
0.0
  0
LINE
  5
17FA
330
2
100
AcDbEntity
  8
ゴム
  6
Continuous
100
AcDbLine
 10
823.3771063563136
 20
613.5503863072106
 30
0.0
 11
828.377106356314
 21
618.550386307211
 31
0.0
  0
LINE
  5
17FB
330
2
100
AcDbEntity
  8
ゴム
  6
Continuous
100
AcDbLine
 10
827.867234416848
 20
613.5503863072106
 30
0.0
 11
832.8672344168484
 21
618.550386307211
 31
0.0
  0
LINE
  5
17FC
330
2
100
AcDbEntity
  8
ゴム
  6
Continuous
100
AcDbLine
 10
832.3573624773825
 20
613.5503863072107
 30
0.0
 11
837.3573624773831
 21
618.5503863072112
 31
0.0
  0
LINE
  5
17FD
330
2
100
AcDbEntity
  8
ゴム
  6
Continuous
100
AcDbLine
 10
836.8474905379171
 20
613.5503863072106
 30
0.0
 11
841.8474905379177
 21
618.550386307211
 31
0.0
  0
LINE
  5
17FE
330
2
100
AcDbEntity
  8
ゴム
  6
Continuous
100
AcDbLine
 10
841.3376185984517
 20
613.5503863072106
 30
0.0
 11
846.3376185984524
 21
618.550386307211
 31
0.0
  0
LINE
  5
17FF
330
2
100
AcDbEntity
  8
ゴム
  6
Continuous
100
AcDbLine
 10
845.8277466589864
 20
613.5503863072106
 30
0.0
 11
850.8277466589868
 21
618.5503863072112
 31
0.0
  0
LINE
  5
1800
330
2
100
AcDbEntity
  8
ゴム
  6
Continuous
100
AcDbLine
 10
850.317874719521
 20
613.5503863072107
 30
0.0
 11
855.3178747195213
 21
618.5503863072112
 31
0.0
  0
LINE
  5
1801
330
2
100
AcDbEntity
  8
ゴム
  6
Continuous
100
AcDbLine
 10
854.8080027800557
 20
613.5503863072106
 30
0.0
 11
859.8080027800561
 21
618.550386307211
 31
0.0
  0
LINE
  5
1802
330
2
100
AcDbEntity
  8
ゴム
  6
Continuous
100
AcDbLine
 10
859.2981308405901
 20
613.5503863072107
 30
0.0
 11
864.2981308405905
 21
618.5503863072112
 31
0.0
  0
LINE
  5
1803
330
2
100
AcDbEntity
  8
ゴム
  6
Continuous
100
AcDbLine
 10
863.7882589011246
 20
613.5503863072107
 30
0.0
 11
868.7882589011252
 21
618.5503863072113
 31
0.0
  0
LINE
  5
1804
330
2
100
AcDbEntity
  8
ゴム
  6
Continuous
100
AcDbLine
 10
868.2783869616592
 20
613.5503863072106
 30
0.0
 11
873.2783869616596
 21
618.550386307211
 31
0.0
  0
LINE
  5
1805
330
2
100
AcDbEntity
  8
ゴム
  6
Continuous
100
AcDbLine
 10
872.7685150221939
 20
613.5503863072106
 30
0.0
 11
877.7685150221943
 21
618.5503863072112
 31
0.0
  0
LINE
  5
1806
330
2
100
AcDbEntity
  8
ゴム
  6
Continuous
100
AcDbLine
 10
877.2586430827285
 20
613.5503863072107
 30
0.0
 11
882.2586430827289
 21
618.5503863072112
 31
0.0
  0
LINE
  5
1807
330
2
100
AcDbEntity
  8
ゴム
  6
Continuous
100
AcDbLine
 10
881.7487711432631
 20
613.5503863072107
 30
0.0
 11
886.7487711432634
 21
618.5503863072112
 31
0.0
  0
LINE
  5
1808
330
2
100
AcDbEntity
  8
ゴム
  6
Continuous
100
AcDbLine
 10
886.2388992037976
 20
613.5503863072107
 30
0.0
 11
891.238899203798
 21
618.5503863072112
 31
0.0
  0
LINE
  5
1809
330
2
100
AcDbEntity
  8
ゴム
  6
Continuous
100
AcDbLine
 10
890.7290272643322
 20
613.5503863072107
 30
0.0
 11
895.7290272643328
 21
618.5503863072113
 31
0.0
  0
LINE
  5
180A
330
2
100
AcDbEntity
  8
ゴム
  6
Continuous
100
AcDbLine
 10
895.2191553248667
 20
613.5503863072107
 30
0.0
 11
900.2191553248673
 21
618.5503863072113
 31
0.0
  0
LINE
  5
180B
330
2
100
AcDbEntity
  8
ゴム
  6
Continuous
100
AcDbLine
 10
899.7092833854013
 20
613.5503863072108
 30
0.0
 11
904.7092833854017
 21
618.5503863072113
 31
0.0
  0
LINE
  5
180C
330
2
100
AcDbEntity
  8
ゴム
  6
Continuous
100
AcDbLine
 10
904.199411445936
 20
613.5503863072106
 30
0.0
 11
909.1994114459364
 21
618.5503863072112
 31
0.0
  0
LINE
  5
180D
330
2
100
AcDbEntity
  8
ゴム
  6
Continuous
100
AcDbLine
 10
908.6895395064704
 20
613.5503863072108
 30
0.0
 11
913.689539506471
 21
618.5503863072112
 31
0.0
  0
LINE
  5
180E
330
2
100
AcDbEntity
  8
ゴム
  6
Continuous
100
AcDbLine
 10
913.1796675670052
 20
613.5503863072108
 30
0.0
 11
918.1796675670057
 21
618.5503863072113
 31
0.0
  0
LINE
  5
180F
330
2
100
AcDbEntity
  8
ゴム
  6
Continuous
100
AcDbLine
 10
917.6697956275397
 20
613.5503863072108
 30
0.0
 11
922.6697956275401
 21
618.5503863072113
 31
0.0
  0
LINE
  5
1810
330
2
100
AcDbEntity
  8
ゴム
  6
Continuous
100
AcDbLine
 10
922.1599236880743
 20
613.5503863072107
 30
0.0
 11
927.1599236880748
 21
618.5503863072113
 31
0.0
  0
LINE
  5
1811
330
2
100
AcDbEntity
  8
ゴム
  6
Continuous
100
AcDbLine
 10
926.6500517486088
 20
613.5503863072107
 30
0.0
 11
931.6500517486094
 21
618.5503863072113
 31
0.0
  0
LINE
  5
1812
330
2
100
AcDbEntity
  8
ゴム
  6
Continuous
100
AcDbLine
 10
931.1401798091434
 20
613.5503863072108
 30
0.0
 11
936.140179809144
 21
618.5503863072113
 31
0.0
  0
LINE
  5
1813
330
2
100
AcDbEntity
  8
ゴム
  6
Continuous
100
AcDbLine
 10
935.6303078696781
 20
613.5503863072108
 30
0.0
 11
940.6303078696785
 21
618.5503863072112
 31
0.0
  0
LINE
  5
1814
330
2
100
AcDbEntity
  8
ゴム
  6
Continuous
100
AcDbLine
 10
940.1204359302125
 20
613.5503863072108
 30
0.0
 11
945.1204359302133
 21
618.5503863072113
 31
0.0
  0
LINE
  5
1815
330
2
100
AcDbEntity
  8
ゴム
  6
Continuous
100
AcDbLine
 10
944.6105639907473
 20
613.5503863072108
 30
0.0
 11
949.6105639907478
 21
618.5503863072113
 31
0.0
  0
LINE
  5
1816
330
2
100
AcDbEntity
  8
ゴム
  6
Continuous
100
AcDbLine
 10
949.1006920512818
 20
613.5503863072108
 30
0.0
 11
954.1006920512822
 21
618.5503863072113
 31
0.0
  0
LINE
  5
1817
330
2
100
AcDbEntity
  8
ゴム
  6
Continuous
100
AcDbLine
 10
953.5908201118163
 20
613.5503863072107
 30
0.0
 11
958.5908201118169
 21
618.5503863072113
 31
0.0
  0
LINE
  5
1818
330
2
100
AcDbEntity
  8
ゴム
  6
Continuous
100
AcDbLine
 10
958.0809481723509
 20
613.5503863072108
 30
0.0
 11
963.0809481723515
 21
618.5503863072113
 31
0.0
  0
LINE
  5
1819
330
2
100
AcDbEntity
  8
ゴム
  6
Continuous
100
AcDbLine
 10
962.5710762328855
 20
613.5503863072108
 30
0.0
 11
967.571076232886
 21
618.5503863072113
 31
0.0
  0
LINE
  5
181A
330
2
100
AcDbEntity
  8
ゴム
  6
Continuous
100
AcDbLine
 10
967.0612042934202
 20
613.5503863072108
 30
0.0
 11
972.0612042934206
 21
618.5503863072113
 31
0.0
  0
LINE
  5
181B
330
2
100
AcDbEntity
  8
ゴム
  6
Continuous
100
AcDbLine
 10
971.5513323539546
 20
613.5503863072108
 30
0.0
 11
976.5513323539552
 21
618.5503863072113
 31
0.0
  0
LINE
  5
181C
330
2
100
AcDbEntity
  8
ゴム
  6
Continuous
100
AcDbLine
 10
976.0414604144894
 20
613.5503863072108
 30
0.0
 11
981.0414604144899
 21
618.5503863072113
 31
0.0
  0
LINE
  5
181D
330
2
100
AcDbEntity
  8
ゴム
  6
Continuous
100
AcDbLine
 10
980.5315884750239
 20
613.5503863072108
 30
0.0
 11
985.5315884750243
 21
618.5503863072113
 31
0.0
  0
LINE
  5
181E
330
2
100
AcDbEntity
  8
ゴム
  6
Continuous
100
AcDbLine
 10
985.0217165355584
 20
613.5503863072108
 30
0.0
 11
990.0217165355588
 21
618.5503863072113
 31
0.0
  0
LINE
  5
181F
330
2
100
AcDbEntity
  8
ゴム
  6
Continuous
100
AcDbLine
 10
989.511844596093
 20
613.5503863072108
 30
0.0
 11
994.5118445960934
 21
618.5503863072113
 31
0.0
  0
LINE
  5
1820
330
2
100
AcDbEntity
  8
ゴム
  6
Continuous
100
AcDbLine
 10
994.0019726566276
 20
613.5503863072108
 30
0.0
 11
999.0019726566281
 21
618.5503863072113
 31
0.0
  0
LINE
  5
1821
330
2
100
AcDbEntity
  8
ゴム
  6
Continuous
100
AcDbLine
 10
998.4921007171621
 20
613.5503863072108
 30
0.0
 11
1003.492100717163
 21
618.5503863072114
 31
0.0
  0
LINE
  5
1822
330
2
100
AcDbEntity
  8
ゴム
  6
Continuous
100
AcDbLine
 10
1002.982228777697
 20
613.5503863072108
 30
0.0
 11
1007.982228777697
 21
618.5503863072113
 31
0.0
  0
LINE
  5
1823
330
2
100
AcDbEntity
  8
ゴム
  6
Continuous
100
AcDbLine
 10
1007.472356838231
 20
613.5503863072108
 30
0.0
 11
1012.472356838232
 21
618.5503863072113
 31
0.0
  0
LINE
  5
1824
330
2
100
AcDbEntity
  8
ゴム
  6
Continuous
100
AcDbLine
 10
1011.962484898766
 20
613.5503863072108
 30
0.0
 11
1016.962484898766
 21
618.5503863072113
 31
0.0
  0
LINE
  5
1825
330
2
100
AcDbEntity
  8
ゴム
  6
Continuous
100
AcDbLine
 10
1016.4526129593
 20
613.5503863072108
 30
0.0
 11
1021.452612959301
 21
618.5503863072113
 31
0.0
  0
LINE
  5
1826
330
2
100
AcDbEntity
  8
ゴム
  6
Continuous
100
AcDbLine
 10
1020.942741019835
 20
613.5503863072107
 30
0.0
 11
1025.942741019835
 21
618.5503863072113
 31
0.0
  0
LINE
  5
1827
330
2
100
AcDbEntity
  8
ゴム
  6
Continuous
100
AcDbLine
 10
1025.43286908037
 20
613.5503863072108
 30
0.0
 11
1030.43286908037
 21
618.5503863072114
 31
0.0
  0
LINE
  5
1828
330
2
100
AcDbEntity
  8
ゴム
  6
Continuous
100
AcDbLine
 10
1029.922997140904
 20
613.5503863072108
 30
0.0
 11
1034.922997140905
 21
618.5503863072114
 31
0.0
  0
LINE
  5
1829
330
2
100
AcDbEntity
  8
ゴム
  6
Continuous
100
AcDbLine
 10
1034.413125201439
 20
613.5503863072108
 30
0.0
 11
1039.413125201439
 21
618.5503863072114
 31
0.0
  0
LINE
  5
182A
330
2
100
AcDbEntity
  8
ゴム
  6
Continuous
100
AcDbLine
 10
1038.903253261973
 20
613.5503863072107
 30
0.0
 11
1043.903253261974
 21
618.5503863072113
 31
0.0
  0
LINE
  5
182B
330
2
100
AcDbEntity
  8
ゴム
  6
Continuous
100
AcDbLine
 10
1043.393381322508
 20
613.5503863072108
 30
0.0
 11
1048.393381322508
 21
618.5503863072113
 31
0.0
  0
LINE
  5
182C
330
2
100
AcDbEntity
  8
ゴム
  6
Continuous
100
AcDbLine
 10
1047.883509383042
 20
613.5503863072108
 30
0.0
 11
1052.883509383043
 21
618.5503863072113
 31
0.0
  0
LINE
  5
182D
330
2
100
AcDbEntity
  8
ゴム
  6
Continuous
100
AcDbLine
 10
1052.373637443577
 20
613.5503863072108
 30
0.0
 11
1057.373637443578
 21
618.5503863072114
 31
0.0
  0
LINE
  5
182E
330
2
100
AcDbEntity
  8
ゴム
  6
Continuous
100
AcDbLine
 10
1056.863765504111
 20
613.5503863072107
 30
0.0
 11
1061.863765504112
 21
618.5503863072114
 31
0.0
  0
LINE
  5
182F
330
2
100
AcDbEntity
  8
ゴム
  6
Continuous
100
AcDbLine
 10
1061.353893564646
 20
613.5503863072108
 30
0.0
 11
1066.353893564647
 21
618.5503863072114
 31
0.0
  0
LINE
  5
1830
330
2
100
AcDbEntity
  8
ゴム
  6
Continuous
100
AcDbLine
 10
1065.84402162518
 20
613.5503863072108
 30
0.0
 11
1070.844021625181
 21
618.5503863072114
 31
0.0
  0
LINE
  5
1831
330
2
100
AcDbEntity
  8
ゴム
  6
Continuous
100
AcDbLine
 10
1070.334149685715
 20
613.5503863072107
 30
0.0
 11
1075.334149685716
 21
618.5503863072113
 31
0.0
  0
LINE
  5
1832
330
2
100
AcDbEntity
  8
ゴム
  6
Continuous
100
AcDbLine
 10
1074.82427774625
 20
613.5503863072107
 30
0.0
 11
1079.82427774625
 21
618.5503863072113
 31
0.0
  0
LINE
  5
1833
330
2
100
AcDbEntity
  8
ゴム
  6
Continuous
100
AcDbLine
 10
1079.314405806784
 20
613.5503863072108
 30
0.0
 11
1084.314405806785
 21
618.5503863072114
 31
0.0
  0
LINE
  5
1834
330
2
100
AcDbEntity
  8
ゴム
  6
Continuous
100
AcDbLine
 10
1083.804533867319
 20
613.5503863072108
 30
0.0
 11
1088.80453386732
 21
618.5503863072114
 31
0.0
  0
LINE
  5
1835
330
2
100
AcDbEntity
  8
ゴム
  6
Continuous
100
AcDbLine
 10
1088.294661927853
 20
613.5503863072107
 30
0.0
 11
1093.294661927854
 21
618.5503863072114
 31
0.0
  0
LINE
  5
1836
330
2
100
AcDbEntity
  8
ゴム
  6
Continuous
100
AcDbLine
 10
1092.784789988388
 20
613.5503863072107
 30
0.0
 11
1097.784789988389
 21
618.5503863072114
 31
0.0
  0
LINE
  5
1837
330
2
100
AcDbEntity
  8
ゴム
  6
Continuous
100
AcDbLine
 10
1097.274918048923
 20
613.5503863072108
 30
0.0
 11
1102.274918048923
 21
618.5503863072114
 31
0.0
  0
LINE
  5
1838
330
2
100
AcDbEntity
  8
ゴム
  6
Continuous
100
AcDbLine
 10
1101.765046109457
 20
613.5503863072108
 30
0.0
 11
1106.765046109458
 21
618.5503863072114
 31
0.0
  0
LINE
  5
1839
330
2
100
AcDbEntity
  8
ゴム
  6
Continuous
100
AcDbLine
 10
1106.255174169992
 20
613.5503863072107
 30
0.0
 11
1111.255174169992
 21
618.5503863072114
 31
0.0
  0
LINE
  5
183A
330
2
100
AcDbEntity
  8
ゴム
  6
Continuous
100
AcDbLine
 10
1110.745302230526
 20
613.5503863072108
 30
0.0
 11
1115.745302230527
 21
618.5503863072114
 31
0.0
  0
LINE
  5
183B
330
2
100
AcDbEntity
  8
ゴム
  6
Continuous
100
AcDbLine
 10
1115.235430291061
 20
613.5503863072108
 30
0.0
 11
1120.235430291062
 21
618.5503863072114
 31
0.0
  0
LINE
  5
183C
330
2
100
AcDbEntity
  8
ゴム
  6
Continuous
100
AcDbLine
 10
1119.725558351595
 20
613.5503863072108
 30
0.0
 11
1121.40289931494
 21
617.2277272705558
 31
0.0
  0
LINE
  5
1880
330
2
100
AcDbEntity
  8
本体
100
AcDbLine
 10
1117.902899314941
 20
713.5503863072108
 30
0.0
 11
1124.902899314941
 21
713.5503863072108
 31
0.0
  0
LINE
  5
1881
330
2
100
AcDbEntity
  8
本体
100
AcDbLine
 10
1117.902899314941
 20
713.5503863072108
 30
0.0
 11
1117.902899314941
 21
703.5503863072108
 31
0.0
  0
LINE
  5
1882
330
2
100
AcDbEntity
  8
本体
100
AcDbLine
 10
1117.902899314941
 20
703.5503863072108
 30
0.0
 11
1119.402899314941
 21
702.5503863072108
 31
0.0
  0
LINE
  5
1883
330
2
100
AcDbEntity
  8
本体
100
AcDbLine
 10
1124.902899314941
 20
713.5503863072108
 30
0.0
 11
1124.902899314941
 21
703.5503863072108
 31
0.0
  0
LINE
  5
1884
330
2
100
AcDbEntity
  8
本体
100
AcDbLine
 10
1124.902899314941
 20
703.5503863072108
 30
0.0
 11
1123.402899314941
 21
702.5503863072108
 31
0.0
  0
LINE
  5
1885
330
2
100
AcDbEntity
  8
本体
100
AcDbLine
 10
1117.902899314941
 20
663.5503863072108
 30
0.0
 11
1124.902899314941
 21
663.5503863072108
 31
0.0
  0
LINE
  5
1886
330
2
100
AcDbEntity
  8
本体
100
AcDbLine
 10
1117.902899314941
 20
663.5503863072108
 30
0.0
 11
1117.902899314941
 21
673.5503863072108
 31
0.0
  0
LINE
  5
1887
330
2
100
AcDbEntity
  8
本体
100
AcDbLine
 10
1117.902899314941
 20
673.5503863072108
 30
0.0
 11
1119.402899314941
 21
674.5503863072108
 31
0.0
  0
LINE
  5
1888
330
2
100
AcDbEntity
  8
本体
100
AcDbLine
 10
1124.902899314941
 20
663.5503863072108
 30
0.0
 11
1124.902899314941
 21
673.5503863072108
 31
0.0
  0
LINE
  5
1889
330
2
100
AcDbEntity
  8
本体
100
AcDbLine
 10
1124.902899314941
 20
673.5503863072108
 30
0.0
 11
1123.402899314941
 21
674.5503863072108
 31
0.0
  0
LINE
  5
188A
330
2
100
AcDbEntity
  8
本体
100
AcDbLine
 10
1119.402899314941
 20
702.5503863072108
 30
0.0
 11
1119.402899314941
 21
674.5503863072108
 31
0.0
  0
LINE
  5
188B
330
2
100
AcDbEntity
  8
本体
100
AcDbLine
 10
1123.402899314941
 20
702.5503863072108
 30
0.0
 11
1123.402899314941
 21
674.5503863072108
 31
0.0
  0
LEADER
  5
1962
330
2
100
AcDbEntity
  8
寸法線
  6
Continuous
100
AcDbLeader
  3
ISO-25
 73
     0
 74
     0
 75
     1
 40
30.0
 41
211.3705583756345
 76
     3
 10
1123.965968718091
 20
1524.429198398605
 30
0.0
 10
1179.676646836746
 20
1595.13987651726
 30
0.0
 10
1194.676646836746
 20
1595.13987651726
 30
0.0
340
1963
1001
ACAD
1000
DSTYLE
1002
{
1070
     5
1000
OPEN30
1070
    77
1070
     1
1070
   147
1040
0.5
1070
   342
1005
E2
1002
}
  0
MTEXT
  5
1963
102
{ACAD_REACTORS
330
1962
102
}
330
2
100
AcDbEntity
  8
寸法線
  6
Continuous
100
AcDbMText
 10
1199.676646836746
 20
1600.13987651726
 30
0.0
 40
30.0
 41
0.0
 71
     7
 72
     1
  1
GIB7\U+00D74\U+00D750
 73
     1
 44
1.0
1001
ACAD
1000
MTEXTBEGIN
1070
    73
1070
     1
1070
    44
1040
1.0
1070
    74
1070
     0
1000
MTEXTEND
  0
LEADER
  5
1964
330
2
100
AcDbEntity
  8
寸法線
  6
Continuous
100
AcDbLeader
  3
ISO-25
 73
     0
 74
     0
 75
     1
 40
30.0
 41
35.78680203045685
 76
     3
 10
1123.965968718091
 20
1402.943180011406
 30
0.0
 10
1179.676646836746
 20
1473.653858130061
 30
0.0
 10
1194.676646836746
 20
1473.653858130061
 30
0.0
340
1965
1001
ACAD
1000
DSTYLE
1002
{
1070
     5
1000
OPEN30
1070
    77
1070
     1
1070
   147
1040
0.5
1070
   342
1005
E2
1002
}
  0
MTEXT
  5
1965
102
{ACAD_REACTORS
330
1964
102
}
330
2
100
AcDbEntity
  8
寸法線
  6
Continuous
100
AcDbMText
 10
1199.676646836746
 20
1478.653858130061
 30
0.0
 40
30.0
 41
0.0
 71
     7
 72
     1
  1
TB
 73
     1
 44
1.0
1001
ACAD
1000
MTEXTBEGIN
1070
    73
1070
     1
1070
    44
1040
1.0
1070
    74
1070
     0
1000
MTEXTEND
  0
INSERT
  5
198E
102
{ACAD_REACTORS
330
19DF
102
}
330
2
100
AcDbEntity
  8
本体
100
AcDbBlockReference
  2
*U20
 10
539.0528993149405
 20
1452.634465030358
 30
0.0
  0
INSERT
  5
19F9
102
{ACAD_REACTORS
330
1A06
102
}
330
2
100
AcDbEntity
  8
本体
100
AcDbBlockReference
  2
*U22
 10
541.8028993149405
 20
688.5503863072108
 30
0.0
  0
ENDSEC
  0
SECTION
  2
OBJECTS
  0
DICTIONARY
  5
7
330
0
100
AcDbDictionary
281
     1
  3
ACAD_ASSOCNETWORK
350
19D7
  3
ACAD_CIP_PREVIOUS_PRODUCT_INFO
350
1619
  3
ACAD_COLOR
350
15F9
  3
ACAD_DETAILVIEWSTYLE
350
1612
  3
ACAD_GROUP
350
DF
  3
ACAD_LAYOUT
350
C5
  3
ACAD_MATERIAL
350
15C7
  3
ACAD_MLEADERSTYLE
350
160E
  3
ACAD_MLINESTYLE
350
E0
  3
ACAD_PLOTSETTINGS
350
E1
  3
ACAD_PLOTSTYLENAME
350
6
  3
ACAD_SCALELIST
350
15FC
  3
ACAD_SECTIONVIEWSTYLE
350
1610
  3
ACAD_TABLESTYLE
350
15FA
  3
ACAD_VISUALSTYLE
350
15E0
  3
ACDB_RECOMPOSE_DATA
350
1AB4
  3
AcDbVariableDictionary
350
167E
  3
DWGPROPS
350
1AB5
  0
DICTIONARY
  5
1641
330
DA
100
AcDbDictionary
280
     1
281
     1
  0
DICTIONARY
  5
197B
330
D2
100
AcDbDictionary
280
     1
281
     1
  3
ACAD_LAYERSTATES
360
197C
  0
DICTIONARY
  5
161C
330
68
100
AcDbDictionary
280
     1
281
     1
  3
ADSK_XREC_LAYER_RECONCILED
360
161D
  0
DICTIONARY
  5
161E
330
6E
100
AcDbDictionary
280
     1
281
     1
  3
ADSK_XREC_LAYER_RECONCILED
360
161F
  0
DICTIONARY
  5
1620
330
4
100
AcDbDictionary
280
     1
281
     1
  3
ADSK_XREC_LAYER_RECONCILED
360
1621
  0
DICTIONARY
  5
1624
330
6B
100
AcDbDictionary
280
     1
281
     1
  3
ADSK_XREC_LAYER_RECONCILED
360
1625
  0
DICTIONARY
  5
1626
330
11
100
AcDbDictionary
280
     1
281
     1
  3
ADSK_XREC_LAYER_RECONCILED
360
1627
  0
DICTIONARY
  5
1632
330
15B4
100
AcDbDictionary
280
     1
281
     1
  3
ADSK_XREC_LAYER_RECONCILED
360
1633
  0
DICTIONARY
  5
1634
330
15B5
100
AcDbDictionary
280
     1
281
     1
  3
ADSK_XREC_LAYER_RECONCILED
360
1635
  0
DICTIONARY
  5
16FB
330
16FA
100
AcDbDictionary
280
     1
281
     1
  0
DICTIONARY
  5
C0
330
2
100
AcDbDictionary
280
     1
281
     1
  3
ACAD_ASSOCNETWORK
360
19D5
  3
ACAD_LAYOUTSELFREF
360
155D
  3
ACAD_SORTENTS
360
173F
  0
DICTIONARY
  5
C7
330
C6
100
AcDbDictionary
280
     1
281
     1
  3
ACAD_LAYOUTSELFREF
360
1568
  0
DICTIONARY
  5
CD
330
CC
100
AcDbDictionary
280
     1
281
     1
  3
ACAD_LAYOUTSELFREF
360
1569
  0
DICTIONARY
  5
1691
330
1690
100
AcDbDictionary
280
     1
281
     1
  0
DICTIONARY
  5
1A5D
330
198B
100
AcDbDictionary
280
     1
281
     1
  3
AcDbBlockTableRecordData
360
1AF6
  0
DICTIONARY
  5
1A60
330
19F6
100
AcDbDictionary
280
     1
281
     1
  3
AcDbBlockTableRecordData
360
1AF8
  0
DICTIONARY
  5
19D7
102
{ACAD_REACTORS
330
7
102
}
330
7
100
AcDbDictionary
281
     1
  3
ACAD_ASSOCNETWORK
350
19D8
  0
XRECORD
  5
1619
102
{ACAD_REACTORS
330
7
102
}
330
7
100
AcDbXrecord
280
     1
300
ACDLT
300
2014
300
ACDLT_F_S
  0
DICTIONARY
  5
15F9
102
{ACAD_REACTORS
330
7
102
}
330
7
100
AcDbDictionary
281
     1
  0
DICTIONARY
  5
1612
102
{ACAD_REACTORS
330
7
102
}
330
7
100
AcDbDictionary
281
     1
  3
Metric50
350
1613
  0
DICTIONARY
  5
DF
102
{ACAD_REACTORS
330
7
102
}
330
7
100
AcDbDictionary
281
     1
  0
DICTIONARY
  5
C5
102
{ACAD_REACTORS
330
7
102
}
330
7
100
AcDbDictionary
281
     1
  3
Layout1
350
CB
  3
Layout2
350
D1
  3
Model
350
C4
  0
DICTIONARY
  5
15C7
102
{ACAD_REACTORS
330
7
102
}
330
7
100
AcDbDictionary
281
     1
  3
ByBlock
350
15D0
  3
ByLayer
350
15C8
  3
Global
350
15D8
  0
DICTIONARY
  5
160E
102
{ACAD_REACTORS
330
7
102
}
330
7
100
AcDbDictionary
281
     1
  3
Standard
350
160F
  0
DICTIONARY
  5
E0
102
{ACAD_REACTORS
330
7
102
}
330
7
100
AcDbDictionary
281
     1
  3
Standard
350
E8
  0
DICTIONARY
  5
E1
102
{ACAD_REACTORS
330
7
102
}
330
7
100
AcDbDictionary
281
     1
  0
ACDBDICTIONARYWDFLT
  5
6
102
{ACAD_REACTORS
330
7
102
}
330
7
100
AcDbDictionary
281
     1
  3
Normal
350
5
100
AcDbDictionaryWithDefault
340
5
  0
DICTIONARY
  5
15FC
102
{ACAD_REACTORS
330
7
102
}
330
7
100
AcDbDictionary
281
     1
  3
A0
350
15FD
  3
A1
350
15FE
  3
A2
350
15FF
  3
A3
350
1600
  3
A4
350
1601
  3
A5
350
1602
  3
A6
350
1603
  3
A7
350
1604
  3
A8
350
1605
  3
A9
350
1606
  3
B0
350
1607
  3
B1
350
1608
  3
B2
350
1609
  3
B3
350
160A
  3
B4
350
160B
  3
B5
350
160C
  3
B6
350
160D
  0
DICTIONARY
  5
1610
102
{ACAD_REACTORS
330
7
102
}
330
7
100
AcDbDictionary
281
     1
  3
Metric50
350
1611
  0
DICTIONARY
  5
15FA
102
{ACAD_REACTORS
330
7
102
}
330
7
100
AcDbDictionary
281
     1
  3
Standard
350
15FB
  0
DICTIONARY
  5
15E0
102
{ACAD_REACTORS
330
7
102
}
330
7
100
AcDbDictionary
281
     1
  3
2dWireframe
350
15E6
  3
Basic
350
15E5
  3
Brighten
350
15EC
  3
ColorChange
350
15F0
  3
Conceptual
350
15E9
  3
Dim
350
15EB
  3
EdgeColorOff
350
15F8
  3
Facepattern
350
15EF
  3
Flat
350
15E1
  3
FlatWithEdges
350
15E2
  3
Gouraud
350
15E3
  3
GouraudWithEdges
350
15E4
  3
Hidden
350
15E8
  3
JitterOff
350
15F6
  3
Linepattern
350
15EE
  3
OverhangOff
350
15F7
  3
Realistic
350
15EA
  3
Shaded
350
15F5
  3
Shaded with edges
350
15F4
  3
Shades of Gray
350
15F1
  3
Sketchy
350
15F2
  3
Thicken
350
15ED
  3
Wireframe
350
15E7
  3
X-Ray
350
15F3
  0
XRECORD
  5
1AB4
102
{ACAD_REACTORS
330
7
102
}
330
7
100
AcDbXrecord
280
     1
 90
        1
330
15FB
  0
DICTIONARY
  5
167E
102
{ACAD_REACTORS
330
7
102
}
330
7
100
AcDbDictionary
281
     1
  3
CANNOSCALE
350
1683
  3
CMLEADERSTYLE
350
1680
  3
CTABLESTYLE
350
167F
  3
CVIEWDETAILSTYLE
350
1681
  3
CVIEWSECTIONSTYLE
350
1682
  3
DIMASSOC
350
1686
  3
INDEXCTL
350
1685
  3
SORTENTS
350
1684
  3
XCLIPFRAME
350
1AB2
  0
XRECORD
  5
1AB5
102
{ACAD_REACTORS
330
7
102
}
330
7
100
AcDbXrecord
280
     1
  1
DWGPROPS COOKIE
  2

  3

  4

  6

  7

  8
takara
  9

300
=
301
=
302
=
303
=
304
=
305
=
306
=
307
=
308
=
309
=
 40
0.0616343518518519
 41
2453510.558637211
 42
2457539.494041655
  1

 90
        0
  0
DICTIONARY
  5
197C
102
{ACAD_REACTORS
330
197B
102
}
330
197B
100
AcDbDictionary
281
     1
  3
_LAYISO_STATE
350
1984
1001
AcLayerTools
1000
C4
1000
0
  0
XRECORD
  5
161D
102
{ACAD_REACTORS
330
161C
102
}
330
161C
100
AcDbXrecord
280
     1
290
     1
  0
XRECORD
  5
161F
102
{ACAD_REACTORS
330
161E
102
}
330
161E
100
AcDbXrecord
280
     1
290
     1
  0
XRECORD
  5
1621
102
{ACAD_REACTORS
330
1620
102
}
330
1620
100
AcDbXrecord
280
     1
290
     1
  0
XRECORD
  5
1625
102
{ACAD_REACTORS
330
1624
102
}
330
1624
100
AcDbXrecord
280
     1
290
     1
  0
XRECORD
  5
1627
102
{ACAD_REACTORS
330
1626
102
}
330
1626
100
AcDbXrecord
280
     1
290
     1
  0
XRECORD
  5
1633
102
{ACAD_REACTORS
330
1632
102
}
330
1632
100
AcDbXrecord
280
     1
290
     1
  0
XRECORD
  5
1635
102
{ACAD_REACTORS
330
1634
102
}
330
1634
100
AcDbXrecord
280
     1
290
     1
  0
DICTIONARY
  5
19D5
102
{ACAD_REACTORS
330
C0
102
}
330
C0
100
AcDbDictionary
281
     1
  3
ACAD_ASSOCNETWORK
350
19D6
  0
XRECORD
  5
155D
102
{ACAD_REACTORS
330
C0
102
}
330
C0
100
AcDbXrecord
280
     1
340
2
  0
SORTENTSTABLE
  5
173F
102
{ACAD_REACTORS
330
C0
102
}
330
C0
100
AcDbSortentsTable
330
2
331
1817
  5
C42
331
1836
  5
C9D
331
1885
  5
94B
331
994
  5
9E2
331
17DD
  5
B90
331
17BE
  5
B35
331
1807
  5
C14
331
1826
  5
C6F
331
B9
  5
B9
331
984
  5
992
331
17CD
  5
B62
331
17EC
  5
BBD
331
1816
  5
C41
331
1835
  5
C9C
331
1884
  5
94A
331
993
  5
9E1
331
17DC
  5
B8F
331
17BD
  5
B34
331
1806
  5
C13
331
1825
  5
C6E
331
AC2
  5
ACE
331
B8
  5
B8
331
17EB
  5
BBC
331
17CC
  5
B61
331
1883
  5
948
331
1815
  5
C40
331
1834
  5
C9B
331
992
  5
9E0
331
17BC
  5
B33
331
17DB
  5
B8E
331
16A0
  5
1884
331
1805
  5
C12
331
1824
  5
C6D
331
AC1
  5
ACD
331
87B
  5
87B
331
17EA
  5
BBB
331
17CB
  5
B60
331
1882
  5
947
331
1814
  5
C3F
331
1833
  5
C9A
331
991
  5
9DF
331
17BB
  5
B32
331
17DA
  5
B8D
331
144F
  5
14FC
331
174C
  5
188A
331
169F
  5
1883
331
1804
  5
C11
331
1823
  5
C6C
331
AC0
  5
ACC
331
87A
  5
87A
331
17E9
  5
BBA
331
17CA
  5
B5F
331
171D
  5
1888
331
1881
  5
945
331
1813
  5
C3E
331
1832
  5
C93
331
990
  5
9DD
331
17BA
  5
B31
331
17D9
  5
B8C
331
144E
  5
14FB
331
1803
  5
C10
331
1822
  5
C65
331
17C9
  5
B5E
331
17E8
  5
BB9
331
171C
  5
1887
331
1880
  5
944
331
1812
  5
C37
331
1831
  5
C7B
331
17B9
  5
B30
331
17D8
  5
B8B
331
17F7
  5
BE6
331
144D
  5
14FA
331
1802
  5
C09
331
1821
  5
C4D
331
878
  5
878
331
102F
  5
10C2
331
17C8
  5
B5D
331
17E7
  5
BB8
331
171B
  5
1886
331
1236
  5
12C9
331
1811
  5
C1F
331
1830
  5
C7A
331
144C
  5
14F9
331
12B5
  5
1484
331
17B8
  5
B2F
331
17D7
  5
B8A
331
17F6
  5
BE5
331
1801
  5
BF1
331
1820
  5
C4C
331
171A
  5
1885
331
17E6
  5
BB7
331
17C7
  5
B5C
331
182F
  5
C78
331
1810
  5
C1E
331
17B7
  5
B2E
331
12B4
  5
1481
331
17D6
  5
B89
331
17F5
  5
BE4
331
181F
  5
C4A
331
1800
  5
BF0
331
102D
  5
10C0
331
17E5
  5
BB6
331
17C6
  5
B5B
331
182E
  5
C77
331
180F
  5
C1C
331
F67
  5
1010
331
F86
  5
1019
331
17B6
  5
B2D
331
17D5
  5
B88
331
17F4
  5
BE3
331
12B3
  5
1480
331
144A
  5
14F8
331
181E
  5
C49
331
17FF
  5
BEE
331
102C
  5
10BF
331
17E4
  5
BB5
331
17C5
  5
B5A
331
1459
  5
14FF
331
182D
  5
C76
331
180E
  5
C1B
331
101C
  5
10B0
331
F66
  5
100F
331
F85
  5
1018
331
17D4
  5
B87
331
17F3
  5
BE2
331
12B2
  5
147F
331
1449
  5
14F7
331
181D
  5
C48
331
17FE
  5
BED
331
183C
  5
CA3
331
188B
  5
953
331
17E3
  5
BB4
331
1765
  5
188B
331
17C4
  5
B59
331
12C1
  5
1490
331
1458
  5
14FE
331
182C
  5
C75
331
180D
  5
C1A
331
118F
  5
1223
331
F65
  5
100E
331
12B1
  5
147E
331
17D3
  5
B86
331
17F2
  5
BDB
331
181C
  5
C47
331
17FD
  5
BEC
331
183B
  5
CA2
331
188A
  5
952
331
1177
  5
120A
331
102A
  5
10BD
331
17E2
  5
BAD
331
12C0
  5
148F
331
17C3
  5
B58
331
180C
  5
C19
331
182B
  5
C74
331
1167
  5
11FB
331
F64
  5
100D
331
F83
  5
1016
331
12B0
  5
147D
331
17D2
  5
B7F
331
17F1
  5
BC3
331
181B
  5
C46
331
17FC
  5
BEB
331
183A
  5
CA1
331
1889
  5
950
331
1029
  5
10BC
331
1176
  5
1209
331
F9A
  5
102E
331
17E1
  5
B95
331
12BF
  5
148E
331
17C2
  5
B51
331
180B
  5
C18
331
182A
  5
C73
331
1019
  5
10AD
331
1166
  5
11FA
331
10CF
  5
1162
331
F82
  5
1015
331
12D6
  5
14A5
331
12AF
  5
147C
331
17D1
  5
B67
331
17F0
  5
BC2
331
181A
  5
C45
331
17FB
  5
BEA
331
1839
  5
CA0
331
1888
  5
94F
331
1175
  5
1208
331
10BF
  5
1153
331
1028
  5
10BB
331
17E0
  5
B94
331
17C1
  5
B39
331
180A
  5
C17
331
1829
  5
C72
331
1018
  5
10AC
331
1165
  5
11F9
331
10CE
  5
1161
331
F81
  5
1014
331
17D0
  5
B66
331
1819
  5
C44
331
17FA
  5
BE9
331
1838
  5
C9F
331
1174
  5
1207
331
10BE
  5
1152
331
1027
  5
10BA
331
1226
  5
12B9
331
17C0
  5
B38
331
1809
  5
C16
331
1828
  5
C71
331
1017
  5
10AB
331
1164
  5
11F8
331
10CD
  5
1160
331
5F
  5
5F
331
F80
  5
1013
331
12D4
  5
14A3
331
1818
  5
C43
331
17F9
  5
BE8
331
1026
  5
10B9
331
10BD
  5
1151
331
4F
  5
4F
331
1173
  5
1206
331
1808
  5
C15
331
1016
  5
10AA
331
1163
  5
11F7
331
10CC
  5
115F
331
5E
  5
5E
331
3F
  5
3F
331
F7F
  5
1012
331
12D3
  5
14A2
331
146A
  5
1510
331
17F8
  5
BE7
331
A17
  5
A47
331
1211
  5
12A5
331
10BC
  5
1150
331
4E
  5
4E
331
1025
  5
10B8
331
1224
  5
12B7
331
9EF
  5
9FB
331
1015
  5
10A9
331
F7E
  5
1011
331
1162
  5
11F6
331
5D
  5
5D
331
1F
  5
1F
331
3E
  5
3E
331
F47
  5
100C
331
A75
  5
ABD
331
AA4
  5
AC8
331
A16
  5
A43
331
10BB
  5
114F
331
4D
  5
4D
331
1171
  5
1205
331
9EE
  5
9FA
331
1014
  5
10A8
331
1161
  5
11F5
331
121F
  5
12B2
331
10CA
  5
115E
331
5C
  5
5C
331
1E
  5
1E
331
3D
  5
3D
331
F46
  5
100B
331
A74
  5
AA4
331
AA3
  5
AC7
331
10BA
  5
114E
331
4C
  5
4C
331
2D
  5
2D
331
1023
  5
10B7
331
1222
  5
12B5
331
1450
  5
14FD
331
9ED
  5
9F9
331
1013
  5
10A7
331
F45
  5
100A
331
3C
  5
3C
331
1D
  5
1D
331
5B
  5
5B
331
117F
  5
1212
331
121E
  5
12B1
331
A73
  5
AA3
331
AA2
  5
AC6
331
A14
  5
A3B
331
9DD
  5
9EA
331
10D8
  5
116B
331
4B
  5
4B
331
2C
  5
2C
331
120E
  5
12A2
331
1221
  5
12B4
331
12B8
  5
1487
331
B7
  5
B7
331
9EC
  5
9F8
331
1031
  5
10C4
331
F44
  5
1009
331
5A
  5
5A
331
1C
  5
1C
331
121D
  5
12B0
331
DE7
  5
1005
331
A72
  5
AA2
331
AA1
  5
AC5
331
F8A
  5
101D
331
2B
  5
2B
331
4A
  5
4A
331
120D
  5
12A1
331
A62
  5
A74
331
9EB
  5
9F7
331
B6
  5
B6
331
F43
  5
1008
331
3A
  5
3A
331
1B
  5
1B
331
59
  5
59
331
117D
  5
1210
331
121C
  5
12AF
331
A71
  5
AA1
331
AA0
  5
AC4
331
10D6
  5
1169
331
2A
  5
2A
331
49
  5
49
331
120C
  5
12A0
331
15B3
  5
1882
331
A80
  5
AC2
331
9EA
  5
9F6
331
ABF
  5
ACB
331
B5
  5
B5
331
1A
  5
1A
331
39
  5
39
331
58
  5
58
331
121B
  5
12AE
331
A70
  5
AA0
331
98F
  5
99B
331
ACE
  5
B0A
331
F88
  5
101B
331
29
  5
29
331
48
  5
48
331
67
  5
67
331
120B
  5
129F
331
9E9
  5
9F5
331
A7F
  5
AC1
331
ABE
  5
ACA
331
B4
  5
B4
331
F41
  5
1007
331
19
  5
19
331
57
  5
57
331
117B
  5
120E
331
121A
  5
12AD
331
A6F
  5
A99
331
98E
  5
99A
331
8BF
  5
8BF
331
ACD
  5
B08
331
120A
  5
129E
331
28
  5
28
331
47
  5
47
331
66
  5
66
331
10D4
  5
1167
331
15B1
  5
1881
331
A5F
  5
A71
331
9E8
  5
9F4
331
A7E
  5
AC0
331
ABD
  5
AC9
331
B3
  5
B3
331
18
  5
18
331
56
  5
56
331
117A
  5
120D
331
F40
  5
1006
331
A6E
  5
A80
331
98D
  5
999
331
8BE
  5
8BE
331
116A
  5
11FE
331
1209
  5
129D
331
27
  5
27
331
46
  5
46
331
65
  5
65
331
10D3
  5
1166
331
9E7
  5
9F3
331
A7D
  5
ABF
331
876
  5
876
331
B2
  5
B2
331
1218
  5
12AC
331
10C3
  5
1157
331
55
  5
55
331
A6D
  5
A7F
331
98C
  5
998
331
1208
  5
129C
331
26
  5
26
331
45
  5
45
331
64
  5
64
331
9E6
  5
9F2
331
A7C
  5
ABE
331
875
  5
875
331
1178
  5
120B
331
54
  5
54
331
A6C
  5
A7E
331
8BC
  5
8BC
331
ACA
  5
B05
331
10D1
  5
1164
331
25
  5
25
331
44
  5
44
331
63
  5
63
331
9E5
  5
9F1
331
B0
  5
B0
331
10E8
  5
117C
331
34
  5
34
331
53
  5
53
331
A6B
  5
A7D
331
98A
  5
997
331
AC9
  5
B04
331
BF
  5
BF
331
1041
  5
10D5
331
10D0
  5
1163
331
24
  5
24
331
43
  5
43
331
62
  5
62
331
A5B
  5
A70
331
9E4
  5
9F0
331
AF8
  5
CA4
331
912
  5
912
331
AF
  5
AF
331
10C0
  5
1154
331
14
  5
14
331
33
  5
33
331
52
  5
52
331
A6A
  5
A7C
331
9F3
  5
9FF
331
A99
  5
AC3
331
989
  5
996
331
BE
  5
BE
331
23
  5
23
331
61
  5
61
331
9E3
  5
9EF
331
872
  5
872
331
13
  5
13
331
32
  5
32
331
51
  5
51
331
A69
  5
A75
331
99B
  5
9E9
331
988
  5
995
331
AC7
  5
AF6
331
22
  5
22
331
60
  5
60
331
9E2
  5
9EE
331
AF6
  5
B2C
331
871
  5
871
331
997
  5
9E5
331
12
  5
12
331
50
  5
50
331
99A
  5
9E8
331
9F1
  5
9FD
331
BC
  5
BC
331
B05
  5
CA6
331
987
  5
994
331
17EF
  5
BC0
331
21
  5
21
331
40
  5
40
331
1887
  5
94E
331
9E1
  5
9ED
331
AF5
  5
B2B
331
996
  5
9E4
331
90F
  5
90F
331
17DF
  5
B92
331
30
  5
30
331
999
  5
9E7
331
9F0
  5
9FC
331
BB
  5
BB
331
AC5
  5
AF4
331
B04
  5
CA5
331
986
  5
993
331
20
  5
20
331
17CF
  5
B64
331
17EE
  5
BBF
331
1722
  5
1889
331
1837
  5
C9E
331
1886
  5
94C
331
AF4
  5
B2A
331
995
  5
9E3
331
90E
  5
90E
331
17DE
  5
B91
331
17BF
  5
B36
331
1827
  5
C70
331
998
  5
9E6
331
17CE
  5
B63
331
17ED
  5
BBE
  0
XRECORD
  5
1568
102
{ACAD_REACTORS
330
C7
102
}
330
C7
100
AcDbXrecord
280
     1
340
C6
  0
XRECORD
  5
1569
102
{ACAD_REACTORS
330
CD
102
}
330
CD
100
AcDbXrecord
280
     1
340
CC
  0
DICTIONARY
  5
1AF6
102
{ACAD_REACTORS
330
1A5D
102
}
330
1A5D
100
AcDbDictionary
280
     1
281
     1
  3
Edit
360
1AF7
  0
DICTIONARY
  5
1AF8
102
{ACAD_REACTORS
330
1A60
102
}
330
1A60
100
AcDbDictionary
280
     1
281
     1
  3
Edit
360
1AF9
  0
ACDBASSOCNETWORK
  5
19D8
102
{ACAD_REACTORS
330
19D7
102
}
330
19D7
100
AcDbAssocAction
 90
        1
 90
        1
330
0
360
0
 90
        0
 90
        0
 90
        0
100
AcDbAssocNetwork
 90
        0
 90
        1
 90
        1
330
19D6
 90
        1
330
19D6
  0
ACDBDETAILVIEWSTYLE
  5
1613
102
{ACAD_XDICTIONARY
360
1AF4
102
}
102
{ACAD_REACTORS
330
1612
102
}
330
1612
100
AcDbModelDocViewStyle
 70
     0
  3
Metric50
290
     0
100
AcDbDetailViewStyle
 70
     0
 71
     0
 90
        3
 71
     1
340
9
 40
5.0
340
0
 40
5.0
300

 40
0.0
280
     1
 71
     2
340
8
 90
       25
 71
     3
340
9
 40
5.0
 90
        0
 40
15.0
 90
        1
300
%<\AcVar ViewDetailId>% (%<\AcVar ViewScale \f "%sn">%)
 71
     4
340
8
 90
       25
340
8
 90
       25
280
     0
  0
LAYOUT
  5
CB
102
{ACAD_XDICTIONARY
360
1AB8
102
}
102
{ACAD_REACTORS
330
C5
102
}
330
C5
100
AcDbPlotSettings
  1

  2
None
  4

  6

 40
0.0
 41
0.0
 42
0.0
 43
0.0
 44
0.0
 45
0.0
 46
0.0
 47
0.0
 48
0.0
 49
0.0
140
0.0
141
0.0
142
1.0
143
1.0
 70
   688
 72
     0
 73
     0
 74
     5
  7
monochrome.ctb
 75
    16
147
1.0
148
0.0
149
0.0
100
AcDbLayout
  1
Layout1
 70
     1
 71
     1
 10
0.0
 20
0.0
 11
12.0
 21
9.0
 12
0.0
 22
0.0
 32
0.0
 14
0.0
 24
0.0
 34
0.0
 15
0.0
 25
0.0
 35
0.0
146
0.0
 13
0.0
 23
0.0
 33
0.0
 16
1.0
 26
0.0
 36
0.0
 17
0.0
 27
1.0
 37
0.0
 76
     0
330
C6
  0
LAYOUT
  5
D1
102
{ACAD_XDICTIONARY
360
1ABA
102
}
102
{ACAD_REACTORS
330
C5
102
}
330
C5
100
AcDbPlotSettings
  1

  2
None
  4

  6

 40
0.0
 41
0.0
 42
0.0
 43
0.0
 44
0.0
 45
0.0
 46
0.0
 47
0.0
 48
0.0
 49
0.0
140
0.0
141
0.0
142
1.0
143
1.0
 70
   688
 72
     0
 73
     0
 74
     5
  7
monochrome.ctb
 75
    16
147
1.0
148
0.0
149
0.0
100
AcDbLayout
  1
Layout2
 70
     1
 71
     2
 10
0.0
 20
0.0
 11
12.0
 21
9.0
 12
0.0
 22
0.0
 32
0.0
 14
0.0
 24
0.0
 34
0.0
 15
0.0
 25
0.0
 35
0.0
146
0.0
 13
0.0
 23
0.0
 33
0.0
 16
1.0
 26
0.0
 36
0.0
 17
0.0
 27
1.0
 37
0.0
 76
     0
330
CC
  0
LAYOUT
  5
C4
102
{ACAD_XDICTIONARY
360
1AB6
102
}
102
{ACAD_REACTORS
330
C5
102
}
330
C5
100
AcDbPlotSettings
  1

  2
EPSON LP-9400
  4
A4
  6

 40
5.873749732971191
 41
5.873747825622558
 42
5.873748779296875
 43
5.873748779296875
 44
209.9733276367187
 45
297.0106506347656
 46
2.339999999999999
 47
0.0
 48
0.0
 49
0.0
140
0.0
141
0.0
142
1.0
143
9.816891609963194
 70
 11956
 72
     1
 73
     1
 74
     1
  7
monochrome.ctb
 75
     0
147
0.1018652379725877
148
1264.94917075748
149
959.6633564695521
100
AcDbLayout
  1
Model
 70
     1
 71
     0
 10
0.0
 20
0.0
 11
12.0
 21
9.0
 12
0.0
 22
0.0
 32
0.0
 14
0.0
 24
0.0
 34
0.0
 15
0.0
 25
0.0
 35
0.0
146
0.0
 13
0.0
 23
0.0
 33
0.0
 16
1.0
 26
0.0
 36
0.0
 17
0.0
 27
1.0
 37
0.0
 76
     0
330
2
331
15C5
  0
MATERIAL
  5
15D0
102
{ACAD_XDICTIONARY
360
15D1
102
}
102
{ACAD_REACTORS
330
15C7
102
}
330
15C7
100
AcDbMaterial
  1
ByBlock
 72
     0
 43
0.0008202099737533
 43
0.0
 43
0.0
 43
0.0
 43
0.0
 43
0.0008202099737533
 43
0.0
 43
0.0
 43
0.0
 43
0.0
 43
1.0
 43
0.0
 43
0.0
 43
0.0
 43
0.0
 43
1.0
 77
     0
 47
0.0008202099737533
 47
0.0
 47
0.0
 47
0.0
 47
0.0
 47
0.0008202099737533
 47
0.0
 47
0.0
 47
0.0
 47
0.0
 47
1.0
 47
0.0
 47
0.0
 47
0.0
 47
0.0
 47
1.0
171
     0
 49
0.0008202099737533
 49
0.0
 49
0.0
 49
0.0
 49
0.0
 49
0.0008202099737533
 49
0.0
 49
0.0
 49
0.0
 49
0.0
 49
1.0
 49
0.0
 49
0.0
 49
0.0
 49
0.0
 49
1.0
175
     0
142
0.0008202099737533
142
0.0
142
0.0
142
0.0
142
0.0
142
0.0008202099737533
142
0.0
142
0.0
142
0.0
142
0.0
142
1.0
142
0.0
142
0.0
142
0.0
142
0.0
142
1.0
179
     0
144
0.0008202099737533
144
0.0
144
0.0
144
0.0
144
0.0
144
0.0008202099737533
144
0.0
144
0.0
144
0.0
144
0.0
144
1.0
144
0.0
144
0.0
144
0.0
144
0.0
144
1.0
147
0.0008202099737533
147
0.0
147
0.0
147
0.0
147
0.0
147
0.0008202099737533
147
0.0
147
0.0
147
0.0
147
0.0
147
1.0
147
0.0
147
0.0
147
0.0
147
0.0
147
1.0
  0
MATERIAL
  5
15C8
102
{ACAD_XDICTIONARY
360
15C9
102
}
102
{ACAD_REACTORS
330
15C7
102
}
330
15C7
100
AcDbMaterial
  1
ByLayer
 72
     0
 43
0.0008202099737533
 43
0.0
 43
0.0
 43
0.0
 43
0.0
 43
0.0008202099737533
 43
0.0
 43
0.0
 43
0.0
 43
0.0
 43
1.0
 43
0.0
 43
0.0
 43
0.0
 43
0.0
 43
1.0
 77
     0
 47
0.0008202099737533
 47
0.0
 47
0.0
 47
0.0
 47
0.0
 47
0.0008202099737533
 47
0.0
 47
0.0
 47
0.0
 47
0.0
 47
1.0
 47
0.0
 47
0.0
 47
0.0
 47
0.0
 47
1.0
171
     0
 49
0.0008202099737533
 49
0.0
 49
0.0
 49
0.0
 49
0.0
 49
0.0008202099737533
 49
0.0
 49
0.0
 49
0.0
 49
0.0
 49
1.0
 49
0.0
 49
0.0
 49
0.0
 49
0.0
 49
1.0
175
     0
142
0.0008202099737533
142
0.0
142
0.0
142
0.0
142
0.0
142
0.0008202099737533
142
0.0
142
0.0
142
0.0
142
0.0
142
1.0
142
0.0
142
0.0
142
0.0
142
0.0
142
1.0
179
     0
144
0.0008202099737533
144
0.0
144
0.0
144
0.0
144
0.0
144
0.0008202099737533
144
0.0
144
0.0
144
0.0
144
0.0
144
1.0
144
0.0
144
0.0
144
0.0
144
0.0
144
1.0
147
0.0008202099737533
147
0.0
147
0.0
147
0.0
147
0.0
147
0.0008202099737533
147
0.0
147
0.0
147
0.0
147
0.0
147
1.0
147
0.0
147
0.0
147
0.0
147
0.0
147
1.0
  0
MATERIAL
  5
15D8
102
{ACAD_XDICTIONARY
360
15D9
102
}
102
{ACAD_REACTORS
330
15C7
102
}
330
15C7
100
AcDbMaterial
  1
Global
 72
     0
 43
0.0008202099737533
 43
0.0
 43
0.0
 43
0.0
 43
0.0
 43
0.0008202099737533
 43
0.0
 43
0.0
 43
0.0
 43
0.0
 43
1.0
 43
0.0
 43
0.0
 43
0.0
 43
0.0
 43
1.0
 77
     0
 47
0.0008202099737533
 47
0.0
 47
0.0
 47
0.0
 47
0.0
 47
0.0008202099737533
 47
0.0
 47
0.0
 47
0.0
 47
0.0
 47
1.0
 47
0.0
 47
0.0
 47
0.0
 47
0.0
 47
1.0
171
     0
 49
0.0008202099737533
 49
0.0
 49
0.0
 49
0.0
 49
0.0
 49
0.0008202099737533
 49
0.0
 49
0.0
 49
0.0
 49
0.0
 49
1.0
 49
0.0
 49
0.0
 49
0.0
 49
0.0
 49
1.0
175
     0
142
0.0008202099737533
142
0.0
142
0.0
142
0.0
142
0.0
142
0.0008202099737533
142
0.0
142
0.0
142
0.0
142
0.0
142
1.0
142
0.0
142
0.0
142
0.0
142
0.0
142
1.0
179
     0
144
0.0008202099737533
144
0.0
144
0.0
144
0.0
144
0.0
144
0.0008202099737533
144
0.0
144
0.0
144
0.0
144
0.0
144
1.0
144
0.0
144
0.0
144
0.0
144
0.0
144
1.0
147
0.0008202099737533
147
0.0
147
0.0
147
0.0
147
0.0
147
0.0008202099737533
147
0.0
147
0.0
147
0.0
147
0.0
147
1.0
147
0.0
147
0.0
147
0.0
147
0.0
147
1.0
  0
MLEADERSTYLE
  5
160F
102
{ACAD_XDICTIONARY
360
1AF0
102
}
102
{ACAD_REACTORS
330
160E
102
}
330
160E
100
AcDbMLeaderStyle
170
     2
171
     1
172
     0
 90
        2
 40
0.0
 41
0.0
173
     1
 91
-1056964608
340
D6
 92
       -2
290
     1
 42
2.0
291
     1
 43
0.36
  3
Standard
 44
4.0
300

342
9
174
     1
178
     6
175
     1
176
     0
 93
-1056964608
 45
4.0
292
     0
297
     0
 46
4.0
 94
-1056964608
 47
1.0
 49
1.0
140
1.0
293
     1
141
0.0
294
     1
177
     0
142
1.0
295
     0
296
     0
143
0.125
1001
ACAD_MLEADERVER
1070
     2
  0
MLINESTYLE
  5
E8
102
{ACAD_REACTORS
330
E0
102
}
330
E0
100
AcDbMlineStyle
  2
STANDARD
 70
     0
  3

 62
   256
 51
90.0
 52
90.0
 71
     2
 49
0.5
 62
   256
  6
BYLAYER
 49
-0.5
 62
   256
  6
BYLAYER
  0
ACDBPLACEHOLDER
  5
5
102
{ACAD_REACTORS
330
6
102
}
330
6
  0
SCALE
  5
15FD
102
{ACAD_REACTORS
330
15FC
102
}
330
15FC
100
AcDbScale
 70
     0
300
1:1
140
1.0
141
1.0
290
     1
  0
SCALE
  5
15FE
102
{ACAD_REACTORS
330
15FC
102
}
330
15FC
100
AcDbScale
 70
     0
300
1:2
140
1.0
141
2.0
290
     0
  0
SCALE
  5
15FF
102
{ACAD_REACTORS
330
15FC
102
}
330
15FC
100
AcDbScale
 70
     0
300
1:4
140
1.0
141
4.0
290
     0
  0
SCALE
  5
1600
102
{ACAD_REACTORS
330
15FC
102
}
330
15FC
100
AcDbScale
 70
     0
300
1:5
140
1.0
141
5.0
290
     0
  0
SCALE
  5
1601
102
{ACAD_REACTORS
330
15FC
102
}
330
15FC
100
AcDbScale
 70
     0
300
1:8
140
1.0
141
8.0
290
     0
  0
SCALE
  5
1602
102
{ACAD_REACTORS
330
15FC
102
}
330
15FC
100
AcDbScale
 70
     0
300
1:10
140
1.0
141
10.0
290
     0
  0
SCALE
  5
1603
102
{ACAD_REACTORS
330
15FC
102
}
330
15FC
100
AcDbScale
 70
     0
300
1:16
140
1.0
141
16.0
290
     0
  0
SCALE
  5
1604
102
{ACAD_REACTORS
330
15FC
102
}
330
15FC
100
AcDbScale
 70
     0
300
1:20
140
1.0
141
20.0
290
     0
  0
SCALE
  5
1605
102
{ACAD_REACTORS
330
15FC
102
}
330
15FC
100
AcDbScale
 70
     0
300
1:30
140
1.0
141
30.0
290
     0
  0
SCALE
  5
1606
102
{ACAD_REACTORS
330
15FC
102
}
330
15FC
100
AcDbScale
 70
     0
300
1:40
140
1.0
141
40.0
290
     0
  0
SCALE
  5
1607
102
{ACAD_REACTORS
330
15FC
102
}
330
15FC
100
AcDbScale
 70
     0
300
1:50
140
1.0
141
50.0
290
     0
  0
SCALE
  5
1608
102
{ACAD_REACTORS
330
15FC
102
}
330
15FC
100
AcDbScale
 70
     0
300
1:100
140
1.0
141
100.0
290
     0
  0
SCALE
  5
1609
102
{ACAD_REACTORS
330
15FC
102
}
330
15FC
100
AcDbScale
 70
     0
300
2:1
140
2.0
141
1.0
290
     0
  0
SCALE
  5
160A
102
{ACAD_REACTORS
330
15FC
102
}
330
15FC
100
AcDbScale
 70
     0
300
4:1
140
4.0
141
1.0
290
     0
  0
SCALE
  5
160B
102
{ACAD_REACTORS
330
15FC
102
}
330
15FC
100
AcDbScale
 70
     0
300
8:1
140
8.0
141
1.0
290
     0
  0
SCALE
  5
160C
102
{ACAD_REACTORS
330
15FC
102
}
330
15FC
100
AcDbScale
 70
     0
300
10:1
140
10.0
141
1.0
290
     0
  0
SCALE
  5
160D
102
{ACAD_REACTORS
330
15FC
102
}
330
15FC
100
AcDbScale
 70
     0
300
100:1
140
100.0
141
1.0
290
     0
  0
ACDBSECTIONVIEWSTYLE
  5
1611
102
{ACAD_XDICTIONARY
360
1AF2
102
}
102
{ACAD_REACTORS
330
1610
102
}
330
1610
100
AcDbModelDocViewStyle
 70
     0
  3
Metric50
290
     0
100
AcDbSectionViewStyle
 70
     0
 71
     0
 90
      102
 71
     1
340
9
 40
5.0
340
0
340
0
 40
5.0
300
I, O, Q, S, X, Z
 40
10.0
 90
        0
 40
2.5
 90
        0
 71
     2
340
8
 90
       25
340
8
 90
       50
 40
5.0
 40
2.5
 40
5.0
 71
     3
340
9
 40
5.0
 90
        0
 40
15.0
 90
        1
300
%<\AcVar ViewSectionStartId>%-%<\AcVar ViewSectionEndId>% (%<\AcVar ViewScale \f "%sn">%)
 71
     4
300
ANSI31
 40
1.0
 90
        0
290
     0
290
     0
 90
        6
 40
0.0
 40
1.570796326794896
 40
0.2617993877991494
 40
1.308996938995747
 40
-0.2617993877991494
 40
1.832595714594046
  0
TABLESTYLE
  5
15FB
102
{ACAD_XDICTIONARY
360
1637
102
}
102
{ACAD_REACTORS
330
15FA
102
}
330
15FA
100
AcDbTableStyle
  3
Standard
 70
     0
 71
     0
 40
1.5
 41
1.5
280
     0
281
     0
  7
Standard
140
4.5
170
     2
 62
     0
 63
     7
283
     0
274
    -2
284
     1
 64
     0
275
    -2
285
     1
 65
     0
276
    -2
286
     1
 66
     0
277
    -2
287
     1
 67
     0
278
    -2
288
     1
 68
     0
279
    -2
289
     1
 69
     0
  7
Standard
140
6.0
170
     5
 62
     0
 63
     7
283
     0
274
    -2
284
     1
 64
     0
275
    -2
285
     1
 65
     0
276
    -2
286
     1
 66
     0
277
    -2
287
     1
 67
     0
278
    -2
288
     1
 68
     0
279
    -2
289
     1
 69
     0
  7
Standard
140
4.5
170
     5
 62
     0
 63
     7
283
     0
274
    -2
284
     1
 64
     0
275
    -2
285
     1
 65
     0
276
    -2
286
     1
 66
     0
277
    -2
287
     1
 67
     0
278
    -2
288
     1
 68
     0
279
    -2
289
     1
 69
     0
  0
VISUALSTYLE
  5
15E6
102
{ACAD_XDICTIONARY
360
1AC9
102
}
102
{ACAD_REACTORS
330
15E0
102
}
330
15E0
100
AcDbVisualStyle
  2
2dWireframe
 70
     4
 71
     0
 72
     2
 73
     0
 90
        0
 40
-0.6
 41
-30.0
 62
     5
 63
     7
 74
     1
 91
        4
 64
     7
 65
   257
 75
     1
175
     1
 42
1.0
 92
        0
 66
   257
 43
1.0
 76
     1
 77
     6
 78
     2
 67
     7
 79
     5
170
     0
171
     0
290
     0
174
     0
 93
        1
 44
0.0
173
     0
291
     0
 45
0.0
1001
ACAD
1000
AcDbSavedByObjectVersion
1070
     0
  0
VISUALSTYLE
  5
15E5
102
{ACAD_XDICTIONARY
360
1AC7
102
}
102
{ACAD_REACTORS
330
15E0
102
}
330
15E0
100
AcDbVisualStyle
  2
Basic
 70
     7
 71
     1
 72
     0
 73
     1
 90
        0
 40
-0.6
 41
-30.0
 62
     5
 63
     7
 74
     0
 91
        4
 64
     7
 65
   257
 75
     1
175
     1
 42
1.0
 92
        8
 66
     7
 43
1.0
 76
     1
 77
     6
 78
     2
 67
     7
 79
     5
170
     0
171
     0
290
     0
174
     0
 93
        1
 44
0.0
173
     0
291
     1
 45
0.0
1001
ACAD
1000
AcDbSavedByObjectVersion
1070
     0
  0
VISUALSTYLE
  5
15EC
102
{ACAD_XDICTIONARY
360
1AD5
102
}
102
{ACAD_REACTORS
330
15E0
102
}
330
15E0
100
AcDbVisualStyle
  2
Brighten
 70
    12
 71
     2
 72
     2
 73
     0
 90
        0
 40
-0.6
 41
-30.0
 62
     5
 63
     7
 74
     1
 91
        4
 64
     7
 65
   257
 75
     1
175
     1
 42
1.0
 92
        8
 66
     7
 43
1.0
 76
     1
 77
     6
 78
     2
 67
     7
 79
     5
170
     0
171
     0
290
     0
174
     0
 93
        1
 44
50.0
173
     0
291
     1
 45
0.0
1001
ACAD
1000
AcDbSavedByObjectVersion
1070
     0
  0
VISUALSTYLE
  5
15F0
102
{ACAD_XDICTIONARY
360
1ADD
102
}
102
{ACAD_REACTORS
330
15E0
102
}
330
15E0
100
AcDbVisualStyle
  2
ColorChange
 70
    16
 71
     2
 72
     2
 73
     3
 90
        0
 40
-0.6
 41
-30.0
 62
     5
 63
     8
 74
     1
 91
        4
 64
     7
 65
   257
 75
     1
175
     1
 42
1.0
 92
        8
 66
     8
 43
1.0
 76
     1
 77
     6
 78
     2
 67
     7
 79
     5
170
     0
171
     0
290
     0
174
     0
 93
        1
 44
0.0
173
     0
291
     1
 45
0.0
1001
ACAD
1000
AcDbSavedByObjectVersion
1070
     0
  0
VISUALSTYLE
  5
15E9
102
{ACAD_XDICTIONARY
360
1ACF
102
}
102
{ACAD_REACTORS
330
15E0
102
}
330
15E0
100
AcDbVisualStyle
  2
Conceptual
 70
     9
 71
     3
 72
     2
 73
     0
 90
        0
 40
-0.6
 41
-30.0
 62
     5
 63
     7
 74
     2
 91
        2
 64
     7
 65
   257
 75
     1
175
     1
 42
179.0
 92
        8
 66
     7
 43
1.0
 76
     1
 77
     6
 78
     2
 67
     7
 79
     3
170
     0
171
     0
290
     0
174
     0
 93
        1
 44
0.0
173
     0
291
     0
 45
0.0
1001
ACAD
1000
AcDbSavedByObjectVersion
1070
     0
  0
VISUALSTYLE
  5
15EB
102
{ACAD_XDICTIONARY
360
1AD3
102
}
102
{ACAD_REACTORS
330
15E0
102
}
330
15E0
100
AcDbVisualStyle
  2
Dim
 70
    11
 71
     2
 72
     2
 73
     0
 90
        0
 40
-0.6
 41
-30.0
 62
     5
 63
     7
 74
     1
 91
        4
 64
     7
 65
   257
 75
     1
175
     1
 42
1.0
 92
        8
 66
     7
 43
1.0
 76
     1
 77
     6
 78
     2
 67
     7
 79
     5
170
     0
171
     0
290
     0
174
     0
 93
        1
 44
-50.0
173
     0
291
     1
 45
0.0
1001
ACAD
1000
AcDbSavedByObjectVersion
1070
     0
  0
VISUALSTYLE
  5
15F8
102
{ACAD_XDICTIONARY
360
1AED
102
}
102
{ACAD_REACTORS
330
15E0
102
}
330
15E0
100
AcDbVisualStyle
  2
EdgeColorOff
 70
    22
 71
     2
 72
     2
 73
     0
 90
        0
 40
-0.6
 41
-30.0
 62
     5
 63
     7
 74
     1
 91
        4
 64
     7
 65
   257
 75
     1
175
     1
 42
1.0
 92
        8
 66
     7
 43
1.0
 76
     1
 77
     6
 78
     2
 67
     7
 79
     5
170
     0
171
     0
290
     0
174
     0
 93
        1
 44
0.0
173
     0
291
     1
 45
0.0
1001
ACAD
1000
AcDbSavedByObjectVersion
1070
     0
  0
VISUALSTYLE
  5
15EF
102
{ACAD_XDICTIONARY
360
1ADB
102
}
102
{ACAD_REACTORS
330
15E0
102
}
330
15E0
100
AcDbVisualStyle
  2
Facepattern
 70
    15
 71
     2
 72
     2
 73
     0
 90
        0
 40
-0.6
 41
-30.0
 62
     5
 63
     7
 74
     1
 91
        4
 64
     7
 65
   257
 75
     1
175
     1
 42
1.0
 92
        8
 66
     7
 43
1.0
 76
     1
 77
     6
 78
     2
 67
     7
 79
     5
170
     0
171
     0
290
     0
174
     0
 93
        1
 44
0.0
173
     0
291
     1
 45
0.0
1001
ACAD
1000
AcDbSavedByObjectVersion
1070
     0
  0
VISUALSTYLE
  5
15E1
102
{ACAD_XDICTIONARY
360
1ABF
102
}
102
{ACAD_REACTORS
330
15E0
102
}
330
15E0
100
AcDbVisualStyle
  2
Flat
 70
     0
 71
     2
 72
     1
 73
     1
 90
        2
 40
-0.6
 41
30.0
 62
     5
 63
     7
 74
     0
 91
        0
 64
     7
 65
   257
 75
     1
175
     1
 42
1.0
 92
        8
 66
     7
 43
1.0
 76
     1
 77
     6
 78
     2
 67
     7
 79
     5
170
     0
171
     0
290
     0
174
     0
 93
       13
 44
0.0
173
     0
291
     1
 45
0.0
1001
ACAD
1000
AcDbSavedByObjectVersion
1070
     0
  0
VISUALSTYLE
  5
15E2
102
{ACAD_XDICTIONARY
360
1AC1
102
}
102
{ACAD_REACTORS
330
15E0
102
}
330
15E0
100
AcDbVisualStyle
  2
FlatWithEdges
 70
     1
 71
     2
 72
     1
 73
     1
 90
        2
 40
-0.6
 41
30.0
 62
     5
 63
     7
 74
     1
 91
        0
 64
     7
 65
   257
 75
     1
175
     1
 42
1.0
 92
        0
 66
   257
 43
1.0
 76
     1
 77
     6
 78
     2
 67
     7
 79
     5
170
     0
171
     0
290
     0
174
     0
 93
       13
 44
0.0
173
     0
291
     1
 45
0.0
1001
ACAD
1000
AcDbSavedByObjectVersion
1070
     0
  0
VISUALSTYLE
  5
15E3
102
{ACAD_XDICTIONARY
360
1AC3
102
}
102
{ACAD_REACTORS
330
15E0
102
}
330
15E0
100
AcDbVisualStyle
  2
Gouraud
 70
     2
 71
     2
 72
     2
 73
     1
 90
        2
 40
-0.6
 41
30.0
 62
     5
 63
     7
 74
     0
 91
        0
 64
     7
 65
   257
 75
     1
175
     1
 42
1.0
 92
        0
 66
     7
 43
1.0
 76
     1
 77
     6
 78
     2
 67
     7
 79
     5
170
     0
171
     0
290
     0
174
     0
 93
       13
 44
0.0
173
     0
291
     1
 45
0.0
1001
ACAD
1000
AcDbSavedByObjectVersion
1070
     0
  0
VISUALSTYLE
  5
15E4
102
{ACAD_XDICTIONARY
360
1AC5
102
}
102
{ACAD_REACTORS
330
15E0
102
}
330
15E0
100
AcDbVisualStyle
  2
GouraudWithEdges
 70
     3
 71
     2
 72
     2
 73
     1
 90
        2
 40
-0.6
 41
30.0
 62
     5
 63
     7
 74
     1
 91
        0
 64
     7
 65
   257
 75
     1
175
     1
 42
1.0
 92
        0
 66
   257
 43
1.0
 76
     1
 77
     6
 78
     2
 67
     7
 79
     5
170
     0
171
     0
290
     0
174
     0
 93
       13
 44
0.0
173
     0
291
     1
 45
0.0
1001
ACAD
1000
AcDbSavedByObjectVersion
1070
     0
  0
VISUALSTYLE
  5
15E8
102
{ACAD_XDICTIONARY
360
1ACD
102
}
102
{ACAD_REACTORS
330
15E0
102
}
330
15E0
100
AcDbVisualStyle
  2
Hidden
 70
     6
 71
     1
 72
     2
 73
     2
 90
        0
 40
-0.6
 41
-30.0
 62
     5
 63
     7
 74
     2
 91
        2
 64
     7
 65
   257
 75
     2
175
     1
 42
40.0
 92
        0
 66
   257
 43
1.0
 76
     1
 77
     6
 78
     2
 67
     7
 79
     3
170
     0
171
     0
290
     0
174
     0
 93
        1
 44
0.0
173
     0
291
     0
 45
0.0
1001
ACAD
1000
AcDbSavedByObjectVersion
1070
     0
  0
VISUALSTYLE
  5
15F6
102
{ACAD_XDICTIONARY
360
1AE9
102
}
102
{ACAD_REACTORS
330
15E0
102
}
330
15E0
100
AcDbVisualStyle
  2
JitterOff
 70
    20
 71
     2
 72
     2
 73
     0
 90
        0
 40
-0.6
 41
-30.0
 62
     5
 63
     7
 74
     1
 91
        4
 64
     7
 65
   257
 75
     1
175
     1
 42
1.0
 92
       10
 66
     7
 43
1.0
 76
     1
 77
     6
 78
     2
 67
     7
 79
     5
170
     0
171
     0
290
     0
174
     0
 93
        1
 44
0.0
173
     0
291
     1
 45
0.0
1001
ACAD
1000
AcDbSavedByObjectVersion
1070
     0
  0
VISUALSTYLE
  5
15EE
102
{ACAD_XDICTIONARY
360
1AD9
102
}
102
{ACAD_REACTORS
330
15E0
102
}
330
15E0
100
AcDbVisualStyle
  2
Linepattern
 70
    14
 71
     2
 72
     2
 73
     0
 90
        0
 40
-0.6
 41
-30.0
 62
     5
 63
     7
 74
     1
 91
        4
 64
     7
 65
   257
 75
     7
175
     7
 42
1.0
 92
        8
 66
     7
 43
1.0
 76
     1
 77
     6
 78
     2
 67
     7
 79
     5
170
     0
171
     0
290
     0
174
     0
 93
        1
 44
0.0
173
     0
291
     1
 45
0.0
1001
ACAD
1000
AcDbSavedByObjectVersion
1070
     0
  0
VISUALSTYLE
  5
15F7
102
{ACAD_XDICTIONARY
360
1AEB
102
}
102
{ACAD_REACTORS
330
15E0
102
}
330
15E0
100
AcDbVisualStyle
  2
OverhangOff
 70
    21
 71
     2
 72
     2
 73
     0
 90
        0
 40
-0.6
 41
-30.0
 62
     5
 63
     7
 74
     1
 91
        4
 64
     7
 65
   257
 75
     1
175
     1
 42
1.0
 92
        9
 66
     7
 43
1.0
 76
     1
 77
     6
 78
     2
 67
     7
 79
     5
170
     0
171
     0
290
     0
174
     0
 93
        1
 44
0.0
173
     0
291
     1
 45
0.0
1001
ACAD
1000
AcDbSavedByObjectVersion
1070
     0
  0
VISUALSTYLE
  5
15EA
102
{ACAD_XDICTIONARY
360
1AD1
102
}
102
{ACAD_REACTORS
330
15E0
102
}
330
15E0
100
AcDbVisualStyle
  2
Realistic
 70
     8
 71
     2
 72
     2
 73
     0
 90
        2
 40
-0.6
 41
30.0
 62
     5
 63
     7
 74
     0
 91
        0
 64
     7
 65
   257
 75
     1
175
     1
 42
1.0
 92
        8
 66
   257
 43
1.0
 76
     1
 77
     6
 78
     2
 67
     7
 79
     3
170
     0
171
     0
290
     0
174
     0
 93
       13
 44
0.0
173
     0
291
     0
 45
0.0
1001
ACAD
1000
AcDbSavedByObjectVersion
1070
     0
  0
VISUALSTYLE
  5
15F5
102
{ACAD_XDICTIONARY
360
1AE7
102
}
102
{ACAD_REACTORS
330
15E0
102
}
330
15E0
100
AcDbVisualStyle
  2
Shaded
 70
    27
 71
     2
 72
     2
 73
     1
 90
        2
 40
-0.6
 41
30.0
 62
     5
 63
     7
 74
     0
 91
        4
 64
     7
 65
   257
 75
     1
175
     1
 42
1.0
 92
        8
 66
   257
 43
1.0
 76
     1
 77
     6
 78
     2
 67
     8
 79
     3
170
     0
171
     0
290
     0
174
     0
 93
        5
 44
0.0
173
     0
291
     0
 45
0.0
1001
ACAD
1000
AcDbSavedByObjectVersion
1070
     0
  0
VISUALSTYLE
  5
15F4
102
{ACAD_XDICTIONARY
360
1AE5
102
}
102
{ACAD_REACTORS
330
15E0
102
}
330
15E0
100
AcDbVisualStyle
  2
Shaded with edges
 70
    26
 71
     2
 72
     2
 73
     1
 90
        2
 40
-0.6
 41
30.0
 62
     5
 63
     7
 74
     1
 91
       10
 64
     7
 65
   257
 75
     2
175
     1
 42
1.0
 92
        8
 66
   257
 43
1.0
 76
     1
 77
     6
 78
     2
 67
     7
 79
     3
170
     0
171
     0
290
     0
174
     0
 93
        5
 44
0.0
173
     0
291
     0
 45
0.0
1001
ACAD
1000
AcDbSavedByObjectVersion
1070
     0
  0
VISUALSTYLE
  5
15F1
102
{ACAD_XDICTIONARY
360
1ADF
102
}
102
{ACAD_REACTORS
330
15E0
102
}
330
15E0
100
AcDbVisualStyle
  2
Shades of Gray
 70
    23
 71
     2
 72
     2
 73
     3
 90
        0
 40
-0.6
 41
-30.0
 62
     5
 63
     7
 74
     2
 91
        2
 64
     7
 65
     7
 75
     1
175
     1
 42
40.0
 92
        8
 66
     7
 43
1.0
 76
     1
 77
     6
 78
     2
 67
     7
 79
     3
170
     0
171
     0
290
     0
174
     0
 93
        1
 44
0.0
173
     0
291
     0
 45
0.0
1001
ACAD
1000
AcDbSavedByObjectVersion
1070
     0
  0
VISUALSTYLE
  5
15F2
102
{ACAD_XDICTIONARY
360
1AE1
102
}
102
{ACAD_REACTORS
330
15E0
102
}
330
15E0
100
AcDbVisualStyle
  2
Sketchy
 70
    24
 71
     1
 72
     2
 73
     2
 90
        0
 40
-0.6
 41
-30.0
 62
     5
 63
     7
 74
     2
 91
        2
 64
     7
 65
     7
 75
     1
175
     1
 42
40.0
 92
       11
 66
     7
 43
1.0
 76
     1
 77
     6
 78
     2
 67
     7
 79
     6
170
     0
171
     0
290
     0
174
     0
 93
        1
 44
0.0
173
     0
291
     0
 45
0.0
1001
ACAD
1000
AcDbSavedByObjectVersion
1070
     0
  0
VISUALSTYLE
  5
15ED
102
{ACAD_XDICTIONARY
360
1AD7
102
}
102
{ACAD_REACTORS
330
15E0
102
}
330
15E0
100
AcDbVisualStyle
  2
Thicken
 70
    13
 71
     2
 72
     2
 73
     0
 90
        0
 40
-0.6
 41
-30.0
 62
     5
 63
     7
 74
     1
 91
        4
 64
     7
 65
   257
 75
     1
175
     1
 42
1.0
 92
       12
 66
     7
 43
1.0
 76
     1
 77
     6
 78
     2
 67
     7
 79
     5
170
     0
171
     0
290
     0
174
     0
 93
        1
 44
0.0
173
     0
291
     1
 45
0.0
1001
ACAD
1000
AcDbSavedByObjectVersion
1070
     0
  0
VISUALSTYLE
  5
15E7
102
{ACAD_XDICTIONARY
360
1ACB
102
}
102
{ACAD_REACTORS
330
15E0
102
}
330
15E0
100
AcDbVisualStyle
  2
Wireframe
 70
     5
 71
     0
 72
     2
 73
     0
 90
        0
 40
-0.6
 41
-30.0
 62
     5
 63
     7
 74
     1
 91
        4
 64
     7
 65
   257
 75
     1
175
     1
 42
1.0
 92
        0
 66
   257
 43
1.0
 76
     1
 77
     6
 78
     2
 67
     7
 79
     3
170
     0
171
     0
290
     0
174
     0
 93
        1
 44
0.0
173
     0
291
     0
 45
0.0
1001
ACAD
1000
AcDbSavedByObjectVersion
1070
     0
  0
VISUALSTYLE
  5
15F3
102
{ACAD_XDICTIONARY
360
1AE3
102
}
102
{ACAD_REACTORS
330
15E0
102
}
330
15E0
100
AcDbVisualStyle
  2
X-Ray
 70
    25
 71
     2
 72
     2
 73
     1
 90
        1
 40
0.5
 41
-30.0
 62
     5
 63
     7
 74
     1
 91
        0
 64
     7
 65
   257
 75
     1
175
     1
 42
1.0
 92
        8
 66
     7
 43
1.0
 76
     1
 77
     6
 78
     2
 67
     7
 79
     3
170
     0
171
     0
290
     0
174
     0
 93
       13
 44
0.0
173
     0
291
     0
 45
0.0
1001
ACAD
1000
AcDbSavedByObjectVersion
1070
     0
  0
DICTIONARYVAR
  5
1683
102
{ACAD_REACTORS
330
167E
102
}
330
167E
100
DictionaryVariables
280
     0
  1
1:1
  0
DICTIONARYVAR
  5
1680
102
{ACAD_REACTORS
330
167E
102
}
330
167E
100
DictionaryVariables
280
     0
  1
STANDARD
  0
DICTIONARYVAR
  5
167F
102
{ACAD_REACTORS
330
167E
102
}
330
167E
100
DictionaryVariables
280
     0
  1
STANDARD
  0
DICTIONARYVAR
  5
1681
102
{ACAD_REACTORS
330
167E
102
}
330
167E
100
DictionaryVariables
280
     0
  1
Metric50
  0
DICTIONARYVAR
  5
1682
102
{ACAD_REACTORS
330
167E
102
}
330
167E
100
DictionaryVariables
280
     0
  1
Metric50
  0
DICTIONARYVAR
  5
1686
102
{ACAD_REACTORS
330
167E
102
}
330
167E
100
DictionaryVariables
280
     0
  1
1
  0
DICTIONARYVAR
  5
1685
102
{ACAD_REACTORS
330
167E
102
}
330
167E
100
DictionaryVariables
280
     0
  1
0
  0
DICTIONARYVAR
  5
1684
102
{ACAD_REACTORS
330
167E
102
}
330
167E
100
DictionaryVariables
280
     0
  1
127
  0
DICTIONARYVAR
  5
1AB2
102
{ACAD_REACTORS
330
167E
102
}
330
167E
100
DictionaryVariables
280
     0
  1
2
  0
XRECORD
  5
1984
102
{ACAD_XDICTIONARY
360
1985
102
}
102
{ACAD_REACTORS
330
197C
102
}
330
197C
100
AcDbXrecord
280
     1
 91
      535
301

290
     0
302
寸法線
330
16FA
 90
        8
 62
   112
370
    13
331
2EA
  1
色_112
440
        0
330
15B5
 90
        8
 62
    51
370
    13
331
8
  1
色_51
440
        0
330
15B4
 90
        8
 62
   112
370
    13
331
8
  1
色_112
440
        0
330
0
 90
        8
 62
     7
370
    -3
331
8
  1
色_7
440
        0
330
0
 90
        8
 62
     3
370
     9
331
8
  1
色_3
440
        0
330
2EF
 90
        0
 62
     7
370
    -3
331
8
  1
色_7
440
        0
330
0
 90
        8
 62
     7
370
    13
331
2EA
  1
色_7
440
        0
330
0
 90
        8
 62
     6
370
    -3
331
8
  1
色_6
440
        0
330
0
 90
        8
 62
     4
370
    13
331
2EA
  1
色_4
440
        0
330
11
 90
        8
 62
     7
370
    -3
331
8
  1
色_7
440
        0
330
6B
 90
        8
 62
     4
370
     5
331
8
  1
色_4
440
        0
330
0
 90
        8
 62
    31
370
     9
331
8
  1
色_31
440
        0
330
4
 90
        8
 62
     2
370
     9
331
8
  1
色_2
440
        0
330
6E
 90
        8
 62
     7
370
    13
331
8
  1
色_7
440
        0
330
68
 90
        8
 62
     7
370
    -3
331
8
  1
色_7
440
        0
  0
ACDBASSOCNETWORK
  5
19D6
102
{ACAD_REACTORS
330
19D5
102
}
330
19D5
100
AcDbAssocAction
 90
        1
 90
        1
330
19D8
360
0
 90
        1
 90
        0
 90
        0
100
AcDbAssocNetwork
 90
        0
 90
        2
 90
        2
360
19D9
360
1A00
 90
        2
330
19D9
330
1A00
  0
XRECORD
  5
1AF7
102
{ACAD_REACTORS
330
1AF6
102
}
330
1AF6
100
AcDbXrecord
280
     1
1070
     0
1070
     1
1070
     1
  0
XRECORD
  5
1AF9
102
{ACAD_REACTORS
330
1AF8
102
}
330
1AF8
100
AcDbXrecord
280
     1
1070
     0
1070
     1
1070
     1
  0
DICTIONARY
  5
1AF4
330
1613
100
AcDbDictionary
280
     1
281
     1
  3
ACAD_XREC_ROUNDTRIP
360
1AF5
  0
DICTIONARY
  5
1AB8
330
CB
100
AcDbDictionary
280
     1
281
     1
  3
ACAD_XREC_ROUNDTRIP
360
1AB9
  0
DICTIONARY
  5
1ABA
330
D1
100
AcDbDictionary
280
     1
281
     1
  3
ACAD_XREC_ROUNDTRIP
360
1ABB
  0
DICTIONARY
  5
1AB6
330
C4
100
AcDbDictionary
280
     1
281
     1
  3
ACAD_XREC_ROUNDTRIP
360
1AB7
  0
DICTIONARY
  5
15D1
330
15D0
100
AcDbDictionary
280
     1
281
     1
  3
ACAD_XREC_ROUNDTRIP
360
1ABD
  3
BUMPTILE
360
15D3
  3
DIFFUSETILE
360
15D2
  3
OPACITYTILE
360
15D6
  3
REFLECTIONTILE
360
15D5
  3
REFRACTIONTILE
360
15D7
  3
SPECULARTILE
360
15D4
  0
DICTIONARY
  5
15C9
330
15C8
100
AcDbDictionary
280
     1
281
     1
  3
ACAD_XREC_ROUNDTRIP
360
1ABC
  3
BUMPTILE
360
15CB
  3
DIFFUSETILE
360
15CA
  3
OPACITYTILE
360
15CE
  3
REFLECTIONTILE
360
15CD
  3
REFRACTIONTILE
360
15CF
  3
SPECULARTILE
360
15CC
  0
DICTIONARY
  5
15D9
330
15D8
100
AcDbDictionary
280
     1
281
     1
  3
ACAD_XREC_ROUNDTRIP
360
1ABE
  3
BUMPTILE
360
15DB
  3
DIFFUSETILE
360
15DA
  3
OPACITYTILE
360
15DE
  3
REFLECTIONTILE
360
15DD
  3
REFRACTIONTILE
360
15DF
  3
SPECULARTILE
360
15DC
  0
DICTIONARY
  5
1AF0
330
160F
100
AcDbDictionary
280
     1
281
     1
  3
ACAD_XREC_ROUNDTRIP
360
1AF1
  0
DICTIONARY
  5
1AF2
330
1611
100
AcDbDictionary
280
     1
281
     1
  3
ACAD_XREC_ROUNDTRIP
360
1AF3
  0
DICTIONARY
  5
1637
330
15FB
100
AcDbDictionary
280
     1
281
     1
  3
ACAD_ROUNDTRIP_2008_TABLESTYLE_CELLSTYLEMAP
360
1AB3
  3
ACAD_XREC_ROUNDTRIP
360
1AEF
  0
DICTIONARY
  5
1AC9
330
15E6
100
AcDbDictionary
280
     1
281
     1
  3
ACAD_XREC_ROUNDTRIP
360
1ACA
  0
DICTIONARY
  5
1AC7
330
15E5
100
AcDbDictionary
280
     1
281
     1
  3
ACAD_XREC_ROUNDTRIP
360
1AC8
  0
DICTIONARY
  5
1AD5
330
15EC
100
AcDbDictionary
280
     1
281
     1
  3
ACAD_XREC_ROUNDTRIP
360
1AD6
  0
DICTIONARY
  5
1ADD
330
15F0
100
AcDbDictionary
280
     1
281
     1
  3
ACAD_XREC_ROUNDTRIP
360
1ADE
  0
DICTIONARY
  5
1ACF
330
15E9
100
AcDbDictionary
280
     1
281
     1
  3
ACAD_XREC_ROUNDTRIP
360
1AD0
  0
DICTIONARY
  5
1AD3
330
15EB
100
AcDbDictionary
280
     1
281
     1
  3
ACAD_XREC_ROUNDTRIP
360
1AD4
  0
DICTIONARY
  5
1AED
330
15F8
100
AcDbDictionary
280
     1
281
     1
  3
ACAD_XREC_ROUNDTRIP
360
1AEE
  0
DICTIONARY
  5
1ADB
330
15EF
100
AcDbDictionary
280
     1
281
     1
  3
ACAD_XREC_ROUNDTRIP
360
1ADC
  0
DICTIONARY
  5
1ABF
330
15E1
100
AcDbDictionary
280
     1
281
     1
  3
ACAD_XREC_ROUNDTRIP
360
1AC0
  0
DICTIONARY
  5
1AC1
330
15E2
100
AcDbDictionary
280
     1
281
     1
  3
ACAD_XREC_ROUNDTRIP
360
1AC2
  0
DICTIONARY
  5
1AC3
330
15E3
100
AcDbDictionary
280
     1
281
     1
  3
ACAD_XREC_ROUNDTRIP
360
1AC4
  0
DICTIONARY
  5
1AC5
330
15E4
100
AcDbDictionary
280
     1
281
     1
  3
ACAD_XREC_ROUNDTRIP
360
1AC6
  0
DICTIONARY
  5
1ACD
330
15E8
100
AcDbDictionary
280
     1
281
     1
  3
ACAD_XREC_ROUNDTRIP
360
1ACE
  0
DICTIONARY
  5
1AE9
330
15F6
100
AcDbDictionary
280
     1
281
     1
  3
ACAD_XREC_ROUNDTRIP
360
1AEA
  0
DICTIONARY
  5
1AD9
330
15EE
100
AcDbDictionary
280
     1
281
     1
  3
ACAD_XREC_ROUNDTRIP
360
1ADA
  0
DICTIONARY
  5
1AEB
330
15F7
100
AcDbDictionary
280
     1
281
     1
  3
ACAD_XREC_ROUNDTRIP
360
1AEC
  0
DICTIONARY
  5
1AD1
330
15EA
100
AcDbDictionary
280
     1
281
     1
  3
ACAD_XREC_ROUNDTRIP
360
1AD2
  0
DICTIONARY
  5
1AE7
330
15F5
100
AcDbDictionary
280
     1
281
     1
  3
ACAD_XREC_ROUNDTRIP
360
1AE8
  0
DICTIONARY
  5
1AE5
330
15F4
100
AcDbDictionary
280
     1
281
     1
  3
ACAD_XREC_ROUNDTRIP
360
1AE6
  0
DICTIONARY
  5
1ADF
330
15F1
100
AcDbDictionary
280
     1
281
     1
  3
ACAD_XREC_ROUNDTRIP
360
1AE0
  0
DICTIONARY
  5
1AE1
330
15F2
100
AcDbDictionary
280
     1
281
     1
  3
ACAD_XREC_ROUNDTRIP
360
1AE2
  0
DICTIONARY
  5
1AD7
330
15ED
100
AcDbDictionary
280
     1
281
     1
  3
ACAD_XREC_ROUNDTRIP
360
1AD8
  0
DICTIONARY
  5
1ACB
330
15E7
100
AcDbDictionary
280
     1
281
     1
  3
ACAD_XREC_ROUNDTRIP
360
1ACC
  0
DICTIONARY
  5
1AE3
330
15F3
100
AcDbDictionary
280
     1
281
     1
  3
ACAD_XREC_ROUNDTRIP
360
1AE4
  0
DICTIONARY
  5
1985
330
1984
100
AcDbDictionary
280
     1
281
     1
  3
AcadLayerStateAnnoScale
360
1986
  0
ACDBASSOCACTION
  5
19D9
330
19D6
100
AcDbAssocAction
 90
        1
 90
        1
330
19D6
360
19DA
 90
        1
 90
        3
 90
        3
360
19DD
360
19DE
360
19DF
  0
ACDBASSOCACTION
  5
1A00
330
19D6
100
AcDbAssocAction
 90
        1
 90
        1
330
19D6
360
1A01
 90
        2
 90
        3
 90
        3
360
1A04
360
1A05
360
1A06
  0
XRECORD
  5
1AF5
102
{ACAD_REACTORS
330
1AF4
102
}
330
1AF4
100
AcDbXrecord
280
     1
102
DISPLAYNAME
  1
Metric50
102
FLAGS
 90
        0
  0
XRECORD
  5
1AB9
102
{ACAD_REACTORS
330
1AB8
102
}
330
1AB8
100
AcDbXrecord
280
     1
102
SHADEPLOT
 70
     0
102
SHADEPLOTRESLEVEL
 70
     2
102
SHADEPLOTCUSTOMDPI
 70
   300
  0
XRECORD
  5
1ABB
102
{ACAD_REACTORS
330
1ABA
102
}
330
1ABA
100
AcDbXrecord
280
     1
102
SHADEPLOT
 70
     0
102
SHADEPLOTRESLEVEL
 70
     2
102
SHADEPLOTCUSTOMDPI
 70
   300
  0
XRECORD
  5
1AB7
102
{ACAD_REACTORS
330
1AB6
102
}
330
1AB6
100
AcDbXrecord
280
     1
102
SHADEPLOT
 70
     0
102
SHADEPLOTRESLEVEL
 70
     2
102
SHADEPLOTCUSTOMDPI
 70
   300
  0
XRECORD
  5
1ABD
102
{ACAD_REACTORS
330
15D1
102
}
330
15D1
100
AcDbXrecord
280
     1
102
MATERIAL
148
0.0
149
0.0
149
0.0
 93
        0
 94
      127
282
     0
 72
     0
 77
     0
171
     0
175
     0
179
     0
273
     0
  0
XRECORD
  5
15D3
102
{ACAD_REACTORS
330
15D1
102
}
330
15D1
100
AcDbXrecord
280
     1
270
     1
271
     1
  0
XRECORD
  5
15D2
102
{ACAD_REACTORS
330
15D1
102
}
330
15D1
100
AcDbXrecord
280
     1
270
     1
271
     1
  0
XRECORD
  5
15D6
102
{ACAD_REACTORS
330
15D1
102
}
330
15D1
100
AcDbXrecord
280
     1
270
     1
271
     1
  0
XRECORD
  5
15D5
102
{ACAD_REACTORS
330
15D1
102
}
330
15D1
100
AcDbXrecord
280
     1
270
     1
271
     1
  0
XRECORD
  5
15D7
102
{ACAD_REACTORS
330
15D1
102
}
330
15D1
100
AcDbXrecord
280
     1
270
     1
271
     1
  0
XRECORD
  5
15D4
102
{ACAD_REACTORS
330
15D1
102
}
330
15D1
100
AcDbXrecord
280
     1
270
     1
271
     1
  0
XRECORD
  5
1ABC
102
{ACAD_REACTORS
330
15C9
102
}
330
15C9
100
AcDbXrecord
280
     1
102
MATERIAL
148
0.0
149
0.0
149
0.0
 93
        0
 94
      127
282
     0
 72
     0
 77
     0
171
     0
175
     0
179
     0
273
     0
  0
XRECORD
  5
15CB
102
{ACAD_REACTORS
330
15C9
102
}
330
15C9
100
AcDbXrecord
280
     1
270
     1
271
     1
  0
XRECORD
  5
15CA
102
{ACAD_REACTORS
330
15C9
102
}
330
15C9
100
AcDbXrecord
280
     1
270
     1
271
     1
  0
XRECORD
  5
15CE
102
{ACAD_REACTORS
330
15C9
102
}
330
15C9
100
AcDbXrecord
280
     1
270
     1
271
     1
  0
XRECORD
  5
15CD
102
{ACAD_REACTORS
330
15C9
102
}
330
15C9
100
AcDbXrecord
280
     1
270
     1
271
     1
  0
XRECORD
  5
15CF
102
{ACAD_REACTORS
330
15C9
102
}
330
15C9
100
AcDbXrecord
280
     1
270
     1
271
     1
  0
XRECORD
  5
15CC
102
{ACAD_REACTORS
330
15C9
102
}
330
15C9
100
AcDbXrecord
280
     1
270
     1
271
     1
  0
XRECORD
  5
1ABE
102
{ACAD_REACTORS
330
15D9
102
}
330
15D9
100
AcDbXrecord
280
     1
102
MATERIAL
148
0.0
149
0.0
149
0.0
 93
        0
 94
      127
282
     0
 72
     0
 77
     0
171
     0
175
     0
179
     0
273
     0
  0
XRECORD
  5
15DB
102
{ACAD_REACTORS
330
15D9
102
}
330
15D9
100
AcDbXrecord
280
     1
270
     1
271
     1
  0
XRECORD
  5
15DA
102
{ACAD_REACTORS
330
15D9
102
}
330
15D9
100
AcDbXrecord
280
     1
270
     1
271
     1
  0
XRECORD
  5
15DE
102
{ACAD_REACTORS
330
15D9
102
}
330
15D9
100
AcDbXrecord
280
     1
270
     1
271
     1
  0
XRECORD
  5
15DD
102
{ACAD_REACTORS
330
15D9
102
}
330
15D9
100
AcDbXrecord
280
     1
270
     1
271
     1
  0
XRECORD
  5
15DF
102
{ACAD_REACTORS
330
15D9
102
}
330
15D9
100
AcDbXrecord
280
     1
270
     1
271
     1
  0
XRECORD
  5
15DC
102
{ACAD_REACTORS
330
15D9
102
}
330
15D9
100
AcDbXrecord
280
     1
270
     1
271
     1
  0
XRECORD
  5
1AF1
102
{ACAD_REACTORS
330
1AF0
102
}
330
1AF0
100
AcDbXrecord
280
     1
102
ACAD_ROUNDTRIP_2012_MLEADER_STYLE
298
     1
  0
XRECORD
  5
1AF3
102
{ACAD_REACTORS
330
1AF2
102
}
330
1AF2
100
AcDbXrecord
280
     1
102
DISPLAYNAME
  1
Metric50
102
FLAGS
 90
        0
  0
CELLSTYLEMAP
  5
1AB3
102
{ACAD_REACTORS
330
1637
102
}
330
1637
100
AcDbCellStyleMap
 90
        3
300
CELLSTYLE
  1
TABLEFORMAT_BEGIN
 90
        5
170
     1
 91
        0
 92
    32768
 62
   257
 93
        1
300
CONTENTFORMAT
  1
CONTENTFORMAT_BEGIN
 90
        0
 91
        0
 92
      512
 93
        0
300

 40
0.0
140
1.0
 94
        5
 62
     0
340
9
144
6.0
309
CONTENTFORMAT_END
171
     1
301
MARGIN
  1
CELLMARGIN_BEGIN
 40
1.5
 40
1.5
 40
1.5
 40
1.5
 40
4.5
 40
4.5
309
CELLMARGIN_END
 94
        6
 95
        1
302
GRIDFORMAT
  1
GRIDFORMAT_BEGIN
 90
        0
 91
        1
 62
     0
 92
       -2
340
0
 93
        0
 40
1.125
309
GRIDFORMAT_END
 95
        2
302
GRIDFORMAT
  1
GRIDFORMAT_BEGIN
 90
        0
 91
        1
 62
     0
 92
       -2
340
0
 93
        0
 40
1.125
309
GRIDFORMAT_END
 95
        4
302
GRIDFORMAT
  1
GRIDFORMAT_BEGIN
 90
        0
 91
        1
 62
     0
 92
       -2
340
0
 93
        0
 40
1.125
309
GRIDFORMAT_END
 95
        8
302
GRIDFORMAT
  1
GRIDFORMAT_BEGIN
 90
        0
 91
        1
 62
     0
 92
       -2
340
0
 93
        0
 40
1.125
309
GRIDFORMAT_END
 95
       16
302
GRIDFORMAT
  1
GRIDFORMAT_BEGIN
 90
        0
 91
        1
 62
     0
 92
       -2
340
0
 93
        0
 40
1.125
309
GRIDFORMAT_END
 95
       32
302
GRIDFORMAT
  1
GRIDFORMAT_BEGIN
 90
        0
 91
        1
 62
     0
 92
       -2
340
0
 93
        0
 40
1.125
309
GRIDFORMAT_END
309
TABLEFORMAT_END
  1
CELLSTYLE_BEGIN
 90
        1
 91
        1
300
_TITLE
309
CELLSTYLE_END
300
CELLSTYLE
  1
TABLEFORMAT_BEGIN
 90
        5
170
     1
 91
        0
 92
        0
 62
   257
 93
        1
300
CONTENTFORMAT
  1
CONTENTFORMAT_BEGIN
 90
        0
 91
        0
 92
      512
 93
        0
300

 40
0.0
140
1.0
 94
        5
 62
     0
340
9
144
4.5
309
CONTENTFORMAT_END
171
     1
301
MARGIN
  1
CELLMARGIN_BEGIN
 40
1.5
 40
1.5
 40
1.5
 40
1.5
 40
4.5
 40
4.5
309
CELLMARGIN_END
 94
        6
 95
        1
302
GRIDFORMAT
  1
GRIDFORMAT_BEGIN
 90
        0
 91
        1
 62
     0
 92
       -2
340
0
 93
        0
 40
1.125
309
GRIDFORMAT_END
 95
        2
302
GRIDFORMAT
  1
GRIDFORMAT_BEGIN
 90
        0
 91
        1
 62
     0
 92
       -2
340
0
 93
        0
 40
1.125
309
GRIDFORMAT_END
 95
        4
302
GRIDFORMAT
  1
GRIDFORMAT_BEGIN
 90
        0
 91
        1
 62
     0
 92
       -2
340
0
 93
        0
 40
1.125
309
GRIDFORMAT_END
 95
        8
302
GRIDFORMAT
  1
GRIDFORMAT_BEGIN
 90
        0
 91
        1
 62
     0
 92
       -2
340
0
 93
        0
 40
1.125
309
GRIDFORMAT_END
 95
       16
302
GRIDFORMAT
  1
GRIDFORMAT_BEGIN
 90
        0
 91
        1
 62
     0
 92
       -2
340
0
 93
        0
 40
1.125
309
GRIDFORMAT_END
 95
       32
302
GRIDFORMAT
  1
GRIDFORMAT_BEGIN
 90
        0
 91
        1
 62
     0
 92
       -2
340
0
 93
        0
 40
1.125
309
GRIDFORMAT_END
309
TABLEFORMAT_END
  1
CELLSTYLE_BEGIN
 90
        2
 91
        1
300
_HEADER
309
CELLSTYLE_END
300
CELLSTYLE
  1
TABLEFORMAT_BEGIN
 90
        5
170
     1
 91
        0
 92
        0
 62
   257
 93
        1
300
CONTENTFORMAT
  1
CONTENTFORMAT_BEGIN
 90
        0
 91
        0
 92
      512
 93
        0
300

 40
0.0
140
1.0
 94
        2
 62
     0
340
9
144
4.5
309
CONTENTFORMAT_END
171
     1
301
MARGIN
  1
CELLMARGIN_BEGIN
 40
1.5
 40
1.5
 40
1.5
 40
1.5
 40
4.5
 40
4.5
309
CELLMARGIN_END
 94
        6
 95
        1
302
GRIDFORMAT
  1
GRIDFORMAT_BEGIN
 90
        0
 91
        1
 62
     0
 92
       -2
340
0
 93
        0
 40
1.125
309
GRIDFORMAT_END
 95
        2
302
GRIDFORMAT
  1
GRIDFORMAT_BEGIN
 90
        0
 91
        1
 62
     0
 92
       -2
340
0
 93
        0
 40
1.125
309
GRIDFORMAT_END
 95
        4
302
GRIDFORMAT
  1
GRIDFORMAT_BEGIN
 90
        0
 91
        1
 62
     0
 92
       -2
340
0
 93
        0
 40
1.125
309
GRIDFORMAT_END
 95
        8
302
GRIDFORMAT
  1
GRIDFORMAT_BEGIN
 90
        0
 91
        1
 62
     0
 92
       -2
340
0
 93
        0
 40
1.125
309
GRIDFORMAT_END
 95
       16
302
GRIDFORMAT
  1
GRIDFORMAT_BEGIN
 90
        0
 91
        1
 62
     0
 92
       -2
340
0
 93
        0
 40
1.125
309
GRIDFORMAT_END
 95
       32
302
GRIDFORMAT
  1
GRIDFORMAT_BEGIN
 90
        0
 91
        1
 62
     0
 92
       -2
340
0
 93
        0
 40
1.125
309
GRIDFORMAT_END
309
TABLEFORMAT_END
  1
CELLSTYLE_BEGIN
 90
        3
 91
        2
300
_DATA
309
CELLSTYLE_END
  0
XRECORD
  5
1AEF
102
{ACAD_REACTORS
330
1637
102
}
330
1637
100
AcDbXrecord
280
     1
102
ACAD_ROUNDTRIP_PRE2007_TABLESTYLE
 90
      512
 91
        0
  1

 92
      512
 93
        0
  2

 94
      512
 95
        0
  3

  0
XRECORD
  5
1ACA
102
{ACAD_REACTORS
330
1AC9
102
}
330
1AC9
100
AcDbXrecord
280
     1
102
RTVSPost2010Prop28
280
     1
102
RTVSPost2010PropOp28
 70
     1
102
RTVSPost2010Prop29
280
     1
102
RTVSPost2010PropOp29
 70
     1
102
RTVSPost2010Prop30
280
     0
102
RTVSPost2010PropOp30
 70
     1
102
RTVSPost2010Prop31
280
     0
102
RTVSPost2010PropOp31
 70
     1
102
RTVSPost2010Prop32
280
     0
102
RTVSPost2010PropOp32
 70
     1
102
RTVSPost2010Prop33
280
     0
102
RTVSPost2010PropOp33
 70
     1
102
RTVSPost2010Prop34
280
     0
102
RTVSPost2010PropOp34
 70
     1
102
RTVSPost2010Prop35
280
     0
102
RTVSPost2010PropOp35
 70
     1
102
RTVSPost2010Prop36
280
     0
102
RTVSPost2010PropOp36
 70
     1
102
RTVSPost2010Prop37
 90
       50
102
RTVSPost2010PropOp37
 70
     1
102
RTVSPost2010Prop38
140
0.0
102
RTVSPost2010PropOp38
 70
     1
102
RTVSPost2010Prop39
140
1.0
102
RTVSPost2010PropOp39
 70
     1
102
RTVSPost2010Prop40
 90
        0
102
RTVSPost2010PropOp40
 70
     1
102
RTVSPost2010Prop41ColorIndex
 90
       18
102
RTVSPost2010Prop41ColorRGB
 90
        0
102
RTVSPost2010PropOp41
 70
     1
102
RTVSPost2010Prop42
 90
       50
102
RTVSPost2010PropOp42
 70
     1
102
RTVSPost2010Prop43
 90
        3
102
RTVSPost2010PropOp43
 70
     1
102
RTVSPost2010Prop44ColorIndex
 90
        5
102
RTVSPost2010Prop44ColorRGB
 90
      255
102
RTVSPost2010PropOp44
 70
     1
102
RTVSPost2010Prop45
280
     0
102
RTVSPost2010PropOp45
 70
     1
102
RTVSPost2010Prop46
 90
       50
102
RTVSPost2010PropOp46
 70
     1
102
RTVSPost2010Prop47
 90
       50
102
RTVSPost2010PropOp47
 70
     1
102
RTVSPost2010Prop48
 90
       50
102
RTVSPost2010PropOp48
 70
     1
102
RTVSPost2010Prop49
280
     0
102
RTVSPost2010PropOp49
 70
     1
102
RTVSPost2010Prop50
 90
       50
102
RTVSPost2010PropOp50
 70
     1
102
RTVSPost2010Prop51ColorIndex
 90
      256
102
RTVSPost2010Prop51ColorRGB
 90
-16777216
102
RTVSPost2010PropOp51
 70
     0
102
RTVSPost2010Prop52
140
1.0
102
RTVSPost2010PropOp52
 70
     0
102
RTVSPost2010Prop53
 90
        2
102
RTVSPost2010PropOp53
 70
     1
102
RTVSPost2010Prop54
  1
strokes_ogs.tif
102
RTVSPost2010PropOp54
 70
     1
102
RTVSPost2010Prop55
280
     0
102
RTVSPost2010PropOp55
 70
     1
102
RTVSPost2010Prop56
140
1.0
102
RTVSPost2010PropOp56
 70
     1
102
RTVSPost2010Prop57
140
1.0
102
RTVSPost2010PropOp57
 70
     1
102
RTVSPropertyOp0
 70
     1
102
RTVSPropertyOp1
 70
     1
102
RTVSPropertyOp2
 70
     1
102
RTVSPropertyOp3
 70
     1
102
RTVSPropertyOp4
 70
     1
102
RTVSPropertyOp5
 70
     1
102
RTVSPropertyOp6
 70
     1
102
RTVSPropertyOp7
 70
     1
102
RTVSPropertyOp8
 70
     1
102
RTVSPropertyOp9
 70
     1
102
RTVSPropertyOp10
 70
     1
102
RTVSPropertyOp11
 70
     1
102
RTVSPropertyOp12
 70
     1
102
RTVSPropertyOp13
 70
     1
102
RTVSPropertyOp14
 70
     1
102
RTVSPropertyOp15
 70
     1
102
RTVSPropertyOp16
 70
     1
102
RTVSPropertyOp17
 70
     1
102
RTVSPropertyOp18
 70
     1
102
RTVSPropertyOp19
 70
     1
102
RTVSPropertyOp20
 70
     1
102
RTVSPropertyOp21
 70
     1
102
RTVSPropertyOp22
 70
     1
102
RTVSPropertyOp23
 70
     1
102
RTVSPropertyOp24
 70
     1
102
RTVSPropertyOp25
 70
     1
102
RTVSPropertyOp26
 70
     1
102
RTVSPropertyOp27
 70
     1
102
RTVSPropertyOp28
 70
     1
102
RTVSPropertyOp29
 70
     1
102
RTVSPropertyOp30
 70
     1
102
RTVSPropertyOp31
 70
     1
102
RTVSPropertyOp32
 70
     1
102
RTVSPropertyOp33
 70
     1
102
RTVSPropertyOp34
 70
     1
102
RTVSPropertyOp35
 70
     1
102
RTVSPropertyOp36
 70
     1
102
RTVSPropertyOp37
 70
     1
102
RTVSPropertyOp38
 70
     1
102
RTVSPropertyOp39
 70
     1
102
RTVSPropertyOp40
 70
     1
102
RTVSPropertyOp41
 70
     1
102
RTVSPropertyOp42
 70
     1
102
RTVSPropertyOp43
 70
     1
102
RTVSPropertyOp44
 70
     1
102
RTVSPropertyOp45
 70
     1
102
RTVSPropertyOp46
 70
     1
102
RTVSPropertyOp47
 70
     1
102
RTVSPropertyOp48
 70
     1
102
RTVSPropertyOp49
 70
     1
102
RTVSPropertyOp50
 70
     1
102
RTVSPropertyOp51
 70
     0
102
RTVSPropertyOp52
 70
     0
102
RTVSPropertyOp53
 70
     1
102
RTVSPropertyOp54
 70
     1
102
RTVSPropertyOp55
 70
     1
102
RTVSPropertyOp56
 70
     1
102
RTVSPropertyOp57
 70
     1
102
RTVSPropertyOp58
 70
     1
102
RTVSPropertyOp59
 70
     1
102
RTVSPropertyOp60
 70
     1
102
RTVSPropertyOp61
 70
     1
102
RTVSPropertyOp62
 70
     1
  0
XRECORD
  5
1AC8
102
{ACAD_REACTORS
330
1AC7
102
}
330
1AC7
100
AcDbXrecord
280
     1
102
RTVSPost2010Prop28
280
     0
102
RTVSPost2010PropOp28
 70
     1
102
RTVSPost2010Prop29
280
     1
102
RTVSPost2010PropOp29
 70
     1
102
RTVSPost2010Prop30
280
     1
102
RTVSPost2010PropOp30
 70
     1
102
RTVSPost2010Prop31
280
     0
102
RTVSPost2010PropOp31
 70
     1
102
RTVSPost2010Prop32
280
     0
102
RTVSPost2010PropOp32
 70
     1
102
RTVSPost2010Prop33
280
     0
102
RTVSPost2010PropOp33
 70
     1
102
RTVSPost2010Prop34
280
     0
102
RTVSPost2010PropOp34
 70
     1
102
RTVSPost2010Prop35
280
     0
102
RTVSPost2010PropOp35
 70
     1
102
RTVSPost2010Prop36
280
     0
102
RTVSPost2010PropOp36
 70
     1
102
RTVSPost2010Prop37
 90
       50
102
RTVSPost2010PropOp37
 70
     1
102
RTVSPost2010Prop38
140
0.0
102
RTVSPost2010PropOp38
 70
     1
102
RTVSPost2010Prop39
140
1.0
102
RTVSPost2010PropOp39
 70
     1
102
RTVSPost2010Prop40
 90
        0
102
RTVSPost2010PropOp40
 70
     1
102
RTVSPost2010Prop41ColorIndex
 90
       18
102
RTVSPost2010Prop41ColorRGB
 90
        0
102
RTVSPost2010PropOp41
 70
     1
102
RTVSPost2010Prop42
 90
       50
102
RTVSPost2010PropOp42
 70
     1
102
RTVSPost2010Prop43
 90
        3
102
RTVSPost2010PropOp43
 70
     1
102
RTVSPost2010Prop44ColorIndex
 90
        5
102
RTVSPost2010Prop44ColorRGB
 90
      255
102
RTVSPost2010PropOp44
 70
     1
102
RTVSPost2010Prop45
280
     0
102
RTVSPost2010PropOp45
 70
     1
102
RTVSPost2010Prop46
 90
       50
102
RTVSPost2010PropOp46
 70
     1
102
RTVSPost2010Prop47
 90
       50
102
RTVSPost2010PropOp47
 70
     1
102
RTVSPost2010Prop48
 90
       50
102
RTVSPost2010PropOp48
 70
     1
102
RTVSPost2010Prop49
280
     0
102
RTVSPost2010PropOp49
 70
     1
102
RTVSPost2010Prop50
 90
       50
102
RTVSPost2010PropOp50
 70
     1
102
RTVSPost2010Prop51ColorIndex
 90
      256
102
RTVSPost2010Prop51ColorRGB
 90
-16777216
102
RTVSPost2010PropOp51
 70
     0
102
RTVSPost2010Prop52
140
1.0
102
RTVSPost2010PropOp52
 70
     0
102
RTVSPost2010Prop53
 90
        2
102
RTVSPost2010PropOp53
 70
     1
102
RTVSPost2010Prop54
  1
strokes_ogs.tif
102
RTVSPost2010PropOp54
 70
     1
102
RTVSPost2010Prop55
280
     0
102
RTVSPost2010PropOp55
 70
     1
102
RTVSPost2010Prop56
140
1.0
102
RTVSPost2010PropOp56
 70
     1
102
RTVSPost2010Prop57
140
1.0
102
RTVSPost2010PropOp57
 70
     1
102
RTVSPropertyOp0
 70
     1
102
RTVSPropertyOp1
 70
     1
102
RTVSPropertyOp2
 70
     1
102
RTVSPropertyOp3
 70
     1
102
RTVSPropertyOp4
 70
     1
102
RTVSPropertyOp5
 70
     1
102
RTVSPropertyOp6
 70
     1
102
RTVSPropertyOp7
 70
     1
102
RTVSPropertyOp8
 70
     1
102
RTVSPropertyOp9
 70
     1
102
RTVSPropertyOp10
 70
     1
102
RTVSPropertyOp11
 70
     1
102
RTVSPropertyOp12
 70
     1
102
RTVSPropertyOp13
 70
     1
102
RTVSPropertyOp14
 70
     1
102
RTVSPropertyOp15
 70
     1
102
RTVSPropertyOp16
 70
     1
102
RTVSPropertyOp17
 70
     1
102
RTVSPropertyOp18
 70
     1
102
RTVSPropertyOp19
 70
     1
102
RTVSPropertyOp20
 70
     1
102
RTVSPropertyOp21
 70
     1
102
RTVSPropertyOp22
 70
     1
102
RTVSPropertyOp23
 70
     1
102
RTVSPropertyOp24
 70
     1
102
RTVSPropertyOp25
 70
     1
102
RTVSPropertyOp26
 70
     1
102
RTVSPropertyOp27
 70
     1
102
RTVSPropertyOp28
 70
     1
102
RTVSPropertyOp29
 70
     1
102
RTVSPropertyOp30
 70
     1
102
RTVSPropertyOp31
 70
     1
102
RTVSPropertyOp32
 70
     1
102
RTVSPropertyOp33
 70
     1
102
RTVSPropertyOp34
 70
     1
102
RTVSPropertyOp35
 70
     1
102
RTVSPropertyOp36
 70
     1
102
RTVSPropertyOp37
 70
     1
102
RTVSPropertyOp38
 70
     1
102
RTVSPropertyOp39
 70
     1
102
RTVSPropertyOp40
 70
     1
102
RTVSPropertyOp41
 70
     1
102
RTVSPropertyOp42
 70
     1
102
RTVSPropertyOp43
 70
     1
102
RTVSPropertyOp44
 70
     1
102
RTVSPropertyOp45
 70
     1
102
RTVSPropertyOp46
 70
     1
102
RTVSPropertyOp47
 70
     1
102
RTVSPropertyOp48
 70
     1
102
RTVSPropertyOp49
 70
     1
102
RTVSPropertyOp50
 70
     1
102
RTVSPropertyOp51
 70
     0
102
RTVSPropertyOp52
 70
     0
102
RTVSPropertyOp53
 70
     1
102
RTVSPropertyOp54
 70
     1
102
RTVSPropertyOp55
 70
     1
102
RTVSPropertyOp56
 70
     1
102
RTVSPropertyOp57
 70
     1
102
RTVSPropertyOp58
 70
     1
102
RTVSPropertyOp59
 70
     1
102
RTVSPropertyOp60
 70
     1
102
RTVSPropertyOp61
 70
     1
102
RTVSPropertyOp62
 70
     1
  0
XRECORD
  5
1AD6
102
{ACAD_REACTORS
330
1AD5
102
}
330
1AD5
100
AcDbXrecord
280
     1
102
RTVSPost2010Prop28
280
     0
102
RTVSPost2010PropOp28
 70
     1
102
RTVSPost2010Prop29
280
     1
102
RTVSPost2010PropOp29
 70
     1
102
RTVSPost2010Prop30
280
     1
102
RTVSPost2010PropOp30
 70
     1
102
RTVSPost2010Prop31
280
     0
102
RTVSPost2010PropOp31
 70
     1
102
RTVSPost2010Prop32
280
     0
102
RTVSPost2010PropOp32
 70
     1
102
RTVSPost2010Prop33
280
     0
102
RTVSPost2010PropOp33
 70
     1
102
RTVSPost2010Prop34
280
     0
102
RTVSPost2010PropOp34
 70
     1
102
RTVSPost2010Prop35
280
     0
102
RTVSPost2010PropOp35
 70
     1
102
RTVSPost2010Prop36
280
     0
102
RTVSPost2010PropOp36
 70
     1
102
RTVSPost2010Prop37
 90
       50
102
RTVSPost2010PropOp37
 70
     1
102
RTVSPost2010Prop38
140
0.0
102
RTVSPost2010PropOp38
 70
     1
102
RTVSPost2010Prop39
140
1.0
102
RTVSPost2010PropOp39
 70
     1
102
RTVSPost2010Prop40
 90
        0
102
RTVSPost2010PropOp40
 70
     1
102
RTVSPost2010Prop41ColorIndex
 90
       18
102
RTVSPost2010Prop41ColorRGB
 90
        0
102
RTVSPost2010PropOp41
 70
     1
102
RTVSPost2010Prop42
 90
       50
102
RTVSPost2010PropOp42
 70
     1
102
RTVSPost2010Prop43
 90
        3
102
RTVSPost2010PropOp43
 70
     1
102
RTVSPost2010Prop44ColorIndex
 90
        5
102
RTVSPost2010Prop44ColorRGB
 90
      255
102
RTVSPost2010PropOp44
 70
     1
102
RTVSPost2010Prop45
280
     0
102
RTVSPost2010PropOp45
 70
     1
102
RTVSPost2010Prop46
 90
       50
102
RTVSPost2010PropOp46
 70
     1
102
RTVSPost2010Prop47
 90
       50
102
RTVSPost2010PropOp47
 70
     1
102
RTVSPost2010Prop48
 90
       50
102
RTVSPost2010PropOp48
 70
     1
102
RTVSPost2010Prop49
280
     0
102
RTVSPost2010PropOp49
 70
     1
102
RTVSPost2010Prop50
 90
       50
102
RTVSPost2010PropOp50
 70
     1
102
RTVSPost2010Prop51ColorIndex
 90
      256
102
RTVSPost2010Prop51ColorRGB
 90
-16777216
102
RTVSPost2010PropOp51
 70
     0
102
RTVSPost2010Prop52
140
1.0
102
RTVSPost2010PropOp52
 70
     0
102
RTVSPost2010Prop53
 90
        2
102
RTVSPost2010PropOp53
 70
     1
102
RTVSPost2010Prop54
  1
strokes_ogs.tif
102
RTVSPost2010PropOp54
 70
     1
102
RTVSPost2010Prop55
280
     0
102
RTVSPost2010PropOp55
 70
     1
102
RTVSPost2010Prop56
140
1.0
102
RTVSPost2010PropOp56
 70
     1
102
RTVSPost2010Prop57
140
1.0
102
RTVSPost2010PropOp57
 70
     1
102
RTVSPropertyOp0
 70
     1
102
RTVSPropertyOp1
 70
     1
102
RTVSPropertyOp2
 70
     1
102
RTVSPropertyOp3
 70
     1
102
RTVSPropertyOp4
 70
     1
102
RTVSPropertyOp5
 70
     1
102
RTVSPropertyOp6
 70
     1
102
RTVSPropertyOp7
 70
     1
102
RTVSPropertyOp8
 70
     1
102
RTVSPropertyOp9
 70
     1
102
RTVSPropertyOp10
 70
     1
102
RTVSPropertyOp11
 70
     1
102
RTVSPropertyOp12
 70
     1
102
RTVSPropertyOp13
 70
     1
102
RTVSPropertyOp14
 70
     1
102
RTVSPropertyOp15
 70
     1
102
RTVSPropertyOp16
 70
     1
102
RTVSPropertyOp17
 70
     1
102
RTVSPropertyOp18
 70
     1
102
RTVSPropertyOp19
 70
     1
102
RTVSPropertyOp20
 70
     1
102
RTVSPropertyOp21
 70
     1
102
RTVSPropertyOp22
 70
     1
102
RTVSPropertyOp23
 70
     1
102
RTVSPropertyOp24
 70
     1
102
RTVSPropertyOp25
 70
     1
102
RTVSPropertyOp26
 70
     1
102
RTVSPropertyOp27
 70
     1
102
RTVSPropertyOp28
 70
     1
102
RTVSPropertyOp29
 70
     1
102
RTVSPropertyOp30
 70
     1
102
RTVSPropertyOp31
 70
     1
102
RTVSPropertyOp32
 70
     1
102
RTVSPropertyOp33
 70
     1
102
RTVSPropertyOp34
 70
     1
102
RTVSPropertyOp35
 70
     1
102
RTVSPropertyOp36
 70
     1
102
RTVSPropertyOp37
 70
     1
102
RTVSPropertyOp38
 70
     1
102
RTVSPropertyOp39
 70
     1
102
RTVSPropertyOp40
 70
     1
102
RTVSPropertyOp41
 70
     1
102
RTVSPropertyOp42
 70
     1
102
RTVSPropertyOp43
 70
     1
102
RTVSPropertyOp44
 70
     1
102
RTVSPropertyOp45
 70
     1
102
RTVSPropertyOp46
 70
     1
102
RTVSPropertyOp47
 70
     1
102
RTVSPropertyOp48
 70
     1
102
RTVSPropertyOp49
 70
     1
102
RTVSPropertyOp50
 70
     1
102
RTVSPropertyOp51
 70
     0
102
RTVSPropertyOp52
 70
     0
102
RTVSPropertyOp53
 70
     1
102
RTVSPropertyOp54
 70
     1
102
RTVSPropertyOp55
 70
     1
102
RTVSPropertyOp56
 70
     1
102
RTVSPropertyOp57
 70
     1
102
RTVSPropertyOp58
 70
     1
102
RTVSPropertyOp59
 70
     1
102
RTVSPropertyOp60
 70
     1
102
RTVSPropertyOp61
 70
     1
102
RTVSPropertyOp62
 70
     1
  0
XRECORD
  5
1ADE
102
{ACAD_REACTORS
330
1ADD
102
}
330
1ADD
100
AcDbXrecord
280
     1
102
RTVSPost2010Prop28
280
     0
102
RTVSPost2010PropOp28
 70
     1
102
RTVSPost2010Prop29
280
     1
102
RTVSPost2010PropOp29
 70
     1
102
RTVSPost2010Prop30
280
     1
102
RTVSPost2010PropOp30
 70
     1
102
RTVSPost2010Prop31
280
     0
102
RTVSPost2010PropOp31
 70
     1
102
RTVSPost2010Prop32
280
     0
102
RTVSPost2010PropOp32
 70
     1
102
RTVSPost2010Prop33
280
     0
102
RTVSPost2010PropOp33
 70
     1
102
RTVSPost2010Prop34
280
     0
102
RTVSPost2010PropOp34
 70
     1
102
RTVSPost2010Prop35
280
     0
102
RTVSPost2010PropOp35
 70
     1
102
RTVSPost2010Prop36
280
     0
102
RTVSPost2010PropOp36
 70
     1
102
RTVSPost2010Prop37
 90
       50
102
RTVSPost2010PropOp37
 70
     1
102
RTVSPost2010Prop38
140
0.0
102
RTVSPost2010PropOp38
 70
     1
102
RTVSPost2010Prop39
140
1.0
102
RTVSPost2010PropOp39
 70
     1
102
RTVSPost2010Prop40
 90
        0
102
RTVSPost2010PropOp40
 70
     1
102
RTVSPost2010Prop41ColorIndex
 90
       18
102
RTVSPost2010Prop41ColorRGB
 90
        0
102
RTVSPost2010PropOp41
 70
     1
102
RTVSPost2010Prop42
 90
       50
102
RTVSPost2010PropOp42
 70
     1
102
RTVSPost2010Prop43
 90
        3
102
RTVSPost2010PropOp43
 70
     1
102
RTVSPost2010Prop44ColorIndex
 90
        5
102
RTVSPost2010Prop44ColorRGB
 90
      255
102
RTVSPost2010PropOp44
 70
     1
102
RTVSPost2010Prop45
280
     0
102
RTVSPost2010PropOp45
 70
     1
102
RTVSPost2010Prop46
 90
       50
102
RTVSPost2010PropOp46
 70
     1
102
RTVSPost2010Prop47
 90
       50
102
RTVSPost2010PropOp47
 70
     1
102
RTVSPost2010Prop48
 90
       50
102
RTVSPost2010PropOp48
 70
     1
102
RTVSPost2010Prop49
280
     0
102
RTVSPost2010PropOp49
 70
     1
102
RTVSPost2010Prop50
 90
       50
102
RTVSPost2010PropOp50
 70
     1
102
RTVSPost2010Prop51ColorIndex
 90
      256
102
RTVSPost2010Prop51ColorRGB
 90
-16777216
102
RTVSPost2010PropOp51
 70
     0
102
RTVSPost2010Prop52
140
1.0
102
RTVSPost2010PropOp52
 70
     0
102
RTVSPost2010Prop53
 90
        2
102
RTVSPost2010PropOp53
 70
     1
102
RTVSPost2010Prop54
  1
strokes_ogs.tif
102
RTVSPost2010PropOp54
 70
     1
102
RTVSPost2010Prop55
280
     0
102
RTVSPost2010PropOp55
 70
     1
102
RTVSPost2010Prop56
140
1.0
102
RTVSPost2010PropOp56
 70
     1
102
RTVSPost2010Prop57
140
1.0
102
RTVSPost2010PropOp57
 70
     1
102
RTVSPropertyOp0
 70
     1
102
RTVSPropertyOp1
 70
     1
102
RTVSPropertyOp2
 70
     1
102
RTVSPropertyOp3
 70
     1
102
RTVSPropertyOp4
 70
     1
102
RTVSPropertyOp5
 70
     1
102
RTVSPropertyOp6
 70
     1
102
RTVSPropertyOp7
 70
     1
102
RTVSPropertyOp8
 70
     1
102
RTVSPropertyOp9
 70
     1
102
RTVSPropertyOp10
 70
     1
102
RTVSPropertyOp11
 70
     1
102
RTVSPropertyOp12
 70
     1
102
RTVSPropertyOp13
 70
     1
102
RTVSPropertyOp14
 70
     1
102
RTVSPropertyOp15
 70
     1
102
RTVSPropertyOp16
 70
     1
102
RTVSPropertyOp17
 70
     1
102
RTVSPropertyOp18
 70
     1
102
RTVSPropertyOp19
 70
     1
102
RTVSPropertyOp20
 70
     1
102
RTVSPropertyOp21
 70
     1
102
RTVSPropertyOp22
 70
     1
102
RTVSPropertyOp23
 70
     1
102
RTVSPropertyOp24
 70
     1
102
RTVSPropertyOp25
 70
     1
102
RTVSPropertyOp26
 70
     1
102
RTVSPropertyOp27
 70
     1
102
RTVSPropertyOp28
 70
     1
102
RTVSPropertyOp29
 70
     1
102
RTVSPropertyOp30
 70
     1
102
RTVSPropertyOp31
 70
     1
102
RTVSPropertyOp32
 70
     1
102
RTVSPropertyOp33
 70
     1
102
RTVSPropertyOp34
 70
     1
102
RTVSPropertyOp35
 70
     1
102
RTVSPropertyOp36
 70
     1
102
RTVSPropertyOp37
 70
     1
102
RTVSPropertyOp38
 70
     1
102
RTVSPropertyOp39
 70
     1
102
RTVSPropertyOp40
 70
     1
102
RTVSPropertyOp41
 70
     1
102
RTVSPropertyOp42
 70
     1
102
RTVSPropertyOp43
 70
     1
102
RTVSPropertyOp44
 70
     1
102
RTVSPropertyOp45
 70
     1
102
RTVSPropertyOp46
 70
     1
102
RTVSPropertyOp47
 70
     1
102
RTVSPropertyOp48
 70
     1
102
RTVSPropertyOp49
 70
     1
102
RTVSPropertyOp50
 70
     1
102
RTVSPropertyOp51
 70
     0
102
RTVSPropertyOp52
 70
     0
102
RTVSPropertyOp53
 70
     1
102
RTVSPropertyOp54
 70
     1
102
RTVSPropertyOp55
 70
     1
102
RTVSPropertyOp56
 70
     1
102
RTVSPropertyOp57
 70
     1
102
RTVSPropertyOp58
 70
     1
102
RTVSPropertyOp59
 70
     1
102
RTVSPropertyOp60
 70
     1
102
RTVSPropertyOp61
 70
     1
102
RTVSPropertyOp62
 70
     1
  0
XRECORD
  5
1AD0
102
{ACAD_REACTORS
330
1ACF
102
}
330
1ACF
100
AcDbXrecord
280
     1
102
RTVSPost2010Prop28
280
     0
102
RTVSPost2010PropOp28
 70
     1
102
RTVSPost2010Prop29
280
     1
102
RTVSPost2010PropOp29
 70
     1
102
RTVSPost2010Prop30
280
     1
102
RTVSPost2010PropOp30
 70
     1
102
RTVSPost2010Prop31
280
     0
102
RTVSPost2010PropOp31
 70
     1
102
RTVSPost2010Prop32
280
     0
102
RTVSPost2010PropOp32
 70
     1
102
RTVSPost2010Prop33
280
     0
102
RTVSPost2010PropOp33
 70
     1
102
RTVSPost2010Prop34
280
     0
102
RTVSPost2010PropOp34
 70
     1
102
RTVSPost2010Prop35
280
     0
102
RTVSPost2010PropOp35
 70
     1
102
RTVSPost2010Prop36
280
     0
102
RTVSPost2010PropOp36
 70
     1
102
RTVSPost2010Prop37
 90
       50
102
RTVSPost2010PropOp37
 70
     1
102
RTVSPost2010Prop38
140
0.0
102
RTVSPost2010PropOp38
 70
     1
102
RTVSPost2010Prop39
140
1.0
102
RTVSPost2010PropOp39
 70
     1
102
RTVSPost2010Prop40
 90
        0
102
RTVSPost2010PropOp40
 70
     1
102
RTVSPost2010Prop41ColorIndex
 90
       18
102
RTVSPost2010Prop41ColorRGB
 90
        0
102
RTVSPost2010PropOp41
 70
     1
102
RTVSPost2010Prop42
 90
       50
102
RTVSPost2010PropOp42
 70
     1
102
RTVSPost2010Prop43
 90
        3
102
RTVSPost2010PropOp43
 70
     1
102
RTVSPost2010Prop44ColorIndex
 90
        5
102
RTVSPost2010Prop44ColorRGB
 90
      255
102
RTVSPost2010PropOp44
 70
     1
102
RTVSPost2010Prop45
280
     0
102
RTVSPost2010PropOp45
 70
     1
102
RTVSPost2010Prop46
 90
       50
102
RTVSPost2010PropOp46
 70
     1
102
RTVSPost2010Prop47
 90
       50
102
RTVSPost2010PropOp47
 70
     1
102
RTVSPost2010Prop48
 90
       50
102
RTVSPost2010PropOp48
 70
     1
102
RTVSPost2010Prop49
280
     0
102
RTVSPost2010PropOp49
 70
     1
102
RTVSPost2010Prop50
 90
       50
102
RTVSPost2010PropOp50
 70
     1
102
RTVSPost2010Prop51ColorIndex
 90
      256
102
RTVSPost2010Prop51ColorRGB
 90
-16777216
102
RTVSPost2010PropOp51
 70
     0
102
RTVSPost2010Prop52
140
1.0
102
RTVSPost2010PropOp52
 70
     0
102
RTVSPost2010Prop53
 90
        2
102
RTVSPost2010PropOp53
 70
     1
102
RTVSPost2010Prop54
  1
strokes_ogs.tif
102
RTVSPost2010PropOp54
 70
     1
102
RTVSPost2010Prop55
280
     0
102
RTVSPost2010PropOp55
 70
     1
102
RTVSPost2010Prop56
140
1.0
102
RTVSPost2010PropOp56
 70
     1
102
RTVSPost2010Prop57
140
1.0
102
RTVSPost2010PropOp57
 70
     1
102
RTVSPropertyOp0
 70
     1
102
RTVSPropertyOp1
 70
     1
102
RTVSPropertyOp2
 70
     1
102
RTVSPropertyOp3
 70
     1
102
RTVSPropertyOp4
 70
     1
102
RTVSPropertyOp5
 70
     1
102
RTVSPropertyOp6
 70
     1
102
RTVSPropertyOp7
 70
     1
102
RTVSPropertyOp8
 70
     1
102
RTVSPropertyOp9
 70
     1
102
RTVSPropertyOp10
 70
     1
102
RTVSPropertyOp11
 70
     1
102
RTVSPropertyOp12
 70
     1
102
RTVSPropertyOp13
 70
     1
102
RTVSPropertyOp14
 70
     1
102
RTVSPropertyOp15
 70
     1
102
RTVSPropertyOp16
 70
     1
102
RTVSPropertyOp17
 70
     1
102
RTVSPropertyOp18
 70
     1
102
RTVSPropertyOp19
 70
     1
102
RTVSPropertyOp20
 70
     1
102
RTVSPropertyOp21
 70
     1
102
RTVSPropertyOp22
 70
     1
102
RTVSPropertyOp23
 70
     1
102
RTVSPropertyOp24
 70
     1
102
RTVSPropertyOp25
 70
     1
102
RTVSPropertyOp26
 70
     1
102
RTVSPropertyOp27
 70
     1
102
RTVSPropertyOp28
 70
     1
102
RTVSPropertyOp29
 70
     1
102
RTVSPropertyOp30
 70
     1
102
RTVSPropertyOp31
 70
     1
102
RTVSPropertyOp32
 70
     1
102
RTVSPropertyOp33
 70
     1
102
RTVSPropertyOp34
 70
     1
102
RTVSPropertyOp35
 70
     1
102
RTVSPropertyOp36
 70
     1
102
RTVSPropertyOp37
 70
     1
102
RTVSPropertyOp38
 70
     1
102
RTVSPropertyOp39
 70
     1
102
RTVSPropertyOp40
 70
     1
102
RTVSPropertyOp41
 70
     1
102
RTVSPropertyOp42
 70
     1
102
RTVSPropertyOp43
 70
     1
102
RTVSPropertyOp44
 70
     1
102
RTVSPropertyOp45
 70
     1
102
RTVSPropertyOp46
 70
     1
102
RTVSPropertyOp47
 70
     1
102
RTVSPropertyOp48
 70
     1
102
RTVSPropertyOp49
 70
     1
102
RTVSPropertyOp50
 70
     1
102
RTVSPropertyOp51
 70
     0
102
RTVSPropertyOp52
 70
     0
102
RTVSPropertyOp53
 70
     1
102
RTVSPropertyOp54
 70
     1
102
RTVSPropertyOp55
 70
     1
102
RTVSPropertyOp56
 70
     1
102
RTVSPropertyOp57
 70
     1
102
RTVSPropertyOp58
 70
     1
102
RTVSPropertyOp59
 70
     1
102
RTVSPropertyOp60
 70
     1
102
RTVSPropertyOp61
 70
     1
102
RTVSPropertyOp62
 70
     1
  0
XRECORD
  5
1AD4
102
{ACAD_REACTORS
330
1AD3
102
}
330
1AD3
100
AcDbXrecord
280
     1
102
RTVSPost2010Prop28
280
     0
102
RTVSPost2010PropOp28
 70
     1
102
RTVSPost2010Prop29
280
     1
102
RTVSPost2010PropOp29
 70
     1
102
RTVSPost2010Prop30
280
     1
102
RTVSPost2010PropOp30
 70
     1
102
RTVSPost2010Prop31
280
     0
102
RTVSPost2010PropOp31
 70
     1
102
RTVSPost2010Prop32
280
     0
102
RTVSPost2010PropOp32
 70
     1
102
RTVSPost2010Prop33
280
     0
102
RTVSPost2010PropOp33
 70
     1
102
RTVSPost2010Prop34
280
     0
102
RTVSPost2010PropOp34
 70
     1
102
RTVSPost2010Prop35
280
     0
102
RTVSPost2010PropOp35
 70
     1
102
RTVSPost2010Prop36
280
     0
102
RTVSPost2010PropOp36
 70
     1
102
RTVSPost2010Prop37
 90
       50
102
RTVSPost2010PropOp37
 70
     1
102
RTVSPost2010Prop38
140
0.0
102
RTVSPost2010PropOp38
 70
     1
102
RTVSPost2010Prop39
140
1.0
102
RTVSPost2010PropOp39
 70
     1
102
RTVSPost2010Prop40
 90
        0
102
RTVSPost2010PropOp40
 70
     1
102
RTVSPost2010Prop41ColorIndex
 90
       18
102
RTVSPost2010Prop41ColorRGB
 90
        0
102
RTVSPost2010PropOp41
 70
     1
102
RTVSPost2010Prop42
 90
       50
102
RTVSPost2010PropOp42
 70
     1
102
RTVSPost2010Prop43
 90
        3
102
RTVSPost2010PropOp43
 70
     1
102
RTVSPost2010Prop44ColorIndex
 90
        5
102
RTVSPost2010Prop44ColorRGB
 90
      255
102
RTVSPost2010PropOp44
 70
     1
102
RTVSPost2010Prop45
280
     0
102
RTVSPost2010PropOp45
 70
     1
102
RTVSPost2010Prop46
 90
       50
102
RTVSPost2010PropOp46
 70
     1
102
RTVSPost2010Prop47
 90
       50
102
RTVSPost2010PropOp47
 70
     1
102
RTVSPost2010Prop48
 90
       50
102
RTVSPost2010PropOp48
 70
     1
102
RTVSPost2010Prop49
280
     0
102
RTVSPost2010PropOp49
 70
     1
102
RTVSPost2010Prop50
 90
       50
102
RTVSPost2010PropOp50
 70
     1
102
RTVSPost2010Prop51ColorIndex
 90
      256
102
RTVSPost2010Prop51ColorRGB
 90
-16777216
102
RTVSPost2010PropOp51
 70
     0
102
RTVSPost2010Prop52
140
1.0
102
RTVSPost2010PropOp52
 70
     0
102
RTVSPost2010Prop53
 90
        2
102
RTVSPost2010PropOp53
 70
     1
102
RTVSPost2010Prop54
  1
strokes_ogs.tif
102
RTVSPost2010PropOp54
 70
     1
102
RTVSPost2010Prop55
280
     0
102
RTVSPost2010PropOp55
 70
     1
102
RTVSPost2010Prop56
140
1.0
102
RTVSPost2010PropOp56
 70
     1
102
RTVSPost2010Prop57
140
1.0
102
RTVSPost2010PropOp57
 70
     1
102
RTVSPropertyOp0
 70
     1
102
RTVSPropertyOp1
 70
     1
102
RTVSPropertyOp2
 70
     1
102
RTVSPropertyOp3
 70
     1
102
RTVSPropertyOp4
 70
     1
102
RTVSPropertyOp5
 70
     1
102
RTVSPropertyOp6
 70
     1
102
RTVSPropertyOp7
 70
     1
102
RTVSPropertyOp8
 70
     1
102
RTVSPropertyOp9
 70
     1
102
RTVSPropertyOp10
 70
     1
102
RTVSPropertyOp11
 70
     1
102
RTVSPropertyOp12
 70
     1
102
RTVSPropertyOp13
 70
     1
102
RTVSPropertyOp14
 70
     1
102
RTVSPropertyOp15
 70
     1
102
RTVSPropertyOp16
 70
     1
102
RTVSPropertyOp17
 70
     1
102
RTVSPropertyOp18
 70
     1
102
RTVSPropertyOp19
 70
     1
102
RTVSPropertyOp20
 70
     1
102
RTVSPropertyOp21
 70
     1
102
RTVSPropertyOp22
 70
     1
102
RTVSPropertyOp23
 70
     1
102
RTVSPropertyOp24
 70
     1
102
RTVSPropertyOp25
 70
     1
102
RTVSPropertyOp26
 70
     1
102
RTVSPropertyOp27
 70
     1
102
RTVSPropertyOp28
 70
     1
102
RTVSPropertyOp29
 70
     1
102
RTVSPropertyOp30
 70
     1
102
RTVSPropertyOp31
 70
     1
102
RTVSPropertyOp32
 70
     1
102
RTVSPropertyOp33
 70
     1
102
RTVSPropertyOp34
 70
     1
102
RTVSPropertyOp35
 70
     1
102
RTVSPropertyOp36
 70
     1
102
RTVSPropertyOp37
 70
     1
102
RTVSPropertyOp38
 70
     1
102
RTVSPropertyOp39
 70
     1
102
RTVSPropertyOp40
 70
     1
102
RTVSPropertyOp41
 70
     1
102
RTVSPropertyOp42
 70
     1
102
RTVSPropertyOp43
 70
     1
102
RTVSPropertyOp44
 70
     1
102
RTVSPropertyOp45
 70
     1
102
RTVSPropertyOp46
 70
     1
102
RTVSPropertyOp47
 70
     1
102
RTVSPropertyOp48
 70
     1
102
RTVSPropertyOp49
 70
     1
102
RTVSPropertyOp50
 70
     1
102
RTVSPropertyOp51
 70
     0
102
RTVSPropertyOp52
 70
     0
102
RTVSPropertyOp53
 70
     1
102
RTVSPropertyOp54
 70
     1
102
RTVSPropertyOp55
 70
     1
102
RTVSPropertyOp56
 70
     1
102
RTVSPropertyOp57
 70
     1
102
RTVSPropertyOp58
 70
     1
102
RTVSPropertyOp59
 70
     1
102
RTVSPropertyOp60
 70
     1
102
RTVSPropertyOp61
 70
     1
102
RTVSPropertyOp62
 70
     1
  0
XRECORD
  5
1AEE
102
{ACAD_REACTORS
330
1AED
102
}
330
1AED
100
AcDbXrecord
280
     1
102
RTVSPost2010Prop28
280
     0
102
RTVSPost2010PropOp28
 70
     0
102
RTVSPost2010Prop29
280
     1
102
RTVSPost2010PropOp29
 70
     0
102
RTVSPost2010Prop30
280
     1
102
RTVSPost2010PropOp30
 70
     0
102
RTVSPost2010Prop31
280
     0
102
RTVSPost2010PropOp31
 70
     0
102
RTVSPost2010Prop32
280
     0
102
RTVSPost2010PropOp32
 70
     0
102
RTVSPost2010Prop33
280
     0
102
RTVSPost2010PropOp33
 70
     0
102
RTVSPost2010Prop34
280
     0
102
RTVSPost2010PropOp34
 70
     0
102
RTVSPost2010Prop35
280
     0
102
RTVSPost2010PropOp35
 70
     0
102
RTVSPost2010Prop36
280
     0
102
RTVSPost2010PropOp36
 70
     0
102
RTVSPost2010Prop37
 90
       50
102
RTVSPost2010PropOp37
 70
     0
102
RTVSPost2010Prop38
140
0.0
102
RTVSPost2010PropOp38
 70
     0
102
RTVSPost2010Prop39
140
1.0
102
RTVSPost2010PropOp39
 70
     0
102
RTVSPost2010Prop40
 90
        0
102
RTVSPost2010PropOp40
 70
     0
102
RTVSPost2010Prop41ColorIndex
 90
       18
102
RTVSPost2010Prop41ColorRGB
 90
        0
102
RTVSPost2010PropOp41
 70
     0
102
RTVSPost2010Prop42
 90
       50
102
RTVSPost2010PropOp42
 70
     0
102
RTVSPost2010Prop43
 90
        3
102
RTVSPost2010PropOp43
 70
     0
102
RTVSPost2010Prop44ColorIndex
 90
        5
102
RTVSPost2010Prop44ColorRGB
 90
      255
102
RTVSPost2010PropOp44
 70
     0
102
RTVSPost2010Prop45
280
     0
102
RTVSPost2010PropOp45
 70
     0
102
RTVSPost2010Prop46
 90
       50
102
RTVSPost2010PropOp46
 70
     0
102
RTVSPost2010Prop47
 90
       50
102
RTVSPost2010PropOp47
 70
     0
102
RTVSPost2010Prop48
 90
       50
102
RTVSPost2010PropOp48
 70
     0
102
RTVSPost2010Prop49
280
     0
102
RTVSPost2010PropOp49
 70
     0
102
RTVSPost2010Prop50
 90
       50
102
RTVSPost2010PropOp50
 70
     0
102
RTVSPost2010Prop51ColorIndex
 90
      256
102
RTVSPost2010Prop51ColorRGB
 90
-16777216
102
RTVSPost2010PropOp51
 70
     0
102
RTVSPost2010Prop52
140
1.0
102
RTVSPost2010PropOp52
 70
     0
102
RTVSPost2010Prop53
 90
        2
102
RTVSPost2010PropOp53
 70
     0
102
RTVSPost2010Prop54
  1
strokes_ogs.tif
102
RTVSPost2010PropOp54
 70
     0
102
RTVSPost2010Prop55
280
     0
102
RTVSPost2010PropOp55
 70
     0
102
RTVSPost2010Prop56
140
1.0
102
RTVSPost2010PropOp56
 70
     0
102
RTVSPost2010Prop57
140
1.0
102
RTVSPost2010PropOp57
 70
     0
102
RTVSPropertyOp0
 70
     0
102
RTVSPropertyOp1
 70
     0
102
RTVSPropertyOp2
 70
     0
102
RTVSPropertyOp3
 70
     0
102
RTVSPropertyOp4
 70
     0
102
RTVSPropertyOp5
 70
     0
102
RTVSPropertyOp6
 70
     0
102
RTVSPropertyOp7
 70
     0
102
RTVSPropertyOp8
 70
     0
102
RTVSPropertyOp9
 70
     0
102
RTVSPropertyOp10
 70
     0
102
RTVSPropertyOp11
 70
     0
102
RTVSPropertyOp12
 70
     0
102
RTVSPropertyOp13
 70
     0
102
RTVSPropertyOp14
 70
     2
102
RTVSPropertyOp15
 70
     0
102
RTVSPropertyOp16
 70
     0
102
RTVSPropertyOp17
 70
     0
102
RTVSPropertyOp18
 70
     0
102
RTVSPropertyOp19
 70
     0
102
RTVSPropertyOp20
 70
     0
102
RTVSPropertyOp21
 70
     0
102
RTVSPropertyOp22
 70
     0
102
RTVSPropertyOp23
 70
     0
102
RTVSPropertyOp24
 70
     0
102
RTVSPropertyOp25
 70
     0
102
RTVSPropertyOp26
 70
     0
102
RTVSPropertyOp27
 70
     0
102
RTVSPropertyOp28
 70
     0
102
RTVSPropertyOp29
 70
     0
102
RTVSPropertyOp30
 70
     0
102
RTVSPropertyOp31
 70
     0
102
RTVSPropertyOp32
 70
     0
102
RTVSPropertyOp33
 70
     0
102
RTVSPropertyOp34
 70
     0
102
RTVSPropertyOp35
 70
     0
102
RTVSPropertyOp36
 70
     0
102
RTVSPropertyOp37
 70
     0
102
RTVSPropertyOp38
 70
     0
102
RTVSPropertyOp39
 70
     0
102
RTVSPropertyOp40
 70
     0
102
RTVSPropertyOp41
 70
     0
102
RTVSPropertyOp42
 70
     0
102
RTVSPropertyOp43
 70
     0
102
RTVSPropertyOp44
 70
     0
102
RTVSPropertyOp45
 70
     0
102
RTVSPropertyOp46
 70
     0
102
RTVSPropertyOp47
 70
     0
102
RTVSPropertyOp48
 70
     0
102
RTVSPropertyOp49
 70
     0
102
RTVSPropertyOp50
 70
     0
102
RTVSPropertyOp51
 70
     0
102
RTVSPropertyOp52
 70
     0
102
RTVSPropertyOp53
 70
     0
102
RTVSPropertyOp54
 70
     0
102
RTVSPropertyOp55
 70
     0
102
RTVSPropertyOp56
 70
     0
102
RTVSPropertyOp57
 70
     0
102
RTVSPropertyOp58
 70
     0
102
RTVSPropertyOp59
 70
     0
102
RTVSPropertyOp60
 70
     0
102
RTVSPropertyOp61
 70
     0
102
RTVSPropertyOp62
 70
     0
  0
XRECORD
  5
1ADC
102
{ACAD_REACTORS
330
1ADB
102
}
330
1ADB
100
AcDbXrecord
280
     1
102
RTVSPost2010Prop28
280
     0
102
RTVSPost2010PropOp28
 70
     1
102
RTVSPost2010Prop29
280
     1
102
RTVSPost2010PropOp29
 70
     1
102
RTVSPost2010Prop30
280
     1
102
RTVSPost2010PropOp30
 70
     1
102
RTVSPost2010Prop31
280
     0
102
RTVSPost2010PropOp31
 70
     1
102
RTVSPost2010Prop32
280
     0
102
RTVSPost2010PropOp32
 70
     1
102
RTVSPost2010Prop33
280
     0
102
RTVSPost2010PropOp33
 70
     1
102
RTVSPost2010Prop34
280
     0
102
RTVSPost2010PropOp34
 70
     1
102
RTVSPost2010Prop35
280
     0
102
RTVSPost2010PropOp35
 70
     1
102
RTVSPost2010Prop36
280
     0
102
RTVSPost2010PropOp36
 70
     1
102
RTVSPost2010Prop37
 90
       50
102
RTVSPost2010PropOp37
 70
     1
102
RTVSPost2010Prop38
140
0.0
102
RTVSPost2010PropOp38
 70
     1
102
RTVSPost2010Prop39
140
1.0
102
RTVSPost2010PropOp39
 70
     1
102
RTVSPost2010Prop40
 90
        0
102
RTVSPost2010PropOp40
 70
     1
102
RTVSPost2010Prop41ColorIndex
 90
       18
102
RTVSPost2010Prop41ColorRGB
 90
        0
102
RTVSPost2010PropOp41
 70
     1
102
RTVSPost2010Prop42
 90
       50
102
RTVSPost2010PropOp42
 70
     1
102
RTVSPost2010Prop43
 90
        3
102
RTVSPost2010PropOp43
 70
     1
102
RTVSPost2010Prop44ColorIndex
 90
        5
102
RTVSPost2010Prop44ColorRGB
 90
      255
102
RTVSPost2010PropOp44
 70
     1
102
RTVSPost2010Prop45
280
     0
102
RTVSPost2010PropOp45
 70
     1
102
RTVSPost2010Prop46
 90
       50
102
RTVSPost2010PropOp46
 70
     1
102
RTVSPost2010Prop47
 90
       50
102
RTVSPost2010PropOp47
 70
     1
102
RTVSPost2010Prop48
 90
       50
102
RTVSPost2010PropOp48
 70
     1
102
RTVSPost2010Prop49
280
     0
102
RTVSPost2010PropOp49
 70
     1
102
RTVSPost2010Prop50
 90
       50
102
RTVSPost2010PropOp50
 70
     1
102
RTVSPost2010Prop51ColorIndex
 90
      256
102
RTVSPost2010Prop51ColorRGB
 90
-16777216
102
RTVSPost2010PropOp51
 70
     0
102
RTVSPost2010Prop52
140
1.0
102
RTVSPost2010PropOp52
 70
     0
102
RTVSPost2010Prop53
 90
        2
102
RTVSPost2010PropOp53
 70
     1
102
RTVSPost2010Prop54
  1
strokes_ogs.tif
102
RTVSPost2010PropOp54
 70
     1
102
RTVSPost2010Prop55
280
     0
102
RTVSPost2010PropOp55
 70
     1
102
RTVSPost2010Prop56
140
1.0
102
RTVSPost2010PropOp56
 70
     1
102
RTVSPost2010Prop57
140
1.0
102
RTVSPost2010PropOp57
 70
     1
102
RTVSPropertyOp0
 70
     1
102
RTVSPropertyOp1
 70
     1
102
RTVSPropertyOp2
 70
     1
102
RTVSPropertyOp3
 70
     1
102
RTVSPropertyOp4
 70
     1
102
RTVSPropertyOp5
 70
     1
102
RTVSPropertyOp6
 70
     1
102
RTVSPropertyOp7
 70
     1
102
RTVSPropertyOp8
 70
     1
102
RTVSPropertyOp9
 70
     1
102
RTVSPropertyOp10
 70
     1
102
RTVSPropertyOp11
 70
     1
102
RTVSPropertyOp12
 70
     1
102
RTVSPropertyOp13
 70
     1
102
RTVSPropertyOp14
 70
     1
102
RTVSPropertyOp15
 70
     1
102
RTVSPropertyOp16
 70
     1
102
RTVSPropertyOp17
 70
     1
102
RTVSPropertyOp18
 70
     1
102
RTVSPropertyOp19
 70
     1
102
RTVSPropertyOp20
 70
     1
102
RTVSPropertyOp21
 70
     1
102
RTVSPropertyOp22
 70
     1
102
RTVSPropertyOp23
 70
     1
102
RTVSPropertyOp24
 70
     1
102
RTVSPropertyOp25
 70
     1
102
RTVSPropertyOp26
 70
     1
102
RTVSPropertyOp27
 70
     1
102
RTVSPropertyOp28
 70
     1
102
RTVSPropertyOp29
 70
     1
102
RTVSPropertyOp30
 70
     1
102
RTVSPropertyOp31
 70
     1
102
RTVSPropertyOp32
 70
     1
102
RTVSPropertyOp33
 70
     1
102
RTVSPropertyOp34
 70
     1
102
RTVSPropertyOp35
 70
     1
102
RTVSPropertyOp36
 70
     1
102
RTVSPropertyOp37
 70
     1
102
RTVSPropertyOp38
 70
     1
102
RTVSPropertyOp39
 70
     1
102
RTVSPropertyOp40
 70
     1
102
RTVSPropertyOp41
 70
     1
102
RTVSPropertyOp42
 70
     1
102
RTVSPropertyOp43
 70
     1
102
RTVSPropertyOp44
 70
     1
102
RTVSPropertyOp45
 70
     1
102
RTVSPropertyOp46
 70
     1
102
RTVSPropertyOp47
 70
     1
102
RTVSPropertyOp48
 70
     1
102
RTVSPropertyOp49
 70
     1
102
RTVSPropertyOp50
 70
     1
102
RTVSPropertyOp51
 70
     0
102
RTVSPropertyOp52
 70
     0
102
RTVSPropertyOp53
 70
     1
102
RTVSPropertyOp54
 70
     1
102
RTVSPropertyOp55
 70
     1
102
RTVSPropertyOp56
 70
     1
102
RTVSPropertyOp57
 70
     1
102
RTVSPropertyOp58
 70
     1
102
RTVSPropertyOp59
 70
     1
102
RTVSPropertyOp60
 70
     1
102
RTVSPropertyOp61
 70
     1
102
RTVSPropertyOp62
 70
     1
  0
XRECORD
  5
1AC0
102
{ACAD_REACTORS
330
1ABF
102
}
330
1ABF
100
AcDbXrecord
280
     1
102
RTVSPost2010Prop28
280
     0
102
RTVSPost2010PropOp28
 70
     1
102
RTVSPost2010Prop29
280
     1
102
RTVSPost2010PropOp29
 70
     1
102
RTVSPost2010Prop30
280
     1
102
RTVSPost2010PropOp30
 70
     1
102
RTVSPost2010Prop31
280
     0
102
RTVSPost2010PropOp31
 70
     1
102
RTVSPost2010Prop32
280
     0
102
RTVSPost2010PropOp32
 70
     1
102
RTVSPost2010Prop33
280
     0
102
RTVSPost2010PropOp33
 70
     1
102
RTVSPost2010Prop34
280
     0
102
RTVSPost2010PropOp34
 70
     1
102
RTVSPost2010Prop35
280
     0
102
RTVSPost2010PropOp35
 70
     1
102
RTVSPost2010Prop36
280
     0
102
RTVSPost2010PropOp36
 70
     1
102
RTVSPost2010Prop37
 90
       50
102
RTVSPost2010PropOp37
 70
     1
102
RTVSPost2010Prop38
140
0.0
102
RTVSPost2010PropOp38
 70
     1
102
RTVSPost2010Prop39
140
1.0
102
RTVSPost2010PropOp39
 70
     1
102
RTVSPost2010Prop40
 90
        0
102
RTVSPost2010PropOp40
 70
     1
102
RTVSPost2010Prop41ColorIndex
 90
       18
102
RTVSPost2010Prop41ColorRGB
 90
        0
102
RTVSPost2010PropOp41
 70
     1
102
RTVSPost2010Prop42
 90
       50
102
RTVSPost2010PropOp42
 70
     1
102
RTVSPost2010Prop43
 90
        3
102
RTVSPost2010PropOp43
 70
     1
102
RTVSPost2010Prop44ColorIndex
 90
        5
102
RTVSPost2010Prop44ColorRGB
 90
      255
102
RTVSPost2010PropOp44
 70
     1
102
RTVSPost2010Prop45
280
     0
102
RTVSPost2010PropOp45
 70
     1
102
RTVSPost2010Prop46
 90
       50
102
RTVSPost2010PropOp46
 70
     1
102
RTVSPost2010Prop47
 90
       50
102
RTVSPost2010PropOp47
 70
     1
102
RTVSPost2010Prop48
 90
       50
102
RTVSPost2010PropOp48
 70
     1
102
RTVSPost2010Prop49
280
     0
102
RTVSPost2010PropOp49
 70
     1
102
RTVSPost2010Prop50
 90
       50
102
RTVSPost2010PropOp50
 70
     1
102
RTVSPost2010Prop51ColorIndex
 90
      256
102
RTVSPost2010Prop51ColorRGB
 90
-16777216
102
RTVSPost2010PropOp51
 70
     0
102
RTVSPost2010Prop52
140
1.0
102
RTVSPost2010PropOp52
 70
     0
102
RTVSPost2010Prop53
 90
        2
102
RTVSPost2010PropOp53
 70
     1
102
RTVSPost2010Prop54
  1
strokes_ogs.tif
102
RTVSPost2010PropOp54
 70
     1
102
RTVSPost2010Prop55
280
     0
102
RTVSPost2010PropOp55
 70
     1
102
RTVSPost2010Prop56
140
1.0
102
RTVSPost2010PropOp56
 70
     1
102
RTVSPost2010Prop57
140
1.0
102
RTVSPost2010PropOp57
 70
     1
102
RTVSPropertyOp0
 70
     1
102
RTVSPropertyOp1
 70
     1
102
RTVSPropertyOp2
 70
     1
102
RTVSPropertyOp3
 70
     1
102
RTVSPropertyOp4
 70
     1
102
RTVSPropertyOp5
 70
     1
102
RTVSPropertyOp6
 70
     1
102
RTVSPropertyOp7
 70
     1
102
RTVSPropertyOp8
 70
     1
102
RTVSPropertyOp9
 70
     1
102
RTVSPropertyOp10
 70
     1
102
RTVSPropertyOp11
 70
     1
102
RTVSPropertyOp12
 70
     1
102
RTVSPropertyOp13
 70
     1
102
RTVSPropertyOp14
 70
     1
102
RTVSPropertyOp15
 70
     1
102
RTVSPropertyOp16
 70
     1
102
RTVSPropertyOp17
 70
     1
102
RTVSPropertyOp18
 70
     1
102
RTVSPropertyOp19
 70
     1
102
RTVSPropertyOp20
 70
     1
102
RTVSPropertyOp21
 70
     1
102
RTVSPropertyOp22
 70
     1
102
RTVSPropertyOp23
 70
     1
102
RTVSPropertyOp24
 70
     1
102
RTVSPropertyOp25
 70
     1
102
RTVSPropertyOp26
 70
     1
102
RTVSPropertyOp27
 70
     1
102
RTVSPropertyOp28
 70
     1
102
RTVSPropertyOp29
 70
     1
102
RTVSPropertyOp30
 70
     1
102
RTVSPropertyOp31
 70
     1
102
RTVSPropertyOp32
 70
     1
102
RTVSPropertyOp33
 70
     1
102
RTVSPropertyOp34
 70
     1
102
RTVSPropertyOp35
 70
     1
102
RTVSPropertyOp36
 70
     1
102
RTVSPropertyOp37
 70
     1
102
RTVSPropertyOp38
 70
     1
102
RTVSPropertyOp39
 70
     1
102
RTVSPropertyOp40
 70
     1
102
RTVSPropertyOp41
 70
     1
102
RTVSPropertyOp42
 70
     1
102
RTVSPropertyOp43
 70
     1
102
RTVSPropertyOp44
 70
     1
102
RTVSPropertyOp45
 70
     1
102
RTVSPropertyOp46
 70
     1
102
RTVSPropertyOp47
 70
     1
102
RTVSPropertyOp48
 70
     1
102
RTVSPropertyOp49
 70
     1
102
RTVSPropertyOp50
 70
     1
102
RTVSPropertyOp51
 70
     0
102
RTVSPropertyOp52
 70
     0
102
RTVSPropertyOp53
 70
     1
102
RTVSPropertyOp54
 70
     1
102
RTVSPropertyOp55
 70
     1
102
RTVSPropertyOp56
 70
     1
102
RTVSPropertyOp57
 70
     1
102
RTVSPropertyOp58
 70
     1
102
RTVSPropertyOp59
 70
     1
102
RTVSPropertyOp60
 70
     1
102
RTVSPropertyOp61
 70
     1
102
RTVSPropertyOp62
 70
     1
  0
XRECORD
  5
1AC2
102
{ACAD_REACTORS
330
1AC1
102
}
330
1AC1
100
AcDbXrecord
280
     1
102
RTVSPost2010Prop28
280
     0
102
RTVSPost2010PropOp28
 70
     1
102
RTVSPost2010Prop29
280
     1
102
RTVSPost2010PropOp29
 70
     1
102
RTVSPost2010Prop30
280
     1
102
RTVSPost2010PropOp30
 70
     1
102
RTVSPost2010Prop31
280
     0
102
RTVSPost2010PropOp31
 70
     1
102
RTVSPost2010Prop32
280
     0
102
RTVSPost2010PropOp32
 70
     1
102
RTVSPost2010Prop33
280
     0
102
RTVSPost2010PropOp33
 70
     1
102
RTVSPost2010Prop34
280
     0
102
RTVSPost2010PropOp34
 70
     1
102
RTVSPost2010Prop35
280
     0
102
RTVSPost2010PropOp35
 70
     1
102
RTVSPost2010Prop36
280
     0
102
RTVSPost2010PropOp36
 70
     1
102
RTVSPost2010Prop37
 90
       50
102
RTVSPost2010PropOp37
 70
     1
102
RTVSPost2010Prop38
140
0.0
102
RTVSPost2010PropOp38
 70
     1
102
RTVSPost2010Prop39
140
1.0
102
RTVSPost2010PropOp39
 70
     1
102
RTVSPost2010Prop40
 90
        0
102
RTVSPost2010PropOp40
 70
     1
102
RTVSPost2010Prop41ColorIndex
 90
       18
102
RTVSPost2010Prop41ColorRGB
 90
        0
102
RTVSPost2010PropOp41
 70
     1
102
RTVSPost2010Prop42
 90
       50
102
RTVSPost2010PropOp42
 70
     1
102
RTVSPost2010Prop43
 90
        3
102
RTVSPost2010PropOp43
 70
     1
102
RTVSPost2010Prop44ColorIndex
 90
        5
102
RTVSPost2010Prop44ColorRGB
 90
      255
102
RTVSPost2010PropOp44
 70
     1
102
RTVSPost2010Prop45
280
     0
102
RTVSPost2010PropOp45
 70
     1
102
RTVSPost2010Prop46
 90
       50
102
RTVSPost2010PropOp46
 70
     1
102
RTVSPost2010Prop47
 90
       50
102
RTVSPost2010PropOp47
 70
     1
102
RTVSPost2010Prop48
 90
       50
102
RTVSPost2010PropOp48
 70
     1
102
RTVSPost2010Prop49
280
     0
102
RTVSPost2010PropOp49
 70
     1
102
RTVSPost2010Prop50
 90
       50
102
RTVSPost2010PropOp50
 70
     1
102
RTVSPost2010Prop51ColorIndex
 90
      256
102
RTVSPost2010Prop51ColorRGB
 90
-16777216
102
RTVSPost2010PropOp51
 70
     0
102
RTVSPost2010Prop52
140
1.0
102
RTVSPost2010PropOp52
 70
     0
102
RTVSPost2010Prop53
 90
        2
102
RTVSPost2010PropOp53
 70
     1
102
RTVSPost2010Prop54
  1
strokes_ogs.tif
102
RTVSPost2010PropOp54
 70
     1
102
RTVSPost2010Prop55
280
     0
102
RTVSPost2010PropOp55
 70
     1
102
RTVSPost2010Prop56
140
1.0
102
RTVSPost2010PropOp56
 70
     1
102
RTVSPost2010Prop57
140
1.0
102
RTVSPost2010PropOp57
 70
     1
102
RTVSPropertyOp0
 70
     1
102
RTVSPropertyOp1
 70
     1
102
RTVSPropertyOp2
 70
     1
102
RTVSPropertyOp3
 70
     1
102
RTVSPropertyOp4
 70
     1
102
RTVSPropertyOp5
 70
     1
102
RTVSPropertyOp6
 70
     1
102
RTVSPropertyOp7
 70
     1
102
RTVSPropertyOp8
 70
     1
102
RTVSPropertyOp9
 70
     1
102
RTVSPropertyOp10
 70
     1
102
RTVSPropertyOp11
 70
     1
102
RTVSPropertyOp12
 70
     1
102
RTVSPropertyOp13
 70
     1
102
RTVSPropertyOp14
 70
     1
102
RTVSPropertyOp15
 70
     1
102
RTVSPropertyOp16
 70
     1
102
RTVSPropertyOp17
 70
     1
102
RTVSPropertyOp18
 70
     1
102
RTVSPropertyOp19
 70
     1
102
RTVSPropertyOp20
 70
     1
102
RTVSPropertyOp21
 70
     1
102
RTVSPropertyOp22
 70
     1
102
RTVSPropertyOp23
 70
     1
102
RTVSPropertyOp24
 70
     1
102
RTVSPropertyOp25
 70
     1
102
RTVSPropertyOp26
 70
     1
102
RTVSPropertyOp27
 70
     1
102
RTVSPropertyOp28
 70
     1
102
RTVSPropertyOp29
 70
     1
102
RTVSPropertyOp30
 70
     1
102
RTVSPropertyOp31
 70
     1
102
RTVSPropertyOp32
 70
     1
102
RTVSPropertyOp33
 70
     1
102
RTVSPropertyOp34
 70
     1
102
RTVSPropertyOp35
 70
     1
102
RTVSPropertyOp36
 70
     1
102
RTVSPropertyOp37
 70
     1
102
RTVSPropertyOp38
 70
     1
102
RTVSPropertyOp39
 70
     1
102
RTVSPropertyOp40
 70
     1
102
RTVSPropertyOp41
 70
     1
102
RTVSPropertyOp42
 70
     1
102
RTVSPropertyOp43
 70
     1
102
RTVSPropertyOp44
 70
     1
102
RTVSPropertyOp45
 70
     1
102
RTVSPropertyOp46
 70
     1
102
RTVSPropertyOp47
 70
     1
102
RTVSPropertyOp48
 70
     1
102
RTVSPropertyOp49
 70
     1
102
RTVSPropertyOp50
 70
     1
102
RTVSPropertyOp51
 70
     0
102
RTVSPropertyOp52
 70
     0
102
RTVSPropertyOp53
 70
     1
102
RTVSPropertyOp54
 70
     1
102
RTVSPropertyOp55
 70
     1
102
RTVSPropertyOp56
 70
     1
102
RTVSPropertyOp57
 70
     1
102
RTVSPropertyOp58
 70
     1
102
RTVSPropertyOp59
 70
     1
102
RTVSPropertyOp60
 70
     1
102
RTVSPropertyOp61
 70
     1
102
RTVSPropertyOp62
 70
     1
  0
XRECORD
  5
1AC4
102
{ACAD_REACTORS
330
1AC3
102
}
330
1AC3
100
AcDbXrecord
280
     1
102
RTVSPost2010Prop28
280
     0
102
RTVSPost2010PropOp28
 70
     1
102
RTVSPost2010Prop29
280
     1
102
RTVSPost2010PropOp29
 70
     1
102
RTVSPost2010Prop30
280
     1
102
RTVSPost2010PropOp30
 70
     1
102
RTVSPost2010Prop31
280
     0
102
RTVSPost2010PropOp31
 70
     1
102
RTVSPost2010Prop32
280
     0
102
RTVSPost2010PropOp32
 70
     1
102
RTVSPost2010Prop33
280
     0
102
RTVSPost2010PropOp33
 70
     1
102
RTVSPost2010Prop34
280
     0
102
RTVSPost2010PropOp34
 70
     1
102
RTVSPost2010Prop35
280
     0
102
RTVSPost2010PropOp35
 70
     1
102
RTVSPost2010Prop36
280
     0
102
RTVSPost2010PropOp36
 70
     1
102
RTVSPost2010Prop37
 90
       50
102
RTVSPost2010PropOp37
 70
     1
102
RTVSPost2010Prop38
140
0.0
102
RTVSPost2010PropOp38
 70
     1
102
RTVSPost2010Prop39
140
1.0
102
RTVSPost2010PropOp39
 70
     1
102
RTVSPost2010Prop40
 90
        0
102
RTVSPost2010PropOp40
 70
     1
102
RTVSPost2010Prop41ColorIndex
 90
       18
102
RTVSPost2010Prop41ColorRGB
 90
        0
102
RTVSPost2010PropOp41
 70
     1
102
RTVSPost2010Prop42
 90
       50
102
RTVSPost2010PropOp42
 70
     1
102
RTVSPost2010Prop43
 90
        3
102
RTVSPost2010PropOp43
 70
     1
102
RTVSPost2010Prop44ColorIndex
 90
        5
102
RTVSPost2010Prop44ColorRGB
 90
      255
102
RTVSPost2010PropOp44
 70
     1
102
RTVSPost2010Prop45
280
     0
102
RTVSPost2010PropOp45
 70
     1
102
RTVSPost2010Prop46
 90
       50
102
RTVSPost2010PropOp46
 70
     1
102
RTVSPost2010Prop47
 90
       50
102
RTVSPost2010PropOp47
 70
     1
102
RTVSPost2010Prop48
 90
       50
102
RTVSPost2010PropOp48
 70
     1
102
RTVSPost2010Prop49
280
     0
102
RTVSPost2010PropOp49
 70
     1
102
RTVSPost2010Prop50
 90
       50
102
RTVSPost2010PropOp50
 70
     1
102
RTVSPost2010Prop51ColorIndex
 90
      256
102
RTVSPost2010Prop51ColorRGB
 90
-16777216
102
RTVSPost2010PropOp51
 70
     0
102
RTVSPost2010Prop52
140
1.0
102
RTVSPost2010PropOp52
 70
     0
102
RTVSPost2010Prop53
 90
        2
102
RTVSPost2010PropOp53
 70
     1
102
RTVSPost2010Prop54
  1
strokes_ogs.tif
102
RTVSPost2010PropOp54
 70
     1
102
RTVSPost2010Prop55
280
     0
102
RTVSPost2010PropOp55
 70
     1
102
RTVSPost2010Prop56
140
1.0
102
RTVSPost2010PropOp56
 70
     1
102
RTVSPost2010Prop57
140
1.0
102
RTVSPost2010PropOp57
 70
     1
102
RTVSPropertyOp0
 70
     1
102
RTVSPropertyOp1
 70
     1
102
RTVSPropertyOp2
 70
     1
102
RTVSPropertyOp3
 70
     1
102
RTVSPropertyOp4
 70
     1
102
RTVSPropertyOp5
 70
     1
102
RTVSPropertyOp6
 70
     1
102
RTVSPropertyOp7
 70
     1
102
RTVSPropertyOp8
 70
     1
102
RTVSPropertyOp9
 70
     1
102
RTVSPropertyOp10
 70
     1
102
RTVSPropertyOp11
 70
     1
102
RTVSPropertyOp12
 70
     1
102
RTVSPropertyOp13
 70
     1
102
RTVSPropertyOp14
 70
     1
102
RTVSPropertyOp15
 70
     1
102
RTVSPropertyOp16
 70
     1
102
RTVSPropertyOp17
 70
     1
102
RTVSPropertyOp18
 70
     1
102
RTVSPropertyOp19
 70
     1
102
RTVSPropertyOp20
 70
     1
102
RTVSPropertyOp21
 70
     1
102
RTVSPropertyOp22
 70
     1
102
RTVSPropertyOp23
 70
     1
102
RTVSPropertyOp24
 70
     1
102
RTVSPropertyOp25
 70
     1
102
RTVSPropertyOp26
 70
     1
102
RTVSPropertyOp27
 70
     1
102
RTVSPropertyOp28
 70
     1
102
RTVSPropertyOp29
 70
     1
102
RTVSPropertyOp30
 70
     1
102
RTVSPropertyOp31
 70
     1
102
RTVSPropertyOp32
 70
     1
102
RTVSPropertyOp33
 70
     1
102
RTVSPropertyOp34
 70
     1
102
RTVSPropertyOp35
 70
     1
102
RTVSPropertyOp36
 70
     1
102
RTVSPropertyOp37
 70
     1
102
RTVSPropertyOp38
 70
     1
102
RTVSPropertyOp39
 70
     1
102
RTVSPropertyOp40
 70
     1
102
RTVSPropertyOp41
 70
     1
102
RTVSPropertyOp42
 70
     1
102
RTVSPropertyOp43
 70
     1
102
RTVSPropertyOp44
 70
     1
102
RTVSPropertyOp45
 70
     1
102
RTVSPropertyOp46
 70
     1
102
RTVSPropertyOp47
 70
     1
102
RTVSPropertyOp48
 70
     1
102
RTVSPropertyOp49
 70
     1
102
RTVSPropertyOp50
 70
     1
102
RTVSPropertyOp51
 70
     0
102
RTVSPropertyOp52
 70
     0
102
RTVSPropertyOp53
 70
     1
102
RTVSPropertyOp54
 70
     1
102
RTVSPropertyOp55
 70
     1
102
RTVSPropertyOp56
 70
     1
102
RTVSPropertyOp57
 70
     1
102
RTVSPropertyOp58
 70
     1
102
RTVSPropertyOp59
 70
     1
102
RTVSPropertyOp60
 70
     1
102
RTVSPropertyOp61
 70
     1
102
RTVSPropertyOp62
 70
     1
  0
XRECORD
  5
1AC6
102
{ACAD_REACTORS
330
1AC5
102
}
330
1AC5
100
AcDbXrecord
280
     1
102
RTVSPost2010Prop28
280
     0
102
RTVSPost2010PropOp28
 70
     1
102
RTVSPost2010Prop29
280
     1
102
RTVSPost2010PropOp29
 70
     1
102
RTVSPost2010Prop30
280
     1
102
RTVSPost2010PropOp30
 70
     1
102
RTVSPost2010Prop31
280
     0
102
RTVSPost2010PropOp31
 70
     1
102
RTVSPost2010Prop32
280
     0
102
RTVSPost2010PropOp32
 70
     1
102
RTVSPost2010Prop33
280
     0
102
RTVSPost2010PropOp33
 70
     1
102
RTVSPost2010Prop34
280
     0
102
RTVSPost2010PropOp34
 70
     1
102
RTVSPost2010Prop35
280
     0
102
RTVSPost2010PropOp35
 70
     1
102
RTVSPost2010Prop36
280
     0
102
RTVSPost2010PropOp36
 70
     1
102
RTVSPost2010Prop37
 90
       50
102
RTVSPost2010PropOp37
 70
     1
102
RTVSPost2010Prop38
140
0.0
102
RTVSPost2010PropOp38
 70
     1
102
RTVSPost2010Prop39
140
1.0
102
RTVSPost2010PropOp39
 70
     1
102
RTVSPost2010Prop40
 90
        0
102
RTVSPost2010PropOp40
 70
     1
102
RTVSPost2010Prop41ColorIndex
 90
       18
102
RTVSPost2010Prop41ColorRGB
 90
        0
102
RTVSPost2010PropOp41
 70
     1
102
RTVSPost2010Prop42
 90
       50
102
RTVSPost2010PropOp42
 70
     1
102
RTVSPost2010Prop43
 90
        3
102
RTVSPost2010PropOp43
 70
     1
102
RTVSPost2010Prop44ColorIndex
 90
        5
102
RTVSPost2010Prop44ColorRGB
 90
      255
102
RTVSPost2010PropOp44
 70
     1
102
RTVSPost2010Prop45
280
     0
102
RTVSPost2010PropOp45
 70
     1
102
RTVSPost2010Prop46
 90
       50
102
RTVSPost2010PropOp46
 70
     1
102
RTVSPost2010Prop47
 90
       50
102
RTVSPost2010PropOp47
 70
     1
102
RTVSPost2010Prop48
 90
       50
102
RTVSPost2010PropOp48
 70
     1
102
RTVSPost2010Prop49
280
     0
102
RTVSPost2010PropOp49
 70
     1
102
RTVSPost2010Prop50
 90
       50
102
RTVSPost2010PropOp50
 70
     1
102
RTVSPost2010Prop51ColorIndex
 90
      256
102
RTVSPost2010Prop51ColorRGB
 90
-16777216
102
RTVSPost2010PropOp51
 70
     0
102
RTVSPost2010Prop52
140
1.0
102
RTVSPost2010PropOp52
 70
     0
102
RTVSPost2010Prop53
 90
        2
102
RTVSPost2010PropOp53
 70
     1
102
RTVSPost2010Prop54
  1
strokes_ogs.tif
102
RTVSPost2010PropOp54
 70
     1
102
RTVSPost2010Prop55
280
     0
102
RTVSPost2010PropOp55
 70
     1
102
RTVSPost2010Prop56
140
1.0
102
RTVSPost2010PropOp56
 70
     1
102
RTVSPost2010Prop57
140
1.0
102
RTVSPost2010PropOp57
 70
     1
102
RTVSPropertyOp0
 70
     1
102
RTVSPropertyOp1
 70
     1
102
RTVSPropertyOp2
 70
     1
102
RTVSPropertyOp3
 70
     1
102
RTVSPropertyOp4
 70
     1
102
RTVSPropertyOp5
 70
     1
102
RTVSPropertyOp6
 70
     1
102
RTVSPropertyOp7
 70
     1
102
RTVSPropertyOp8
 70
     1
102
RTVSPropertyOp9
 70
     1
102
RTVSPropertyOp10
 70
     1
102
RTVSPropertyOp11
 70
     1
102
RTVSPropertyOp12
 70
     1
102
RTVSPropertyOp13
 70
     1
102
RTVSPropertyOp14
 70
     1
102
RTVSPropertyOp15
 70
     1
102
RTVSPropertyOp16
 70
     1
102
RTVSPropertyOp17
 70
     1
102
RTVSPropertyOp18
 70
     1
102
RTVSPropertyOp19
 70
     1
102
RTVSPropertyOp20
 70
     1
102
RTVSPropertyOp21
 70
     1
102
RTVSPropertyOp22
 70
     1
102
RTVSPropertyOp23
 70
     1
102
RTVSPropertyOp24
 70
     1
102
RTVSPropertyOp25
 70
     1
102
RTVSPropertyOp26
 70
     1
102
RTVSPropertyOp27
 70
     1
102
RTVSPropertyOp28
 70
     1
102
RTVSPropertyOp29
 70
     1
102
RTVSPropertyOp30
 70
     1
102
RTVSPropertyOp31
 70
     1
102
RTVSPropertyOp32
 70
     1
102
RTVSPropertyOp33
 70
     1
102
RTVSPropertyOp34
 70
     1
102
RTVSPropertyOp35
 70
     1
102
RTVSPropertyOp36
 70
     1
102
RTVSPropertyOp37
 70
     1
102
RTVSPropertyOp38
 70
     1
102
RTVSPropertyOp39
 70
     1
102
RTVSPropertyOp40
 70
     1
102
RTVSPropertyOp41
 70
     1
102
RTVSPropertyOp42
 70
     1
102
RTVSPropertyOp43
 70
     1
102
RTVSPropertyOp44
 70
     1
102
RTVSPropertyOp45
 70
     1
102
RTVSPropertyOp46
 70
     1
102
RTVSPropertyOp47
 70
     1
102
RTVSPropertyOp48
 70
     1
102
RTVSPropertyOp49
 70
     1
102
RTVSPropertyOp50
 70
     1
102
RTVSPropertyOp51
 70
     0
102
RTVSPropertyOp52
 70
     0
102
RTVSPropertyOp53
 70
     1
102
RTVSPropertyOp54
 70
     1
102
RTVSPropertyOp55
 70
     1
102
RTVSPropertyOp56
 70
     1
102
RTVSPropertyOp57
 70
     1
102
RTVSPropertyOp58
 70
     1
102
RTVSPropertyOp59
 70
     1
102
RTVSPropertyOp60
 70
     1
102
RTVSPropertyOp61
 70
     1
102
RTVSPropertyOp62
 70
     1
  0
XRECORD
  5
1ACE
102
{ACAD_REACTORS
330
1ACD
102
}
330
1ACD
100
AcDbXrecord
280
     1
102
RTVSPost2010Prop28
280
     0
102
RTVSPost2010PropOp28
 70
     1
102
RTVSPost2010Prop29
280
     1
102
RTVSPost2010PropOp29
 70
     1
102
RTVSPost2010Prop30
280
     1
102
RTVSPost2010PropOp30
 70
     1
102
RTVSPost2010Prop31
280
     0
102
RTVSPost2010PropOp31
 70
     1
102
RTVSPost2010Prop32
280
     0
102
RTVSPost2010PropOp32
 70
     1
102
RTVSPost2010Prop33
280
     0
102
RTVSPost2010PropOp33
 70
     1
102
RTVSPost2010Prop34
280
     0
102
RTVSPost2010PropOp34
 70
     1
102
RTVSPost2010Prop35
280
     0
102
RTVSPost2010PropOp35
 70
     1
102
RTVSPost2010Prop36
280
     0
102
RTVSPost2010PropOp36
 70
     1
102
RTVSPost2010Prop37
 90
       50
102
RTVSPost2010PropOp37
 70
     1
102
RTVSPost2010Prop38
140
0.0
102
RTVSPost2010PropOp38
 70
     1
102
RTVSPost2010Prop39
140
1.0
102
RTVSPost2010PropOp39
 70
     1
102
RTVSPost2010Prop40
 90
        0
102
RTVSPost2010PropOp40
 70
     1
102
RTVSPost2010Prop41ColorIndex
 90
       18
102
RTVSPost2010Prop41ColorRGB
 90
        0
102
RTVSPost2010PropOp41
 70
     1
102
RTVSPost2010Prop42
 90
       50
102
RTVSPost2010PropOp42
 70
     1
102
RTVSPost2010Prop43
 90
        3
102
RTVSPost2010PropOp43
 70
     1
102
RTVSPost2010Prop44ColorIndex
 90
        5
102
RTVSPost2010Prop44ColorRGB
 90
      255
102
RTVSPost2010PropOp44
 70
     1
102
RTVSPost2010Prop45
280
     0
102
RTVSPost2010PropOp45
 70
     1
102
RTVSPost2010Prop46
 90
       50
102
RTVSPost2010PropOp46
 70
     1
102
RTVSPost2010Prop47
 90
       50
102
RTVSPost2010PropOp47
 70
     1
102
RTVSPost2010Prop48
 90
       50
102
RTVSPost2010PropOp48
 70
     1
102
RTVSPost2010Prop49
280
     0
102
RTVSPost2010PropOp49
 70
     1
102
RTVSPost2010Prop50
 90
       50
102
RTVSPost2010PropOp50
 70
     1
102
RTVSPost2010Prop51ColorIndex
 90
      256
102
RTVSPost2010Prop51ColorRGB
 90
-16777216
102
RTVSPost2010PropOp51
 70
     0
102
RTVSPost2010Prop52
140
1.0
102
RTVSPost2010PropOp52
 70
     0
102
RTVSPost2010Prop53
 90
        2
102
RTVSPost2010PropOp53
 70
     1
102
RTVSPost2010Prop54
  1
strokes_ogs.tif
102
RTVSPost2010PropOp54
 70
     1
102
RTVSPost2010Prop55
280
     0
102
RTVSPost2010PropOp55
 70
     1
102
RTVSPost2010Prop56
140
1.0
102
RTVSPost2010PropOp56
 70
     1
102
RTVSPost2010Prop57
140
1.0
102
RTVSPost2010PropOp57
 70
     1
102
RTVSPropertyOp0
 70
     1
102
RTVSPropertyOp1
 70
     1
102
RTVSPropertyOp2
 70
     1
102
RTVSPropertyOp3
 70
     1
102
RTVSPropertyOp4
 70
     1
102
RTVSPropertyOp5
 70
     1
102
RTVSPropertyOp6
 70
     1
102
RTVSPropertyOp7
 70
     1
102
RTVSPropertyOp8
 70
     1
102
RTVSPropertyOp9
 70
     1
102
RTVSPropertyOp10
 70
     1
102
RTVSPropertyOp11
 70
     1
102
RTVSPropertyOp12
 70
     1
102
RTVSPropertyOp13
 70
     1
102
RTVSPropertyOp14
 70
     1
102
RTVSPropertyOp15
 70
     1
102
RTVSPropertyOp16
 70
     1
102
RTVSPropertyOp17
 70
     1
102
RTVSPropertyOp18
 70
     1
102
RTVSPropertyOp19
 70
     1
102
RTVSPropertyOp20
 70
     1
102
RTVSPropertyOp21
 70
     1
102
RTVSPropertyOp22
 70
     1
102
RTVSPropertyOp23
 70
     1
102
RTVSPropertyOp24
 70
     1
102
RTVSPropertyOp25
 70
     1
102
RTVSPropertyOp26
 70
     1
102
RTVSPropertyOp27
 70
     1
102
RTVSPropertyOp28
 70
     1
102
RTVSPropertyOp29
 70
     1
102
RTVSPropertyOp30
 70
     1
102
RTVSPropertyOp31
 70
     1
102
RTVSPropertyOp32
 70
     1
102
RTVSPropertyOp33
 70
     1
102
RTVSPropertyOp34
 70
     1
102
RTVSPropertyOp35
 70
     1
102
RTVSPropertyOp36
 70
     1
102
RTVSPropertyOp37
 70
     1
102
RTVSPropertyOp38
 70
     1
102
RTVSPropertyOp39
 70
     1
102
RTVSPropertyOp40
 70
     1
102
RTVSPropertyOp41
 70
     1
102
RTVSPropertyOp42
 70
     1
102
RTVSPropertyOp43
 70
     1
102
RTVSPropertyOp44
 70
     1
102
RTVSPropertyOp45
 70
     1
102
RTVSPropertyOp46
 70
     1
102
RTVSPropertyOp47
 70
     1
102
RTVSPropertyOp48
 70
     1
102
RTVSPropertyOp49
 70
     1
102
RTVSPropertyOp50
 70
     1
102
RTVSPropertyOp51
 70
     0
102
RTVSPropertyOp52
 70
     0
102
RTVSPropertyOp53
 70
     1
102
RTVSPropertyOp54
 70
     1
102
RTVSPropertyOp55
 70
     1
102
RTVSPropertyOp56
 70
     1
102
RTVSPropertyOp57
 70
     1
102
RTVSPropertyOp58
 70
     1
102
RTVSPropertyOp59
 70
     1
102
RTVSPropertyOp60
 70
     1
102
RTVSPropertyOp61
 70
     1
102
RTVSPropertyOp62
 70
     1
  0
XRECORD
  5
1AEA
102
{ACAD_REACTORS
330
1AE9
102
}
330
1AE9
100
AcDbXrecord
280
     1
102
RTVSPost2010Prop28
280
     0
102
RTVSPost2010PropOp28
 70
     0
102
RTVSPost2010Prop29
280
     1
102
RTVSPost2010PropOp29
 70
     0
102
RTVSPost2010Prop30
280
     1
102
RTVSPost2010PropOp30
 70
     0
102
RTVSPost2010Prop31
280
     0
102
RTVSPost2010PropOp31
 70
     0
102
RTVSPost2010Prop32
280
     0
102
RTVSPost2010PropOp32
 70
     0
102
RTVSPost2010Prop33
280
     0
102
RTVSPost2010PropOp33
 70
     0
102
RTVSPost2010Prop34
280
     0
102
RTVSPost2010PropOp34
 70
     0
102
RTVSPost2010Prop35
280
     0
102
RTVSPost2010PropOp35
 70
     0
102
RTVSPost2010Prop36
280
     0
102
RTVSPost2010PropOp36
 70
     0
102
RTVSPost2010Prop37
 90
       50
102
RTVSPost2010PropOp37
 70
     0
102
RTVSPost2010Prop38
140
0.0
102
RTVSPost2010PropOp38
 70
     0
102
RTVSPost2010Prop39
140
1.0
102
RTVSPost2010PropOp39
 70
     0
102
RTVSPost2010Prop40
 90
        0
102
RTVSPost2010PropOp40
 70
     0
102
RTVSPost2010Prop41ColorIndex
 90
       18
102
RTVSPost2010Prop41ColorRGB
 90
        0
102
RTVSPost2010PropOp41
 70
     0
102
RTVSPost2010Prop42
 90
       50
102
RTVSPost2010PropOp42
 70
     0
102
RTVSPost2010Prop43
 90
        3
102
RTVSPost2010PropOp43
 70
     0
102
RTVSPost2010Prop44ColorIndex
 90
        5
102
RTVSPost2010Prop44ColorRGB
 90
      255
102
RTVSPost2010PropOp44
 70
     0
102
RTVSPost2010Prop45
280
     0
102
RTVSPost2010PropOp45
 70
     0
102
RTVSPost2010Prop46
 90
       50
102
RTVSPost2010PropOp46
 70
     0
102
RTVSPost2010Prop47
 90
       50
102
RTVSPost2010PropOp47
 70
     0
102
RTVSPost2010Prop48
 90
       50
102
RTVSPost2010PropOp48
 70
     0
102
RTVSPost2010Prop49
280
     0
102
RTVSPost2010PropOp49
 70
     0
102
RTVSPost2010Prop50
 90
       50
102
RTVSPost2010PropOp50
 70
     0
102
RTVSPost2010Prop51ColorIndex
 90
      256
102
RTVSPost2010Prop51ColorRGB
 90
-16777216
102
RTVSPost2010PropOp51
 70
     0
102
RTVSPost2010Prop52
140
1.0
102
RTVSPost2010PropOp52
 70
     0
102
RTVSPost2010Prop53
 90
        2
102
RTVSPost2010PropOp53
 70
     0
102
RTVSPost2010Prop54
  1
strokes_ogs.tif
102
RTVSPost2010PropOp54
 70
     0
102
RTVSPost2010Prop55
280
     0
102
RTVSPost2010PropOp55
 70
     0
102
RTVSPost2010Prop56
140
1.0
102
RTVSPost2010PropOp56
 70
     0
102
RTVSPost2010Prop57
140
1.0
102
RTVSPost2010PropOp57
 70
     0
102
RTVSPropertyOp0
 70
     0
102
RTVSPropertyOp1
 70
     0
102
RTVSPropertyOp2
 70
     0
102
RTVSPropertyOp3
 70
     0
102
RTVSPropertyOp4
 70
     0
102
RTVSPropertyOp5
 70
     0
102
RTVSPropertyOp6
 70
     0
102
RTVSPropertyOp7
 70
     0
102
RTVSPropertyOp8
 70
     0
102
RTVSPropertyOp9
 70
     0
102
RTVSPropertyOp10
 70
     0
102
RTVSPropertyOp11
 70
     0
102
RTVSPropertyOp12
 70
     0
102
RTVSPropertyOp13
 70
     0
102
RTVSPropertyOp14
 70
     2
102
RTVSPropertyOp15
 70
     0
102
RTVSPropertyOp16
 70
     0
102
RTVSPropertyOp17
 70
     0
102
RTVSPropertyOp18
 70
     0
102
RTVSPropertyOp19
 70
     0
102
RTVSPropertyOp20
 70
     0
102
RTVSPropertyOp21
 70
     0
102
RTVSPropertyOp22
 70
     0
102
RTVSPropertyOp23
 70
     0
102
RTVSPropertyOp24
 70
     0
102
RTVSPropertyOp25
 70
     0
102
RTVSPropertyOp26
 70
     0
102
RTVSPropertyOp27
 70
     0
102
RTVSPropertyOp28
 70
     0
102
RTVSPropertyOp29
 70
     0
102
RTVSPropertyOp30
 70
     0
102
RTVSPropertyOp31
 70
     0
102
RTVSPropertyOp32
 70
     0
102
RTVSPropertyOp33
 70
     0
102
RTVSPropertyOp34
 70
     0
102
RTVSPropertyOp35
 70
     0
102
RTVSPropertyOp36
 70
     0
102
RTVSPropertyOp37
 70
     0
102
RTVSPropertyOp38
 70
     0
102
RTVSPropertyOp39
 70
     0
102
RTVSPropertyOp40
 70
     0
102
RTVSPropertyOp41
 70
     0
102
RTVSPropertyOp42
 70
     0
102
RTVSPropertyOp43
 70
     0
102
RTVSPropertyOp44
 70
     0
102
RTVSPropertyOp45
 70
     0
102
RTVSPropertyOp46
 70
     0
102
RTVSPropertyOp47
 70
     0
102
RTVSPropertyOp48
 70
     0
102
RTVSPropertyOp49
 70
     0
102
RTVSPropertyOp50
 70
     0
102
RTVSPropertyOp51
 70
     0
102
RTVSPropertyOp52
 70
     0
102
RTVSPropertyOp53
 70
     0
102
RTVSPropertyOp54
 70
     0
102
RTVSPropertyOp55
 70
     0
102
RTVSPropertyOp56
 70
     0
102
RTVSPropertyOp57
 70
     0
102
RTVSPropertyOp58
 70
     0
102
RTVSPropertyOp59
 70
     0
102
RTVSPropertyOp60
 70
     0
102
RTVSPropertyOp61
 70
     0
102
RTVSPropertyOp62
 70
     0
  0
XRECORD
  5
1ADA
102
{ACAD_REACTORS
330
1AD9
102
}
330
1AD9
100
AcDbXrecord
280
     1
102
RTVSPost2010Prop28
280
     0
102
RTVSPost2010PropOp28
 70
     1
102
RTVSPost2010Prop29
280
     1
102
RTVSPost2010PropOp29
 70
     1
102
RTVSPost2010Prop30
280
     1
102
RTVSPost2010PropOp30
 70
     1
102
RTVSPost2010Prop31
280
     0
102
RTVSPost2010PropOp31
 70
     1
102
RTVSPost2010Prop32
280
     0
102
RTVSPost2010PropOp32
 70
     1
102
RTVSPost2010Prop33
280
     0
102
RTVSPost2010PropOp33
 70
     1
102
RTVSPost2010Prop34
280
     0
102
RTVSPost2010PropOp34
 70
     1
102
RTVSPost2010Prop35
280
     0
102
RTVSPost2010PropOp35
 70
     1
102
RTVSPost2010Prop36
280
     0
102
RTVSPost2010PropOp36
 70
     1
102
RTVSPost2010Prop37
 90
       50
102
RTVSPost2010PropOp37
 70
     1
102
RTVSPost2010Prop38
140
0.0
102
RTVSPost2010PropOp38
 70
     1
102
RTVSPost2010Prop39
140
1.0
102
RTVSPost2010PropOp39
 70
     1
102
RTVSPost2010Prop40
 90
        0
102
RTVSPost2010PropOp40
 70
     1
102
RTVSPost2010Prop41ColorIndex
 90
       18
102
RTVSPost2010Prop41ColorRGB
 90
        0
102
RTVSPost2010PropOp41
 70
     1
102
RTVSPost2010Prop42
 90
       50
102
RTVSPost2010PropOp42
 70
     1
102
RTVSPost2010Prop43
 90
        3
102
RTVSPost2010PropOp43
 70
     1
102
RTVSPost2010Prop44ColorIndex
 90
        5
102
RTVSPost2010Prop44ColorRGB
 90
      255
102
RTVSPost2010PropOp44
 70
     1
102
RTVSPost2010Prop45
280
     0
102
RTVSPost2010PropOp45
 70
     1
102
RTVSPost2010Prop46
 90
       50
102
RTVSPost2010PropOp46
 70
     1
102
RTVSPost2010Prop47
 90
       50
102
RTVSPost2010PropOp47
 70
     1
102
RTVSPost2010Prop48
 90
       50
102
RTVSPost2010PropOp48
 70
     1
102
RTVSPost2010Prop49
280
     0
102
RTVSPost2010PropOp49
 70
     1
102
RTVSPost2010Prop50
 90
       50
102
RTVSPost2010PropOp50
 70
     1
102
RTVSPost2010Prop51ColorIndex
 90
      256
102
RTVSPost2010Prop51ColorRGB
 90
-16777216
102
RTVSPost2010PropOp51
 70
     0
102
RTVSPost2010Prop52
140
1.0
102
RTVSPost2010PropOp52
 70
     0
102
RTVSPost2010Prop53
 90
        2
102
RTVSPost2010PropOp53
 70
     1
102
RTVSPost2010Prop54
  1
strokes_ogs.tif
102
RTVSPost2010PropOp54
 70
     1
102
RTVSPost2010Prop55
280
     0
102
RTVSPost2010PropOp55
 70
     1
102
RTVSPost2010Prop56
140
1.0
102
RTVSPost2010PropOp56
 70
     1
102
RTVSPost2010Prop57
140
1.0
102
RTVSPost2010PropOp57
 70
     1
102
RTVSPropertyOp0
 70
     1
102
RTVSPropertyOp1
 70
     1
102
RTVSPropertyOp2
 70
     1
102
RTVSPropertyOp3
 70
     1
102
RTVSPropertyOp4
 70
     1
102
RTVSPropertyOp5
 70
     1
102
RTVSPropertyOp6
 70
     1
102
RTVSPropertyOp7
 70
     1
102
RTVSPropertyOp8
 70
     1
102
RTVSPropertyOp9
 70
     1
102
RTVSPropertyOp10
 70
     1
102
RTVSPropertyOp11
 70
     1
102
RTVSPropertyOp12
 70
     1
102
RTVSPropertyOp13
 70
     1
102
RTVSPropertyOp14
 70
     1
102
RTVSPropertyOp15
 70
     1
102
RTVSPropertyOp16
 70
     1
102
RTVSPropertyOp17
 70
     1
102
RTVSPropertyOp18
 70
     1
102
RTVSPropertyOp19
 70
     1
102
RTVSPropertyOp20
 70
     1
102
RTVSPropertyOp21
 70
     1
102
RTVSPropertyOp22
 70
     1
102
RTVSPropertyOp23
 70
     1
102
RTVSPropertyOp24
 70
     1
102
RTVSPropertyOp25
 70
     1
102
RTVSPropertyOp26
 70
     1
102
RTVSPropertyOp27
 70
     1
102
RTVSPropertyOp28
 70
     1
102
RTVSPropertyOp29
 70
     1
102
RTVSPropertyOp30
 70
     1
102
RTVSPropertyOp31
 70
     1
102
RTVSPropertyOp32
 70
     1
102
RTVSPropertyOp33
 70
     1
102
RTVSPropertyOp34
 70
     1
102
RTVSPropertyOp35
 70
     1
102
RTVSPropertyOp36
 70
     1
102
RTVSPropertyOp37
 70
     1
102
RTVSPropertyOp38
 70
     1
102
RTVSPropertyOp39
 70
     1
102
RTVSPropertyOp40
 70
     1
102
RTVSPropertyOp41
 70
     1
102
RTVSPropertyOp42
 70
     1
102
RTVSPropertyOp43
 70
     1
102
RTVSPropertyOp44
 70
     1
102
RTVSPropertyOp45
 70
     1
102
RTVSPropertyOp46
 70
     1
102
RTVSPropertyOp47
 70
     1
102
RTVSPropertyOp48
 70
     1
102
RTVSPropertyOp49
 70
     1
102
RTVSPropertyOp50
 70
     1
102
RTVSPropertyOp51
 70
     0
102
RTVSPropertyOp52
 70
     0
102
RTVSPropertyOp53
 70
     1
102
RTVSPropertyOp54
 70
     1
102
RTVSPropertyOp55
 70
     1
102
RTVSPropertyOp56
 70
     1
102
RTVSPropertyOp57
 70
     1
102
RTVSPropertyOp58
 70
     1
102
RTVSPropertyOp59
 70
     1
102
RTVSPropertyOp60
 70
     1
102
RTVSPropertyOp61
 70
     1
102
RTVSPropertyOp62
 70
     1
  0
XRECORD
  5
1AEC
102
{ACAD_REACTORS
330
1AEB
102
}
330
1AEB
100
AcDbXrecord
280
     1
102
RTVSPost2010Prop28
280
     0
102
RTVSPost2010PropOp28
 70
     0
102
RTVSPost2010Prop29
280
     1
102
RTVSPost2010PropOp29
 70
     0
102
RTVSPost2010Prop30
280
     1
102
RTVSPost2010PropOp30
 70
     0
102
RTVSPost2010Prop31
280
     0
102
RTVSPost2010PropOp31
 70
     0
102
RTVSPost2010Prop32
280
     0
102
RTVSPost2010PropOp32
 70
     0
102
RTVSPost2010Prop33
280
     0
102
RTVSPost2010PropOp33
 70
     0
102
RTVSPost2010Prop34
280
     0
102
RTVSPost2010PropOp34
 70
     0
102
RTVSPost2010Prop35
280
     0
102
RTVSPost2010PropOp35
 70
     0
102
RTVSPost2010Prop36
280
     0
102
RTVSPost2010PropOp36
 70
     0
102
RTVSPost2010Prop37
 90
       50
102
RTVSPost2010PropOp37
 70
     0
102
RTVSPost2010Prop38
140
0.0
102
RTVSPost2010PropOp38
 70
     0
102
RTVSPost2010Prop39
140
1.0
102
RTVSPost2010PropOp39
 70
     0
102
RTVSPost2010Prop40
 90
        0
102
RTVSPost2010PropOp40
 70
     0
102
RTVSPost2010Prop41ColorIndex
 90
       18
102
RTVSPost2010Prop41ColorRGB
 90
        0
102
RTVSPost2010PropOp41
 70
     0
102
RTVSPost2010Prop42
 90
       50
102
RTVSPost2010PropOp42
 70
     0
102
RTVSPost2010Prop43
 90
        3
102
RTVSPost2010PropOp43
 70
     0
102
RTVSPost2010Prop44ColorIndex
 90
        5
102
RTVSPost2010Prop44ColorRGB
 90
      255
102
RTVSPost2010PropOp44
 70
     0
102
RTVSPost2010Prop45
280
     0
102
RTVSPost2010PropOp45
 70
     0
102
RTVSPost2010Prop46
 90
       50
102
RTVSPost2010PropOp46
 70
     0
102
RTVSPost2010Prop47
 90
       50
102
RTVSPost2010PropOp47
 70
     0
102
RTVSPost2010Prop48
 90
       50
102
RTVSPost2010PropOp48
 70
     0
102
RTVSPost2010Prop49
280
     0
102
RTVSPost2010PropOp49
 70
     0
102
RTVSPost2010Prop50
 90
       50
102
RTVSPost2010PropOp50
 70
     0
102
RTVSPost2010Prop51ColorIndex
 90
      256
102
RTVSPost2010Prop51ColorRGB
 90
-16777216
102
RTVSPost2010PropOp51
 70
     0
102
RTVSPost2010Prop52
140
1.0
102
RTVSPost2010PropOp52
 70
     0
102
RTVSPost2010Prop53
 90
        2
102
RTVSPost2010PropOp53
 70
     0
102
RTVSPost2010Prop54
  1
strokes_ogs.tif
102
RTVSPost2010PropOp54
 70
     0
102
RTVSPost2010Prop55
280
     0
102
RTVSPost2010PropOp55
 70
     0
102
RTVSPost2010Prop56
140
1.0
102
RTVSPost2010PropOp56
 70
     0
102
RTVSPost2010Prop57
140
1.0
102
RTVSPost2010PropOp57
 70
     0
102
RTVSPropertyOp0
 70
     0
102
RTVSPropertyOp1
 70
     0
102
RTVSPropertyOp2
 70
     0
102
RTVSPropertyOp3
 70
     0
102
RTVSPropertyOp4
 70
     0
102
RTVSPropertyOp5
 70
     0
102
RTVSPropertyOp6
 70
     0
102
RTVSPropertyOp7
 70
     0
102
RTVSPropertyOp8
 70
     0
102
RTVSPropertyOp9
 70
     0
102
RTVSPropertyOp10
 70
     0
102
RTVSPropertyOp11
 70
     0
102
RTVSPropertyOp12
 70
     0
102
RTVSPropertyOp13
 70
     0
102
RTVSPropertyOp14
 70
     2
102
RTVSPropertyOp15
 70
     0
102
RTVSPropertyOp16
 70
     0
102
RTVSPropertyOp17
 70
     0
102
RTVSPropertyOp18
 70
     0
102
RTVSPropertyOp19
 70
     0
102
RTVSPropertyOp20
 70
     0
102
RTVSPropertyOp21
 70
     0
102
RTVSPropertyOp22
 70
     0
102
RTVSPropertyOp23
 70
     0
102
RTVSPropertyOp24
 70
     0
102
RTVSPropertyOp25
 70
     0
102
RTVSPropertyOp26
 70
     0
102
RTVSPropertyOp27
 70
     0
102
RTVSPropertyOp28
 70
     0
102
RTVSPropertyOp29
 70
     0
102
RTVSPropertyOp30
 70
     0
102
RTVSPropertyOp31
 70
     0
102
RTVSPropertyOp32
 70
     0
102
RTVSPropertyOp33
 70
     0
102
RTVSPropertyOp34
 70
     0
102
RTVSPropertyOp35
 70
     0
102
RTVSPropertyOp36
 70
     0
102
RTVSPropertyOp37
 70
     0
102
RTVSPropertyOp38
 70
     0
102
RTVSPropertyOp39
 70
     0
102
RTVSPropertyOp40
 70
     0
102
RTVSPropertyOp41
 70
     0
102
RTVSPropertyOp42
 70
     0
102
RTVSPropertyOp43
 70
     0
102
RTVSPropertyOp44
 70
     0
102
RTVSPropertyOp45
 70
     0
102
RTVSPropertyOp46
 70
     0
102
RTVSPropertyOp47
 70
     0
102
RTVSPropertyOp48
 70
     0
102
RTVSPropertyOp49
 70
     0
102
RTVSPropertyOp50
 70
     0
102
RTVSPropertyOp51
 70
     0
102
RTVSPropertyOp52
 70
     0
102
RTVSPropertyOp53
 70
     0
102
RTVSPropertyOp54
 70
     0
102
RTVSPropertyOp55
 70
     0
102
RTVSPropertyOp56
 70
     0
102
RTVSPropertyOp57
 70
     0
102
RTVSPropertyOp58
 70
     0
102
RTVSPropertyOp59
 70
     0
102
RTVSPropertyOp60
 70
     0
102
RTVSPropertyOp61
 70
     0
102
RTVSPropertyOp62
 70
     0
  0
XRECORD
  5
1AD2
102
{ACAD_REACTORS
330
1AD1
102
}
330
1AD1
100
AcDbXrecord
280
     1
102
RTVSPost2010Prop28
280
     0
102
RTVSPost2010PropOp28
 70
     1
102
RTVSPost2010Prop29
280
     1
102
RTVSPost2010PropOp29
 70
     1
102
RTVSPost2010Prop30
280
     1
102
RTVSPost2010PropOp30
 70
     1
102
RTVSPost2010Prop31
280
     0
102
RTVSPost2010PropOp31
 70
     1
102
RTVSPost2010Prop32
280
     0
102
RTVSPost2010PropOp32
 70
     1
102
RTVSPost2010Prop33
280
     0
102
RTVSPost2010PropOp33
 70
     1
102
RTVSPost2010Prop34
280
     0
102
RTVSPost2010PropOp34
 70
     1
102
RTVSPost2010Prop35
280
     0
102
RTVSPost2010PropOp35
 70
     1
102
RTVSPost2010Prop36
280
     0
102
RTVSPost2010PropOp36
 70
     1
102
RTVSPost2010Prop37
 90
       50
102
RTVSPost2010PropOp37
 70
     1
102
RTVSPost2010Prop38
140
0.0
102
RTVSPost2010PropOp38
 70
     1
102
RTVSPost2010Prop39
140
1.0
102
RTVSPost2010PropOp39
 70
     1
102
RTVSPost2010Prop40
 90
        0
102
RTVSPost2010PropOp40
 70
     1
102
RTVSPost2010Prop41ColorIndex
 90
       18
102
RTVSPost2010Prop41ColorRGB
 90
        0
102
RTVSPost2010PropOp41
 70
     1
102
RTVSPost2010Prop42
 90
       50
102
RTVSPost2010PropOp42
 70
     1
102
RTVSPost2010Prop43
 90
        3
102
RTVSPost2010PropOp43
 70
     1
102
RTVSPost2010Prop44ColorIndex
 90
        5
102
RTVSPost2010Prop44ColorRGB
 90
      255
102
RTVSPost2010PropOp44
 70
     1
102
RTVSPost2010Prop45
280
     0
102
RTVSPost2010PropOp45
 70
     1
102
RTVSPost2010Prop46
 90
       50
102
RTVSPost2010PropOp46
 70
     1
102
RTVSPost2010Prop47
 90
       50
102
RTVSPost2010PropOp47
 70
     1
102
RTVSPost2010Prop48
 90
       50
102
RTVSPost2010PropOp48
 70
     1
102
RTVSPost2010Prop49
280
     0
102
RTVSPost2010PropOp49
 70
     1
102
RTVSPost2010Prop50
 90
       50
102
RTVSPost2010PropOp50
 70
     1
102
RTVSPost2010Prop51ColorIndex
 90
      256
102
RTVSPost2010Prop51ColorRGB
 90
-16777216
102
RTVSPost2010PropOp51
 70
     0
102
RTVSPost2010Prop52
140
1.0
102
RTVSPost2010PropOp52
 70
     0
102
RTVSPost2010Prop53
 90
        2
102
RTVSPost2010PropOp53
 70
     1
102
RTVSPost2010Prop54
  1
strokes_ogs.tif
102
RTVSPost2010PropOp54
 70
     1
102
RTVSPost2010Prop55
280
     0
102
RTVSPost2010PropOp55
 70
     1
102
RTVSPost2010Prop56
140
1.0
102
RTVSPost2010PropOp56
 70
     1
102
RTVSPost2010Prop57
140
1.0
102
RTVSPost2010PropOp57
 70
     1
102
RTVSPropertyOp0
 70
     1
102
RTVSPropertyOp1
 70
     1
102
RTVSPropertyOp2
 70
     1
102
RTVSPropertyOp3
 70
     1
102
RTVSPropertyOp4
 70
     1
102
RTVSPropertyOp5
 70
     1
102
RTVSPropertyOp6
 70
     1
102
RTVSPropertyOp7
 70
     1
102
RTVSPropertyOp8
 70
     1
102
RTVSPropertyOp9
 70
     1
102
RTVSPropertyOp10
 70
     1
102
RTVSPropertyOp11
 70
     1
102
RTVSPropertyOp12
 70
     1
102
RTVSPropertyOp13
 70
     1
102
RTVSPropertyOp14
 70
     1
102
RTVSPropertyOp15
 70
     1
102
RTVSPropertyOp16
 70
     1
102
RTVSPropertyOp17
 70
     1
102
RTVSPropertyOp18
 70
     1
102
RTVSPropertyOp19
 70
     1
102
RTVSPropertyOp20
 70
     1
102
RTVSPropertyOp21
 70
     1
102
RTVSPropertyOp22
 70
     1
102
RTVSPropertyOp23
 70
     1
102
RTVSPropertyOp24
 70
     1
102
RTVSPropertyOp25
 70
     1
102
RTVSPropertyOp26
 70
     1
102
RTVSPropertyOp27
 70
     1
102
RTVSPropertyOp28
 70
     1
102
RTVSPropertyOp29
 70
     1
102
RTVSPropertyOp30
 70
     1
102
RTVSPropertyOp31
 70
     1
102
RTVSPropertyOp32
 70
     1
102
RTVSPropertyOp33
 70
     1
102
RTVSPropertyOp34
 70
     1
102
RTVSPropertyOp35
 70
     1
102
RTVSPropertyOp36
 70
     1
102
RTVSPropertyOp37
 70
     1
102
RTVSPropertyOp38
 70
     1
102
RTVSPropertyOp39
 70
     1
102
RTVSPropertyOp40
 70
     1
102
RTVSPropertyOp41
 70
     1
102
RTVSPropertyOp42
 70
     1
102
RTVSPropertyOp43
 70
     1
102
RTVSPropertyOp44
 70
     1
102
RTVSPropertyOp45
 70
     1
102
RTVSPropertyOp46
 70
     1
102
RTVSPropertyOp47
 70
     1
102
RTVSPropertyOp48
 70
     1
102
RTVSPropertyOp49
 70
     1
102
RTVSPropertyOp50
 70
     1
102
RTVSPropertyOp51
 70
     0
102
RTVSPropertyOp52
 70
     0
102
RTVSPropertyOp53
 70
     1
102
RTVSPropertyOp54
 70
     1
102
RTVSPropertyOp55
 70
     1
102
RTVSPropertyOp56
 70
     1
102
RTVSPropertyOp57
 70
     1
102
RTVSPropertyOp58
 70
     1
102
RTVSPropertyOp59
 70
     1
102
RTVSPropertyOp60
 70
     1
102
RTVSPropertyOp61
 70
     1
102
RTVSPropertyOp62
 70
     1
  0
XRECORD
  5
1AE8
102
{ACAD_REACTORS
330
1AE7
102
}
330
1AE7
100
AcDbXrecord
280
     1
102
RTVSPost2010Prop28
280
     0
102
RTVSPost2010PropOp28
 70
     1
102
RTVSPost2010Prop29
280
     1
102
RTVSPost2010PropOp29
 70
     1
102
RTVSPost2010Prop30
280
     1
102
RTVSPost2010PropOp30
 70
     1
102
RTVSPost2010Prop31
280
     0
102
RTVSPost2010PropOp31
 70
     1
102
RTVSPost2010Prop32
280
     0
102
RTVSPost2010PropOp32
 70
     1
102
RTVSPost2010Prop33
280
     0
102
RTVSPost2010PropOp33
 70
     1
102
RTVSPost2010Prop34
280
     0
102
RTVSPost2010PropOp34
 70
     1
102
RTVSPost2010Prop35
280
     0
102
RTVSPost2010PropOp35
 70
     1
102
RTVSPost2010Prop36
280
     0
102
RTVSPost2010PropOp36
 70
     1
102
RTVSPost2010Prop37
 90
       50
102
RTVSPost2010PropOp37
 70
     1
102
RTVSPost2010Prop38
140
0.0
102
RTVSPost2010PropOp38
 70
     1
102
RTVSPost2010Prop39
140
1.0
102
RTVSPost2010PropOp39
 70
     1
102
RTVSPost2010Prop40
 90
        0
102
RTVSPost2010PropOp40
 70
     1
102
RTVSPost2010Prop41ColorIndex
 90
       18
102
RTVSPost2010Prop41ColorRGB
 90
        0
102
RTVSPost2010PropOp41
 70
     1
102
RTVSPost2010Prop42
 90
       50
102
RTVSPost2010PropOp42
 70
     1
102
RTVSPost2010Prop43
 90
        3
102
RTVSPost2010PropOp43
 70
     1
102
RTVSPost2010Prop44ColorIndex
 90
        5
102
RTVSPost2010Prop44ColorRGB
 90
      255
102
RTVSPost2010PropOp44
 70
     1
102
RTVSPost2010Prop45
280
     0
102
RTVSPost2010PropOp45
 70
     1
102
RTVSPost2010Prop46
 90
       50
102
RTVSPost2010PropOp46
 70
     1
102
RTVSPost2010Prop47
 90
       50
102
RTVSPost2010PropOp47
 70
     1
102
RTVSPost2010Prop48
 90
       50
102
RTVSPost2010PropOp48
 70
     1
102
RTVSPost2010Prop49
280
     0
102
RTVSPost2010PropOp49
 70
     1
102
RTVSPost2010Prop50
 90
       50
102
RTVSPost2010PropOp50
 70
     1
102
RTVSPost2010Prop51ColorIndex
 90
      256
102
RTVSPost2010Prop51ColorRGB
 90
-16777216
102
RTVSPost2010PropOp51
 70
     0
102
RTVSPost2010Prop52
140
1.0
102
RTVSPost2010PropOp52
 70
     0
102
RTVSPost2010Prop53
 90
        2
102
RTVSPost2010PropOp53
 70
     1
102
RTVSPost2010Prop54
  1
strokes_ogs.tif
102
RTVSPost2010PropOp54
 70
     1
102
RTVSPost2010Prop55
280
     0
102
RTVSPost2010PropOp55
 70
     1
102
RTVSPost2010Prop56
140
1.0
102
RTVSPost2010PropOp56
 70
     1
102
RTVSPost2010Prop57
140
1.0
102
RTVSPost2010PropOp57
 70
     1
102
RTVSPropertyOp0
 70
     1
102
RTVSPropertyOp1
 70
     1
102
RTVSPropertyOp2
 70
     1
102
RTVSPropertyOp3
 70
     1
102
RTVSPropertyOp4
 70
     1
102
RTVSPropertyOp5
 70
     1
102
RTVSPropertyOp6
 70
     1
102
RTVSPropertyOp7
 70
     1
102
RTVSPropertyOp8
 70
     1
102
RTVSPropertyOp9
 70
     1
102
RTVSPropertyOp10
 70
     1
102
RTVSPropertyOp11
 70
     1
102
RTVSPropertyOp12
 70
     1
102
RTVSPropertyOp13
 70
     1
102
RTVSPropertyOp14
 70
     1
102
RTVSPropertyOp15
 70
     1
102
RTVSPropertyOp16
 70
     1
102
RTVSPropertyOp17
 70
     1
102
RTVSPropertyOp18
 70
     1
102
RTVSPropertyOp19
 70
     1
102
RTVSPropertyOp20
 70
     1
102
RTVSPropertyOp21
 70
     1
102
RTVSPropertyOp22
 70
     1
102
RTVSPropertyOp23
 70
     1
102
RTVSPropertyOp24
 70
     1
102
RTVSPropertyOp25
 70
     1
102
RTVSPropertyOp26
 70
     1
102
RTVSPropertyOp27
 70
     1
102
RTVSPropertyOp28
 70
     1
102
RTVSPropertyOp29
 70
     1
102
RTVSPropertyOp30
 70
     1
102
RTVSPropertyOp31
 70
     1
102
RTVSPropertyOp32
 70
     1
102
RTVSPropertyOp33
 70
     1
102
RTVSPropertyOp34
 70
     1
102
RTVSPropertyOp35
 70
     1
102
RTVSPropertyOp36
 70
     1
102
RTVSPropertyOp37
 70
     1
102
RTVSPropertyOp38
 70
     1
102
RTVSPropertyOp39
 70
     1
102
RTVSPropertyOp40
 70
     1
102
RTVSPropertyOp41
 70
     1
102
RTVSPropertyOp42
 70
     1
102
RTVSPropertyOp43
 70
     1
102
RTVSPropertyOp44
 70
     1
102
RTVSPropertyOp45
 70
     1
102
RTVSPropertyOp46
 70
     1
102
RTVSPropertyOp47
 70
     1
102
RTVSPropertyOp48
 70
     1
102
RTVSPropertyOp49
 70
     1
102
RTVSPropertyOp50
 70
     1
102
RTVSPropertyOp51
 70
     0
102
RTVSPropertyOp52
 70
     0
102
RTVSPropertyOp53
 70
     1
102
RTVSPropertyOp54
 70
     1
102
RTVSPropertyOp55
 70
     1
102
RTVSPropertyOp56
 70
     1
102
RTVSPropertyOp57
 70
     1
102
RTVSPropertyOp58
 70
     1
102
RTVSPropertyOp59
 70
     1
102
RTVSPropertyOp60
 70
     1
102
RTVSPropertyOp61
 70
     1
102
RTVSPropertyOp62
 70
     1
  0
XRECORD
  5
1AE6
102
{ACAD_REACTORS
330
1AE5
102
}
330
1AE5
100
AcDbXrecord
280
     1
102
RTVSPost2010Prop28
280
     0
102
RTVSPost2010PropOp28
 70
     1
102
RTVSPost2010Prop29
280
     1
102
RTVSPost2010PropOp29
 70
     1
102
RTVSPost2010Prop30
280
     1
102
RTVSPost2010PropOp30
 70
     1
102
RTVSPost2010Prop31
280
     0
102
RTVSPost2010PropOp31
 70
     1
102
RTVSPost2010Prop32
280
     0
102
RTVSPost2010PropOp32
 70
     1
102
RTVSPost2010Prop33
280
     0
102
RTVSPost2010PropOp33
 70
     1
102
RTVSPost2010Prop34
280
     0
102
RTVSPost2010PropOp34
 70
     1
102
RTVSPost2010Prop35
280
     0
102
RTVSPost2010PropOp35
 70
     1
102
RTVSPost2010Prop36
280
     0
102
RTVSPost2010PropOp36
 70
     1
102
RTVSPost2010Prop37
 90
       50
102
RTVSPost2010PropOp37
 70
     1
102
RTVSPost2010Prop38
140
0.0
102
RTVSPost2010PropOp38
 70
     1
102
RTVSPost2010Prop39
140
1.0
102
RTVSPost2010PropOp39
 70
     1
102
RTVSPost2010Prop40
 90
        0
102
RTVSPost2010PropOp40
 70
     1
102
RTVSPost2010Prop41ColorIndex
 90
       18
102
RTVSPost2010Prop41ColorRGB
 90
        0
102
RTVSPost2010PropOp41
 70
     1
102
RTVSPost2010Prop42
 90
       50
102
RTVSPost2010PropOp42
 70
     1
102
RTVSPost2010Prop43
 90
        3
102
RTVSPost2010PropOp43
 70
     1
102
RTVSPost2010Prop44ColorIndex
 90
        5
102
RTVSPost2010Prop44ColorRGB
 90
      255
102
RTVSPost2010PropOp44
 70
     1
102
RTVSPost2010Prop45
280
     0
102
RTVSPost2010PropOp45
 70
     1
102
RTVSPost2010Prop46
 90
       50
102
RTVSPost2010PropOp46
 70
     1
102
RTVSPost2010Prop47
 90
       50
102
RTVSPost2010PropOp47
 70
     1
102
RTVSPost2010Prop48
 90
       50
102
RTVSPost2010PropOp48
 70
     1
102
RTVSPost2010Prop49
280
     0
102
RTVSPost2010PropOp49
 70
     1
102
RTVSPost2010Prop50
 90
       50
102
RTVSPost2010PropOp50
 70
     1
102
RTVSPost2010Prop51ColorIndex
 90
      256
102
RTVSPost2010Prop51ColorRGB
 90
-16777216
102
RTVSPost2010PropOp51
 70
     0
102
RTVSPost2010Prop52
140
1.0
102
RTVSPost2010PropOp52
 70
     0
102
RTVSPost2010Prop53
 90
        2
102
RTVSPost2010PropOp53
 70
     1
102
RTVSPost2010Prop54
  1
strokes_ogs.tif
102
RTVSPost2010PropOp54
 70
     1
102
RTVSPost2010Prop55
280
     0
102
RTVSPost2010PropOp55
 70
     1
102
RTVSPost2010Prop56
140
1.0
102
RTVSPost2010PropOp56
 70
     1
102
RTVSPost2010Prop57
140
1.0
102
RTVSPost2010PropOp57
 70
     1
102
RTVSPropertyOp0
 70
     1
102
RTVSPropertyOp1
 70
     1
102
RTVSPropertyOp2
 70
     1
102
RTVSPropertyOp3
 70
     1
102
RTVSPropertyOp4
 70
     1
102
RTVSPropertyOp5
 70
     1
102
RTVSPropertyOp6
 70
     1
102
RTVSPropertyOp7
 70
     1
102
RTVSPropertyOp8
 70
     1
102
RTVSPropertyOp9
 70
     1
102
RTVSPropertyOp10
 70
     1
102
RTVSPropertyOp11
 70
     1
102
RTVSPropertyOp12
 70
     1
102
RTVSPropertyOp13
 70
     1
102
RTVSPropertyOp14
 70
     1
102
RTVSPropertyOp15
 70
     1
102
RTVSPropertyOp16
 70
     1
102
RTVSPropertyOp17
 70
     1
102
RTVSPropertyOp18
 70
     1
102
RTVSPropertyOp19
 70
     1
102
RTVSPropertyOp20
 70
     1
102
RTVSPropertyOp21
 70
     1
102
RTVSPropertyOp22
 70
     1
102
RTVSPropertyOp23
 70
     1
102
RTVSPropertyOp24
 70
     1
102
RTVSPropertyOp25
 70
     1
102
RTVSPropertyOp26
 70
     1
102
RTVSPropertyOp27
 70
     1
102
RTVSPropertyOp28
 70
     1
102
RTVSPropertyOp29
 70
     1
102
RTVSPropertyOp30
 70
     1
102
RTVSPropertyOp31
 70
     1
102
RTVSPropertyOp32
 70
     1
102
RTVSPropertyOp33
 70
     1
102
RTVSPropertyOp34
 70
     1
102
RTVSPropertyOp35
 70
     1
102
RTVSPropertyOp36
 70
     1
102
RTVSPropertyOp37
 70
     1
102
RTVSPropertyOp38
 70
     1
102
RTVSPropertyOp39
 70
     1
102
RTVSPropertyOp40
 70
     1
102
RTVSPropertyOp41
 70
     1
102
RTVSPropertyOp42
 70
     1
102
RTVSPropertyOp43
 70
     1
102
RTVSPropertyOp44
 70
     1
102
RTVSPropertyOp45
 70
     1
102
RTVSPropertyOp46
 70
     1
102
RTVSPropertyOp47
 70
     1
102
RTVSPropertyOp48
 70
     1
102
RTVSPropertyOp49
 70
     1
102
RTVSPropertyOp50
 70
     1
102
RTVSPropertyOp51
 70
     0
102
RTVSPropertyOp52
 70
     0
102
RTVSPropertyOp53
 70
     1
102
RTVSPropertyOp54
 70
     1
102
RTVSPropertyOp55
 70
     1
102
RTVSPropertyOp56
 70
     1
102
RTVSPropertyOp57
 70
     1
102
RTVSPropertyOp58
 70
     1
102
RTVSPropertyOp59
 70
     1
102
RTVSPropertyOp60
 70
     1
102
RTVSPropertyOp61
 70
     1
102
RTVSPropertyOp62
 70
     1
  0
XRECORD
  5
1AE0
102
{ACAD_REACTORS
330
1ADF
102
}
330
1ADF
100
AcDbXrecord
280
     1
102
RTVSPost2010Prop28
280
     0
102
RTVSPost2010PropOp28
 70
     1
102
RTVSPost2010Prop29
280
     1
102
RTVSPost2010PropOp29
 70
     1
102
RTVSPost2010Prop30
280
     1
102
RTVSPost2010PropOp30
 70
     1
102
RTVSPost2010Prop31
280
     0
102
RTVSPost2010PropOp31
 70
     1
102
RTVSPost2010Prop32
280
     0
102
RTVSPost2010PropOp32
 70
     1
102
RTVSPost2010Prop33
280
     0
102
RTVSPost2010PropOp33
 70
     1
102
RTVSPost2010Prop34
280
     0
102
RTVSPost2010PropOp34
 70
     1
102
RTVSPost2010Prop35
280
     0
102
RTVSPost2010PropOp35
 70
     1
102
RTVSPost2010Prop36
280
     0
102
RTVSPost2010PropOp36
 70
     1
102
RTVSPost2010Prop37
 90
       50
102
RTVSPost2010PropOp37
 70
     1
102
RTVSPost2010Prop38
140
0.0
102
RTVSPost2010PropOp38
 70
     1
102
RTVSPost2010Prop39
140
1.0
102
RTVSPost2010PropOp39
 70
     1
102
RTVSPost2010Prop40
 90
        0
102
RTVSPost2010PropOp40
 70
     1
102
RTVSPost2010Prop41ColorIndex
 90
       18
102
RTVSPost2010Prop41ColorRGB
 90
        0
102
RTVSPost2010PropOp41
 70
     1
102
RTVSPost2010Prop42
 90
       50
102
RTVSPost2010PropOp42
 70
     1
102
RTVSPost2010Prop43
 90
        3
102
RTVSPost2010PropOp43
 70
     1
102
RTVSPost2010Prop44ColorIndex
 90
        5
102
RTVSPost2010Prop44ColorRGB
 90
      255
102
RTVSPost2010PropOp44
 70
     1
102
RTVSPost2010Prop45
280
     0
102
RTVSPost2010PropOp45
 70
     1
102
RTVSPost2010Prop46
 90
       50
102
RTVSPost2010PropOp46
 70
     1
102
RTVSPost2010Prop47
 90
       50
102
RTVSPost2010PropOp47
 70
     1
102
RTVSPost2010Prop48
 90
       50
102
RTVSPost2010PropOp48
 70
     1
102
RTVSPost2010Prop49
280
     0
102
RTVSPost2010PropOp49
 70
     1
102
RTVSPost2010Prop50
 90
       50
102
RTVSPost2010PropOp50
 70
     1
102
RTVSPost2010Prop51ColorIndex
 90
      256
102
RTVSPost2010Prop51ColorRGB
 90
-16777216
102
RTVSPost2010PropOp51
 70
     0
102
RTVSPost2010Prop52
140
1.0
102
RTVSPost2010PropOp52
 70
     0
102
RTVSPost2010Prop53
 90
        2
102
RTVSPost2010PropOp53
 70
     1
102
RTVSPost2010Prop54
  1
strokes_ogs.tif
102
RTVSPost2010PropOp54
 70
     1
102
RTVSPost2010Prop55
280
     0
102
RTVSPost2010PropOp55
 70
     1
102
RTVSPost2010Prop56
140
1.0
102
RTVSPost2010PropOp56
 70
     1
102
RTVSPost2010Prop57
140
1.0
102
RTVSPost2010PropOp57
 70
     1
102
RTVSPropertyOp0
 70
     1
102
RTVSPropertyOp1
 70
     1
102
RTVSPropertyOp2
 70
     1
102
RTVSPropertyOp3
 70
     1
102
RTVSPropertyOp4
 70
     1
102
RTVSPropertyOp5
 70
     1
102
RTVSPropertyOp6
 70
     1
102
RTVSPropertyOp7
 70
     1
102
RTVSPropertyOp8
 70
     1
102
RTVSPropertyOp9
 70
     1
102
RTVSPropertyOp10
 70
     1
102
RTVSPropertyOp11
 70
     1
102
RTVSPropertyOp12
 70
     1
102
RTVSPropertyOp13
 70
     1
102
RTVSPropertyOp14
 70
     1
102
RTVSPropertyOp15
 70
     1
102
RTVSPropertyOp16
 70
     1
102
RTVSPropertyOp17
 70
     1
102
RTVSPropertyOp18
 70
     1
102
RTVSPropertyOp19
 70
     1
102
RTVSPropertyOp20
 70
     1
102
RTVSPropertyOp21
 70
     1
102
RTVSPropertyOp22
 70
     1
102
RTVSPropertyOp23
 70
     1
102
RTVSPropertyOp24
 70
     1
102
RTVSPropertyOp25
 70
     1
102
RTVSPropertyOp26
 70
     1
102
RTVSPropertyOp27
 70
     1
102
RTVSPropertyOp28
 70
     1
102
RTVSPropertyOp29
 70
     1
102
RTVSPropertyOp30
 70
     1
102
RTVSPropertyOp31
 70
     1
102
RTVSPropertyOp32
 70
     1
102
RTVSPropertyOp33
 70
     1
102
RTVSPropertyOp34
 70
     1
102
RTVSPropertyOp35
 70
     1
102
RTVSPropertyOp36
 70
     1
102
RTVSPropertyOp37
 70
     1
102
RTVSPropertyOp38
 70
     1
102
RTVSPropertyOp39
 70
     1
102
RTVSPropertyOp40
 70
     1
102
RTVSPropertyOp41
 70
     1
102
RTVSPropertyOp42
 70
     1
102
RTVSPropertyOp43
 70
     1
102
RTVSPropertyOp44
 70
     1
102
RTVSPropertyOp45
 70
     1
102
RTVSPropertyOp46
 70
     1
102
RTVSPropertyOp47
 70
     1
102
RTVSPropertyOp48
 70
     1
102
RTVSPropertyOp49
 70
     1
102
RTVSPropertyOp50
 70
     1
102
RTVSPropertyOp51
 70
     0
102
RTVSPropertyOp52
 70
     0
102
RTVSPropertyOp53
 70
     1
102
RTVSPropertyOp54
 70
     1
102
RTVSPropertyOp55
 70
     1
102
RTVSPropertyOp56
 70
     1
102
RTVSPropertyOp57
 70
     1
102
RTVSPropertyOp58
 70
     1
102
RTVSPropertyOp59
 70
     1
102
RTVSPropertyOp60
 70
     1
102
RTVSPropertyOp61
 70
     1
102
RTVSPropertyOp62
 70
     1
  0
XRECORD
  5
1AE2
102
{ACAD_REACTORS
330
1AE1
102
}
330
1AE1
100
AcDbXrecord
280
     1
102
RTVSPost2010Prop28
280
     0
102
RTVSPost2010PropOp28
 70
     1
102
RTVSPost2010Prop29
280
     1
102
RTVSPost2010PropOp29
 70
     1
102
RTVSPost2010Prop30
280
     1
102
RTVSPost2010PropOp30
 70
     1
102
RTVSPost2010Prop31
280
     0
102
RTVSPost2010PropOp31
 70
     1
102
RTVSPost2010Prop32
280
     0
102
RTVSPost2010PropOp32
 70
     1
102
RTVSPost2010Prop33
280
     0
102
RTVSPost2010PropOp33
 70
     1
102
RTVSPost2010Prop34
280
     0
102
RTVSPost2010PropOp34
 70
     1
102
RTVSPost2010Prop35
280
     0
102
RTVSPost2010PropOp35
 70
     1
102
RTVSPost2010Prop36
280
     0
102
RTVSPost2010PropOp36
 70
     1
102
RTVSPost2010Prop37
 90
       50
102
RTVSPost2010PropOp37
 70
     1
102
RTVSPost2010Prop38
140
0.0
102
RTVSPost2010PropOp38
 70
     1
102
RTVSPost2010Prop39
140
1.0
102
RTVSPost2010PropOp39
 70
     1
102
RTVSPost2010Prop40
 90
        0
102
RTVSPost2010PropOp40
 70
     1
102
RTVSPost2010Prop41ColorIndex
 90
       18
102
RTVSPost2010Prop41ColorRGB
 90
        0
102
RTVSPost2010PropOp41
 70
     1
102
RTVSPost2010Prop42
 90
       50
102
RTVSPost2010PropOp42
 70
     1
102
RTVSPost2010Prop43
 90
        3
102
RTVSPost2010PropOp43
 70
     1
102
RTVSPost2010Prop44ColorIndex
 90
        5
102
RTVSPost2010Prop44ColorRGB
 90
      255
102
RTVSPost2010PropOp44
 70
     1
102
RTVSPost2010Prop45
280
     0
102
RTVSPost2010PropOp45
 70
     1
102
RTVSPost2010Prop46
 90
       50
102
RTVSPost2010PropOp46
 70
     1
102
RTVSPost2010Prop47
 90
       50
102
RTVSPost2010PropOp47
 70
     1
102
RTVSPost2010Prop48
 90
       50
102
RTVSPost2010PropOp48
 70
     1
102
RTVSPost2010Prop49
280
     0
102
RTVSPost2010PropOp49
 70
     1
102
RTVSPost2010Prop50
 90
       50
102
RTVSPost2010PropOp50
 70
     1
102
RTVSPost2010Prop51ColorIndex
 90
      256
102
RTVSPost2010Prop51ColorRGB
 90
-16777216
102
RTVSPost2010PropOp51
 70
     0
102
RTVSPost2010Prop52
140
1.0
102
RTVSPost2010PropOp52
 70
     0
102
RTVSPost2010Prop53
 90
        2
102
RTVSPost2010PropOp53
 70
     1
102
RTVSPost2010Prop54
  1
strokes_ogs.tif
102
RTVSPost2010PropOp54
 70
     1
102
RTVSPost2010Prop55
280
     0
102
RTVSPost2010PropOp55
 70
     1
102
RTVSPost2010Prop56
140
1.0
102
RTVSPost2010PropOp56
 70
     1
102
RTVSPost2010Prop57
140
1.0
102
RTVSPost2010PropOp57
 70
     1
102
RTVSPropertyOp0
 70
     1
102
RTVSPropertyOp1
 70
     1
102
RTVSPropertyOp2
 70
     1
102
RTVSPropertyOp3
 70
     1
102
RTVSPropertyOp4
 70
     1
102
RTVSPropertyOp5
 70
     1
102
RTVSPropertyOp6
 70
     1
102
RTVSPropertyOp7
 70
     1
102
RTVSPropertyOp8
 70
     1
102
RTVSPropertyOp9
 70
     1
102
RTVSPropertyOp10
 70
     1
102
RTVSPropertyOp11
 70
     1
102
RTVSPropertyOp12
 70
     1
102
RTVSPropertyOp13
 70
     1
102
RTVSPropertyOp14
 70
     1
102
RTVSPropertyOp15
 70
     1
102
RTVSPropertyOp16
 70
     1
102
RTVSPropertyOp17
 70
     1
102
RTVSPropertyOp18
 70
     1
102
RTVSPropertyOp19
 70
     1
102
RTVSPropertyOp20
 70
     1
102
RTVSPropertyOp21
 70
     1
102
RTVSPropertyOp22
 70
     1
102
RTVSPropertyOp23
 70
     1
102
RTVSPropertyOp24
 70
     1
102
RTVSPropertyOp25
 70
     1
102
RTVSPropertyOp26
 70
     1
102
RTVSPropertyOp27
 70
     1
102
RTVSPropertyOp28
 70
     1
102
RTVSPropertyOp29
 70
     1
102
RTVSPropertyOp30
 70
     1
102
RTVSPropertyOp31
 70
     1
102
RTVSPropertyOp32
 70
     1
102
RTVSPropertyOp33
 70
     1
102
RTVSPropertyOp34
 70
     1
102
RTVSPropertyOp35
 70
     1
102
RTVSPropertyOp36
 70
     1
102
RTVSPropertyOp37
 70
     1
102
RTVSPropertyOp38
 70
     1
102
RTVSPropertyOp39
 70
     1
102
RTVSPropertyOp40
 70
     1
102
RTVSPropertyOp41
 70
     1
102
RTVSPropertyOp42
 70
     1
102
RTVSPropertyOp43
 70
     1
102
RTVSPropertyOp44
 70
     1
102
RTVSPropertyOp45
 70
     1
102
RTVSPropertyOp46
 70
     1
102
RTVSPropertyOp47
 70
     1
102
RTVSPropertyOp48
 70
     1
102
RTVSPropertyOp49
 70
     1
102
RTVSPropertyOp50
 70
     1
102
RTVSPropertyOp51
 70
     0
102
RTVSPropertyOp52
 70
     0
102
RTVSPropertyOp53
 70
     1
102
RTVSPropertyOp54
 70
     1
102
RTVSPropertyOp55
 70
     1
102
RTVSPropertyOp56
 70
     1
102
RTVSPropertyOp57
 70
     1
102
RTVSPropertyOp58
 70
     1
102
RTVSPropertyOp59
 70
     1
102
RTVSPropertyOp60
 70
     1
102
RTVSPropertyOp61
 70
     1
102
RTVSPropertyOp62
 70
     1
  0
XRECORD
  5
1AD8
102
{ACAD_REACTORS
330
1AD7
102
}
330
1AD7
100
AcDbXrecord
280
     1
102
RTVSPost2010Prop28
280
     0
102
RTVSPost2010PropOp28
 70
     1
102
RTVSPost2010Prop29
280
     1
102
RTVSPost2010PropOp29
 70
     1
102
RTVSPost2010Prop30
280
     1
102
RTVSPost2010PropOp30
 70
     1
102
RTVSPost2010Prop31
280
     0
102
RTVSPost2010PropOp31
 70
     1
102
RTVSPost2010Prop32
280
     0
102
RTVSPost2010PropOp32
 70
     1
102
RTVSPost2010Prop33
280
     0
102
RTVSPost2010PropOp33
 70
     1
102
RTVSPost2010Prop34
280
     0
102
RTVSPost2010PropOp34
 70
     1
102
RTVSPost2010Prop35
280
     0
102
RTVSPost2010PropOp35
 70
     1
102
RTVSPost2010Prop36
280
     0
102
RTVSPost2010PropOp36
 70
     1
102
RTVSPost2010Prop37
 90
       50
102
RTVSPost2010PropOp37
 70
     1
102
RTVSPost2010Prop38
140
0.0
102
RTVSPost2010PropOp38
 70
     1
102
RTVSPost2010Prop39
140
1.0
102
RTVSPost2010PropOp39
 70
     1
102
RTVSPost2010Prop40
 90
        0
102
RTVSPost2010PropOp40
 70
     1
102
RTVSPost2010Prop41ColorIndex
 90
       18
102
RTVSPost2010Prop41ColorRGB
 90
        0
102
RTVSPost2010PropOp41
 70
     1
102
RTVSPost2010Prop42
 90
       50
102
RTVSPost2010PropOp42
 70
     1
102
RTVSPost2010Prop43
 90
        3
102
RTVSPost2010PropOp43
 70
     1
102
RTVSPost2010Prop44ColorIndex
 90
        5
102
RTVSPost2010Prop44ColorRGB
 90
      255
102
RTVSPost2010PropOp44
 70
     1
102
RTVSPost2010Prop45
280
     0
102
RTVSPost2010PropOp45
 70
     1
102
RTVSPost2010Prop46
 90
       50
102
RTVSPost2010PropOp46
 70
     1
102
RTVSPost2010Prop47
 90
       50
102
RTVSPost2010PropOp47
 70
     1
102
RTVSPost2010Prop48
 90
       50
102
RTVSPost2010PropOp48
 70
     1
102
RTVSPost2010Prop49
280
     0
102
RTVSPost2010PropOp49
 70
     1
102
RTVSPost2010Prop50
 90
       50
102
RTVSPost2010PropOp50
 70
     1
102
RTVSPost2010Prop51ColorIndex
 90
      256
102
RTVSPost2010Prop51ColorRGB
 90
-16777216
102
RTVSPost2010PropOp51
 70
     0
102
RTVSPost2010Prop52
140
1.0
102
RTVSPost2010PropOp52
 70
     0
102
RTVSPost2010Prop53
 90
        2
102
RTVSPost2010PropOp53
 70
     1
102
RTVSPost2010Prop54
  1
strokes_ogs.tif
102
RTVSPost2010PropOp54
 70
     1
102
RTVSPost2010Prop55
280
     0
102
RTVSPost2010PropOp55
 70
     1
102
RTVSPost2010Prop56
140
1.0
102
RTVSPost2010PropOp56
 70
     1
102
RTVSPost2010Prop57
140
1.0
102
RTVSPost2010PropOp57
 70
     1
102
RTVSPropertyOp0
 70
     1
102
RTVSPropertyOp1
 70
     1
102
RTVSPropertyOp2
 70
     1
102
RTVSPropertyOp3
 70
     1
102
RTVSPropertyOp4
 70
     1
102
RTVSPropertyOp5
 70
     1
102
RTVSPropertyOp6
 70
     1
102
RTVSPropertyOp7
 70
     1
102
RTVSPropertyOp8
 70
     1
102
RTVSPropertyOp9
 70
     1
102
RTVSPropertyOp10
 70
     1
102
RTVSPropertyOp11
 70
     1
102
RTVSPropertyOp12
 70
     1
102
RTVSPropertyOp13
 70
     1
102
RTVSPropertyOp14
 70
     1
102
RTVSPropertyOp15
 70
     1
102
RTVSPropertyOp16
 70
     1
102
RTVSPropertyOp17
 70
     1
102
RTVSPropertyOp18
 70
     1
102
RTVSPropertyOp19
 70
     1
102
RTVSPropertyOp20
 70
     1
102
RTVSPropertyOp21
 70
     1
102
RTVSPropertyOp22
 70
     1
102
RTVSPropertyOp23
 70
     1
102
RTVSPropertyOp24
 70
     1
102
RTVSPropertyOp25
 70
     1
102
RTVSPropertyOp26
 70
     1
102
RTVSPropertyOp27
 70
     1
102
RTVSPropertyOp28
 70
     1
102
RTVSPropertyOp29
 70
     1
102
RTVSPropertyOp30
 70
     1
102
RTVSPropertyOp31
 70
     1
102
RTVSPropertyOp32
 70
     1
102
RTVSPropertyOp33
 70
     1
102
RTVSPropertyOp34
 70
     1
102
RTVSPropertyOp35
 70
     1
102
RTVSPropertyOp36
 70
     1
102
RTVSPropertyOp37
 70
     1
102
RTVSPropertyOp38
 70
     1
102
RTVSPropertyOp39
 70
     1
102
RTVSPropertyOp40
 70
     1
102
RTVSPropertyOp41
 70
     1
102
RTVSPropertyOp42
 70
     1
102
RTVSPropertyOp43
 70
     1
102
RTVSPropertyOp44
 70
     1
102
RTVSPropertyOp45
 70
     1
102
RTVSPropertyOp46
 70
     1
102
RTVSPropertyOp47
 70
     1
102
RTVSPropertyOp48
 70
     1
102
RTVSPropertyOp49
 70
     1
102
RTVSPropertyOp50
 70
     1
102
RTVSPropertyOp51
 70
     0
102
RTVSPropertyOp52
 70
     0
102
RTVSPropertyOp53
 70
     1
102
RTVSPropertyOp54
 70
     1
102
RTVSPropertyOp55
 70
     1
102
RTVSPropertyOp56
 70
     1
102
RTVSPropertyOp57
 70
     1
102
RTVSPropertyOp58
 70
     1
102
RTVSPropertyOp59
 70
     1
102
RTVSPropertyOp60
 70
     1
102
RTVSPropertyOp61
 70
     1
102
RTVSPropertyOp62
 70
     1
  0
XRECORD
  5
1ACC
102
{ACAD_REACTORS
330
1ACB
102
}
330
1ACB
100
AcDbXrecord
280
     1
102
RTVSPost2010Prop28
280
     0
102
RTVSPost2010PropOp28
 70
     1
102
RTVSPost2010Prop29
280
     1
102
RTVSPost2010PropOp29
 70
     1
102
RTVSPost2010Prop30
280
     1
102
RTVSPost2010PropOp30
 70
     1
102
RTVSPost2010Prop31
280
     0
102
RTVSPost2010PropOp31
 70
     1
102
RTVSPost2010Prop32
280
     0
102
RTVSPost2010PropOp32
 70
     1
102
RTVSPost2010Prop33
280
     0
102
RTVSPost2010PropOp33
 70
     1
102
RTVSPost2010Prop34
280
     0
102
RTVSPost2010PropOp34
 70
     1
102
RTVSPost2010Prop35
280
     0
102
RTVSPost2010PropOp35
 70
     1
102
RTVSPost2010Prop36
280
     0
102
RTVSPost2010PropOp36
 70
     1
102
RTVSPost2010Prop37
 90
       50
102
RTVSPost2010PropOp37
 70
     1
102
RTVSPost2010Prop38
140
0.0
102
RTVSPost2010PropOp38
 70
     1
102
RTVSPost2010Prop39
140
1.0
102
RTVSPost2010PropOp39
 70
     1
102
RTVSPost2010Prop40
 90
        0
102
RTVSPost2010PropOp40
 70
     1
102
RTVSPost2010Prop41ColorIndex
 90
       18
102
RTVSPost2010Prop41ColorRGB
 90
        0
102
RTVSPost2010PropOp41
 70
     1
102
RTVSPost2010Prop42
 90
       50
102
RTVSPost2010PropOp42
 70
     1
102
RTVSPost2010Prop43
 90
        3
102
RTVSPost2010PropOp43
 70
     1
102
RTVSPost2010Prop44ColorIndex
 90
        5
102
RTVSPost2010Prop44ColorRGB
 90
      255
102
RTVSPost2010PropOp44
 70
     1
102
RTVSPost2010Prop45
280
     0
102
RTVSPost2010PropOp45
 70
     1
102
RTVSPost2010Prop46
 90
       50
102
RTVSPost2010PropOp46
 70
     1
102
RTVSPost2010Prop47
 90
       50
102
RTVSPost2010PropOp47
 70
     1
102
RTVSPost2010Prop48
 90
       50
102
RTVSPost2010PropOp48
 70
     1
102
RTVSPost2010Prop49
280
     0
102
RTVSPost2010PropOp49
 70
     1
102
RTVSPost2010Prop50
 90
       50
102
RTVSPost2010PropOp50
 70
     1
102
RTVSPost2010Prop51ColorIndex
 90
      256
102
RTVSPost2010Prop51ColorRGB
 90
-16777216
102
RTVSPost2010PropOp51
 70
     0
102
RTVSPost2010Prop52
140
1.0
102
RTVSPost2010PropOp52
 70
     0
102
RTVSPost2010Prop53
 90
        2
102
RTVSPost2010PropOp53
 70
     1
102
RTVSPost2010Prop54
  1
strokes_ogs.tif
102
RTVSPost2010PropOp54
 70
     1
102
RTVSPost2010Prop55
280
     0
102
RTVSPost2010PropOp55
 70
     1
102
RTVSPost2010Prop56
140
1.0
102
RTVSPost2010PropOp56
 70
     1
102
RTVSPost2010Prop57
140
1.0
102
RTVSPost2010PropOp57
 70
     1
102
RTVSPropertyOp0
 70
     1
102
RTVSPropertyOp1
 70
     1
102
RTVSPropertyOp2
 70
     1
102
RTVSPropertyOp3
 70
     1
102
RTVSPropertyOp4
 70
     1
102
RTVSPropertyOp5
 70
     1
102
RTVSPropertyOp6
 70
     1
102
RTVSPropertyOp7
 70
     1
102
RTVSPropertyOp8
 70
     1
102
RTVSPropertyOp9
 70
     1
102
RTVSPropertyOp10
 70
     1
102
RTVSPropertyOp11
 70
     1
102
RTVSPropertyOp12
 70
     1
102
RTVSPropertyOp13
 70
     1
102
RTVSPropertyOp14
 70
     1
102
RTVSPropertyOp15
 70
     1
102
RTVSPropertyOp16
 70
     1
102
RTVSPropertyOp17
 70
     1
102
RTVSPropertyOp18
 70
     1
102
RTVSPropertyOp19
 70
     1
102
RTVSPropertyOp20
 70
     1
102
RTVSPropertyOp21
 70
     1
102
RTVSPropertyOp22
 70
     1
102
RTVSPropertyOp23
 70
     1
102
RTVSPropertyOp24
 70
     1
102
RTVSPropertyOp25
 70
     1
102
RTVSPropertyOp26
 70
     1
102
RTVSPropertyOp27
 70
     1
102
RTVSPropertyOp28
 70
     1
102
RTVSPropertyOp29
 70
     1
102
RTVSPropertyOp30
 70
     1
102
RTVSPropertyOp31
 70
     1
102
RTVSPropertyOp32
 70
     1
102
RTVSPropertyOp33
 70
     1
102
RTVSPropertyOp34
 70
     1
102
RTVSPropertyOp35
 70
     1
102
RTVSPropertyOp36
 70
     1
102
RTVSPropertyOp37
 70
     1
102
RTVSPropertyOp38
 70
     1
102
RTVSPropertyOp39
 70
     1
102
RTVSPropertyOp40
 70
     1
102
RTVSPropertyOp41
 70
     1
102
RTVSPropertyOp42
 70
     1
102
RTVSPropertyOp43
 70
     1
102
RTVSPropertyOp44
 70
     1
102
RTVSPropertyOp45
 70
     1
102
RTVSPropertyOp46
 70
     1
102
RTVSPropertyOp47
 70
     1
102
RTVSPropertyOp48
 70
     1
102
RTVSPropertyOp49
 70
     1
102
RTVSPropertyOp50
 70
     1
102
RTVSPropertyOp51
 70
     0
102
RTVSPropertyOp52
 70
     0
102
RTVSPropertyOp53
 70
     1
102
RTVSPropertyOp54
 70
     1
102
RTVSPropertyOp55
 70
     1
102
RTVSPropertyOp56
 70
     1
102
RTVSPropertyOp57
 70
     1
102
RTVSPropertyOp58
 70
     1
102
RTVSPropertyOp59
 70
     1
102
RTVSPropertyOp60
 70
     1
102
RTVSPropertyOp61
 70
     1
102
RTVSPropertyOp62
 70
     1
  0
XRECORD
  5
1AE4
102
{ACAD_REACTORS
330
1AE3
102
}
330
1AE3
100
AcDbXrecord
280
     1
102
RTVSPost2010Prop28
280
     0
102
RTVSPost2010PropOp28
 70
     1
102
RTVSPost2010Prop29
280
     1
102
RTVSPost2010PropOp29
 70
     1
102
RTVSPost2010Prop30
280
     1
102
RTVSPost2010PropOp30
 70
     1
102
RTVSPost2010Prop31
280
     0
102
RTVSPost2010PropOp31
 70
     1
102
RTVSPost2010Prop32
280
     0
102
RTVSPost2010PropOp32
 70
     1
102
RTVSPost2010Prop33
280
     0
102
RTVSPost2010PropOp33
 70
     1
102
RTVSPost2010Prop34
280
     0
102
RTVSPost2010PropOp34
 70
     1
102
RTVSPost2010Prop35
280
     0
102
RTVSPost2010PropOp35
 70
     1
102
RTVSPost2010Prop36
280
     0
102
RTVSPost2010PropOp36
 70
     1
102
RTVSPost2010Prop37
 90
       50
102
RTVSPost2010PropOp37
 70
     1
102
RTVSPost2010Prop38
140
0.0
102
RTVSPost2010PropOp38
 70
     1
102
RTVSPost2010Prop39
140
1.0
102
RTVSPost2010PropOp39
 70
     1
102
RTVSPost2010Prop40
 90
        0
102
RTVSPost2010PropOp40
 70
     1
102
RTVSPost2010Prop41ColorIndex
 90
       18
102
RTVSPost2010Prop41ColorRGB
 90
        0
102
RTVSPost2010PropOp41
 70
     1
102
RTVSPost2010Prop42
 90
       50
102
RTVSPost2010PropOp42
 70
     1
102
RTVSPost2010Prop43
 90
        3
102
RTVSPost2010PropOp43
 70
     1
102
RTVSPost2010Prop44ColorIndex
 90
        5
102
RTVSPost2010Prop44ColorRGB
 90
      255
102
RTVSPost2010PropOp44
 70
     1
102
RTVSPost2010Prop45
280
     0
102
RTVSPost2010PropOp45
 70
     1
102
RTVSPost2010Prop46
 90
       50
102
RTVSPost2010PropOp46
 70
     1
102
RTVSPost2010Prop47
 90
       50
102
RTVSPost2010PropOp47
 70
     1
102
RTVSPost2010Prop48
 90
       50
102
RTVSPost2010PropOp48
 70
     1
102
RTVSPost2010Prop49
280
     0
102
RTVSPost2010PropOp49
 70
     1
102
RTVSPost2010Prop50
 90
       50
102
RTVSPost2010PropOp50
 70
     1
102
RTVSPost2010Prop51ColorIndex
 90
      256
102
RTVSPost2010Prop51ColorRGB
 90
-16777216
102
RTVSPost2010PropOp51
 70
     0
102
RTVSPost2010Prop52
140
1.0
102
RTVSPost2010PropOp52
 70
     0
102
RTVSPost2010Prop53
 90
        2
102
RTVSPost2010PropOp53
 70
     1
102
RTVSPost2010Prop54
  1
strokes_ogs.tif
102
RTVSPost2010PropOp54
 70
     1
102
RTVSPost2010Prop55
280
     0
102
RTVSPost2010PropOp55
 70
     1
102
RTVSPost2010Prop56
140
1.0
102
RTVSPost2010PropOp56
 70
     1
102
RTVSPost2010Prop57
140
1.0
102
RTVSPost2010PropOp57
 70
     1
102
RTVSPropertyOp0
 70
     1
102
RTVSPropertyOp1
 70
     1
102
RTVSPropertyOp2
 70
     1
102
RTVSPropertyOp3
 70
     1
102
RTVSPropertyOp4
 70
     1
102
RTVSPropertyOp5
 70
     1
102
RTVSPropertyOp6
 70
     1
102
RTVSPropertyOp7
 70
     1
102
RTVSPropertyOp8
 70
     1
102
RTVSPropertyOp9
 70
     1
102
RTVSPropertyOp10
 70
     1
102
RTVSPropertyOp11
 70
     1
102
RTVSPropertyOp12
 70
     1
102
RTVSPropertyOp13
 70
     1
102
RTVSPropertyOp14
 70
     1
102
RTVSPropertyOp15
 70
     1
102
RTVSPropertyOp16
 70
     1
102
RTVSPropertyOp17
 70
     1
102
RTVSPropertyOp18
 70
     1
102
RTVSPropertyOp19
 70
     1
102
RTVSPropertyOp20
 70
     1
102
RTVSPropertyOp21
 70
     1
102
RTVSPropertyOp22
 70
     1
102
RTVSPropertyOp23
 70
     1
102
RTVSPropertyOp24
 70
     1
102
RTVSPropertyOp25
 70
     1
102
RTVSPropertyOp26
 70
     1
102
RTVSPropertyOp27
 70
     1
102
RTVSPropertyOp28
 70
     1
102
RTVSPropertyOp29
 70
     1
102
RTVSPropertyOp30
 70
     1
102
RTVSPropertyOp31
 70
     1
102
RTVSPropertyOp32
 70
     1
102
RTVSPropertyOp33
 70
     1
102
RTVSPropertyOp34
 70
     1
102
RTVSPropertyOp35
 70
     1
102
RTVSPropertyOp36
 70
     1
102
RTVSPropertyOp37
 70
     1
102
RTVSPropertyOp38
 70
     1
102
RTVSPropertyOp39
 70
     1
102
RTVSPropertyOp40
 70
     1
102
RTVSPropertyOp41
 70
     1
102
RTVSPropertyOp42
 70
     1
102
RTVSPropertyOp43
 70
     1
102
RTVSPropertyOp44
 70
     1
102
RTVSPropertyOp45
 70
     1
102
RTVSPropertyOp46
 70
     1
102
RTVSPropertyOp47
 70
     1
102
RTVSPropertyOp48
 70
     1
102
RTVSPropertyOp49
 70
     1
102
RTVSPropertyOp50
 70
     1
102
RTVSPropertyOp51
 70
     0
102
RTVSPropertyOp52
 70
     0
102
RTVSPropertyOp53
 70
     1
102
RTVSPropertyOp54
 70
     1
102
RTVSPropertyOp55
 70
     1
102
RTVSPropertyOp56
 70
     1
102
RTVSPropertyOp57
 70
     1
102
RTVSPropertyOp58
 70
     1
102
RTVSPropertyOp59
 70
     1
102
RTVSPropertyOp60
 70
     1
102
RTVSPropertyOp61
 70
     1
102
RTVSPropertyOp62
 70
     1
  0
XRECORD
  5
1986
102
{ACAD_REACTORS
330
1985
102
}
330
1985
100
AcDbXrecord
280
     1
330
15FD
  0
ACDBASSOCARRAYACTIONBODY
  5
19DA
330
19D9
100
AcDbAssocActionBody
 90
        1
100
AcDbAssocParamBasedActionBody
 90
        0
 90
        0
 90
        3
360
19DB
360
19DC
360
19E0
 90
        0
 90
        9
 90
        0
  1
AlignItems
 90
        0
 90
        1
 90
        0
330
0
330
0
 90
        0
  1
AxesAngle
 90
        2
 90
        1
 40
1.570796326794896
330
0
330
0
 90
        0
  1
ItemSpacing
 90
        1
 90
        1
 40
35.3
330
0
330
0
 90
        0
  1
Items
 90
        0
 90
        1
 90
       16
330
0
330
0
 90
        0
  1
LevelSpacing
 90
        1
 90
        1
 40
1.0
330
0
330
0
 90
        0
  1
Levels
 90
        0
 90
        1
 90
        1
330
0
330
0
 90
        0
  1
RowElevation
 90
        1
 90
        1
 40
0.0
330
0
330
0
 90
        0
  1
RowSpacing
 90
        1
 90
        1
 40
571.4999999999999
330
0
330
0
 90
        0
  1
Rows
 90
        0
 90
        1
 90
        1
330
0
330
0
100
AcDbAssocArrayActionBody
 90
        1
  1
AcDbAssocArrayRectangularParameters
 90
        0
 90
       16
  1
AcDbAssocArrayItem
100
AcDbAssocArrayItem
 90
        0
 90
        0
 90
        0
 90
        0
 90
        8
 11
0.0
 21
0.0
 31
0.0
330
19E2
100
AcDbAssocArrayItem
 90
        0
 90
        1
 90
        0
 90
        0
 90
        8
 11
35.3
 21
0.0
 31
0.0
330
19E3
100
AcDbAssocArrayItem
 90
        0
 90
        2
 90
        0
 90
        0
 90
        8
 11
70.59999999999999
 21
0.0
 31
0.0
330
19E4
100
AcDbAssocArrayItem
 90
        0
 90
        3
 90
        0
 90
        0
 90
        8
 11
105.9
 21
0.0
 31
0.0
330
19E5
100
AcDbAssocArrayItem
 90
        0
 90
        4
 90
        0
 90
        0
 90
        8
 11
141.2
 21
0.0
 31
0.0
330
19E6
100
AcDbAssocArrayItem
 90
        0
 90
        5
 90
        0
 90
        0
 90
        8
 11
176.5
 21
0.0
 31
0.0
330
19E7
100
AcDbAssocArrayItem
 90
        0
 90
        6
 90
        0
 90
        0
 90
        8
 11
211.8
 21
0.0
 31
0.0
330
19E8
100
AcDbAssocArrayItem
 90
        0
 90
        7
 90
        0
 90
        0
 90
        8
 11
247.1
 21
0.0
 31
0.0
330
19E9
100
AcDbAssocArrayItem
 90
        0
 90
        8
 90
        0
 90
        0
 90
        8
 11
282.4
 21
0.0
 31
0.0
330
19EA
100
AcDbAssocArrayItem
 90
        0
 90
        9
 90
        0
 90
        0
 90
        8
 11
317.7
 21
0.0
 31
0.0
330
19EB
100
AcDbAssocArrayItem
 90
        0
 90
       10
 90
        0
 90
        0
 90
        8
 11
353.0
 21
0.0
 31
0.0
330
19EC
100
AcDbAssocArrayItem
 90
        0
 90
       11
 90
        0
 90
        0
 90
        8
 11
388.3
 21
0.0
 31
0.0
330
19ED
100
AcDbAssocArrayItem
 90
        0
 90
       12
 90
        0
 90
        0
 90
        8
 11
423.5999999999999
 21
0.0
 31
0.0
330
19EE
100
AcDbAssocArrayItem
 90
        0
 90
       13
 90
        0
 90
        0
 90
        8
 11
458.8999999999999
 21
0.0
 31
0.0
330
19EF
100
AcDbAssocArrayItem
 90
        0
 90
       14
 90
        0
 90
        0
 90
        8
 11
494.1999999999999
 21
0.0
 31
0.0
330
19F0
100
AcDbAssocArrayItem
 90
        0
 90
       15
 90
        0
 90
        0
 90
        8
 11
529.4999999999999
 21
0.0
 31
0.0
330
19F1
 40
1.0
 40
0.0
 40
0.0
 40
539.0528993149405
 40
0.0
 40
1.0
 40
0.0
 40
1452.634465030358
 40
0.0
 40
0.0
 40
1.0
 40
0.0
 40
0.0
 40
0.0
 40
0.0
 40
1.0
  0
ACDBASSOCDEPENDENCY
  5
19DD
330
19D9
100
AcDbAssocDependency
 90
        2
 90
        1
290
     0
290
     1
290
     1
290
     1
 90
        0
330
198B
290
     0
330
0
330
0
360
0
 90
        1
  0
ACDBASSOCDEPENDENCY
  5
19DE
330
19D9
100
AcDbAssocDependency
 90
        2
 90
        1
290
     1
290
     0
290
     1
290
     1
 90
        0
330
1988
290
     0
330
0
330
0
360
0
 90
        2
  0
ACDBASSOCDEPENDENCY
  5
19DF
330
19D9
100
AcDbAssocDependency
 90
        2
 90
        0
290
     1
290
     1
290
     1
290
     1
 90
-2147483648
330
198E
290
     0
330
0
330
0
360
0
 90
        3
  0
ACDBASSOCARRAYACTIONBODY
  5
1A01
330
1A00
100
AcDbAssocActionBody
 90
        1
100
AcDbAssocParamBasedActionBody
 90
        0
 90
        0
 90
        3
360
1A02
360
1A03
360
1A07
 90
        0
 90
        9
 90
        0
  1
AlignItems
 90
        0
 90
        1
 90
        0
330
0
330
0
 90
        0
  1
AxesAngle
 90
        2
 90
        1
 40
1.570796326794896
330
0
330
0
 90
        0
  1
ItemSpacing
 90
        1
 90
        1
 40
35.3
330
0
330
0
 90
        0
  1
Items
 90
        0
 90
        1
 90
       16
330
0
330
0
 90
        0
  1
LevelSpacing
 90
        1
 90
        1
 40
1.0
330
0
330
0
 90
        0
  1
Levels
 90
        0
 90
        1
 90
        1
330
0
330
0
 90
        0
  1
RowElevation
 90
        1
 90
        1
 40
0.0
330
0
330
0
 90
        0
  1
RowSpacing
 90
        1
 90
        1
 40
75.0
330
0
330
0
 90
        0
  1
Rows
 90
        0
 90
        1
 90
        1
330
0
330
0
100
AcDbAssocArrayActionBody
 90
        1
  1
AcDbAssocArrayRectangularParameters
 90
        0
 90
       16
  1
AcDbAssocArrayItem
100
AcDbAssocArrayItem
 90
        0
 90
        0
 90
        0
 90
        0
 90
        8
 11
0.0
 21
0.0
 31
0.0
330
1A09
100
AcDbAssocArrayItem
 90
        0
 90
        1
 90
        0
 90
        0
 90
        8
 11
35.3
 21
0.0
 31
0.0
330
1A0A
100
AcDbAssocArrayItem
 90
        0
 90
        2
 90
        0
 90
        0
 90
        8
 11
70.59999999999999
 21
0.0
 31
0.0
330
1A0B
100
AcDbAssocArrayItem
 90
        0
 90
        3
 90
        0
 90
        0
 90
        8
 11
105.9
 21
0.0
 31
0.0
330
1A0C
100
AcDbAssocArrayItem
 90
        0
 90
        4
 90
        0
 90
        0
 90
        8
 11
141.2
 21
0.0
 31
0.0
330
1A0D
100
AcDbAssocArrayItem
 90
        0
 90
        5
 90
        0
 90
        0
 90
        8
 11
176.5
 21
0.0
 31
0.0
330
1A0E
100
AcDbAssocArrayItem
 90
        0
 90
        6
 90
        0
 90
        0
 90
        8
 11
211.8
 21
0.0
 31
0.0
330
1A0F
100
AcDbAssocArrayItem
 90
        0
 90
        7
 90
        0
 90
        0
 90
        8
 11
247.1
 21
0.0
 31
0.0
330
1A10
100
AcDbAssocArrayItem
 90
        0
 90
        8
 90
        0
 90
        0
 90
        8
 11
282.4
 21
0.0
 31
0.0
330
1A11
100
AcDbAssocArrayItem
 90
        0
 90
        9
 90
        0
 90
        0
 90
        8
 11
317.7
 21
0.0
 31
0.0
330
1A12
100
AcDbAssocArrayItem
 90
        0
 90
       10
 90
        0
 90
        0
 90
        8
 11
353.0
 21
0.0
 31
0.0
330
1A13
100
AcDbAssocArrayItem
 90
        0
 90
       11
 90
        0
 90
        0
 90
        8
 11
388.3
 21
0.0
 31
0.0
330
1A14
100
AcDbAssocArrayItem
 90
        0
 90
       12
 90
        0
 90
        0
 90
        8
 11
423.5999999999999
 21
0.0
 31
0.0
330
1A15
100
AcDbAssocArrayItem
 90
        0
 90
       13
 90
        0
 90
        0
 90
        8
 11
458.8999999999999
 21
0.0
 31
0.0
330
1A16
100
AcDbAssocArrayItem
 90
        0
 90
       14
 90
        0
 90
        0
 90
        8
 11
494.1999999999999
 21
0.0
 31
0.0
330
1A17
100
AcDbAssocArrayItem
 90
        0
 90
       15
 90
        0
 90
        0
 90
        8
 11
529.4999999999999
 21
0.0
 31
0.0
330
1A18
 40
1.0
 40
0.0
 40
0.0
 40
541.8028993149405
 40
0.0
 40
1.0
 40
0.0
 40
688.5503863072108
 40
0.0
 40
0.0
 40
1.0
 40
0.0
 40
0.0
 40
0.0
 40
0.0
 40
1.0
  0
ACDBASSOCDEPENDENCY
  5
1A04
330
1A00
100
AcDbAssocDependency
 90
        2
 90
        1
290
     0
290
     1
290
     1
290
     1
 90
        0
330
19F6
290
     0
330
0
330
0
360
0
 90
        1
  0
ACDBASSOCDEPENDENCY
  5
1A05
330
1A00
100
AcDbAssocDependency
 90
        2
 90
        1
290
     1
290
     0
290
     1
290
     1
 90
        0
330
19F3
290
     0
330
0
330
0
360
0
 90
        2
  0
ACDBASSOCDEPENDENCY
  5
1A06
330
1A00
100
AcDbAssocDependency
 90
        2
 90
        0
290
     1
290
     1
290
     1
290
     1
 90
-2147483648
330
19F9
290
     0
330
0
330
0
360
0
 90
        3
  0
ACDBASSOCVERTEXACTIONPARAM
  5
19DB
330
19DA
100
AcDbAssocActionParam
 90
        0
  1
BaseNormal
100
AcDbAssocSingleDependencyActionParam
 90
        0
330
0
100
AcDbAssocVertexActionParam
 90
        0
 10
0.0
 20
0.0
 30
1.0
  0
ACDBASSOCVERTEXACTIONPARAM
  5
19DC
330
19DA
100
AcDbAssocActionParam
 90
        0
  1
Origin
100
AcDbAssocSingleDependencyActionParam
 90
        0
330
0
100
AcDbAssocVertexActionParam
 90
        0
 10
0.0
 20
0.0
 30
0.0
  0
ACDBASSOCVERTEXACTIONPARAM
  5
19E0
330
19DA
100
AcDbAssocActionParam
 90
        0
  1
basePoint
100
AcDbAssocSingleDependencyActionParam
 90
        0
330
0
100
AcDbAssocVertexActionParam
 90
        0
 10
0.0
 20
0.0
 30
0.0
  0
ACDBASSOCVERTEXACTIONPARAM
  5
1A02
330
1A01
100
AcDbAssocActionParam
 90
        0
  1
BaseNormal
100
AcDbAssocSingleDependencyActionParam
 90
        0
330
0
100
AcDbAssocVertexActionParam
 90
        0
 10
0.0
 20
0.0
 30
1.0
  0
ACDBASSOCVERTEXACTIONPARAM
  5
1A03
330
1A01
100
AcDbAssocActionParam
 90
        0
  1
Origin
100
AcDbAssocSingleDependencyActionParam
 90
        0
330
0
100
AcDbAssocVertexActionParam
 90
        0
 10
0.0
 20
0.0
 30
0.0
  0
ACDBASSOCVERTEXACTIONPARAM
  5
1A07
330
1A01
100
AcDbAssocActionParam
 90
        0
  1
basePoint
100
AcDbAssocSingleDependencyActionParam
 90
        0
330
0
100
AcDbAssocVertexActionParam
 90
        0
 10
0.0
 20
0.0
 30
0.0
  0
ENDSEC
  0
EOF
