  0
SECTION
  2
HEADER
  9
$ACADVER
  1
AC1015
  9
$ACADMAINTVER
 70
    20
  9
$DWGCODEPAGE
  3
ANSI_932
  9
$INSBASE
 10
0.0
 20
0.0
 30
0.0
  9
$EXTMIN
 10
-0.0425346845286185
 20
-0.0300885618821667
 30
-0.0000000000112498
  9
$EXTMAX
 10
2789.553734678998
 20
1973.299228625456
 30
0.0000000000002956
  9
$LIMMIN
 10
0.0
 20
0.0
  9
$LIMMAX
 10
297.0
 20
209.0
  9
$ORTHOMODE
 70
     1
  9
$REGENMODE
 70
     1
  9
$FILLMODE
 70
     1
  9
$QTEXTMODE
 70
     0
  9
$MIRRTEXT
 70
     1
  9
$LTSCALE
 40
1.0
  9
$ATTMODE
 70
     1
  9
$TEXTSIZE
 40
2.5
  9
$TRACEWID
 40
1.0
  9
$TEXTSTYLE
  7
Standard
  9
$CLAYER
  8
寸法線
  9
$CELTYPE
  6
ByLayer
  9
$CECOLOR
 62
   256
  9
$CELTSCALE
 40
3.0
  9
$DISPSILH
 70
     0
  9
$DIMSCALE
 40
10.0
  9
$DIMASZ
 40
1.5
  9
$DIMEXO
 40
2.0
  9
$DIMDLI
 40
3.75
  9
$DIMRND
 40
0.0
  9
$DIMDLE
 40
0.0
  9
$DIMEXE
 40
1.5
  9
$DIMTP
 40
0.0
  9
$DIMTM
 40
0.0
  9
$DIMTXT
 40
3.0
  9
$DIMCEN
 40
2.5
  9
$DIMTSZ
 40
0.0
  9
$DIMTOL
 70
     0
  9
$DIMLIM
 70
     0
  9
$DIMTIH
 70
     0
  9
$DIMTOH
 70
     0
  9
$DIMSE1
 70
     0
  9
$DIMSE2
 70
     0
  9
$DIMTAD
 70
     1
  9
$DIMZIN
 70
     8
  9
$DIMBLK
  1
Open30
  9
$DIMASO
 70
     1
  9
$DIMSHO
 70
     1
  9
$DIMPOST
  1

  9
$DIMAPOST
  1

  9
$DIMALT
 70
     0
  9
$DIMALTD
 70
     3
  9
$DIMALTF
 40
0.03937007874016
  9
$DIMLFAC
 40
1.0
  9
$DIMTOFL
 70
     1
  9
$DIMTVP
 40
0.0
  9
$DIMTIX
 70
     0
  9
$DIMSOXD
 70
     0
  9
$DIMSAH
 70
     0
  9
$DIMBLK1
  1

  9
$DIMBLK2
  1

  9
$DIMSTYLE
  2
ISO-25
  9
$DIMCLRD
 70
     0
  9
$DIMCLRE
 70
     0
  9
$DIMCLRT
 70
     0
  9
$DIMTFAC
 40
1.0
  9
$DIMGAP
 40
0.5
  9
$DIMJUST
 70
     0
  9
$DIMSD1
 70
     0
  9
$DIMSD2
 70
     0
  9
$DIMTOLJ
 70
     0
  9
$DIMTZIN
 70
     8
  9
$DIMALTZ
 70
     0
  9
$DIMALTTZ
 70
     0
  9
$DIMUPT
 70
     0
  9
$DIMDEC
 70
     2
  9
$DIMTDEC
 70
     2
  9
$DIMALTU
 70
     2
  9
$DIMALTTD
 70
     3
  9
$DIMTXSTY
  7
Standard
  9
$DIMAUNIT
 70
     0
  9
$DIMADEC
 70
     0
  9
$DIMALTRND
 40
0.0
  9
$DIMAZIN
 70
     0
  9
$DIMDSEP
 70
    46
  9
$DIMATFIT
 70
     0
  9
$DIMFRAC
 70
     0
  9
$DIMLDRBLK
  1
Open30
  9
$DIMLUNIT
 70
     2
  9
$DIMLWD
 70
    -2
  9
$DIMLWE
 70
    -2
  9
$DIMTMOVE
 70
     0
  9
$LUNITS
 70
     2
  9
$LUPREC
 70
     4
  9
$SKETCHINC
 40
1.0
  9
$FILLETRAD
 40
9.9
  9
$AUNITS
 70
     0
  9
$AUPREC
 70
     0
  9
$MENU
  1
.
  9
$ELEVATION
 40
0.0
  9
$PELEVATION
 40
0.0
  9
$THICKNESS
 40
0.0
  9
$LIMCHECK
 70
     0
  9
$CHAMFERA
 40
10.0
  9
$CHAMFERB
 40
10.0
  9
$CHAMFERC
 40
20.0
  9
$CHAMFERD
 40
0.0
  9
$SKPOLY
 70
     0
  9
$TDCREATE
 40
2453510.558637211
  9
$TDUCREATE
 40
2453510.183637211
  9
$TDUPDATE
 40
2457556.726159328
  9
$TDUUPDATE
 40
2457556.351159329
  9
$TDINDWG
 40
0.0687384722
  9
$TDUSRTIMER
 40
0.0687384722
  9
$USRTIMER
 70
     1
  9
$ANGBASE
 50
0.0
  9
$ANGDIR
 70
     0
  9
$PDMODE
 70
     0
  9
$PDSIZE
 40
0.0
  9
$PLINEWID
 40
0.0
  9
$SPLFRAME
 70
     0
  9
$SPLINETYPE
 70
     6
  9
$SPLINESEGS
 70
     8
  9
$HANDSEED
  5
16DD
  9
$SURFTAB1
 70
     6
  9
$SURFTAB2
 70
     6
  9
$SURFTYPE
 70
     6
  9
$SURFU
 70
     6
  9
$SURFV
 70
     6
  9
$UCSBASE
  2

  9
$UCSNAME
  2

  9
$UCSORG
 10
0.0
 20
0.0
 30
0.0
  9
$UCSXDIR
 10
1.0
 20
0.0
 30
0.0
  9
$UCSYDIR
 10
0.0
 20
1.0
 30
0.0
  9
$UCSORTHOREF
  2

  9
$UCSORTHOVIEW
 70
     0
  9
$UCSORGTOP
 10
0.0
 20
0.0
 30
0.0
  9
$UCSORGBOTTOM
 10
0.0
 20
0.0
 30
0.0
  9
$UCSORGLEFT
 10
0.0
 20
0.0
 30
0.0
  9
$UCSORGRIGHT
 10
0.0
 20
0.0
 30
0.0
  9
$UCSORGFRONT
 10
0.0
 20
0.0
 30
0.0
  9
$UCSORGBACK
 10
0.0
 20
0.0
 30
0.0
  9
$PUCSBASE
  2

  9
$PUCSNAME
  2

  9
$PUCSORG
 10
0.0
 20
0.0
 30
0.0
  9
$PUCSXDIR
 10
1.0
 20
0.0
 30
0.0
  9
$PUCSYDIR
 10
0.0
 20
1.0
 30
0.0
  9
$PUCSORTHOREF
  2

  9
$PUCSORTHOVIEW
 70
     0
  9
$PUCSORGTOP
 10
0.0
 20
0.0
 30
0.0
  9
$PUCSORGBOTTOM
 10
0.0
 20
0.0
 30
0.0
  9
$PUCSORGLEFT
 10
0.0
 20
0.0
 30
0.0
  9
$PUCSORGRIGHT
 10
0.0
 20
0.0
 30
0.0
  9
$PUCSORGFRONT
 10
0.0
 20
0.0
 30
0.0
  9
$PUCSORGBACK
 10
0.0
 20
0.0
 30
0.0
  9
$USERI1
 70
     0
  9
$USERI2
 70
     0
  9
$USERI3
 70
     0
  9
$USERI4
 70
     0
  9
$USERI5
 70
     0
  9
$USERR1
 40
0.0
  9
$USERR2
 40
0.0
  9
$USERR3
 40
0.0
  9
$USERR4
 40
0.0
  9
$USERR5
 40
0.0
  9
$WORLDVIEW
 70
     1
  9
$SHADEDGE
 70
     3
  9
$SHADEDIF
 70
    70
  9
$TILEMODE
 70
     1
  9
$MAXACTVP
 70
    48
  9
$PINSBASE
 10
0.0
 20
0.0
 30
0.0
  9
$PLIMCHECK
 70
     0
  9
$PEXTMIN
 10
0.0
 20
0.0
 30
0.0
  9
$PEXTMAX
 10
0.0
 20
0.0
 30
0.0
  9
$PLIMMIN
 10
0.0
 20
0.0
  9
$PLIMMAX
 10
12.0
 20
9.0
  9
$UNITMODE
 70
     0
  9
$VISRETAIN
 70
     1
  9
$PLINEGEN
 70
     0
  9
$PSLTSCALE
 70
     1
  9
$TREEDEPTH
 70
  3020
  9
$CMLSTYLE
  2
Standard
  9
$CMLJUST
 70
     0
  9
$CMLSCALE
 40
20.0
  9
$PROXYGRAPHICS
 70
     1
  9
$MEASUREMENT
 70
     1
  9
$CELWEIGHT
370
    -1
  9
$ENDCAPS
280
     0
  9
$JOINSTYLE
280
     0
  9
$LWDISPLAY
290
     0
  9
$INSUNITS
 70
     4
  9
$HYPERLINKBASE
  1

  9
$STYLESHEET
  1
monochrome.ctb
  9
$XEDIT
290
     1
  9
$CEPSNTYPE
380
     0
  9
$PSTYLEMODE
290
     1
  9
$FINGERPRINTGUID
  2

  9
$VERSIONGUID
  2
{0669AC28-0B46-4A28-AAA8-3191C8CD3CFD}
  9
$EXTNAMES
290
     1
  9
$PSVPSCALE
 40
0.0
  9
$OLESTARTUP
290
     0
  0
ENDSEC
  0
SECTION
  2
CLASSES
  0
CLASS
  1
ACDBDICTIONARYWDFLT
  2
AcDbDictionaryWithDefault
  3
ObjectDBX Classes
 90
        0
280
     0
281
     0
  0
CLASS
  1
ACDBPLACEHOLDER
  2
AcDbPlaceHolder
  3
ObjectDBX Classes
 90
        0
280
     0
281
     0
  0
CLASS
  1
LAYOUT
  2
AcDbLayout
  3
ObjectDBX Classes
 90
        0
280
     0
281
     0
  0
CLASS
  1
DICTIONARYVAR
  2
AcDbDictionaryVar
  3
ObjectDBX Classes
 90
        0
280
     0
281
     0
  0
CLASS
  1
MATERIAL
  2
AcDbMaterial
  3
ObjectDBX Classes
 90
     1153
280
     0
281
     0
  0
CLASS
  1
VISUALSTYLE
  2
AcDbVisualStyle
  3
ObjectDBX Classes
 90
     4095
280
     0
281
     0
  0
CLASS
  1
TABLESTYLE
  2
AcDbTableStyle
  3
ObjectDBX Classes
 90
     4095
280
     0
281
     0
  0
CLASS
  1
SCALE
  2
AcDbScale
  3
ObjectDBX Classes
 90
     1153
280
     0
281
     0
  0
CLASS
  1
MLEADERSTYLE
  2
AcDbMLeaderStyle
  3
ACDB_MLEADERSTYLE_CLASS
 90
     4095
280
     0
281
     0
  0
CLASS
  1
ACDBSECTIONVIEWSTYLE
  2
AcDbSectionViewStyle
  3
ObjectDBX Classes
 90
     1025
280
     0
281
     0
  0
CLASS
  1
ACDBDETAILVIEWSTYLE
  2
AcDbDetailViewStyle
  3
ObjectDBX Classes
 90
     1025
280
     0
281
     0
  0
CLASS
  1
CELLSTYLEMAP
  2
AcDbCellStyleMap
  3
ObjectDBX Classes
 90
     1152
280
     0
281
     0
  0
CLASS
  1
SORTENTSTABLE
  2
AcDbSortentsTable
  3
ObjectDBX Classes
 90
        0
280
     0
281
     0
  0
CLASS
  1
ACARRAYJIGENTITY
  2
AcArrayJigEntity
  3
ACAD_ARRAY
 90
    32897
280
     0
281
     1
  0
CLASS
  1
ACDBASSOCNETWORK
  2
AcDbAssocNetwork
  3
ObjectDBX Classes
 90
     1025
280
     0
281
     0
  0
CLASS
  1
ACDBASSOCACTION
  2
AcDbAssocAction
  3
ObjectDBX Classes
 90
     1025
280
     0
281
     0
  0
CLASS
  1
ACDBASSOCARRAYACTIONBODY
  2
AcDbAssocArrayActionBody
  3
ObjectDBX Classes
 90
     1025
280
     0
281
     0
  0
CLASS
  1
ACDBASSOCVERTEXACTIONPARAM
  2
AcDbAssocVertexActionParam
  3
ObjectDBX Classes
 90
     1025
280
     0
281
     0
  0
CLASS
  1
ACDBASSOCDEPENDENCY
  2
AcDbAssocDependency
  3
ObjectDBX Classes
 90
     1025
280
     0
281
     0
  0
CLASS
  1
ACDBASSOCARRAYRECTANGULARPARAMETERS
  2
AcDbAssocArrayRectangularParameters
  3
ObjectDBX Classes
 90
    33793
280
     0
281
     0
  0
ENDSEC
  0
SECTION
  2
TABLES
  0
TABLE
  2
VPORT
  5
DDA
102
{ACAD_XDICTIONARY
360
127E
102
}
330
0
100
AcDbSymbolTable
 70
     1
  0
VPORT
  5
11B5
330
DDA
100
AcDbSymbolTableRecord
100
AcDbViewportTableRecord
  2
*Active
 70
     0
 10
0.0
 20
0.0
 11
1.0
 21
1.0
 12
1394.755599997235
 22
986.6345700317872
 13
0.0
 23
0.0
 14
10.0
 24
10.0
 15
10.0
 25
10.0
 16
0.0
 26
0.0
 36
1.0
 17
0.0
 27
0.0
 37
0.0
 40
1992.48785424741
 41
3.006482982171799
 42
50.0
 43
0.0
 44
0.0
 50
0.0
 51
0.0
 71
     0
 72
   100
 73
     1
 74
     3
 75
     0
 76
     0
 77
     0
 78
     0
281
     0
 65
     1
110
0.0
120
0.0
130
0.0
111
1.0
121
0.0
131
0.0
112
0.0
122
1.0
132
0.0
 79
     0
146
0.0
1001
ACAD_NAV_VCDISPLAY
1070
     3
  0
ENDTAB
  0
TABLE
  2
LTYPE
  5
DD5
330
0
100
AcDbSymbolTable
 70
     3
  0
LTYPE
  5
DD6
330
DD5
100
AcDbSymbolTableRecord
100
AcDbLinetypeTableRecord
  2
ByBlock
 70
     0
  3

 72
    65
 73
     0
 40
0.0
  0
LTYPE
  5
DD7
330
DD5
100
AcDbSymbolTableRecord
100
AcDbLinetypeTableRecord
  2
ByLayer
 70
     0
  3

 72
    65
 73
     0
 40
0.0
  0
LTYPE
  5
8
330
DD5
100
AcDbSymbolTableRecord
100
AcDbLinetypeTableRecord
  2
Continuous
 70
     0
  3
Solid line
 72
    65
 73
     0
 40
0.0
  0
LTYPE
  5
81
330
DD5
100
AcDbSymbolTableRecord
100
AcDbLinetypeTableRecord
  2
HIDDEN
 70
     0
  3
Hidden __ __ __ __ __ __ __ __ __ __ __ __ __ _
 72
    65
 73
     2
 40
9.524999999999998
 49
6.349999999999999
 74
     0
 49
-3.174999999999999
 74
     0
  0
LTYPE
  5
8D
330
DD5
100
AcDbSymbolTableRecord
100
AcDbLinetypeTableRecord
  2
CENTER
 70
     0
  3
------ - ------ - ----
 72
    65
 73
     4
 40
10.0
 49
6.25
 74
     0
 49
-1.25
 74
     0
 49
1.25
 74
     0
 49
-1.25
 74
     0
  0
ENDTAB
  0
TABLE
  2
LAYER
  5
DD2
102
{ACAD_XDICTIONARY
360
1500
102
}
330
0
100
AcDbSymbolTable
 70
    10
  0
LAYER
  5
91
102
{ACAD_XDICTIONARY
360
120C
102
}
330
DD2
100
AcDbSymbolTableRecord
100
AcDbLayerTableRecord
  2
0
 70
     0
 62
     7
  6
Continuous
370
    -3
390
5
  0
LAYER
  5
76
102
{ACAD_XDICTIONARY
360
120E
102
}
330
DD2
100
AcDbSymbolTableRecord
100
AcDbLayerTableRecord
  2
本体
 70
     0
 62
     7
  6
Continuous
370
    13
390
5
  0
LAYER
  5
4
102
{ACAD_XDICTIONARY
360
1210
102
}
330
DD2
100
AcDbSymbolTableRecord
100
AcDbLayerTableRecord
  2
寸法線
 70
     0
 62
     2
  6
Continuous
370
     9
390
5
  0
LAYER
  5
580
102
{ACAD_XDICTIONARY
360
1214
102
}
330
DD2
100
AcDbSymbolTableRecord
100
AcDbLayerTableRecord
  2
エンボス
 70
     0
 62
     4
  6
Continuous
370
     5
390
5
  0
LAYER
  5
11
102
{ACAD_XDICTIONARY
360
1216
102
}
330
DD2
100
AcDbSymbolTableRecord
100
AcDbLayerTableRecord
  2
外枠
 70
     0
 62
     7
  6
Continuous
370
    -3
390
5
  0
LAYER
  5
AA
330
DD2
100
AcDbSymbolTableRecord
100
AcDbLayerTableRecord
  2
Defpoints
 70
     0
 62
     7
  6
Continuous
290
     0
370
    -3
390
5
  0
LAYER
  5
1143
102
{ACAD_XDICTIONARY
360
121A
102
}
330
DD2
100
AcDbSymbolTableRecord
100
AcDbLayerTableRecord
  2
中心線
 70
     0
 62
     1
  6
CENTER
370
     5
390
5
  0
LAYER
  5
1148
102
{ACAD_XDICTIONARY
360
121C
102
}
330
DD2
100
AcDbSymbolTableRecord
100
AcDbLayerTableRecord
  2
嵩上平面
 70
     0
 62
   112
  6
HIDDEN
370
    13
390
5
  0
LAYER
  5
114D
102
{ACAD_XDICTIONARY
360
121E
102
}
330
DD2
100
AcDbSymbolTableRecord
100
AcDbLayerTableRecord
  2
嵩上断面
 70
     0
 62
   112
  6
Continuous
370
    13
390
5
  0
LAYER
  5
1152
102
{ACAD_XDICTIONARY
360
1220
102
}
330
DD2
100
AcDbSymbolTableRecord
100
AcDbLayerTableRecord
  2
ゴム
 70
     0
 62
    51
  6
Continuous
370
    13
390
5
  0
ENDTAB
  0
TABLE
  2
STYLE
  5
DD3
330
0
100
AcDbSymbolTable
 70
     1
  0
STYLE
  5
9
330
DD3
100
AcDbSymbolTableRecord
100
AcDbTextStyleTableRecord
  2
Standard
 70
     0
 40
0.0
 41
1.0
 50
0.0
 71
     0
 42
2.5
  3

  4

1001
ACAD
1000
MS Gothic
1071
    32817
  0
ENDTAB
  0
TABLE
  2
VIEW
  5
DD8
330
0
100
AcDbSymbolTable
 70
     0
  0
ENDTAB
  0
TABLE
  2
UCS
  5
DD9
330
0
100
AcDbSymbolTable
 70
     0
  0
ENDTAB
  0
TABLE
  2
APPID
  5
DDC
330
0
100
AcDbSymbolTable
 70
     5
  0
APPID
  5
A
330
DDC
100
AcDbSymbolTableRecord
100
AcDbRegAppTableRecord
  2
ACAD
 70
     0
  0
APPID
  5
1222
330
DDC
100
AcDbSymbolTableRecord
100
AcDbRegAppTableRecord
  2
ACAD_NAV_VCDISPLAY
 70
     0
  0
APPID
  5
12B4
330
DDC
100
AcDbSymbolTableRecord
100
AcDbRegAppTableRecord
  2
ACAD_MLEADERVER
 70
     0
  0
APPID
  5
132B
330
DDC
100
AcDbSymbolTableRecord
100
AcDbRegAppTableRecord
  2
ACAD_EXEMPT_FROM_CAD_STANDARDS
 70
     0
  0
APPID
  5
1505
330
DDC
100
AcDbSymbolTableRecord
100
AcDbRegAppTableRecord
  2
AcLayerTools
 70
     0
  0
ENDTAB
  0
TABLE
  2
DIMSTYLE
  5
DDD
330
0
100
AcDbSymbolTable
 70
     2
100
AcDbDimStyleTable
 71
     1
340
9B
  0
DIMSTYLE
105
9B
102
{ACAD_REACTORS
330
9A
330
AF
330
C2
330
CF
330
DE
330
11B
330
4BF
330
4EF
330
132E
330
1407
102
}
330
DDD
100
AcDbSymbolTableRecord
100
AcDbDimStyleTableRecord
  2
ISO-25
 70
     0
 40
10.0
 41
1.5
 42
2.0
 43
3.75
 44
1.5
 73
     0
 74
     0
 77
     1
 78
     8
140
3.0
141
2.5
143
0.03937007874016
147
0.5
171
     3
172
     1
271
     2
272
     2
274
     3
283
     0
284
     8
289
     0
340
9
341
9C
342
9C
  0
DIMSTYLE
105
1122
330
DDD
100
AcDbSymbolTableRecord
100
AcDbDimStyleTableRecord
  2
Standard
 70
     0
340
9
  0
ENDTAB
  0
TABLE
  2
BLOCK_RECORD
  5
1
330
0
100
AcDbSymbolTable
 70
    23
  0
BLOCK_RECORD
  5
2
102
{ACAD_XDICTIONARY
360
DC0
102
}
330
1
100
AcDbSymbolTableRecord
100
AcDbBlockTableRecord
  2
*Model_Space
340
DC4
  0
BLOCK_RECORD
  5
DC6
102
{ACAD_XDICTIONARY
360
DC7
102
}
330
1
100
AcDbSymbolTableRecord
100
AcDbBlockTableRecord
  2
*Paper_Space
340
DCB
  0
BLOCK_RECORD
  5
DCC
102
{ACAD_XDICTIONARY
360
DCD
102
}
330
1
100
AcDbSymbolTableRecord
100
AcDbBlockTableRecord
  2
*Paper_Space0
340
DD1
  0
BLOCK_RECORD
  5
9C
330
1
100
AcDbSymbolTableRecord
100
AcDbBlockTableRecord
  2
_Open30
340
0
102
{BLKREFS
331
1636
331
1637
331
13CD
331
13CE
331
13D8
331
13D9
331
13EC
331
13ED
331
13F5
331
13F6
331
E29
331
E2A
331
A6
331
A7
331
B4
331
B5
331
1438
331
1439
331
14F1
331
14F2
331
14FA
331
14FB
102
}
  0
BLOCK_RECORD
  5
8A
330
1
100
AcDbSymbolTableRecord
100
AcDbBlockTableRecord
  2
TB8
340
0
102
{BLKREFS
331
89
331
93
331
94
331
95
102
}
1001
ACAD
1000
DesignCenter Data
1002
{
1070
     1
1070
     4
1002
}
  0
BLOCK_RECORD
  5
4D1
330
1
100
AcDbSymbolTableRecord
100
AcDbBlockTableRecord
  2
平ゴムパッキン
340
0
102
{BLKREFS
331
4E2
331
4D0
102
}
  0
BLOCK_RECORD
  5
A2
330
1
100
AcDbSymbolTableRecord
100
AcDbBlockTableRecord
  2
*D4
340
0
  0
BLOCK_RECORD
  5
B0
330
1
100
AcDbSymbolTableRecord
100
AcDbBlockTableRecord
  2
*D5
340
0
  0
BLOCK_RECORD
  5
C3
330
1
100
AcDbSymbolTableRecord
100
AcDbBlockTableRecord
  2
*D6
340
0
  0
BLOCK_RECORD
  5
D0
330
1
100
AcDbSymbolTableRecord
100
AcDbBlockTableRecord
  2
*D7
340
0
  0
BLOCK_RECORD
  5
DF
330
1
100
AcDbSymbolTableRecord
100
AcDbBlockTableRecord
  2
*D8
340
0
  0
BLOCK_RECORD
  5
11C
330
1
100
AcDbSymbolTableRecord
100
AcDbBlockTableRecord
  2
*D9
340
0
  0
BLOCK_RECORD
  5
4C0
330
1
100
AcDbSymbolTableRecord
100
AcDbBlockTableRecord
  2
*D10
340
0
  0
BLOCK_RECORD
  5
4F0
330
1
100
AcDbSymbolTableRecord
100
AcDbBlockTableRecord
  2
*D11
340
0
  0
BLOCK_RECORD
  5
1123
330
1
100
AcDbSymbolTableRecord
100
AcDbBlockTableRecord
  2
P-H60
340
0
102
{BLKREFS
331
1131
331
1132
102
}
  0
BLOCK_RECORD
  5
12CD
102
{ACAD_XDICTIONARY
360
12CE
102
}
330
1
100
AcDbSymbolTableRecord
100
AcDbBlockTableRecord
  2
鎌下
340
0
102
{BLKREFS
331
12DD
102
}
1001
ACAD
1000
DesignCenter Data
1002
{
1070
     1
1070
     4
1002
}
  0
BLOCK_RECORD
  5
132F
330
1
100
AcDbSymbolTableRecord
100
AcDbBlockTableRecord
  2
*D14
340
0
  0
BLOCK_RECORD
  5
1408
330
1
100
AcDbSymbolTableRecord
100
AcDbBlockTableRecord
  2
*D15
340
0
  0
BLOCK_RECORD
  5
14D8
102
{ACAD_XDICTIONARY
360
14E3
102
}
330
1
100
AcDbSymbolTableRecord
100
AcDbBlockTableRecord
  2
GFB新
340
0
102
{BLKREFS
331
14E6
102
}
1001
ACAD
1000
DesignCenter Data
1002
{
1070
     1
1070
     4
1002
}
  0
BLOCK_RECORD
  5
151A
102
{ACAD_REACTORS
330
1533
102
}
330
1
100
AcDbSymbolTableRecord
100
AcDbBlockTableRecord
  2
*U17
340
0
102
{BLKREFS
331
1537
331
1538
331
1539
331
153A
331
153B
331
153C
331
153D
331
153E
331
153F
331
1540
331
1541
331
1542
331
1543
331
1544
331
1545
331
1546
331
1547
331
1548
331
1549
331
154A
331
154B
331
154C
331
154D
331
154E
331
154F
331
1550
331
1551
331
1552
331
1553
331
1554
331
1555
331
1556
331
1557
331
1558
331
1559
331
155A
331
155B
331
155C
331
155D
331
155E
331
155F
331
1560
331
1561
331
1562
331
1563
331
1564
102
}
  0
BLOCK_RECORD
  5
151D
102
{ACAD_XDICTIONARY
360
1623
102
}
102
{ACAD_REACTORS
330
1532
102
}
330
1
100
AcDbSymbolTableRecord
100
AcDbBlockTableRecord
  2
*U18
340
0
102
{BLKREFS
331
1520
102
}
  0
BLOCK_RECORD
  5
1566
102
{ACAD_REACTORS
330
15AD
102
}
330
1
100
AcDbSymbolTableRecord
100
AcDbBlockTableRecord
  2
*U19
340
0
102
{BLKREFS
331
15C8
331
15C9
331
15CA
331
15CB
331
15CC
331
15CD
331
15CE
331
15CF
331
15D0
331
15D1
331
15D2
331
15D3
331
15D4
331
15D5
331
15D6
331
15D7
331
15D8
331
15D9
331
15DA
331
15DB
331
15DC
331
15DD
331
15DE
331
15B1
331
15B2
331
15B3
331
15B4
331
15B5
331
15B6
331
15B7
331
15B8
331
15B9
331
15BA
331
15BB
331
15BC
331
15BD
331
15BE
331
15BF
331
15C0
331
15C1
331
15C2
331
15C3
331
15C4
331
15C5
331
15C6
331
15C7
102
}
  0
BLOCK_RECORD
  5
1569
102
{ACAD_XDICTIONARY
360
1626
102
}
102
{ACAD_REACTORS
330
15AC
102
}
330
1
100
AcDbSymbolTableRecord
100
AcDbBlockTableRecord
  2
*U20
340
0
102
{BLKREFS
331
156C
102
}
  0
BLOCK_RECORD
  5
162F
330
1
100
AcDbSymbolTableRecord
100
AcDbBlockTableRecord
  2
*D21
340
0
  0
BLOCK_RECORD
  5
163D
102
{ACAD_XDICTIONARY
360
163F
102
}
330
1
100
AcDbSymbolTableRecord
100
AcDbBlockTableRecord
  2
A$C0F4511D8
340
0
1001
ACAD
1000
DesignCenter Data
1002
{
1070
     1
1070
     4
1002
}
  0
ENDTAB
  0
ENDSEC
  0
SECTION
  2
BLOCKS
  0
BLOCK
  5
DC2
330
2
100
AcDbEntity
  8
0
100
AcDbBlockBegin
  2
*Model_Space
 70
     0
 10
0.0
 20
0.0
 30
0.0
  3
*Model_Space
  1

  0
ENDBLK
  5
DC3
330
2
100
AcDbEntity
  8
0
100
AcDbBlockEnd
  0
BLOCK
  5
DC9
330
DC6
100
AcDbEntity
 67
     1
  8
0
100
AcDbBlockBegin
  2
*Paper_Space
 70
     0
 10
0.0
 20
0.0
 30
0.0
  3
*Paper_Space
  1

  0
ENDBLK
  5
DCA
330
DC6
100
AcDbEntity
 67
     1
  8
0
100
AcDbBlockEnd
  0
BLOCK
  5
DCF
330
DCC
100
AcDbEntity
 67
     1
  8
0
100
AcDbBlockBegin
  2
*Paper_Space0
 70
     0
 10
0.0
 20
0.0
 30
0.0
  3
*Paper_Space0
  1

  0
ENDBLK
  5
DD0
330
DCC
100
AcDbEntity
 67
     1
  8
0
100
AcDbBlockEnd
  0
BLOCK
  5
A0
330
9C
100
AcDbEntity
  8
0
100
AcDbBlockBegin
  2
_Open30
 70
     0
 10
0.0
 20
0.0
 30
0.0
  3
_Open30
  1

  0
LINE
  5
9D
330
9C
100
AcDbEntity
  8
0
  6
ByBlock
 62
     0
370
    -2
100
AcDbLine
 10
-1.0
 20
0.26794919
 30
0.0
 11
0.0
 21
0.0
 31
0.0
  0
LINE
  5
9E
330
9C
100
AcDbEntity
  8
0
  6
ByBlock
 62
     0
370
    -2
100
AcDbLine
 10
0.0
 20
0.0
 30
0.0
 11
-1.0
 21
-0.26794919
 31
0.0
  0
LINE
  5
9F
330
9C
100
AcDbEntity
  8
0
  6
ByBlock
 62
     0
370
    -2
100
AcDbLine
 10
0.0
 20
0.0
 30
0.0
 11
-1.0
 21
0.0
 31
0.0
  0
ENDBLK
  5
A1
330
9C
100
AcDbEntity
  8
0
100
AcDbBlockEnd
  0
BLOCK
  5
90
330
8A
100
AcDbEntity
  8
0
100
AcDbBlockBegin
  2
TB8
 70
     0
 10
0.0
 20
0.0
 30
0.0
  3
TB8
  1

  0
MTEXT
  5
8B
330
8A
100
AcDbEntity
  8
寸法線
  6
Continuous
100
AcDbMText
 10
917.3216494432054
 20
235.349302881973
 30
0.0
 40
20.0
 41
17.2146
 71
     7
 72
     1
  1

 73
     1
 44
1.0
1001
ACAD
1000
MTEXTBEGIN
1070
    73
1070
     1
1070
    44
1040
1.0
1070
    74
1070
     0
1000
MTEXTEND
  0
LINE
  5
8C
330
8A
100
AcDbEntity
  8
本体
  6
CENTER
 62
     1
 48
0.3
100
AcDbLine
 10
10.0
 20
0.0
 30
0.0
 11
-2.0
 21
0.0
 31
0.0
  0
LINE
  5
8E
330
8A
100
AcDbEntity
  8
本体
  6
CENTER
 62
     1
 48
0.3
100
AcDbLine
 10
4.0
 20
6.0
 30
0.0
 11
4.0
 21
-6.0
 31
0.0
  0
CIRCLE
  5
8F
330
8A
100
AcDbEntity
  8
本体
  6
Continuous
 62
     0
100
AcDbCircle
 10
4.0
 20
0.0
 30
0.0
 40
4.0
  0
ENDBLK
  5
92
330
8A
100
AcDbEntity
  8
0
100
AcDbBlockEnd
  0
BLOCK
  5
4E0
330
4D1
100
AcDbEntity
  8
0
100
AcDbBlockBegin
  2
平ゴムパッキン
 70
     0
 10
0.0
 20
0.0
 30
0.0
  3
平ゴムパッキン
  1

  0
LINE
  5
4D2
330
4D1
100
AcDbEntity
  8
0
100
AcDbLine
 10
0.000005
 20
-0.000011
 30
0.0
 11
0.000005
 21
-40.000011
 31
0.0
  0
LINE
  5
4D3
330
4D1
100
AcDbEntity
  8
0
100
AcDbLine
 10
0.000005
 20
-0.000011
 30
0.0
 11
5.000005
 21
-0.000011
 31
0.0
  0
LINE
  5
4D4
330
4D1
100
AcDbEntity
  8
0
100
AcDbLine
 10
0.000005
 20
-40.000011
 30
0.0
 11
5.000005
 21
-40.000011
 31
0.0
  0
LINE
  5
4D5
330
4D1
100
AcDbEntity
  8
0
100
AcDbLine
 10
5.000005
 20
-0.000011
 30
0.0
 11
5.000005
 21
-10.000011
 31
0.0
  0
LINE
  5
4D6
330
4D1
100
AcDbEntity
  8
0
100
AcDbLine
 10
5.000005
 20
-30.000011
 30
0.0
 11
5.000005
 21
-40.000011
 31
0.0
  0
LINE
  5
4D7
330
4D1
100
AcDbEntity
  8
0
100
AcDbLine
 10
5.000005
 20
-10.000011
 30
0.0
 11
5.000005
 21
-30.000011
 31
0.0
  0
LINE
  5
4D8
330
4D1
100
AcDbEntity
  8
0
 62
     1
100
AcDbLine
 10
2.874546
 20
-40.000011
 30
0.0
 11
5.000005
 21
-36.318608
 31
0.0
  0
LINE
  5
4D9
330
4D1
100
AcDbEntity
  8
0
 62
     1
100
AcDbLine
 10
0.000005
 20
-38.978862
 30
0.0
 11
5.000005
 21
-30.318608
 31
0.0
  0
LINE
  5
4DA
330
4D1
100
AcDbEntity
  8
0
 62
     1
100
AcDbLine
 10
0.000005
 20
-32.978862
 30
0.0
 11
5.000005
 21
-24.31860866666666
 31
0.0
  0
LINE
  5
4DB
330
4D1
100
AcDbEntity
  8
0
 62
     1
100
AcDbLine
 10
0.000005
 20
-26.978862
 30
0.0
 11
5.000005
 21
-18.31860866666667
 31
0.0
  0
LINE
  5
4DC
330
4D1
100
AcDbEntity
  8
0
 62
     1
100
AcDbLine
 10
0.000005
 20
-20.978862
 30
0.0
 11
5.000005
 21
-12.31860866666666
 31
0.0
  0
LINE
  5
4DD
330
4D1
100
AcDbEntity
  8
0
 62
     1
100
AcDbLine
 10
0.000005
 20
-14.978862
 30
0.0
 11
5.000005
 21
-6.318608
 31
0.0
  0
LINE
  5
4DE
330
4D1
100
AcDbEntity
  8
0
 62
     1
100
AcDbLine
 10
0.000005
 20
-8.978861999999999
 30
0.0
 11
5.000005
 21
-0.318608
 31
0.0
  0
LINE
  5
4DF
330
4D1
100
AcDbEntity
  8
0
 62
     1
100
AcDbLine
 10
0.000005
 20
-2.978861999999999
 30
0.0
 11
1.719845
 21
-0.000011
 31
0.0
  0
ENDBLK
  5
4E1
330
4D1
100
AcDbEntity
  8
0
100
AcDbBlockEnd
  0
BLOCK
  5
AD
330
A2
100
AcDbEntity
  8
0
 48
3.0
100
AcDbBlockBegin
  2
*D4
 70
     1
 10
0.0
 20
0.0
 30
0.0
  3
*D4
  1

  0
LINE
  5
A3
330
A2
100
AcDbEntity
  8
寸法線
  6
Continuous
 62
     0
 48
3.0
370
    -2
100
AcDbLine
 10
1960.729945742093
 20
1625.433446905533
 30
0.0
 11
1765.74378203227
 21
1625.433446905533
 31
0.0
  0
LINE
  5
A4
330
A2
100
AcDbEntity
  8
寸法線
  6
Continuous
 62
     0
 48
3.0
370
    -2
100
AcDbLine
 10
1960.729945742093
 20
1235.433446905533
 30
0.0
 11
1765.74378203227
 21
1235.433446905533
 31
0.0
  0
LINE
  5
A5
330
A2
100
AcDbEntity
  8
寸法線
  6
Continuous
 62
     0
 48
3.0
370
    -2
100
AcDbLine
 10
1780.74378203227
 20
1610.433446905533
 30
0.0
 11
1780.74378203227
 21
1250.433446905533
 31
0.0
  0
INSERT
  5
A6
330
A2
100
AcDbEntity
  8
寸法線
  6
Continuous
 62
     0
 48
3.0
370
    -2
100
AcDbBlockReference
  2
_Open30
 10
1780.74378203227
 20
1625.433446905533
 30
0.0
 41
15.0
 42
15.0
 43
15.0
 50
90.0
  0
INSERT
  5
A7
330
A2
100
AcDbEntity
  8
寸法線
  6
Continuous
 62
     0
 48
3.0
370
    -2
100
AcDbBlockReference
  2
_Open30
 10
1780.74378203227
 20
1235.433446905533
 30
0.0
 41
15.0
 42
15.0
 43
15.0
 50
270.0
  0
MTEXT
  5
A8
330
A2
100
AcDbEntity
  8
寸法線
  6
Continuous
 62
     0
 48
3.0
100
AcDbMText
 10
1760.74378203227
 20
1430.433446905534
 30
0.0
 40
30.0
 41
0.0
 71
     5
 72
     1
  1
390
 11
0.0000000000000001
 21
1.0
 31
0.0
 73
     1
 44
1.0
1001
ACAD
1000
MTEXTBEGIN
1070
    73
1070
     1
1070
    44
1040
1.0
1070
    74
1070
     0
1000
MTEXTEND
  0
POINT
  5
A9
330
A2
100
AcDbEntity
  8
Defpoints
  6
Continuous
 62
     0
 48
3.0
100
AcDbPoint
 10
1980.729945742093
 20
1625.433446905533
 30
0.0
  0
POINT
  5
AB
330
A2
100
AcDbEntity
  8
Defpoints
  6
Continuous
 62
     0
 48
3.0
100
AcDbPoint
 10
1980.729945742093
 20
1235.433446905533
 30
0.0
  0
POINT
  5
AC
330
A2
100
AcDbEntity
  8
Defpoints
  6
Continuous
 62
     0
 48
3.0
100
AcDbPoint
 10
1780.74378203227
 20
1235.433446905533
 30
0.0
  0
ENDBLK
  5
AE
330
A2
100
AcDbEntity
  8
0
 48
3.0
100
AcDbBlockEnd
  0
BLOCK
  5
BA
330
B0
100
AcDbEntity
  8
0
 48
3.0
100
AcDbBlockBegin
  2
*D5
 70
     1
 10
0.0
 20
0.0
 30
0.0
  3
*D5
  1

  0
LINE
  5
B1
330
B0
100
AcDbEntity
  8
寸法線
  6
Continuous
 62
     0
 48
3.0
370
    -2
100
AcDbLine
 10
1958.729945742093
 20
1580.433446905533
 30
0.0
 11
1863.731359992384
 21
1580.433446905533
 31
0.0
  0
LINE
  5
B2
330
B0
100
AcDbEntity
  8
寸法線
  6
Continuous
 62
     0
 48
3.0
370
    -2
100
AcDbLine
 10
1958.729945742093
 20
1480.433446905533
 30
0.0
 11
1863.731359992383
 21
1480.433446905533
 31
0.0
  0
LINE
  5
B3
330
B0
100
AcDbEntity
  8
寸法線
  6
Continuous
 62
     0
 48
3.0
370
    -2
100
AcDbLine
 10
1878.731359992384
 20
1565.433446905533
 30
0.0
 11
1878.731359992384
 21
1495.433446905533
 31
0.0
  0
INSERT
  5
B4
330
B0
100
AcDbEntity
  8
寸法線
  6
Continuous
 62
     0
 48
3.0
370
    -2
100
AcDbBlockReference
  2
_Open30
 10
1878.731359992384
 20
1580.433446905533
 30
0.0
 41
15.0
 42
15.0
 43
15.0
 50
90.0
  0
INSERT
  5
B5
330
B0
100
AcDbEntity
  8
寸法線
  6
Continuous
 62
     0
 48
3.0
370
    -2
100
AcDbBlockReference
  2
_Open30
 10
1878.731359992384
 20
1480.433446905533
 30
0.0
 41
15.0
 42
15.0
 43
15.0
 50
270.0
  0
MTEXT
  5
B6
330
B0
100
AcDbEntity
  8
寸法線
  6
Continuous
 62
     0
 48
3.0
100
AcDbMText
 10
1858.731359992383
 20
1530.433446905533
 30
0.0
 40
30.0
 41
0.0
 71
     5
 72
     1
  1
100
 11
0.0000000000000001
 21
1.0
 31
0.0
 73
     1
 44
1.0
1001
ACAD
1000
MTEXTBEGIN
1070
    73
1070
     1
1070
    44
1040
1.0
1070
    74
1070
     0
1000
MTEXTEND
  0
POINT
  5
B7
330
B0
100
AcDbEntity
  8
Defpoints
  6
Continuous
 62
     0
 48
3.0
100
AcDbPoint
 10
1978.729945742093
 20
1580.433446905533
 30
0.0
  0
POINT
  5
B8
330
B0
100
AcDbEntity
  8
Defpoints
  6
Continuous
 62
     0
 48
3.0
100
AcDbPoint
 10
1978.729945742093
 20
1480.433446905533
 30
0.0
  0
POINT
  5
B9
330
B0
100
AcDbEntity
  8
Defpoints
  6
Continuous
 62
     0
 48
3.0
100
AcDbPoint
 10
1878.731359992384
 20
1480.433446905533
 30
0.0
  0
ENDBLK
  5
BB
330
B0
100
AcDbEntity
  8
0
 48
3.0
100
AcDbBlockEnd
  0
BLOCK
  5
CD
330
C3
100
AcDbEntity
  8
0
 48
3.0
100
AcDbBlockBegin
  2
*D6
 70
     1
 10
0.0
 20
0.0
 30
0.0
  3
*D6
  1

  0
LINE
  5
13CA
330
C3
100
AcDbEntity
  8
寸法線
  6
Continuous
 62
     0
370
    -2
100
AcDbLine
 10
1153.799991884474
 20
599.3493681823856
 30
0.0
 11
1260.804966467169
 21
599.3493681823856
 31
0.0
  0
LINE
  5
13CB
330
C3
100
AcDbEntity
  8
寸法線
  6
Continuous
 62
     0
370
    -2
100
AcDbLine
 10
1153.799991884474
 20
659.3493681823856
 30
0.0
 11
1260.804966467169
 21
659.3493681823856
 31
0.0
  0
LINE
  5
13CC
330
C3
100
AcDbEntity
  8
寸法線
  6
Continuous
 62
     0
370
    -2
100
AcDbLine
 10
1245.804966467169
 20
614.3493681823856
 30
0.0
 11
1245.804966467169
 21
644.3493681823857
 31
0.0
  0
INSERT
  5
13CD
330
C3
100
AcDbEntity
  8
寸法線
  6
Continuous
 62
     0
370
    -2
100
AcDbBlockReference
  2
_Open30
 10
1245.804966467169
 20
599.3493681823856
 30
0.0
 41
15.0
 42
15.0
 43
15.0
 50
270.0
  0
INSERT
  5
13CE
330
C3
100
AcDbEntity
  8
寸法線
  6
Continuous
 62
     0
370
    -2
100
AcDbBlockReference
  2
_Open30
 10
1245.804966467169
 20
659.3493681823856
 30
0.0
 41
15.0
 42
15.0
 43
15.0
 50
90.0
  0
MTEXT
  5
13CF
330
C3
100
AcDbEntity
  8
寸法線
  6
Continuous
 62
     0
100
AcDbMText
 10
1225.804966467169
 20
629.3493681823857
 30
0.0
 40
30.0
 41
0.0
 71
     5
 72
     1
  1
60
 11
0.0000000000000001
 21
1.0
 31
0.0
 73
     1
 44
1.0
1001
ACAD
1000
MTEXTBEGIN
1070
    73
1070
     1
1070
    44
1040
1.0
1070
    74
1070
     0
1000
MTEXTEND
  0
POINT
  5
13D0
330
C3
100
AcDbEntity
  8
Defpoints
  6
Continuous
 62
     0
100
AcDbPoint
 10
1133.799991884474
 20
599.3493681823856
 30
0.0
  0
POINT
  5
13D1
330
C3
100
AcDbEntity
  8
Defpoints
  6
Continuous
 62
     0
100
AcDbPoint
 10
1133.799991884474
 20
659.3493681823856
 30
0.0
  0
POINT
  5
13D2
330
C3
100
AcDbEntity
  8
Defpoints
  6
Continuous
 62
     0
100
AcDbPoint
 10
1245.804966467169
 20
659.3493681823856
 30
0.0
  0
ENDBLK
  5
CE
330
C3
100
AcDbEntity
  8
0
 48
3.0
100
AcDbBlockEnd
  0
BLOCK
  5
DC
330
D0
100
AcDbEntity
  8
0
 48
3.0
100
AcDbBlockBegin
  2
*D7
 70
     1
 10
0.0
 20
0.0
 30
0.0
  3
*D7
  1

  0
LINE
  5
13D3
330
D0
100
AcDbEntity
  8
寸法線
  6
Continuous
 62
     0
370
    -2
100
AcDbLine
 10
1153.799991884474
 20
659.3493681823856
 30
0.0
 11
1260.804966467169
 21
659.3493681823856
 31
0.0
  0
LINE
  5
13D4
330
D0
100
AcDbEntity
  8
寸法線
  6
Continuous
 62
     0
370
    -2
100
AcDbLine
 10
1155.799991884474
 20
691.3493681823856
 30
0.0
 11
1260.804966467169
 21
691.3493681823856
 31
0.0
  0
LINE
  5
13D5
330
D0
100
AcDbEntity
  8
寸法線
  6
Continuous
 62
     0
370
    -2
100
AcDbLine
 10
1245.804966467169
 20
644.3493681823857
 30
0.0
 11
1245.804966467169
 21
629.3493681823856
 31
0.0
  0
LINE
  5
13D6
330
D0
100
AcDbEntity
  8
寸法線
  6
Continuous
 62
     0
370
    -2
100
AcDbLine
 10
1245.804966467169
 20
706.3493681823857
 30
0.0
 11
1245.804966467169
 21
766.5270331570049
 31
0.0
  0
LINE
  5
13D7
330
D0
100
AcDbEntity
  8
寸法線
  6
Continuous
 62
     0
370
    -2
100
AcDbLine
 10
1245.804966467169
 20
659.3493681823856
 30
0.0
 11
1245.804966467169
 21
691.3493681823856
 31
0.0
  0
INSERT
  5
13D8
330
D0
100
AcDbEntity
  8
寸法線
  6
Continuous
 62
     0
370
    -2
100
AcDbBlockReference
  2
_Open30
 10
1245.804966467169
 20
659.3493681823856
 30
0.0
 41
15.0
 42
15.0
 43
15.0
 50
90.0
  0
INSERT
  5
13D9
330
D0
100
AcDbEntity
  8
寸法線
  6
Continuous
 62
     0
370
    -2
100
AcDbBlockReference
  2
_Open30
 10
1245.804966467169
 20
691.3493681823856
 30
0.0
 41
15.0
 42
15.0
 43
15.0
 50
270.0
  0
MTEXT
  5
13DA
330
D0
100
AcDbEntity
  8
寸法線
  6
Continuous
 62
     0
100
AcDbMText
 10
1225.804966467169
 20
743.9382006696954
 30
0.0
 40
30.0
 41
0.0
 71
     5
 72
     1
  1
32
 11
0.0000000000000001
 21
1.0
 31
0.0
 73
     1
 44
1.0
1001
ACAD
1000
MTEXTBEGIN
1070
    73
1070
     1
1070
    44
1040
1.0
1070
    74
1070
     0
1000
MTEXTEND
  0
POINT
  5
13DB
330
D0
100
AcDbEntity
  8
Defpoints
  6
Continuous
 62
     0
100
AcDbPoint
 10
1133.799991884474
 20
659.3493681823856
 30
0.0
  0
POINT
  5
13DC
330
D0
100
AcDbEntity
  8
Defpoints
  6
Continuous
 62
     0
100
AcDbPoint
 10
1135.799991884474
 20
691.3493681823856
 30
0.0
  0
POINT
  5
13DD
330
D0
100
AcDbEntity
  8
Defpoints
  6
Continuous
 62
     0
100
AcDbPoint
 10
1245.804966467169
 20
691.3493681823856
 30
0.0
  0
ENDBLK
  5
DD
330
D0
100
AcDbEntity
  8
0
 48
3.0
100
AcDbBlockEnd
  0
BLOCK
  5
E9
330
DF
100
AcDbEntity
  8
0
 48
3.0
100
AcDbBlockBegin
  2
*D8
 70
     1
 10
0.0
 20
0.0
 30
0.0
  3
*D8
  1

  0
LINE
  5
E26
330
DF
100
AcDbEntity
  8
寸法線
  6
Continuous
 62
     0
 48
3.0
370
    -2
100
AcDbLine
 10
2082.729942742093
 20
1615.433447905533
 30
0.0
 11
2187.727688224806
 21
1615.433447905533
 31
0.0
  0
LINE
  5
E27
330
DF
100
AcDbEntity
  8
寸法線
  6
Continuous
 62
     0
 48
3.0
370
    -2
100
AcDbLine
 10
2082.729942742093
 20
1245.433445905533
 30
0.0
 11
2187.727688224806
 21
1245.433445905533
 31
0.0
  0
LINE
  5
E28
330
DF
100
AcDbEntity
  8
寸法線
  6
Continuous
 62
     0
 48
3.0
370
    -2
100
AcDbLine
 10
2172.727688224806
 20
1600.433447905533
 30
0.0
 11
2172.727688224806
 21
1260.433445905533
 31
0.0
  0
INSERT
  5
E29
330
DF
100
AcDbEntity
  8
寸法線
  6
Continuous
 62
     0
 48
3.0
370
    -2
100
AcDbBlockReference
  2
_Open30
 10
2172.727688224806
 20
1615.433447905533
 30
0.0
 41
15.0
 42
15.0
 43
15.0
 50
90.0
  0
INSERT
  5
E2A
330
DF
100
AcDbEntity
  8
寸法線
  6
Continuous
 62
     0
 48
3.0
370
    -2
100
AcDbBlockReference
  2
_Open30
 10
2172.727688224806
 20
1245.433445905533
 30
0.0
 41
15.0
 42
15.0
 43
15.0
 50
270.0
  0
MTEXT
  5
E2B
330
DF
100
AcDbEntity
  8
寸法線
  6
Continuous
 62
     0
 48
3.0
100
AcDbMText
 10
2152.727688224806
 20
1430.433446905533
 30
0.0
 40
30.0
 41
0.0
 71
     5
 72
     1
  1
370
 11
0.0000000000000001
 21
1.0
 31
0.0
 73
     1
 44
1.0
1001
ACAD
1000
MTEXTBEGIN
1070
    73
1070
     1
1070
    44
1040
1.0
1070
    74
1070
     0
1000
MTEXTEND
  0
POINT
  5
E2C
330
DF
100
AcDbEntity
  8
Defpoints
  6
Continuous
 62
     0
 48
3.0
100
AcDbPoint
 10
2062.729942742093
 20
1615.433447905533
 30
0.0
  0
POINT
  5
E2D
330
DF
100
AcDbEntity
  8
Defpoints
  6
Continuous
 62
     0
 48
3.0
100
AcDbPoint
 10
2062.729942742093
 20
1245.433445905533
 30
0.0
  0
POINT
  5
E2E
330
DF
100
AcDbEntity
  8
Defpoints
  6
Continuous
 62
     0
 48
3.0
100
AcDbPoint
 10
2172.727688224806
 20
1245.433445905533
 30
0.0
  0
ENDBLK
  5
EA
330
DF
100
AcDbEntity
  8
0
 48
3.0
100
AcDbBlockEnd
  0
BLOCK
  5
126
330
11C
100
AcDbEntity
  8
0
 48
3.0
100
AcDbBlockBegin
  2
*D9
 70
     1
 10
0.0
 20
0.0
 30
0.0
  3
*D9
  1

  0
LINE
  5
1435
330
11C
100
AcDbEntity
  8
寸法線
  6
Continuous
 62
     0
370
    -2
100
AcDbLine
 10
1155.799991884474
 20
691.3493681823856
 30
0.0
 11
1340.799991884474
 21
691.3493681823855
 31
0.0
  0
LINE
  5
1436
330
11C
100
AcDbEntity
  8
寸法線
  6
Continuous
 62
     0
370
    -2
100
AcDbLine
 10
1153.652266039526
 20
594.3493681823858
 30
0.0
 11
1340.799991884474
 21
594.3493681823857
 31
0.0
  0
LINE
  5
1437
330
11C
100
AcDbEntity
  8
寸法線
  6
Continuous
 62
     0
370
    -2
100
AcDbLine
 10
1325.799991884474
 20
676.3493681823855
 30
0.0
 11
1325.799991884474
 21
609.3493681823858
 31
0.0
  0
INSERT
  5
1438
330
11C
100
AcDbEntity
  8
寸法線
  6
Continuous
 62
     0
370
    -2
100
AcDbBlockReference
  2
_Open30
 10
1325.799991884474
 20
691.3493681823855
 30
0.0
 41
15.0
 42
15.0
 43
15.0
 50
90.0
  0
INSERT
  5
1439
330
11C
100
AcDbEntity
  8
寸法線
  6
Continuous
 62
     0
370
    -2
100
AcDbBlockReference
  2
_Open30
 10
1325.799991884474
 20
594.3493681823857
 30
0.0
 41
15.0
 42
15.0
 43
15.0
 50
270.0
  0
MTEXT
  5
143A
330
11C
100
AcDbEntity
  8
寸法線
  6
Continuous
 62
     0
100
AcDbMText
 10
1305.799991884474
 20
642.8493681823859
 30
0.0
 40
30.0
 41
0.0
 71
     5
 72
     1
  1
97
 11
0.0000000000000001
 21
1.0
 31
0.0
 73
     1
 44
1.0
1001
ACAD
1000
MTEXTBEGIN
1070
    73
1070
     1
1070
    44
1040
1.0
1070
    74
1070
     0
1000
MTEXTEND
  0
POINT
  5
143B
330
11C
100
AcDbEntity
  8
Defpoints
  6
Continuous
 62
     0
100
AcDbPoint
 10
1135.799991884474
 20
691.3493681823856
 30
0.0
  0
POINT
  5
143C
330
11C
100
AcDbEntity
  8
Defpoints
  6
Continuous
 62
     0
100
AcDbPoint
 10
1133.652266039526
 20
594.3493681823858
 30
0.0
  0
POINT
  5
143D
330
11C
100
AcDbEntity
  8
Defpoints
  6
Continuous
 62
     0
100
AcDbPoint
 10
1325.799991884474
 20
594.3493681823857
 30
0.0
  0
ENDBLK
  5
127
330
11C
100
AcDbEntity
  8
0
 48
3.0
100
AcDbBlockEnd
  0
BLOCK
  5
4CA
330
4C0
100
AcDbEntity
  8
0
 48
3.0
100
AcDbBlockBegin
  2
*D10
 70
     1
 10
0.0
 20
0.0
 30
0.0
  3
*D10
  1

  0
LINE
  5
14F7
330
4C0
100
AcDbEntity
  8
寸法線
  6
Continuous
 62
     0
370
    -2
100
AcDbLine
 10
541.7999911844744
 20
711.3493681823855
 30
0.0
 11
541.7999911844744
 21
866.3493681823855
 31
0.0
  0
LINE
  5
14F8
330
4C0
100
AcDbEntity
  8
寸法線
  6
Continuous
 62
     0
370
    -2
100
AcDbLine
 10
1135.799991884474
 20
711.3493681823855
 30
0.0
 11
1135.799991884474
 21
866.3493681823855
 31
0.0
  0
LINE
  5
14F9
330
4C0
100
AcDbEntity
  8
寸法線
  6
Continuous
 62
     0
370
    -2
100
AcDbLine
 10
556.7999911844744
 20
851.3493681823856
 30
0.0
 11
1120.799991884474
 21
851.3493681823856
 31
0.0
  0
INSERT
  5
14FA
330
4C0
100
AcDbEntity
  8
寸法線
  6
Continuous
 62
     0
370
    -2
100
AcDbBlockReference
  2
_Open30
 10
541.7999911844744
 20
851.3493681823856
 30
0.0
 41
15.0
 42
15.0
 43
15.0
 50
180.0
  0
INSERT
  5
14FB
330
4C0
100
AcDbEntity
  8
寸法線
  6
Continuous
 62
     0
370
    -2
100
AcDbBlockReference
  2
_Open30
 10
1135.799991884474
 20
851.3493681823856
 30
0.0
 41
15.0
 42
15.0
 43
15.0
  0
MTEXT
  5
14FC
330
4C0
100
AcDbEntity
  8
寸法線
  6
Continuous
 62
     0
100
AcDbMText
 10
838.7999915344744
 20
871.3493681823855
 30
0.0
 40
30.0
 41
0.0
 71
     5
 72
     1
  1
594
 73
     1
 44
1.0
1001
ACAD
1000
MTEXTBEGIN
1070
    73
1070
     1
1070
    44
1040
1.0
1070
    74
1070
     0
1000
MTEXTEND
  0
POINT
  5
14FD
330
4C0
100
AcDbEntity
  8
Defpoints
  6
Continuous
 62
     0
100
AcDbPoint
 10
541.7999911844744
 20
691.3493681823855
 30
0.0
  0
POINT
  5
14FE
330
4C0
100
AcDbEntity
  8
Defpoints
  6
Continuous
 62
     0
100
AcDbPoint
 10
1135.799991884474
 20
691.3493681823855
 30
0.0
  0
POINT
  5
14FF
330
4C0
100
AcDbEntity
  8
Defpoints
  6
Continuous
 62
     0
100
AcDbPoint
 10
1135.799991884474
 20
851.3493681823856
 30
0.0
  0
ENDBLK
  5
4CB
330
4C0
100
AcDbEntity
  8
0
 48
3.0
100
AcDbBlockEnd
  0
BLOCK
  5
4FC
330
4F0
100
AcDbEntity
  8
0
 48
3.0
100
AcDbBlockBegin
  2
*D11
 70
     1
 10
0.0
 20
0.0
 30
0.0
  3
*D11
  1

  0
LINE
  5
13E7
330
4F0
100
AcDbEntity
  8
寸法線
  6
Continuous
 62
     0
370
    -2
100
AcDbLine
 10
1153.799991884474
 20
599.3493681823856
 30
0.0
 11
1260.804966467169
 21
599.3493681823856
 31
0.0
  0
LINE
  5
13E8
330
4F0
100
AcDbEntity
  8
寸法線
  6
Continuous
 62
     0
370
    -2
100
AcDbLine
 10
1153.799991184474
 20
594.3493681823858
 30
0.0
 11
1260.804966467169
 21
594.3493681823858
 31
0.0
  0
LINE
  5
13E9
330
4F0
100
AcDbEntity
  8
寸法線
  6
Continuous
 62
     0
370
    -2
100
AcDbLine
 10
1245.804966467169
 20
614.3493681823856
 30
0.0
 11
1245.804966467169
 21
629.3493681823856
 31
0.0
  0
LINE
  5
13EA
330
4F0
100
AcDbEntity
  8
寸法線
  6
Continuous
 62
     0
370
    -2
100
AcDbLine
 10
1245.804966467169
 20
579.3493681823859
 30
0.0
 11
1245.804966467169
 21
538.816373258528
 31
0.0
  0
LINE
  5
13EB
330
4F0
100
AcDbEntity
  8
寸法線
  6
Continuous
 62
     0
370
    -2
100
AcDbLine
 10
1245.804966467169
 20
599.3493681823856
 30
0.0
 11
1245.804966467169
 21
594.3493681823858
 31
0.0
  0
INSERT
  5
13EC
330
4F0
100
AcDbEntity
  8
寸法線
  6
Continuous
 62
     0
370
    -2
100
AcDbBlockReference
  2
_Open30
 10
1245.804966467169
 20
599.3493681823856
 30
0.0
 41
15.0
 42
15.0
 43
15.0
 50
270.0
  0
INSERT
  5
13ED
330
4F0
100
AcDbEntity
  8
寸法線
  6
Continuous
 62
     0
370
    -2
100
AcDbBlockReference
  2
_Open30
 10
1245.804966467169
 20
594.3493681823858
 30
0.0
 41
15.0
 42
15.0
 43
15.0
 50
90.0
  0
MTEXT
  5
13EE
330
4F0
100
AcDbEntity
  8
寸法線
  6
Continuous
 62
     0
100
AcDbMText
 10
1225.804966467169
 20
551.5828707204571
 30
0.0
 40
30.0
 41
0.0
 71
     5
 72
     1
  1
5
 11
0.0000000000000001
 21
1.0
 31
0.0
 73
     1
 44
1.0
1001
ACAD
1000
MTEXTBEGIN
1070
    73
1070
     1
1070
    44
1040
1.0
1070
    74
1070
     0
1000
MTEXTEND
  0
POINT
  5
13EF
330
4F0
100
AcDbEntity
  8
Defpoints
  6
Continuous
 62
     0
100
AcDbPoint
 10
1133.799991884474
 20
599.3493681823856
 30
0.0
  0
POINT
  5
13F0
330
4F0
100
AcDbEntity
  8
Defpoints
  6
Continuous
 62
     0
100
AcDbPoint
 10
1133.799991184474
 20
594.3493681823858
 30
0.0
  0
POINT
  5
13F1
330
4F0
100
AcDbEntity
  8
Defpoints
  6
Continuous
 62
     0
100
AcDbPoint
 10
1245.804966467169
 20
594.3493681823858
 30
0.0
  0
ENDBLK
  5
4FD
330
4F0
100
AcDbEntity
  8
0
 48
3.0
100
AcDbBlockEnd
  0
BLOCK
  5
112D
330
1123
100
AcDbEntity
  8
0
 48
3.0
100
AcDbBlockBegin
  2
P-H60
 70
     0
 10
0.0
 20
0.0
 30
0.0
  3
P-H60
  1

  0
LINE
  5
1124
330
1123
100
AcDbEntity
  8
0
100
AcDbLine
 10
2.999997
 20
0.000001
 30
0.0
 11
56.999997
 21
0.000001
 31
0.0
  0
LINE
  5
1125
330
1123
100
AcDbEntity
  8
0
100
AcDbLine
 10
-0.000003
 20
-2.999999
 30
0.0
 11
-0.000003
 21
-36.999999
 31
0.0
  0
LINE
  5
1126
330
1123
100
AcDbEntity
  8
0
100
AcDbLine
 10
2.999997
 20
-39.999999
 30
0.0
 11
56.999997
 21
-39.999999
 31
0.0
  0
ARC
  5
1127
330
1123
100
AcDbEntity
  8
0
100
AcDbCircle
 10
2.999997
 20
-36.999999
 30
0.0
 40
3.0
100
AcDbArc
 50
180.0
 51
270.0
  0
ARC
  5
1128
330
1123
100
AcDbEntity
  8
0
100
AcDbCircle
 10
2.999997
 20
-2.999999
 30
0.0
 40
3.0
100
AcDbArc
 50
90.0
 51
180.0
  0
LINE
  5
1129
330
1123
100
AcDbEntity
  8
0
100
AcDbLine
 10
59.999997
 20
-36.999999
 30
0.0
 11
59.999997
 21
-2.999999
 31
0.0
  0
ARC
  5
112A
330
1123
100
AcDbEntity
  8
0
100
AcDbCircle
 10
56.999997
 20
-2.999999
 30
0.0
 40
3.0
100
AcDbArc
 50
0.0
 51
90.0
  0
ARC
  5
112B
330
1123
100
AcDbEntity
  8
0
100
AcDbCircle
 10
56.999997
 20
-36.999999
 30
0.0
 40
3.0
100
AcDbArc
 50
270.0
 51
0.0
  0
LWPOLYLINE
  5
112C
330
1123
100
AcDbEntity
  8
0
  6
Continuous
100
AcDbPolyline
 90
        4
 70
     1
 43
0.0
 10
2.299996999999999
 20
-37.69999900000001
 10
57.699997
 20
-37.69999900000001
 10
57.699997
 20
-2.299998999999999
 10
2.299996999999999
 20
-2.299998999999999
  0
ENDBLK
  5
112E
330
1123
100
AcDbEntity
  8
0
 48
3.0
100
AcDbBlockEnd
  0
BLOCK
  5
12CF
330
12CD
100
AcDbEntity
  8
0
 48
3.0
100
AcDbBlockBegin
  2
鎌下
 70
     0
 10
0.0
 20
0.0
 30
0.0
  3
鎌下
  1

  0
MTEXT
  5
12D0
330
12CD
100
AcDbEntity
  8
外枠
  6
Continuous
100
AcDbMText
 10
40.55333581259037
 20
-88.14888116777728
 30
0.0
 40
28.17460800000001
 41
43.8527
 71
     1
 72
     5
  1
{\fHGSeikaishotaiPRO|b0|i0|c128|p65;下}
 73
     1
 44
1.0
1001
ACAD
1000
MTEXTBEGIN
1070
    73
1070
     1
1070
    44
1040
1.0
1070
    74
1070
     0
1000
MTEXTEND
  0
MTEXT
  5
12D1
330
12CD
100
AcDbEntity
  8
外枠
  6
Continuous
100
AcDbMText
 10
40.55333581259037
 20
-45.61885629864991
 30
0.0
 40
28.17460800000001
 41
43.8527
 71
     1
 72
     5
  1
{\fHGSeikaishotaiPRO|b0|i0|c128|p65;鎌}
 73
     1
 44
1.0
1001
ACAD
1000
MTEXTBEGIN
1070
    73
1070
     1
1070
    44
1040
1.0
1070
    74
1070
     0
1000
MTEXTEND
  0
ELLIPSE
  5
12D2
330
12CD
100
AcDbEntity
  8
外枠
  6
Continuous
100
AcDbEllipse
 10
61.68068686355036
 20
-84.59863033186412
 30
0.0
 11
0.0
 21
-47.8594442149426
 31
0.0
210
0.0
220
0.0
230
1.0
 40
0.7999999999999857
 41
0.0
 42
6.283185307179586
  0
ENDBLK
  5
12D3
330
12CD
100
AcDbEntity
  8
0
 48
3.0
100
AcDbBlockEnd
  0
BLOCK
  5
1330
330
132F
100
AcDbEntity
  8
0
 48
3.0
100
AcDbBlockBegin
  2
*D14
 70
     1
 10
0.0
 20
0.0
 30
0.0
  3
*D14
  1

  0
LINE
  5
13F2
330
132F
100
AcDbEntity
  8
寸法線
 62
     0
 48
3.0
370
    -2
100
AcDbLine
 10
543.7999911844745
 20
574.3493681823856
 30
0.0
 11
543.7999911844745
 21
499.3493681823856
 31
0.0
  0
LINE
  5
13F3
330
132F
100
AcDbEntity
  8
寸法線
 62
     0
 48
3.0
370
    -2
100
AcDbLine
 10
1133.799991184474
 20
574.3493681823858
 30
0.0
 11
1133.799991184474
 21
499.3493681823856
 31
0.0
  0
LINE
  5
13F4
330
132F
100
AcDbEntity
  8
寸法線
 62
     0
 48
3.0
370
    -2
100
AcDbLine
 10
558.7999911844745
 20
514.3493681823856
 30
0.0
 11
1118.799991184474
 21
514.3493681823856
 31
0.0
  0
INSERT
  5
13F5
330
132F
100
AcDbEntity
  8
寸法線
 62
     0
 48
3.0
370
    -2
100
AcDbBlockReference
  2
_Open30
 10
543.7999911844745
 20
514.3493681823856
 30
0.0
 41
15.0
 42
15.0
 43
15.0
 50
180.0
  0
INSERT
  5
13F6
330
132F
100
AcDbEntity
  8
寸法線
 62
     0
 48
3.0
370
    -2
100
AcDbBlockReference
  2
_Open30
 10
1133.799991184474
 20
514.3493681823856
 30
0.0
 41
15.0
 42
15.0
 43
15.0
  0
MTEXT
  5
13F7
330
132F
100
AcDbEntity
  8
寸法線
 62
     0
 48
3.0
100
AcDbMText
 10
838.7999911844744
 20
534.3493681823856
 30
0.0
 40
30.0
 41
0.0
 71
     5
 72
     1
  1
590
 73
     1
 44
1.0
1001
ACAD
1000
MTEXTBEGIN
1070
    73
1070
     1
1070
    44
1040
1.0
1070
    74
1070
     0
1000
MTEXTEND
  0
POINT
  5
13F8
330
132F
100
AcDbEntity
  8
Defpoints
 62
     0
 48
3.0
100
AcDbPoint
 10
543.7999911844745
 20
594.3493681823857
 30
0.0
  0
POINT
  5
13F9
330
132F
100
AcDbEntity
  8
Defpoints
 62
     0
 48
3.0
100
AcDbPoint
 10
1133.799991184474
 20
594.3493681823858
 30
0.0
  0
POINT
  5
13FA
330
132F
100
AcDbEntity
  8
Defpoints
 62
     0
 48
3.0
100
AcDbPoint
 10
1133.799991184474
 20
514.3493681823856
 30
0.0
  0
ENDBLK
  5
1331
330
132F
100
AcDbEntity
  8
0
 48
3.0
100
AcDbBlockEnd
  0
BLOCK
  5
1409
330
1408
100
AcDbEntity
  8
0
 48
3.0
100
AcDbBlockBegin
  2
*D15
 70
     1
 10
0.0
 20
0.0
 30
0.0
  3
*D15
  1

  0
LINE
  5
14EC
330
1408
100
AcDbEntity
  8
寸法線
 62
     0
 48
3.0
370
    -2
100
AcDbLine
 10
933.1435022844745
 20
719.3493681823855
 30
0.0
 11
933.1435022844745
 21
786.3493681823855
 31
0.0
  0
LINE
  5
14ED
330
1408
100
AcDbEntity
  8
寸法線
 62
     0
 48
3.0
370
    -2
100
AcDbLine
 10
945.6479703844742
 20
719.3493681823855
 30
0.0
 11
945.6479703844742
 21
786.3493681823855
 31
0.0
  0
LINE
  5
14EE
330
1408
100
AcDbEntity
  8
寸法線
 62
     0
 48
3.0
370
    -2
100
AcDbLine
 10
918.1435022844745
 20
771.3493681823855
 30
0.0
 11
903.1435022844744
 21
771.3493681823855
 31
0.0
  0
LINE
  5
14EF
330
1408
100
AcDbEntity
  8
寸法線
 62
     0
 48
3.0
370
    -2
100
AcDbLine
 10
960.6479703844742
 20
771.3493681823855
 30
0.0
 11
1057.526142973306
 21
771.3493681823855
 31
0.0
  0
LINE
  5
14F0
330
1408
100
AcDbEntity
  8
寸法線
 62
     0
 48
3.0
370
    -2
100
AcDbLine
 10
933.1435022844745
 20
771.3493681823855
 30
0.0
 11
945.6479703844742
 21
771.3493681823855
 31
0.0
  0
INSERT
  5
14F1
330
1408
100
AcDbEntity
  8
寸法線
 62
     0
 48
3.0
370
    -2
100
AcDbBlockReference
  2
_Open30
 10
933.1435022844745
 20
771.3493681823855
 30
0.0
 41
15.0
 42
15.0
 43
15.0
  0
INSERT
  5
14F2
330
1408
100
AcDbEntity
  8
寸法線
 62
     0
 48
3.0
370
    -2
100
AcDbBlockReference
  2
_Open30
 10
945.6479703844742
 20
771.3493681823855
 30
0.0
 41
15.0
 42
15.0
 43
15.0
 50
180.0
  0
MTEXT
  5
14F3
330
1408
100
AcDbEntity
  8
寸法線
 62
     0
 48
3.0
100
AcDbMText
 10
1016.58705667889
 20
791.3493681823855
 30
0.0
 40
30.0
 41
0.0
 71
     5
 72
     1
  1
12.5
 73
     1
 44
1.0
1001
ACAD
1000
MTEXTBEGIN
1070
    73
1070
     1
1070
    44
1040
1.0
1070
    74
1070
     0
1000
MTEXTEND
  0
POINT
  5
14F4
330
1408
100
AcDbEntity
  8
Defpoints
 62
     0
 48
3.0
100
AcDbPoint
 10
933.1435022844745
 20
699.3493681823856
 30
0.0
  0
POINT
  5
14F5
330
1408
100
AcDbEntity
  8
Defpoints
 62
     0
 48
3.0
100
AcDbPoint
 10
945.6479703844742
 20
699.3493681823856
 30
0.0
  0
POINT
  5
14F6
330
1408
100
AcDbEntity
  8
Defpoints
 62
     0
 48
3.0
100
AcDbPoint
 10
945.6479703844742
 20
771.3493681823855
 30
0.0
  0
ENDBLK
  5
140A
330
1408
100
AcDbEntity
  8
0
 48
3.0
100
AcDbBlockEnd
  0
BLOCK
  5
14E4
330
14D8
100
AcDbEntity
  8
0
 48
3.0
100
AcDbBlockBegin
  2
GFB新
 70
     0
 10
0.0
 20
0.0
 30
0.0
  3
GFB新
  1

  0
LINE
  5
14D9
330
14D8
100
AcDbEntity
  8
エンボス
370
     0
100
AcDbLine
 10
-201.8431163161554
 20
211.018054223251
 30
0.0
 11
-201.8431163161554
 21
31.01805422325097
 31
0.0
  0
LINE
  5
14DA
330
14D8
100
AcDbEntity
  8
エンボス
370
     0
100
AcDbLine
 10
-171.6031163161556
 20
211.018054223251
 30
0.0
 11
-171.6031163161556
 21
31.01805422325097
 31
0.0
  0
LWPOLYLINE
  5
14DB
330
14D8
100
AcDbEntity
  8
エンボス
  6
Continuous
100
AcDbPolyline
 90
        4
 70
     1
 43
0.0
 10
-348.415713090571
 20
299.7131911820901
 10
-14.10000000000036
 20
299.7131911820901
 10
-14.10000000000036
 20
13.47
 10
-348.415713090571
 20
13.47
  0
HATCH
  5
14DC
330
14D8
100
AcDbEntity
  8
エンボス
 48
3.0
100
AcDbHatch
 10
0.0
 20
0.0
 30
0.0
210
0.0
220
0.0
230
1.0
  2
ANSI31
 70
     0
 71
     0
 91
        2
 92
        7
 72
     0
 73
     1
 93
        4
 10
-171.6031163161556
 20
183.648232740995
 10
-201.8431163161554
 20
183.648232740995
 10
-201.8431163161554
 20
143.648232740995
 10
-171.6031163161556
 20
143.648232740995
 97
        0
 92
        7
 72
     0
 73
     1
 93
        4
 10
-171.6031163161551
 20
103.648232740995
 10
-201.8431163161554
 20
103.648232740995
 10
-201.8431163161554
 20
63.64823274099504
 10
-171.6031163161556
 20
63.64823274099504
 97
        0
 75
     0
 76
     1
 52
0.0
 41
1.0
 77
     0
 78
     1
 53
45.0
 43
-2600.230945379155
 44
55.27481481577524
 45
-2.245064030267287
 46
2.245064030267288
 79
     0
 47
0.6338635763914874
 98
        2
 10
-184.3538551621914
 20
165.9540090799865
 10
-180.5493471399022
 20
94.32742487381711
  0
LINE
  5
14DD
330
14D8
100
AcDbEntity
  8
エンボス
  6
Continuous
100
AcDbLine
 10
-201.8431163161554
 20
183.648232740995
 30
0.0
 11
-171.6031163161551
 21
183.648232740995
 31
0.0
  0
LINE
  5
14DE
330
14D8
100
AcDbEntity
  8
エンボス
  6
Continuous
100
AcDbLine
 10
-201.8431163161554
 20
143.648232740995
 30
0.0
 11
-171.6031163161551
 21
143.648232740995
 31
0.0
  0
LINE
  5
14DF
330
14D8
100
AcDbEntity
  8
エンボス
  6
Continuous
100
AcDbLine
 10
-201.8431163161554
 20
103.648232740995
 30
0.0
 11
-171.6031163161551
 21
103.648232740995
 31
0.0
  0
LINE
  5
14E0
330
14D8
100
AcDbEntity
  8
エンボス
  6
Continuous
100
AcDbLine
 10
-201.8431163161554
 20
63.64823274099504
 30
0.0
 11
-171.6031163161551
 21
63.64823274099504
 31
0.0
  0
TEXT
  5
14E1
330
14D8
100
AcDbEntity
  8
エンボス
  6
Continuous
100
AcDbText
 10
-308.2412150274576
 20
253.9724615214614
 30
0.0
 40
30.0
  1
GFB形状詳細
100
AcDbText
1001
ACAD
1000
MTEXTBEGIN
1070
    73
1070
     1
1070
    44
1040
1.0
1070
    74
1070
     0
1000
MTEXTEND
1000
MTEXTBEGIN
1070
    73
1070
     1
1070
    44
1040
1.0
1070
    74
1070
     0
1000
MTEXTEND
1000
MTEXTBEGIN
1070
    73
1070
     1
1070
    44
1040
1.0
1070
    74
1070
     0
1000
MTEXTEND
1000
MTEXTBEGIN
1070
    73
1070
     1
1070
    44
1040
1.0
1070
    74
1070
     0
1000
MTEXTEND
  0
MTEXT
  5
14E2
330
14D8
100
AcDbEntity
  8
エンボス
  6
Continuous
100
AcDbMText
 10
-277.8566471803206
 20
239.7434505767348
 30
0.0
 40
15.0
 41
256.2474
 71
     1
 72
     5
  1
※塗りつぶし部分突起
 73
     1
 44
1.0
1001
ACAD
1000
MTEXTBEGIN
1070
    73
1070
     1
1070
    44
1040
1.0
1070
    74
1070
     0
1000
MTEXTEND
  0
ENDBLK
  5
14E5
330
14D8
100
AcDbEntity
  8
0
 48
3.0
100
AcDbBlockEnd
  0
BLOCK
  5
151B
330
151A
100
AcDbEntity
  8
0
 48
3.0
100
AcDbBlockBegin
  2
*U17
 70
     1
 10
0.0
 20
0.0
 30
0.0
  3
*U17
  1

  0
LINE
  5
1521
330
151A
100
AcDbEntity
  8
本体
  6
Continuous
100
AcDbLine
 10
0.0
 20
0.0
 30
0.0
 11
0.0
 21
-31.99999999999989
 31
0.0
  0
LINE
  5
1522
330
151A
100
AcDbEntity
  8
本体
  6
Continuous
100
AcDbLine
 10
-3.0
 20
0.0
 30
0.0
 11
-3.0
 21
-32.0
 31
0.0
  0
LINE
  5
1523
330
151A
100
AcDbEntity
  8
本体
  6
Continuous
100
AcDbLine
 10
0.0
 20
-31.99999999999989
 30
0.0
 11
-3.0
 21
-32.0
 31
0.0
  0
LINE
  5
1524
330
151A
100
AcDbEntity
  8
本体
  6
Continuous
100
AcDbLine
 10
-3.0
 20
0.0
 30
0.0
 11
0.0
 21
0.0
 31
0.0
  0
LINE
  5
1525
330
151A
100
AcDbEntity
  8
本体
  6
Continuous
100
AcDbLine
 10
-12.5744681000001
 20
0.0
 30
0.0
 11
-3.0
 21
0.0
 31
0.0
  0
LINE
  5
1526
330
151A
100
AcDbEntity
  8
本体
  6
Continuous
100
AcDbLine
 10
-12.5744681000001
 20
-5.0
 30
0.0
 11
-3.0
 21
-5.0
 31
0.0
  0
LINE
  5
1527
330
151A
100
AcDbEntity
  8
本体
  6
Continuous
100
AcDbLine
 10
-12.5744681000001
 20
-5.0
 30
0.0
 11
-3.0
 21
0.0
 31
0.0
  0
LINE
  5
1528
330
151A
100
AcDbEntity
  8
本体
  6
Continuous
100
AcDbLine
 10
-12.5744681000001
 20
-25.0
 30
0.0
 11
-3.0
 21
-25.0
 31
0.0
  0
ENDBLK
  5
151C
330
151A
100
AcDbEntity
  8
0
 48
3.0
100
AcDbBlockEnd
  0
BLOCK
  5
151E
330
151D
100
AcDbEntity
  8
0
 48
3.0
100
AcDbBlockBegin
  2
*U18
 70
     1
 10
0.0
 20
0.0
 30
0.0
  3
*U18
  1

  0
INSERT
  5
1537
330
151D
100
AcDbEntity
  8
エンボス
  6
ByBlock
 62
     0
370
    -2
380
     1
100
AcDbBlockReference
  2
*U17
 10
0.0
 20
0.0
 30
0.0
  0
INSERT
  5
1538
330
151D
100
AcDbEntity
  8
エンボス
  6
ByBlock
 62
     0
370
    -2
380
     1
100
AcDbBlockReference
  2
*U17
 10
12.5744681
 20
0.0
 30
0.0
  0
INSERT
  5
1539
330
151D
100
AcDbEntity
  8
エンボス
  6
ByBlock
 62
     0
370
    -2
380
     1
100
AcDbBlockReference
  2
*U17
 10
25.1489362
 20
0.0
 30
0.0
  0
INSERT
  5
153A
330
151D
100
AcDbEntity
  8
エンボス
  6
ByBlock
 62
     0
370
    -2
380
     1
100
AcDbBlockReference
  2
*U17
 10
37.72340430000001
 20
0.0
 30
0.0
  0
INSERT
  5
153B
330
151D
100
AcDbEntity
  8
エンボス
  6
ByBlock
 62
     0
370
    -2
380
     1
100
AcDbBlockReference
  2
*U17
 10
50.2978724
 20
0.0
 30
0.0
  0
INSERT
  5
153C
330
151D
100
AcDbEntity
  8
エンボス
  6
ByBlock
 62
     0
370
    -2
380
     1
100
AcDbBlockReference
  2
*U17
 10
62.87234050000002
 20
0.0
 30
0.0
  0
INSERT
  5
153D
330
151D
100
AcDbEntity
  8
エンボス
  6
ByBlock
 62
     0
370
    -2
380
     1
100
AcDbBlockReference
  2
*U17
 10
75.44680860000001
 20
0.0
 30
0.0
  0
INSERT
  5
153E
330
151D
100
AcDbEntity
  8
エンボス
  6
ByBlock
 62
     0
370
    -2
380
     1
100
AcDbBlockReference
  2
*U17
 10
88.02127670000002
 20
0.0
 30
0.0
  0
INSERT
  5
153F
330
151D
100
AcDbEntity
  8
エンボス
  6
ByBlock
 62
     0
370
    -2
380
     1
100
AcDbBlockReference
  2
*U17
 10
100.5957448
 20
0.0
 30
0.0
  0
INSERT
  5
1540
330
151D
100
AcDbEntity
  8
エンボス
  6
ByBlock
 62
     0
370
    -2
380
     1
100
AcDbBlockReference
  2
*U17
 10
113.1702129
 20
0.0
 30
0.0
  0
INSERT
  5
1541
330
151D
100
AcDbEntity
  8
エンボス
  6
ByBlock
 62
     0
370
    -2
380
     1
100
AcDbBlockReference
  2
*U17
 10
125.744681
 20
0.0
 30
0.0
  0
INSERT
  5
1542
330
151D
100
AcDbEntity
  8
エンボス
  6
ByBlock
 62
     0
370
    -2
380
     1
100
AcDbBlockReference
  2
*U17
 10
138.3191491
 20
0.0
 30
0.0
  0
INSERT
  5
1543
330
151D
100
AcDbEntity
  8
エンボス
  6
ByBlock
 62
     0
370
    -2
380
     1
100
AcDbBlockReference
  2
*U17
 10
150.8936172
 20
0.0
 30
0.0
  0
INSERT
  5
1544
330
151D
100
AcDbEntity
  8
エンボス
  6
ByBlock
 62
     0
370
    -2
380
     1
100
AcDbBlockReference
  2
*U17
 10
163.4680853
 20
0.0
 30
0.0
  0
INSERT
  5
1545
330
151D
100
AcDbEntity
  8
エンボス
  6
ByBlock
 62
     0
370
    -2
380
     1
100
AcDbBlockReference
  2
*U17
 10
176.0425534
 20
0.0
 30
0.0
  0
INSERT
  5
1546
330
151D
100
AcDbEntity
  8
エンボス
  6
ByBlock
 62
     0
370
    -2
380
     1
100
AcDbBlockReference
  2
*U17
 10
188.6170215
 20
0.0
 30
0.0
  0
INSERT
  5
1547
330
151D
100
AcDbEntity
  8
エンボス
  6
ByBlock
 62
     0
370
    -2
380
     1
100
AcDbBlockReference
  2
*U17
 10
201.1914896
 20
0.0
 30
0.0
  0
INSERT
  5
1548
330
151D
100
AcDbEntity
  8
エンボス
  6
ByBlock
 62
     0
370
    -2
380
     1
100
AcDbBlockReference
  2
*U17
 10
213.7659577
 20
0.0
 30
0.0
  0
INSERT
  5
1549
330
151D
100
AcDbEntity
  8
エンボス
  6
ByBlock
 62
     0
370
    -2
380
     1
100
AcDbBlockReference
  2
*U17
 10
226.3404258
 20
0.0
 30
0.0
  0
INSERT
  5
154A
330
151D
100
AcDbEntity
  8
エンボス
  6
ByBlock
 62
     0
370
    -2
380
     1
100
AcDbBlockReference
  2
*U17
 10
238.9148939
 20
0.0
 30
0.0
  0
INSERT
  5
154B
330
151D
100
AcDbEntity
  8
エンボス
  6
ByBlock
 62
     0
370
    -2
380
     1
100
AcDbBlockReference
  2
*U17
 10
251.489362
 20
0.0
 30
0.0
  0
INSERT
  5
154C
330
151D
100
AcDbEntity
  8
エンボス
  6
ByBlock
 62
     0
370
    -2
380
     1
100
AcDbBlockReference
  2
*U17
 10
264.0638301000001
 20
0.0
 30
0.0
  0
INSERT
  5
154D
330
151D
100
AcDbEntity
  8
エンボス
  6
ByBlock
 62
     0
370
    -2
380
     1
100
AcDbBlockReference
  2
*U17
 10
276.6382982
 20
0.0
 30
0.0
  0
INSERT
  5
154E
330
151D
100
AcDbEntity
  8
エンボス
  6
ByBlock
 62
     0
370
    -2
380
     1
100
AcDbBlockReference
  2
*U17
 10
289.2127663000001
 20
0.0
 30
0.0
  0
INSERT
  5
154F
330
151D
100
AcDbEntity
  8
エンボス
  6
ByBlock
 62
     0
370
    -2
380
     1
100
AcDbBlockReference
  2
*U17
 10
301.7872344000001
 20
0.0
 30
0.0
  0
INSERT
  5
1550
330
151D
100
AcDbEntity
  8
エンボス
  6
ByBlock
 62
     0
370
    -2
380
     1
100
AcDbBlockReference
  2
*U17
 10
314.3617025000001
 20
0.0
 30
0.0
  0
INSERT
  5
1551
330
151D
100
AcDbEntity
  8
エンボス
  6
ByBlock
 62
     0
370
    -2
380
     1
100
AcDbBlockReference
  2
*U17
 10
326.9361706000001
 20
0.0
 30
0.0
  0
INSERT
  5
1552
330
151D
100
AcDbEntity
  8
エンボス
  6
ByBlock
 62
     0
370
    -2
380
     1
100
AcDbBlockReference
  2
*U17
 10
339.5106387000001
 20
0.0
 30
0.0
  0
INSERT
  5
1553
330
151D
100
AcDbEntity
  8
エンボス
  6
ByBlock
 62
     0
370
    -2
380
     1
100
AcDbBlockReference
  2
*U17
 10
352.0851068000001
 20
0.0
 30
0.0
  0
INSERT
  5
1554
330
151D
100
AcDbEntity
  8
エンボス
  6
ByBlock
 62
     0
370
    -2
380
     1
100
AcDbBlockReference
  2
*U17
 10
364.6595749000001
 20
0.0
 30
0.0
  0
INSERT
  5
1555
330
151D
100
AcDbEntity
  8
エンボス
  6
ByBlock
 62
     0
370
    -2
380
     1
100
AcDbBlockReference
  2
*U17
 10
377.2340430000001
 20
0.0
 30
0.0
  0
INSERT
  5
1556
330
151D
100
AcDbEntity
  8
エンボス
  6
ByBlock
 62
     0
370
    -2
380
     1
100
AcDbBlockReference
  2
*U17
 10
389.8085111000001
 20
0.0
 30
0.0
  0
INSERT
  5
1557
330
151D
100
AcDbEntity
  8
エンボス
  6
ByBlock
 62
     0
370
    -2
380
     1
100
AcDbBlockReference
  2
*U17
 10
402.3829792
 20
0.0
 30
0.0
  0
INSERT
  5
1558
330
151D
100
AcDbEntity
  8
エンボス
  6
ByBlock
 62
     0
370
    -2
380
     1
100
AcDbBlockReference
  2
*U17
 10
414.9574473
 20
0.0
 30
0.0
  0
INSERT
  5
1559
330
151D
100
AcDbEntity
  8
エンボス
  6
ByBlock
 62
     0
370
    -2
380
     1
100
AcDbBlockReference
  2
*U17
 10
427.5319154
 20
0.0
 30
0.0
  0
INSERT
  5
155A
330
151D
100
AcDbEntity
  8
エンボス
  6
ByBlock
 62
     0
370
    -2
380
     1
100
AcDbBlockReference
  2
*U17
 10
440.1063835000001
 20
0.0
 30
0.0
  0
INSERT
  5
155B
330
151D
100
AcDbEntity
  8
エンボス
  6
ByBlock
 62
     0
370
    -2
380
     1
100
AcDbBlockReference
  2
*U17
 10
452.6808516
 20
0.0
 30
0.0
  0
INSERT
  5
155C
330
151D
100
AcDbEntity
  8
エンボス
  6
ByBlock
 62
     0
370
    -2
380
     1
100
AcDbBlockReference
  2
*U17
 10
465.2553197000001
 20
0.0
 30
0.0
  0
INSERT
  5
155D
330
151D
100
AcDbEntity
  8
エンボス
  6
ByBlock
 62
     0
370
    -2
380
     1
100
AcDbBlockReference
  2
*U17
 10
477.8297878
 20
0.0
 30
0.0
  0
INSERT
  5
155E
330
151D
100
AcDbEntity
  8
エンボス
  6
ByBlock
 62
     0
370
    -2
380
     1
100
AcDbBlockReference
  2
*U17
 10
490.4042559000001
 20
0.0
 30
0.0
  0
INSERT
  5
155F
330
151D
100
AcDbEntity
  8
エンボス
  6
ByBlock
 62
     0
370
    -2
380
     1
100
AcDbBlockReference
  2
*U17
 10
502.978724
 20
0.0
 30
0.0
  0
INSERT
  5
1560
330
151D
100
AcDbEntity
  8
エンボス
  6
ByBlock
 62
     0
370
    -2
380
     1
100
AcDbBlockReference
  2
*U17
 10
515.5531921
 20
0.0
 30
0.0
  0
INSERT
  5
1561
330
151D
100
AcDbEntity
  8
エンボス
  6
ByBlock
 62
     0
370
    -2
380
     1
100
AcDbBlockReference
  2
*U17
 10
528.1276602000001
 20
0.0
 30
0.0
  0
INSERT
  5
1562
330
151D
100
AcDbEntity
  8
エンボス
  6
ByBlock
 62
     0
370
    -2
380
     1
100
AcDbBlockReference
  2
*U17
 10
540.7021283000001
 20
0.0
 30
0.0
  0
INSERT
  5
1563
330
151D
100
AcDbEntity
  8
エンボス
  6
ByBlock
 62
     0
370
    -2
380
     1
100
AcDbBlockReference
  2
*U17
 10
553.2765964000001
 20
0.0
 30
0.0
  0
INSERT
  5
1564
330
151D
100
AcDbEntity
  8
エンボス
  6
ByBlock
 62
     0
370
    -2
380
     1
100
AcDbBlockReference
  2
*U17
 10
565.8510645000001
 20
0.0
 30
0.0
  0
ENDBLK
  5
151F
330
151D
100
AcDbEntity
  8
0
 48
3.0
100
AcDbBlockEnd
  0
BLOCK
  5
1567
330
1566
100
AcDbEntity
  8
0
 48
3.0
100
AcDbBlockBegin
  2
*U19
 70
     1
 10
0.0
 20
0.0
 30
0.0
  3
*U19
  1

  0
LINE
  5
156D
330
1566
100
AcDbEntity
  8
本体
  6
Continuous
100
AcDbLine
 10
7.787234050000051
 20
190.5
 30
0.0
 11
7.787234050000051
 21
153.0
 31
0.0
  0
LINE
  5
156E
330
1566
100
AcDbEntity
  8
本体
  6
Continuous
100
AcDbLine
 10
4.787234050000051
 20
190.5
 30
0.0
 11
4.787234050000051
 21
153.0
 31
0.0
  0
LINE
  5
156F
330
1566
100
AcDbEntity
  8
本体
  6
Continuous
100
AcDbLine
 10
7.787234050000051
 20
147.0
 30
0.0
 11
7.787234050000051
 21
53.0
 31
0.0
  0
LINE
  5
1570
330
1566
100
AcDbEntity
  8
本体
  6
Continuous
100
AcDbLine
 10
4.787234050000051
 20
147.0
 30
0.0
 11
4.787234050000051
 21
53.0
 31
0.0
  0
LINE
  5
1571
330
1566
100
AcDbEntity
  8
本体
  6
Continuous
100
AcDbLine
 10
7.787234050000051
 20
47.0
 30
0.0
 11
7.787234050000051
 21
-47.0
 31
0.0
  0
LINE
  5
1572
330
1566
100
AcDbEntity
  8
本体
  6
Continuous
100
AcDbLine
 10
4.787234050000051
 20
47.0
 30
0.0
 11
4.787234050000051
 21
-47.0
 31
0.0
  0
LINE
  5
1573
330
1566
100
AcDbEntity
  8
本体
  6
Continuous
100
AcDbLine
 10
7.787234050000051
 20
-53.0
 30
0.0
 11
7.787234050000051
 21
-147.0
 31
0.0
  0
LINE
  5
1574
330
1566
100
AcDbEntity
  8
本体
  6
Continuous
100
AcDbLine
 10
4.787234050000051
 20
-53.0
 30
0.0
 11
4.787234050000051
 21
-147.0
 31
0.0
  0
LINE
  5
1575
330
1566
100
AcDbEntity
  8
本体
  6
Continuous
100
AcDbLine
 10
7.787234050000051
 20
-153.0
 30
0.0
 11
7.787234050000051
 21
-190.5
 31
0.0
  0
LINE
  5
1576
330
1566
100
AcDbEntity
  8
本体
  6
Continuous
100
AcDbLine
 10
4.787234050000051
 20
-153.0
 30
0.0
 11
4.787234050000051
 21
-190.5
 31
0.0
  0
LINE
  5
1577
330
1566
100
AcDbEntity
  8
本体
  6
Continuous
100
AcDbLine
 10
-7.787234050000051
 20
147.0
 30
0.0
 11
4.787234050000051
 21
153.0
 31
0.0
  0
LINE
  5
1578
330
1566
100
AcDbEntity
  8
本体
  6
Continuous
100
AcDbLine
 10
-7.787234050000051
 20
47.0
 30
0.0
 11
4.787234050000051
 21
53.0
 31
0.0
  0
LINE
  5
1579
330
1566
100
AcDbEntity
  8
本体
  6
Continuous
100
AcDbLine
 10
-7.787234050000051
 20
-53.0
 30
0.0
 11
4.787234050000051
 21
-47.0
 31
0.0
  0
LINE
  5
157A
330
1566
100
AcDbEntity
  8
本体
  6
Continuous
100
AcDbLine
 10
-7.787234050000051
 20
-153.0
 30
0.0
 11
4.787234050000051
 21
-147.0
 31
0.0
  0
LINE
  5
157B
330
1566
100
AcDbEntity
  8
エンボス
  6
Continuous
100
AcDbLine
 10
7.787234039999702
 20
162.6499999999998
 30
0.0
 11
4.787234039999702
 21
161.45
 31
0.0
  0
LINE
  5
157C
330
1566
100
AcDbEntity
  8
エンボス
  6
Continuous
100
AcDbLine
 10
4.787234039999702
 20
168.45
 30
0.0
 11
7.787234039999702
 21
167.25
 31
0.0
  0
LINE
  5
157D
330
1566
100
AcDbEntity
  8
エンボス
  6
Continuous
100
AcDbLine
 10
4.787234039999702
 20
180.45
 30
0.0
 11
7.787234039999702
 21
181.6499999999998
 31
0.0
  0
LINE
  5
157E
330
1566
100
AcDbEntity
  8
エンボス
  6
Continuous
100
AcDbLine
 10
7.787234039999702
 20
176.25
 30
0.0
 11
4.787234039999702
 21
177.45
 31
0.0
  0
LINE
  5
157F
330
1566
100
AcDbEntity
  8
エンボス
  6
Continuous
100
AcDbLine
 10
4.787234039999702
 20
124.7
 30
0.0
 11
7.787234039999702
 21
123.5
 31
0.0
  0
LINE
  5
1580
330
1566
100
AcDbEntity
  8
エンボス
  6
Continuous
100
AcDbLine
 10
7.787234039999702
 20
62.89999999999986
 30
0.0
 11
4.787234039999702
 21
61.70000000000005
 31
0.0
  0
LINE
  5
1581
330
1566
100
AcDbEntity
  8
エンボス
  6
Continuous
100
AcDbLine
 10
4.787234039999702
 20
68.70000000000004
 30
0.0
 11
7.787234039999702
 21
67.5
 31
0.0
  0
LINE
  5
1582
330
1566
100
AcDbEntity
  8
エンボス
  6
Continuous
100
AcDbLine
 10
7.787234039999702
 20
76.5
 30
0.0
 11
4.787234039999702
 21
77.70000000000004
 31
0.0
  0
LINE
  5
1583
330
1566
100
AcDbEntity
  8
エンボス
  6
Continuous
100
AcDbLine
 10
4.787234039999702
 20
80.70000000000005
 30
0.0
 11
7.787234039999702
 21
81.89999999999987
 31
0.0
  0
LINE
  5
1584
330
1566
100
AcDbEntity
  8
エンボス
  6
Continuous
100
AcDbLine
 10
4.787234039999702
 20
96.70000000000005
 30
0.0
 11
7.787234039999702
 21
95.5
 31
0.0
  0
LINE
  5
1585
330
1566
100
AcDbEntity
  8
エンボス
  6
Continuous
100
AcDbLine
 10
7.787234039999702
 20
90.89999999999987
 30
0.0
 11
4.787234039999702
 21
89.70000000000004
 31
0.0
  0
LINE
  5
1586
330
1566
100
AcDbEntity
  8
エンボス
  6
Continuous
100
AcDbLine
 10
7.787234039999702
 20
104.5
 30
0.0
 11
4.787234039999702
 21
105.7
 31
0.0
  0
LINE
  5
1587
330
1566
100
AcDbEntity
  8
エンボス
  6
Continuous
100
AcDbLine
 10
4.787234039999702
 20
108.7
 30
0.0
 11
7.787234039999702
 21
109.8999999999998
 31
0.0
  0
LINE
  5
1588
330
1566
100
AcDbEntity
  8
エンボス
  6
Continuous
100
AcDbLine
 10
7.787234039999702
 20
118.8999999999998
 30
0.0
 11
4.787234039999702
 21
117.7
 31
0.0
  0
LINE
  5
1589
330
1566
100
AcDbEntity
  8
エンボス
  6
Continuous
100
AcDbLine
 10
7.787234039999702
 20
132.5
 30
0.0
 11
4.787234039999702
 21
133.7
 31
0.0
  0
LINE
  5
158A
330
1566
100
AcDbEntity
  8
エンボス
  6
Continuous
100
AcDbLine
 10
4.787234039999702
 20
136.7
 30
0.0
 11
7.787234039999702
 21
137.8999999999998
 31
0.0
  0
LINE
  5
158B
330
1566
100
AcDbEntity
  8
エンボス
  6
Continuous
100
AcDbLine
 10
4.787234039999702
 20
-31.29999999999995
 30
0.0
 11
7.787234039999702
 21
-32.5
 31
0.0
  0
LINE
  5
158C
330
1566
100
AcDbEntity
  8
エンボス
  6
Continuous
100
AcDbLine
 10
7.787234039999702
 20
-37.10000000000014
 30
0.0
 11
4.787234039999702
 21
-38.29999999999996
 31
0.0
  0
LINE
  5
158D
330
1566
100
AcDbEntity
  8
エンボス
  6
Continuous
100
AcDbLine
 10
4.787234039999702
 20
-19.29999999999995
 30
0.0
 11
7.787234039999702
 21
-18.10000000000013
 31
0.0
  0
LINE
  5
158E
330
1566
100
AcDbEntity
  8
エンボス
  6
Continuous
100
AcDbLine
 10
7.787234039999702
 20
-23.5
 30
0.0
 11
4.787234039999702
 21
-22.29999999999995
 31
0.0
  0
LINE
  5
158F
330
1566
100
AcDbEntity
  8
エンボス
  6
Continuous
100
AcDbLine
 10
4.787234039999702
 20
8.700000000000045
 30
0.0
 11
7.787234039999702
 21
9.899999999999863
 31
0.0
  0
LINE
  5
1590
330
1566
100
AcDbEntity
  8
エンボス
  6
Continuous
100
AcDbLine
 10
7.787234039999702
 20
4.5
 30
0.0
 11
4.787234039999702
 21
5.700000000000045
 31
0.0
  0
LINE
  5
1591
330
1566
100
AcDbEntity
  8
エンボス
  6
Continuous
100
AcDbLine
 10
7.787234039999702
 20
-9.100000000000136
 30
0.0
 11
4.787234039999702
 21
-10.29999999999995
 31
0.0
  0
LINE
  5
1592
330
1566
100
AcDbEntity
  8
エンボス
  6
Continuous
100
AcDbLine
 10
4.787234039999702
 20
-3.299999999999954
 30
0.0
 11
7.787234039999702
 21
-4.5
 31
0.0
  0
LINE
  5
1593
330
1566
100
AcDbEntity
  8
エンボス
  6
Continuous
100
AcDbLine
 10
4.787234039999702
 20
24.70000000000005
 30
0.0
 11
7.787234039999702
 21
23.5
 31
0.0
  0
LINE
  5
1594
330
1566
100
AcDbEntity
  8
エンボス
  6
Continuous
100
AcDbLine
 10
7.787234039999702
 20
18.89999999999986
 30
0.0
 11
4.787234039999702
 21
17.70000000000004
 31
0.0
  0
LINE
  5
1595
330
1566
100
AcDbEntity
  8
エンボス
  6
Continuous
100
AcDbLine
 10
4.787234039999702
 20
36.70000000000005
 30
0.0
 11
7.787234039999702
 21
37.89999999999987
 31
0.0
  0
LINE
  5
1596
330
1566
100
AcDbEntity
  8
エンボス
  6
Continuous
100
AcDbLine
 10
7.787234039999702
 20
32.5
 30
0.0
 11
4.787234039999702
 21
33.70000000000004
 31
0.0
  0
LINE
  5
1597
330
1566
100
AcDbEntity
  8
エンボス
  6
Continuous
100
AcDbLine
 10
7.787234039999702
 20
-137.1000000000001
 30
0.0
 11
4.787234039999702
 21
-138.2999999999999
 31
0.0
  0
LINE
  5
1598
330
1566
100
AcDbEntity
  8
エンボス
  6
Continuous
100
AcDbLine
 10
4.787234039999702
 20
-119.2999999999999
 30
0.0
 11
7.787234039999702
 21
-118.1000000000001
 31
0.0
  0
LINE
  5
1599
330
1566
100
AcDbEntity
  8
エンボス
  6
Continuous
100
AcDbLine
 10
7.787234039999702
 20
-123.5
 30
0.0
 11
4.787234039999702
 21
-122.2999999999999
 31
0.0
  0
LINE
  5
159A
330
1566
100
AcDbEntity
  8
エンボス
  6
Continuous
100
AcDbLine
 10
4.787234039999702
 20
-131.2999999999999
 30
0.0
 11
7.787234039999702
 21
-132.5
 31
0.0
  0
LINE
  5
159B
330
1566
100
AcDbEntity
  8
エンボス
  6
Continuous
100
AcDbLine
 10
7.787234039999702
 20
-109.1000000000001
 30
0.0
 11
4.787234039999702
 21
-110.2999999999999
 31
0.0
  0
LINE
  5
159C
330
1566
100
AcDbEntity
  8
エンボス
  6
Continuous
100
AcDbLine
 10
4.787234039999702
 20
-103.2999999999999
 30
0.0
 11
7.787234039999702
 21
-104.5
 31
0.0
  0
LINE
  5
159D
330
1566
100
AcDbEntity
  8
エンボス
  6
Continuous
100
AcDbLine
 10
4.787234039999702
 20
-75.29999999999995
 30
0.0
 11
7.787234039999702
 21
-76.5
 31
0.0
  0
LINE
  5
159E
330
1566
100
AcDbEntity
  8
エンボス
  6
Continuous
100
AcDbLine
 10
7.787234039999702
 20
-81.10000000000013
 30
0.0
 11
4.787234039999702
 21
-82.29999999999995
 31
0.0
  0
LINE
  5
159F
330
1566
100
AcDbEntity
  8
エンボス
  6
Continuous
100
AcDbLine
 10
4.787234039999702
 20
-91.29999999999995
 30
0.0
 11
7.787234039999702
 21
-90.10000000000013
 31
0.0
  0
LINE
  5
15A0
330
1566
100
AcDbEntity
  8
エンボス
  6
Continuous
100
AcDbLine
 10
7.787234039999702
 20
-95.5
 30
0.0
 11
4.787234039999702
 21
-94.29999999999996
 31
0.0
  0
LINE
  5
15A1
330
1566
100
AcDbEntity
  8
エンボス
  6
Continuous
100
AcDbLine
 10
4.787234039999702
 20
-63.29999999999995
 30
0.0
 11
7.787234039999702
 21
-62.10000000000014
 31
0.0
  0
LINE
  5
15A2
330
1566
100
AcDbEntity
  8
エンボス
  6
Continuous
100
AcDbLine
 10
7.787234039999702
 20
-67.5
 30
0.0
 11
4.787234039999702
 21
-66.29999999999995
 31
0.0
  0
LINE
  5
15A3
330
1566
100
AcDbEntity
  8
エンボス
  6
Continuous
100
AcDbLine
 10
4.787234039999702
 20
-175.0499999999999
 30
0.0
 11
7.787234039999702
 21
-176.25
 31
0.0
  0
LINE
  5
15A4
330
1566
100
AcDbEntity
  8
エンボス
  6
Continuous
100
AcDbLine
 10
7.787234039999702
 20
-180.8500000000001
 30
0.0
 11
4.787234039999702
 21
-182.0499999999999
 31
0.0
  0
LINE
  5
15A5
330
1566
100
AcDbEntity
  8
エンボス
  6
Continuous
100
AcDbLine
 10
7.787234039999702
 20
-167.25
 30
0.0
 11
4.787234039999702
 21
-166.0499999999999
 31
0.0
  0
LINE
  5
15A6
330
1566
100
AcDbEntity
  8
エンボス
  6
Continuous
100
AcDbLine
 10
4.787234039999702
 20
-163.0499999999999
 30
0.0
 11
7.787234039999702
 21
-161.8500000000001
 31
0.0
  0
ENDBLK
  5
1568
330
1566
100
AcDbEntity
  8
0
 48
3.0
100
AcDbBlockEnd
  0
BLOCK
  5
156A
330
1569
100
AcDbEntity
  8
0
 48
3.0
100
AcDbBlockBegin
  2
*U20
 70
     1
 10
0.0
 20
0.0
 30
0.0
  3
*U20
  1

  0
INSERT
  5
15B1
330
1569
100
AcDbEntity
  8
エンボス
  6
ByBlock
 62
     0
370
    -2
380
     1
100
AcDbBlockReference
  2
*U19
 10
0.0
 20
0.0
 30
0.0
  0
INSERT
  5
15B2
330
1569
100
AcDbEntity
  8
エンボス
  6
ByBlock
 62
     0
370
    -2
380
     1
100
AcDbBlockReference
  2
*U19
 10
12.5745
 20
0.0
 30
0.0
  0
INSERT
  5
15B3
330
1569
100
AcDbEntity
  8
エンボス
  6
ByBlock
 62
     0
370
    -2
380
     1
100
AcDbBlockReference
  2
*U19
 10
25.149
 20
0.0
 30
0.0
  0
INSERT
  5
15B4
330
1569
100
AcDbEntity
  8
エンボス
  6
ByBlock
 62
     0
370
    -2
380
     1
100
AcDbBlockReference
  2
*U19
 10
37.7235
 20
0.0
 30
0.0
  0
INSERT
  5
15B5
330
1569
100
AcDbEntity
  8
エンボス
  6
ByBlock
 62
     0
370
    -2
380
     1
100
AcDbBlockReference
  2
*U19
 10
50.298
 20
0.0
 30
0.0
  0
INSERT
  5
15B6
330
1569
100
AcDbEntity
  8
エンボス
  6
ByBlock
 62
     0
370
    -2
380
     1
100
AcDbBlockReference
  2
*U19
 10
62.8725
 20
0.0
 30
0.0
  0
INSERT
  5
15B7
330
1569
100
AcDbEntity
  8
エンボス
  6
ByBlock
 62
     0
370
    -2
380
     1
100
AcDbBlockReference
  2
*U19
 10
75.447
 20
0.0
 30
0.0
  0
INSERT
  5
15B8
330
1569
100
AcDbEntity
  8
エンボス
  6
ByBlock
 62
     0
370
    -2
380
     1
100
AcDbBlockReference
  2
*U19
 10
88.02150000000001
 20
0.0
 30
0.0
  0
INSERT
  5
15B9
330
1569
100
AcDbEntity
  8
エンボス
  6
ByBlock
 62
     0
370
    -2
380
     1
100
AcDbBlockReference
  2
*U19
 10
100.596
 20
0.0
 30
0.0
  0
INSERT
  5
15BA
330
1569
100
AcDbEntity
  8
エンボス
  6
ByBlock
 62
     0
370
    -2
380
     1
100
AcDbBlockReference
  2
*U19
 10
113.1705
 20
0.0
 30
0.0
  0
INSERT
  5
15BB
330
1569
100
AcDbEntity
  8
エンボス
  6
ByBlock
 62
     0
370
    -2
380
     1
100
AcDbBlockReference
  2
*U19
 10
125.745
 20
0.0
 30
0.0
  0
INSERT
  5
15BC
330
1569
100
AcDbEntity
  8
エンボス
  6
ByBlock
 62
     0
370
    -2
380
     1
100
AcDbBlockReference
  2
*U19
 10
138.3195
 20
0.0
 30
0.0
  0
INSERT
  5
15BD
330
1569
100
AcDbEntity
  8
エンボス
  6
ByBlock
 62
     0
370
    -2
380
     1
100
AcDbBlockReference
  2
*U19
 10
150.894
 20
0.0
 30
0.0
  0
INSERT
  5
15BE
330
1569
100
AcDbEntity
  8
エンボス
  6
ByBlock
 62
     0
370
    -2
380
     1
100
AcDbBlockReference
  2
*U19
 10
163.4685
 20
0.0
 30
0.0
  0
INSERT
  5
15BF
330
1569
100
AcDbEntity
  8
エンボス
  6
ByBlock
 62
     0
370
    -2
380
     1
100
AcDbBlockReference
  2
*U19
 10
176.043
 20
0.0
 30
0.0
  0
INSERT
  5
15C0
330
1569
100
AcDbEntity
  8
エンボス
  6
ByBlock
 62
     0
370
    -2
380
     1
100
AcDbBlockReference
  2
*U19
 10
188.6175
 20
0.0
 30
0.0
  0
INSERT
  5
15C1
330
1569
100
AcDbEntity
  8
エンボス
  6
ByBlock
 62
     0
370
    -2
380
     1
100
AcDbBlockReference
  2
*U19
 10
201.192
 20
0.0
 30
0.0
  0
INSERT
  5
15C2
330
1569
100
AcDbEntity
  8
エンボス
  6
ByBlock
 62
     0
370
    -2
380
     1
100
AcDbBlockReference
  2
*U19
 10
213.7665
 20
0.0
 30
0.0
  0
INSERT
  5
15C3
330
1569
100
AcDbEntity
  8
エンボス
  6
ByBlock
 62
     0
370
    -2
380
     1
100
AcDbBlockReference
  2
*U19
 10
226.341
 20
0.0
 30
0.0
  0
INSERT
  5
15C4
330
1569
100
AcDbEntity
  8
エンボス
  6
ByBlock
 62
     0
370
    -2
380
     1
100
AcDbBlockReference
  2
*U19
 10
238.9155
 20
0.0
 30
0.0
  0
INSERT
  5
15C5
330
1569
100
AcDbEntity
  8
エンボス
  6
ByBlock
 62
     0
370
    -2
380
     1
100
AcDbBlockReference
  2
*U19
 10
251.49
 20
0.0
 30
0.0
  0
INSERT
  5
15C6
330
1569
100
AcDbEntity
  8
エンボス
  6
ByBlock
 62
     0
370
    -2
380
     1
100
AcDbBlockReference
  2
*U19
 10
264.0645
 20
0.0
 30
0.0
  0
INSERT
  5
15C7
330
1569
100
AcDbEntity
  8
エンボス
  6
ByBlock
 62
     0
370
    -2
380
     1
100
AcDbBlockReference
  2
*U19
 10
276.639
 20
0.0
 30
0.0
  0
INSERT
  5
15C8
330
1569
100
AcDbEntity
  8
エンボス
  6
ByBlock
 62
     0
370
    -2
380
     1
100
AcDbBlockReference
  2
*U19
 10
289.2135
 20
0.0
 30
0.0
  0
INSERT
  5
15C9
330
1569
100
AcDbEntity
  8
エンボス
  6
ByBlock
 62
     0
370
    -2
380
     1
100
AcDbBlockReference
  2
*U19
 10
301.788
 20
0.0
 30
0.0
  0
INSERT
  5
15CA
330
1569
100
AcDbEntity
  8
エンボス
  6
ByBlock
 62
     0
370
    -2
380
     1
100
AcDbBlockReference
  2
*U19
 10
314.3625
 20
0.0
 30
0.0
  0
INSERT
  5
15CB
330
1569
100
AcDbEntity
  8
エンボス
  6
ByBlock
 62
     0
370
    -2
380
     1
100
AcDbBlockReference
  2
*U19
 10
326.937
 20
0.0
 30
0.0
  0
INSERT
  5
15CC
330
1569
100
AcDbEntity
  8
エンボス
  6
ByBlock
 62
     0
370
    -2
380
     1
100
AcDbBlockReference
  2
*U19
 10
339.5115
 20
0.0
 30
0.0
  0
INSERT
  5
15CD
330
1569
100
AcDbEntity
  8
エンボス
  6
ByBlock
 62
     0
370
    -2
380
     1
100
AcDbBlockReference
  2
*U19
 10
352.086
 20
0.0
 30
0.0
  0
INSERT
  5
15CE
330
1569
100
AcDbEntity
  8
エンボス
  6
ByBlock
 62
     0
370
    -2
380
     1
100
AcDbBlockReference
  2
*U19
 10
364.6605
 20
0.0
 30
0.0
  0
INSERT
  5
15CF
330
1569
100
AcDbEntity
  8
エンボス
  6
ByBlock
 62
     0
370
    -2
380
     1
100
AcDbBlockReference
  2
*U19
 10
377.235
 20
0.0
 30
0.0
  0
INSERT
  5
15D0
330
1569
100
AcDbEntity
  8
エンボス
  6
ByBlock
 62
     0
370
    -2
380
     1
100
AcDbBlockReference
  2
*U19
 10
389.8095
 20
0.0
 30
0.0
  0
INSERT
  5
15D1
330
1569
100
AcDbEntity
  8
エンボス
  6
ByBlock
 62
     0
370
    -2
380
     1
100
AcDbBlockReference
  2
*U19
 10
402.3839999999999
 20
0.0
 30
0.0
  0
INSERT
  5
15D2
330
1569
100
AcDbEntity
  8
エンボス
  6
ByBlock
 62
     0
370
    -2
380
     1
100
AcDbBlockReference
  2
*U19
 10
414.9585
 20
0.0
 30
0.0
  0
INSERT
  5
15D3
330
1569
100
AcDbEntity
  8
エンボス
  6
ByBlock
 62
     0
370
    -2
380
     1
100
AcDbBlockReference
  2
*U19
 10
427.533
 20
0.0
 30
0.0
  0
INSERT
  5
15D4
330
1569
100
AcDbEntity
  8
エンボス
  6
ByBlock
 62
     0
370
    -2
380
     1
100
AcDbBlockReference
  2
*U19
 10
440.1075
 20
0.0
 30
0.0
  0
INSERT
  5
15D5
330
1569
100
AcDbEntity
  8
エンボス
  6
ByBlock
 62
     0
370
    -2
380
     1
100
AcDbBlockReference
  2
*U19
 10
452.6819999999999
 20
0.0
 30
0.0
  0
INSERT
  5
15D6
330
1569
100
AcDbEntity
  8
エンボス
  6
ByBlock
 62
     0
370
    -2
380
     1
100
AcDbBlockReference
  2
*U19
 10
465.2565
 20
0.0
 30
0.0
  0
INSERT
  5
15D7
330
1569
100
AcDbEntity
  8
エンボス
  6
ByBlock
 62
     0
370
    -2
380
     1
100
AcDbBlockReference
  2
*U19
 10
477.831
 20
0.0
 30
0.0
  0
INSERT
  5
15D8
330
1569
100
AcDbEntity
  8
エンボス
  6
ByBlock
 62
     0
370
    -2
380
     1
100
AcDbBlockReference
  2
*U19
 10
490.4055
 20
0.0
 30
0.0
  0
INSERT
  5
15D9
330
1569
100
AcDbEntity
  8
エンボス
  6
ByBlock
 62
     0
370
    -2
380
     1
100
AcDbBlockReference
  2
*U19
 10
502.98
 20
0.0
 30
0.0
  0
INSERT
  5
15DA
330
1569
100
AcDbEntity
  8
エンボス
  6
ByBlock
 62
     0
370
    -2
380
     1
100
AcDbBlockReference
  2
*U19
 10
515.5545
 20
0.0
 30
0.0
  0
INSERT
  5
15DB
330
1569
100
AcDbEntity
  8
エンボス
  6
ByBlock
 62
     0
370
    -2
380
     1
100
AcDbBlockReference
  2
*U19
 10
528.129
 20
0.0
 30
0.0
  0
INSERT
  5
15DC
330
1569
100
AcDbEntity
  8
エンボス
  6
ByBlock
 62
     0
370
    -2
380
     1
100
AcDbBlockReference
  2
*U19
 10
540.7035
 20
0.0
 30
0.0
  0
INSERT
  5
15DD
330
1569
100
AcDbEntity
  8
エンボス
  6
ByBlock
 62
     0
370
    -2
380
     1
100
AcDbBlockReference
  2
*U19
 10
553.278
 20
0.0
 30
0.0
  0
INSERT
  5
15DE
330
1569
100
AcDbEntity
  8
エンボス
  6
ByBlock
 62
     0
370
    -2
380
     1
100
AcDbBlockReference
  2
*U19
 10
565.8525
 20
0.0
 30
0.0
  0
ENDBLK
  5
156B
330
1569
100
AcDbEntity
  8
0
 48
3.0
100
AcDbBlockEnd
  0
BLOCK
  5
1630
330
162F
100
AcDbEntity
  8
0
 48
3.0
100
AcDbBlockBegin
  2
*D21
 70
     1
 10
0.0
 20
0.0
 30
0.0
  3
*D21
  1

  0
LINE
  5
1631
330
162F
100
AcDbEntity
  8
本体
 62
     0
 48
3.0
370
    -2
100
AcDbLine
 10
1112.778994301476
 20
538.9754701180918
 30
0.0
 11
1117.778994301476
 21
538.9754701180918
 31
0.0
  0
LINE
  5
1632
330
162F
100
AcDbEntity
  8
本体
 62
     0
 48
3.0
370
    -2
100
AcDbLine
 10
1112.778994301476
 20
536.6754701180918
 30
0.0
 11
1117.778994301476
 21
536.6754701180918
 31
0.0
  0
LINE
  5
1633
330
162F
100
AcDbEntity
  8
本体
 62
     0
 48
3.0
370
    -2
100
AcDbLine
 10
1132.778994301476
 20
553.9754701180918
 30
0.0
 11
1132.778994301476
 21
568.9754701180918
 31
0.0
  0
LINE
  5
1634
330
162F
100
AcDbEntity
  8
本体
 62
     0
 48
3.0
370
    -2
100
AcDbLine
 10
1132.778994301476
 20
521.6754701180917
 30
0.0
 11
1132.778994301475
 21
442.3099878845892
 31
0.0
  0
LINE
  5
1635
330
162F
100
AcDbEntity
  8
本体
 62
     0
 48
3.0
370
    -2
100
AcDbLine
 10
1132.778994301476
 20
538.9754701180918
 30
0.0
 11
1132.778994301476
 21
536.6754701180918
 31
0.0
  0
INSERT
  5
1636
330
162F
100
AcDbEntity
  8
本体
 62
     0
 48
3.0
370
    -2
100
AcDbBlockReference
  2
_Open30
 10
1132.778994301476
 20
538.9754701180918
 30
0.0
 41
15.0
 42
15.0
 43
15.0
 50
270.0
  0
INSERT
  5
1637
330
162F
100
AcDbEntity
  8
本体
 62
     0
 48
3.0
370
    -2
100
AcDbBlockReference
  2
_Open30
 10
1132.778994301476
 20
536.6754701180918
 30
0.0
 41
15.0
 42
15.0
 43
15.0
 50
90.0
  0
MTEXT
  5
1638
330
162F
100
AcDbEntity
  8
本体
 62
     0
 48
3.0
100
AcDbMText
 10
1112.778994301476
 20
474.4927290013406
 30
0.0
 40
30.0
 41
0.0
 71
     5
 72
     1
  1
2.3
 11
0.0000000000000001
 21
1.0
 31
0.0
 73
     1
 44
1.0
1001
ACAD
1000
MTEXTBEGIN
1070
    73
1070
     1
1070
    44
1040
1.0
1070
    74
1070
     0
1000
MTEXTEND
  0
POINT
  5
1639
330
162F
100
AcDbEntity
  8
Defpoints
 62
     0
 48
3.0
100
AcDbPoint
 10
1132.778994301476
 20
538.9754701180918
 30
0.0
  0
POINT
  5
163A
330
162F
100
AcDbEntity
  8
Defpoints
 62
     0
 48
3.0
100
AcDbPoint
 10
1132.778994301476
 20
536.6754701180918
 30
0.0
  0
POINT
  5
163B
330
162F
100
AcDbEntity
  8
Defpoints
 62
     0
 48
3.0
100
AcDbPoint
 10
1132.778994301476
 20
536.6754701180918
 30
0.0
  0
ENDBLK
  5
163C
330
162F
100
AcDbEntity
  8
0
 48
3.0
100
AcDbBlockEnd
  0
BLOCK
  5
1641
330
163D
100
AcDbEntity
  8
0
 48
3.0
100
AcDbBlockBegin
  2
A$C0F4511D8
 70
     0
 10
0.0
 20
0.0
 30
0.0
  3
A$C0F4511D8
  1

  0
DIMENSION
  5
163E
330
163D
100
AcDbEntity
  8
本体
 48
3.0
100
AcDbDimension
  2
*D21
 10
0.0
 20
-2.300000000000068
 30
0.0
 11
-20.00000000000023
 21
-64.48274111675118
 31
0.0
 12
-1132.778994301476
 22
-538.9754701180918
 32
0.0
 71
     5
 42
2.300000000000068
  3
ISO-25
100
AcDbAlignedDimension
 13
0.0
 23
0.0
 33
0.0
 14
0.0
 24
-2.300000000000068
 34
0.0
 50
90.0
100
AcDbRotatedDimension
  0
ENDBLK
  5
1642
330
163D
100
AcDbEntity
  8
0
 48
3.0
100
AcDbBlockEnd
  0
ENDSEC
  0
SECTION
  2
ENTITIES
  0
LINE
  5
12
330
2
100
AcDbEntity
  8
外枠
 48
80.0
370
     9
100
AcDbLine
 10
0.0
 20
0.0
 30
0.0
 11
2789.511161023067
 21
0.0
 31
0.0
  0
LINE
  5
13
330
2
100
AcDbEntity
  8
外枠
 48
80.0
370
     9
100
AcDbLine
 10
2789.511161023071
 20
1973.26911249564
 30
0.0
 11
0.0
 21
1973.26911249564
 31
0.0
  0
LINE
  5
14
330
2
100
AcDbEntity
  8
外枠
 48
100.0
370
     9
100
AcDbLine
 10
10.0
 20
10.0
 30
0.0
 11
2780.119625023061
 21
10.0
 31
0.0
  0
LINE
  5
17
330
2
100
AcDbEntity
  8
外枠
  6
Continuous
 48
100.0
370
     9
100
AcDbLine
 10
9.999999999996362
 20
155.3992728208031
 30
0.0
 11
2780.119625023061
 21
155.3992728207995
 31
0.0
  0
LINE
  5
18
330
2
100
AcDbEntity
  8
外枠
  6
Continuous
 48
100.0
370
     9
100
AcDbLine
 10
9.999999999996362
 20
160.0950408208045
 30
0.0
 11
2780.119625023061
 21
160.0950408207973
 31
0.0
  0
LINE
  5
19
330
2
100
AcDbEntity
  8
外枠
 48
100.0
370
     9
100
AcDbLine
 10
10.0
 20
1963.877576495633
 30
0.0
 11
2780.119625023053
 21
1963.877576495637
 31
0.0
  0
LINE
  5
1A
330
2
100
AcDbEntity
  8
外枠
 48
80.0
370
     9
100
AcDbLine
 10
0.0
 20
0.0
 30
0.0
 11
0.0
 21
1973.26911249564
 31
0.0
  0
LINE
  5
1B
330
2
100
AcDbEntity
  8
外枠
 48
100.0
370
     9
100
AcDbLine
 10
10.0
 20
1963.877576495633
 30
0.0
 11
10.0
 21
10.0
 31
0.0
  0
LINE
  5
1C
330
2
100
AcDbEntity
  8
外枠
  6
Continuous
 48
100.0
370
     9
100
AcDbLine
 10
10.0
 20
82.69963641040158
 30
0.0
 11
1153.530108552004
 21
82.69963641039794
 31
0.0
  0
MTEXT
  5
1D
330
2
100
AcDbEntity
  8
外枠
  6
Continuous
 48
100.0
370
     9
100
AcDbMText
 10
509.5653614952989
 20
136.1535564242149
 30
0.0
 40
29.0
 41
664.6118999999999
 71
     1
 72
     5
  1
細目一般側溝用かさあげグレーチング
 73
     1
 44
1.0
1001
ACAD
1000
MTEXTBEGIN
1070
    73
1070
     1
1070
    44
1040
1.0
1070
    74
1070
     0
1000
MTEXTEND
  0
MTEXT
  5
1E
330
2
100
AcDbEntity
  8
外枠
  6
Continuous
 48
100.0
370
     9
100
AcDbMText
 10
246.8574963386418
 20
64.81814764649607
 30
0.0
 40
35.0
 41
532.9183
 71
     1
 72
     5
  1
390\U+00D7594\U+00D732/97
 73
     1
 44
1.0
1001
ACAD
1000
MTEXTBEGIN
1070
    73
1070
     1
1070
    44
1040
1.0
1070
    74
1070
     0
1000
MTEXTEND
  0
MTEXT
  5
1F
330
2
100
AcDbEntity
  8
外枠
  6
Continuous
 48
100.0
370
     9
100
AcDbMText
 10
76.61659604009765
 20
137.3760680266387
 30
0.0
 40
30.0
 41
126.3036
 71
     1
 72
     5
  1
T-6
 73
     1
 44
1.0
1001
ACAD
1000
MTEXTBEGIN
1070
    73
1070
     1
1070
    44
1040
1.0
1070
    74
1070
     0
1000
MTEXTEND
  0
MTEXT
  5
20
330
2
100
AcDbEntity
  8
外枠
  6
Continuous
 48
100.0
370
     9
100
AcDbMText
 10
82.93258377064921
 20
59.95966632915224
 30
0.0
 40
35.0
 41
88.86979999999999
 71
     1
 72
     5
  1
EFH
 73
     1
 44
1.0
1001
ACAD
1000
MTEXTBEGIN
1070
    73
1070
     1
1070
    44
1040
1.0
1070
    74
1070
     0
1000
MTEXTEND
  0
LINE
  5
21
330
2
100
AcDbEntity
  8
外枠
 48
100.0
370
     9
100
AcDbLine
 10
45.0
 20
155.3992728208031
 30
0.0
 11
45.0
 21
10.0
 31
0.0
  0
MTEXT
  5
22
330
2
100
AcDbEntity
  8
外枠
  6
Continuous
 48
100.0
370
     9
100
AcDbMText
 10
15.05670849094895
 20
75.82038473524153
 30
0.0
 40
20.0
 41
23.52947333656417
 71
     1
 72
     5
  1
品\P番
 73
     1
 44
1.0
1001
ACAD
1000
MTEXTBEGIN
1070
    73
1070
     1
1070
    44
1040
1.0
1070
    74
1070
     0
1000
MTEXTEND
  0
MTEXT
  5
23
330
2
100
AcDbEntity
  8
外枠
  6
Continuous
 48
100.0
370
     9
100
AcDbMText
 10
14.92010060012399
 20
149.3317229429121
 30
0.0
 40
20.0
 41
30.07989939987533
 71
     1
 72
     5
  1
荷\P重
 73
     1
 44
1.0
1001
ACAD
1000
MTEXTBEGIN
1070
    73
1070
     1
1070
    44
1040
1.0
1070
    74
1070
     0
1000
MTEXTEND
  0
LINE
  5
24
330
2
100
AcDbEntity
  8
外枠
 48
100.0
370
     9
100
AcDbLine
 10
179.1040495562847
 20
155.3992728208031
 30
0.0
 11
179.1040495562847
 21
10.0
 31
0.0
  0
MTEXT
  5
25
330
2
100
AcDbEntity
  8
外枠
  6
Continuous
 48
100.0
370
     9
100
AcDbMText
 10
271.7517807368968
 20
133.8572910967996
 30
0.0
 40
30.0
 41
271.6208
 71
     1
 72
     5
  1
300用
 73
     1
 44
1.0
1001
ACAD
1000
MTEXTBEGIN
1070
    73
1070
     1
1070
    44
1040
1.0
1070
    74
1070
     0
1000
MTEXTEND
  0
MTEXT
  5
26
330
2
100
AcDbEntity
  8
外枠
  6
Continuous
 48
100.0
370
     9
100
AcDbMText
 10
184.4346535744698
 20
149.3074501239389
 30
0.0
 40
20.0
 41
29.6694
 71
     1
 72
     5
  1
溝幅
 73
     1
 44
1.0
1001
ACAD
1000
MTEXTBEGIN
1070
    73
1070
     1
1070
    44
1040
1.0
1070
    74
1070
     0
1000
MTEXTEND
  0
LINE
  5
27
330
2
100
AcDbEntity
  8
外枠
 48
100.0
370
     9
100
AcDbLine
 10
214.1040495562847
 20
155.3992728208031
 30
0.0
 11
214.1040495562847
 21
82.69963641040158
 31
0.0
  0
MTEXT
  5
28
330
2
100
AcDbEntity
  8
外枠
  6
Continuous
 48
100.0
370
     9
100
AcDbMText
 10
477.8955451146976
 20
149.3074501239389
 30
0.0
 40
20.0
 41
29.6694
 71
     1
 72
     5
  1
品名
 73
     1
 44
1.0
1001
ACAD
1000
MTEXTBEGIN
1070
    73
1070
     1
1070
    44
1040
1.0
1070
    74
1070
     0
1000
MTEXTEND
  0
LINE
  5
29
330
2
100
AcDbEntity
  8
外枠
 48
100.0
370
     9
100
AcDbLine
 10
472.5649410965124
 20
155.3992728208031
 30
0.0
 11
472.5649410965124
 21
82.69963641040158
 31
0.0
  0
LINE
  5
2A
330
2
100
AcDbEntity
  8
外枠
 48
100.0
370
     9
100
AcDbLine
 10
507.5649410965125
 20
155.3992728208031
 30
0.0
 11
507.5649410965125
 21
82.69963641040158
 31
0.0
  0
MTEXT
  5
2B
330
2
100
AcDbEntity
  8
外枠
  6
Continuous
 48
100.0
370
     9
100
AcDbMText
 10
728.477887653953
 20
76.92551173516403
 30
0.0
 40
20.0
 41
664.6118999999999
 71
     1
 72
     5
  1
摘\P要
 73
     1
 44
1.0
1001
ACAD
1000
MTEXTBEGIN
1070
    73
1070
     1
1070
    44
1040
1.0
1070
    74
1070
     0
1000
MTEXTEND
  0
LINE
  5
2C
330
2
100
AcDbEntity
  8
外枠
 48
100.0
370
     9
100
AcDbLine
 10
723.8282373115871
 20
82.6996364103943
 30
0.0
 11
723.8282373115871
 21
9.999999999992724
 31
0.0
  0
LINE
  5
2F
330
2
100
AcDbEntity
  8
外枠
 48
100.0
370
     9
100
AcDbLine
 10
758.8282373115871
 20
82.6996364103943
 30
0.0
 11
758.8282373115871
 21
9.999999999992724
 31
0.0
  0
LINE
  5
31
330
2
100
AcDbEntity
  8
外枠
 48
100.0
370
     9
100
AcDbLine
 10
974.9513069700951
 20
82.6996364103943
 30
0.0
 11
974.9513069700951
 21
9.999999999992724
 31
0.0
  0
MTEXT
  5
32
330
2
100
AcDbEntity
  8
外枠
  6
Continuous
 48
100.0
370
     9
100
AcDbMText
 10
979.7329598959768
 20
74.84825461820583
 30
0.0
 40
20.0
 41
31.38947761565365
 71
     1
 72
     5
  1
材\P質
 73
     1
 44
1.0
1001
ACAD
1000
MTEXTBEGIN
1070
    73
1070
     1
1070
    44
1040
1.0
1070
    74
1070
     0
1000
MTEXTEND
  0
LINE
  5
33
330
2
100
AcDbEntity
  8
外枠
 48
100.0
370
     9
100
AcDbLine
 10
1009.951306970095
 20
82.6996364103943
 30
0.0
 11
1009.951306970095
 21
9.999999999992724
 31
0.0
  0
LINE
  5
37
330
2
100
AcDbEntity
  8
外枠
 48
80.0
370
     9
100
AcDbLine
 10
2789.511161023067
 20
0.0
 30
0.0
 11
2789.511161023071
 21
1973.26911249564
 31
0.0
  0
LINE
  5
38
330
2
100
AcDbEntity
  8
外枠
 48
100.0
370
     9
100
AcDbLine
 10
2780.119625023053
 20
1963.877576495637
 30
0.0
 11
2780.119625023061
 21
10.0
 31
0.0
  0
LINE
  5
3A
330
2
100
AcDbEntity
  8
外枠
 48
3.0
100
AcDbLine
 10
1607.072254912545
 20
61.67068719952067
 30
0.0
 11
2262.173600934632
 21
61.67068719952067
 31
0.0
  0
MTEXT
  5
3B
330
2
100
AcDbEntity
  8
外枠
  6
Continuous
 48
100.0
370
     9
100
AcDbMText
 10
1683.622173868318
 20
50.71504764095289
 30
0.0
 40
30.00024
 41
539.4827578564582
 71
     1
 72
     5
  1
T A K A R A   G R A T I N G
 73
     1
 44
1.0
1001
ACAD
1000
MTEXTBEGIN
1070
    73
1070
     1
1070
    44
1040
1.0
1070
    74
1070
     0
1000
MTEXTEND
  0
MTEXT
  5
3C
330
2
100
AcDbEntity
  8
外枠
  6
Continuous
 48
100.0
370
     9
100
AcDbMText
 10
1728.02061463669
 20
127.1672938476838
 30
0.0
 40
30.0
 41
282.8297
 71
     1
 72
     5
  1
株 式 会 社
 73
     1
 44
1.0
1001
ACAD
1000
MTEXTBEGIN
1070
    73
1070
     1
1070
    44
1040
1.0
1070
    74
1070
     0
1000
MTEXTEND
  0
LINE
  5
3D
330
2
100
AcDbEntity
  8
外枠
  6
Continuous
 48
100.0
370
     9
100
AcDbLine
 10
1508.680137877982
 20
155.3992728208068
 30
0.0
 11
1508.680137877982
 21
10.00000000000364
 31
0.0
  0
LINE
  5
3E
330
2
100
AcDbEntity
  8
外枠
  6
Continuous
 48
100.0
370
     9
100
AcDbLine
 10
1593.95141853916
 20
155.3992728207995
 30
0.0
 11
1593.95141853916
 21
9.999999999996362
 31
0.0
  0
LINE
  5
3F
330
2
100
AcDbEntity
  8
外枠
  6
Continuous
 48
100.0
370
     9
100
AcDbLine
 10
1616.777813337499
 20
106.634063069062
 30
0.0
 11
1612.463999974505
 21
110.08511375945
 31
0.0
  0
LINE
  5
40
330
2
100
AcDbEntity
  8
外枠
  6
Continuous
 48
100.0
370
     9
100
AcDbLine
 10
1616.777813337499
 20
106.634063069062
 30
0.0
 11
1612.463999974505
 21
103.183012378663
 31
0.0
  0
LINE
  5
41
330
2
100
AcDbEntity
  8
外枠
  6
Continuous
 48
100.0
370
     9
100
AcDbLine
 10
1616.777813337505
 20
113.5361644498489
 30
0.0
 11
1612.463999974505
 21
110.08511375945
 31
0.0
  0
LINE
  5
42
330
2
100
AcDbEntity
  8
外枠
  6
Continuous
 48
100.0
370
     9
100
AcDbLine
 10
1616.777813337499
 20
99.73196168827508
 30
0.0
 11
1612.463999974505
 21
103.183012378663
 31
0.0
  0
MTEXT
  5
43
330
2
100
AcDbEntity
  8
外枠
  6
Continuous
 48
100.0
370
     9
100
AcDbMText
 10
1520.476936402745
 20
137.4995509975779
 30
0.0
 40
20.0
 41
1015.1375
 71
     1
 72
     5
  1
20.6
 73
     1
 44
1.0
1001
ACAD
1000
MTEXTBEGIN
1070
    73
1070
     1
1070
    44
1040
1.0
1070
    74
1070
     0
1000
MTEXTEND
  0
MTEXT
  5
44
330
2
100
AcDbEntity
  8
外枠
  6
Continuous
 48
100.0
370
     9
100
AcDbMText
 10
1568.464698185987
 20
108.4136993179927
 30
0.0
 40
18.0
 41
25.456
 71
     1
 72
     5
  1
kg
 73
     1
 44
1.0
1001
ACAD
1000
MTEXTBEGIN
1070
    73
1070
     1
1070
    44
1040
1.0
1070
    74
1070
     0
1000
MTEXTEND
  0
LINE
  5
45
330
2
100
AcDbEntity
  8
外枠
  6
Continuous
 48
100.0
370
     9
100
AcDbLine
 10
1649.122643507042
 20
139.4120285854742
 30
0.0
 11
1653.436456870031
 21
135.9609778950862
 31
0.0
  0
LINE
  5
46
330
2
100
AcDbEntity
  8
外枠
  6
Continuous
 48
100.0
370
     9
100
AcDbLine
 10
1666.377896959009
 20
139.4120285854742
 30
0.0
 11
1662.06408359602
 21
135.9609778950862
 31
0.0
  0
MTEXT
  5
47
330
2
100
AcDbEntity
  8
外枠
  6
Continuous
 48
100.0
370
     9
100
AcDbMText
 10
1642.840555134189
 20
120.8184913847756
 30
0.0
 40
23.95393639053264
 41
23.85059431815661
 71
     1
 72
     5
  1
{\fＭＳ ゴシック|b0|i0|c128|p49;宝}
 73
     1
 44
1.0
1001
ACAD
1000
MTEXTBEGIN
1070
    73
1070
     1
1070
    44
1040
1.0
1070
    74
1070
     0
1000
MTEXTEND
  0
LINE
  5
48
330
2
100
AcDbEntity
  8
外枠
  6
Continuous
 48
100.0
370
     9
100
AcDbLine
 10
1662.06408359602
 20
135.9609778950862
 30
0.0
 11
1694.408913765557
 21
110.08511375945
 31
0.0
  0
LINE
  5
49
330
2
100
AcDbEntity
  8
外枠
  6
Continuous
 48
100.0
370
     9
100
AcDbLine
 10
1657.750270233026
 20
132.5099272046927
 30
0.0
 11
1690.095100402563
 21
106.634063069062
 31
0.0
  0
LINE
  5
4A
330
2
100
AcDbEntity
  8
外枠
  6
Continuous
 48
100.0
370
     9
100
AcDbLine
 10
1690.095100402563
 20
106.634063069062
 30
0.0
 11
1657.750270233026
 21
80.75819893343123
 31
0.0
  0
LINE
  5
4B
330
2
100
AcDbEntity
  8
外枠
  6
Continuous
 48
100.0
370
     9
100
AcDbLine
 10
1694.408913765557
 20
103.183012378663
 30
0.0
 11
1662.06408359602
 21
77.30714824303777
 31
0.0
  0
LINE
  5
4C
330
2
100
AcDbEntity
  8
外枠
  6
Continuous
 48
100.0
370
     9
100
AcDbLine
 10
1657.750270233026
 20
80.75819893342577
 30
0.0
 11
1625.405440063488
 21
106.634063069062
 31
0.0
  0
LINE
  5
4D
330
2
100
AcDbEntity
  8
外枠
  6
Continuous
 48
100.0
370
     9
100
AcDbLine
 10
1653.436456870031
 20
77.30714824303777
 30
0.0
 11
1621.0916267005
 21
103.183012378663
 31
0.0
  0
LINE
  5
4E
330
2
100
AcDbEntity
  8
外枠
  6
Continuous
 48
100.0
370
     9
100
AcDbLine
 10
1621.0916267005
 20
103.183012378663
 30
0.0
 11
1616.777813337505
 21
99.73196168827508
 31
0.0
  0
LINE
  5
4F
330
2
100
AcDbEntity
  8
外枠
  6
Continuous
 48
100.0
370
     9
100
AcDbLine
 10
1653.436456870031
 20
77.30714824303777
 30
0.0
 11
1649.122643507042
 21
73.85609755263885
 31
0.0
  0
LINE
  5
50
330
2
100
AcDbEntity
  8
外枠
  6
Continuous
 48
100.0
370
     9
100
AcDbLine
 10
1653.436456870031
 20
70.4050468622454
 30
0.0
 11
1649.122643507042
 21
73.85609755263885
 31
0.0
  0
LINE
  5
51
330
2
100
AcDbEntity
  8
外枠
  6
Continuous
 48
100.0
370
     9
100
AcDbLine
 10
1657.750270233026
 20
73.85609755263885
 30
0.0
 11
1653.436456870031
 21
70.4050468622454
 31
0.0
  0
LINE
  5
52
330
2
100
AcDbEntity
  8
外枠
  6
Continuous
 48
100.0
370
     9
100
AcDbLine
 10
1666.377896959009
 20
73.85609755263885
 30
0.0
 11
1662.06408359602
 21
70.4050468622454
 31
0.0
  0
LINE
  5
53
330
2
100
AcDbEntity
  8
外枠
  6
Continuous
 48
100.0
370
     9
100
AcDbLine
 10
1662.06408359602
 20
70.4050468622454
 30
0.0
 11
1657.750270233026
 21
73.85609755263885
 31
0.0
  0
LINE
  5
54
330
2
100
AcDbEntity
  8
外枠
  6
Continuous
 48
100.0
370
     9
100
AcDbLine
 10
1666.377896959009
 20
73.85609755263885
 30
0.0
 11
1662.06408359602
 21
77.30714824303777
 31
0.0
  0
LINE
  5
55
330
2
100
AcDbEntity
  8
外枠
  6
Continuous
 48
100.0
370
     9
100
AcDbLine
 10
1657.750270233026
 20
132.5099272046927
 30
0.0
 11
1625.405440063483
 21
106.634063069062
 31
0.0
  0
LINE
  5
56
330
2
100
AcDbEntity
  8
外枠
  6
Continuous
 48
100.0
370
     9
100
AcDbLine
 10
1653.436456870031
 20
135.9609778950862
 30
0.0
 11
1621.0916267005
 21
110.08511375945
 31
0.0
  0
LINE
  5
57
330
2
100
AcDbEntity
  8
外枠
  6
Continuous
 48
100.0
370
     9
100
AcDbLine
 10
1621.0916267005
 20
110.08511375945
 30
0.0
 11
1616.777813337505
 21
113.5361644498489
 31
0.0
  0
LINE
  5
58
330
2
100
AcDbEntity
  8
外枠
  6
Continuous
 48
100.0
370
     9
100
AcDbLine
 10
1694.408913765557
 20
103.183012378663
 30
0.0
 11
1698.722727128541
 21
99.73196168827508
 31
0.0
  0
LINE
  5
59
330
2
100
AcDbEntity
  8
外枠
  6
Continuous
 48
100.0
370
     9
100
AcDbLine
 10
1703.036540491541
 20
103.183012378663
 30
0.0
 11
1698.722727128541
 21
99.73196168827508
 31
0.0
  0
LINE
  5
5A
330
2
100
AcDbEntity
  8
外枠
  6
Continuous
 48
100.0
370
     9
100
AcDbLine
 10
1698.722727128541
 20
113.5361644498489
 30
0.0
 11
1694.408913765557
 21
110.08511375945
 31
0.0
  0
LINE
  5
5B
330
2
100
AcDbEntity
  8
外枠
  6
Continuous
 48
100.0
370
     9
100
AcDbLine
 10
1698.722727128541
 20
106.634063069062
 30
0.0
 11
1703.036540491541
 21
103.183012378663
 31
0.0
  0
LINE
  5
5C
330
2
100
AcDbEntity
  8
外枠
  6
Continuous
 48
100.0
370
     9
100
AcDbLine
 10
1698.722727128541
 20
113.5361644498489
 30
0.0
 11
1703.036540491541
 21
110.08511375945
 31
0.0
  0
LINE
  5
5D
330
2
100
AcDbEntity
  8
外枠
  6
Continuous
 48
100.0
370
     9
100
AcDbLine
 10
1703.036540491541
 20
110.08511375945
 30
0.0
 11
1698.722727128541
 21
106.634063069062
 31
0.0
  0
LINE
  5
5E
330
2
100
AcDbEntity
  8
外枠
  6
Continuous
 48
100.0
370
     9
100
AcDbLine
 10
1653.436456870031
 20
142.8630792758676
 30
0.0
 11
1649.122643507042
 21
139.4120285854742
 31
0.0
  0
LINE
  5
5F
330
2
100
AcDbEntity
  8
外枠
  6
Continuous
 48
100.0
370
     9
100
AcDbLine
 10
1662.06408359602
 20
142.8630792758676
 30
0.0
 11
1666.377896959009
 21
139.4120285854742
 31
0.0
  0
LINE
  5
60
330
2
100
AcDbEntity
  8
外枠
  6
Continuous
 48
100.0
370
     9
100
AcDbLine
 10
1653.436456870031
 20
142.8630792758676
 30
0.0
 11
1657.750270233026
 21
139.4120285854742
 31
0.0
  0
LINE
  5
61
330
2
100
AcDbEntity
  8
外枠
  6
Continuous
 48
100.0
370
     9
100
AcDbLine
 10
1662.06408359602
 20
142.8630792758676
 30
0.0
 11
1657.750270233026
 21
139.4120285854742
 31
0.0
  0
MTEXT
  5
62
330
2
100
AcDbEntity
  8
外枠
  6
Continuous
 48
100.0
370
     9
100
AcDbMText
 10
1982.246612759803
 20
141.5312822365363
 30
0.0
 40
50.0
 41
269.1378
 71
     1
 72
     5
  1
宝 機 材
 73
     1
 44
1.0
1001
ACAD
1000
MTEXTBEGIN
1070
    73
1070
     1
1070
    44
1040
1.0
1070
    74
1070
     0
1000
MTEXTEND
  0
LINE
  5
63
330
2
100
AcDbEntity
  8
外枠
  6
Continuous
 48
100.0
370
     9
100
AcDbLine
 10
2694.775480668144
 20
78.59726492113622
 30
0.0
 11
2729.639779322774
 21
43.73296626650699
 31
0.0
  0
LINE
  5
64
330
2
100
AcDbEntity
  8
外枠
  6
Continuous
 48
100.0
370
     9
100
AcDbLine
 10
2729.639779322774
 20
113.4615635757691
 30
0.0
 11
2694.775480668144
 21
78.59726492113622
 31
0.0
  0
LINE
  5
66
330
2
100
AcDbEntity
  8
外枠
  6
Continuous
 48
100.0
370
     9
100
AcDbLine
 10
2271.730765417811
 20
155.3992728207995
 30
0.0
 11
2271.730765417811
 21
10.0
 31
0.0
  0
LINE
  5
67
330
2
100
AcDbEntity
  8
外枠
  6
Continuous
 48
100.0
370
     9
100
AcDbLine
 10
2387.385592047314
 20
155.3992728207995
 30
0.0
 11
2387.385592047314
 21
9.999999999996362
 31
0.0
  0
MTEXT
  5
68
330
2
100
AcDbEntity
  8
外枠
  6
Continuous
 48
100.0
370
     9
100
AcDbMText
 10
2518.897970034654
 20
80.52451510381798
 30
0.0
 40
16.435188
 41
274.138099993296
 71
     1
 72
     5
  1
縮尺（A4用紙)
 73
     1
 44
1.0
1001
ACAD
1000
MTEXTBEGIN
1070
    73
1070
     1
1070
    44
1040
1.0
1070
    74
1070
     0
1000
MTEXTEND
  0
LINE
  5
69
330
2
100
AcDbEntity
  8
外枠
  6
Continuous
 48
100.0
370
     9
100
AcDbLine
 10
2503.04041867681
 20
155.3992728207995
 30
0.0
 11
2503.04041867681
 21
9.999999999996362
 31
0.0
  0
LINE
  5
6A
330
2
100
AcDbEntity
  8
外枠
  6
Continuous
 48
100.0
370
     9
100
AcDbLine
 10
2676.662359028593
 20
155.3992728207995
 30
0.0
 11
2676.662359028593
 21
10.0
 31
0.0
  0
MTEXT
  5
6B
330
2
100
AcDbEntity
  8
外枠
  6
Continuous
 48
100.0
370
     9
100
AcDbMText
 10
2557.587330290393
 20
42.24161905183791
 30
0.0
 40
23.47884
 41
274.138099993296
 71
     1
 72
     5
  1
1：10
 73
     1
 44
1.0
1001
ACAD
1000
MTEXTBEGIN
1070
    73
1070
     1
1070
    44
1040
1.0
1070
    74
1070
     0
1000
MTEXTEND
  0
MTEXT
  5
6C
330
2
100
AcDbEntity
  8
外枠
  6
Continuous
 48
100.0
370
     9
100
AcDbMText
 10
2280.290404386422
 20
149.5129012429788
 30
0.0
 40
18.783072
 41
274.13809060176
 71
     1
 72
     5
  1
Check
 73
     1
 44
1.0
1001
ACAD
1000
MTEXTBEGIN
1070
    73
1070
     1
1070
    44
1040
1.0
1070
    74
1070
     0
1000
MTEXTEND
  0
MTEXT
  5
6D
330
2
100
AcDbEntity
  8
外枠
  6
Continuous
 48
100.0
370
     9
100
AcDbMText
 10
2398.03460165154
 20
149.5129012429788
 30
0.0
 40
18.783072
 41
274.13809060176
 71
     1
 72
     5
  1
Draw
 73
     1
 44
1.0
1001
ACAD
1000
MTEXTBEGIN
1070
    73
1070
     1
1070
    44
1040
1.0
1070
    74
1070
     0
1000
MTEXTEND
  0
LINE
  5
6F
330
2
100
AcDbEntity
  8
外枠
  6
Continuous
 48
100.0
370
     9
100
AcDbLine
 10
2676.662359028593
 20
85.04752041039683
 30
0.0
 11
2503.04041867681
 21
85.04752041039683
 31
0.0
  0
MTEXT
  5
70
330
2
100
AcDbEntity
  8
外枠
  6
Continuous
 48
100.0
370
     9
100
AcDbMText
 10
2518.897970034654
 20
153.7304166203976
 30
0.0
 40
16.435188
 41
274.138099993296
 71
     1
 72
     5
  1
図面作成日
 73
     1
 44
1.0
1001
ACAD
1000
MTEXTBEGIN
1070
    73
1070
     1
1070
    44
1040
1.0
1070
    74
1070
     0
1000
MTEXTEND
  0
LINE
  5
72
330
2
100
AcDbEntity
  8
外枠
  6
Continuous
 48
100.0
370
     9
100
AcDbLine
 10
2729.639779322774
 20
43.73296626650699
 30
0.0
 11
2764.504077977396
 21
78.59726492113622
 31
0.0
  0
LINE
  5
73
330
2
100
AcDbEntity
  8
外枠
  6
Continuous
 48
100.0
370
     9
100
AcDbLine
 10
2764.504077977396
 20
78.59726492113622
 30
0.0
 11
2729.639779322774
 21
113.4615635757691
 31
0.0
  0
LINE
  5
75
330
2
100
AcDbEntity
  8
本体
  6
Continuous
100
AcDbLine
 10
541.7999911844744
 20
1583.433446905533
 30
0.0
 11
1135.799991184474
 21
1583.433446905533
 31
0.0
  0
LINE
  5
77
330
2
100
AcDbEntity
  8
本体
  6
Continuous
100
AcDbLine
 10
541.7999911844744
 20
1577.433446905533
 30
0.0
 11
1135.799991184474
 21
1577.433446905533
 31
0.0
  0
LINE
  5
78
330
2
100
AcDbEntity
  8
本体
  6
Continuous
100
AcDbLine
 10
541.7999911844744
 20
1483.433446905533
 30
0.0
 11
1135.799991184474
 21
1483.433446905533
 31
0.0
  0
LINE
  5
79
330
2
100
AcDbEntity
  8
本体
  6
Continuous
100
AcDbLine
 10
541.7999911844744
 20
1477.433446905533
 30
0.0
 11
1135.799991184474
 21
1477.433446905533
 31
0.0
  0
LINE
  5
7A
330
2
100
AcDbEntity
  8
本体
  6
Continuous
100
AcDbLine
 10
541.7999911844744
 20
1377.433446905533
 30
0.0
 11
1135.799991184474
 21
1377.433446905533
 31
0.0
  0
LINE
  5
7B
330
2
100
AcDbEntity
  8
本体
  6
Continuous
100
AcDbLine
 10
541.7999911844744
 20
1383.433446905533
 30
0.0
 11
1135.799991184474
 21
1383.433446905533
 31
0.0
  0
LINE
  5
7C
330
2
100
AcDbEntity
  8
本体
  6
Continuous
100
AcDbLine
 10
541.7999911844744
 20
1277.433446905533
 30
0.0
 11
1135.799991184474
 21
1277.433446905533
 31
0.0
  0
LINE
  5
7D
330
2
100
AcDbEntity
  8
本体
  6
Continuous
100
AcDbLine
 10
541.7999911844744
 20
1283.433446905533
 30
0.0
 11
1135.799991184474
 21
1283.433446905533
 31
0.0
  0
LINE
  5
7E
330
2
100
AcDbEntity
  8
嵩上断面
  6
Continuous
100
AcDbLine
 10
1133.799991184474
 20
599.3493681823856
 30
0.0
 11
543.7999911844745
 21
599.3493681823856
 31
0.0
  0
LINE
  5
7F
330
2
100
AcDbEntity
  8
嵩上断面
  6
Continuous
100
AcDbLine
 10
543.7999911844745
 20
599.3493681823856
 30
0.0
 11
543.7999911844745
 21
659.3493681823856
 31
0.0
  0
LINE
  5
80
330
2
100
AcDbEntity
  8
嵩上断面
  6
HIDDEN
 48
3.0
100
AcDbLine
 10
543.7999911844745
 20
657.0493681823855
 30
0.0
 11
1133.799991184474
 21
657.0493681823855
 31
0.0
  0
LINE
  5
82
330
2
100
AcDbEntity
  8
嵩上断面
  6
HIDDEN
 48
3.0
100
AcDbLine
 10
543.7999911844745
 20
601.6493681823857
 30
0.0
 11
1133.799991184474
 21
601.6493681823857
 31
0.0
  0
LINE
  5
83
330
2
100
AcDbEntity
  8
本体
  6
Continuous
100
AcDbLine
 10
1980.729945742093
 20
1625.433446905533
 30
0.0
 11
1980.729945742093
 21
1235.433446905533
 31
0.0
  0
LINE
  5
84
330
2
100
AcDbEntity
  8
本体
  6
Continuous
100
AcDbLine
 10
2012.729945742093
 20
1620.933446905533
 30
0.0
 11
2012.729945742093
 21
1239.933446905533
 31
0.0
  0
LINE
  5
85
330
2
100
AcDbEntity
  8
本体
  6
Continuous
100
AcDbLine
 10
1980.729945742093
 20
1625.433446905533
 30
0.0
 11
2004.729945742093
 21
1625.433446905533
 31
0.0
  0
LINE
  5
86
330
2
100
AcDbEntity
  8
本体
  6
Continuous
100
AcDbLine
 10
1980.729945742093
 20
1620.933446905533
 30
0.0
 11
2012.729945742093
 21
1620.933446905533
 31
0.0
  0
LINE
  5
87
330
2
100
AcDbEntity
  8
本体
  6
Continuous
100
AcDbLine
 10
1980.729945742093
 20
1239.933446905533
 30
0.0
 11
2012.729945742093
 21
1239.933446905533
 31
0.0
  0
LINE
  5
88
330
2
100
AcDbEntity
  8
本体
  6
Continuous
100
AcDbLine
 10
1980.729945742093
 20
1235.433446905533
 30
0.0
 11
2004.729945742093
 21
1235.433446905533
 31
0.0
  0
INSERT
  5
89
330
2
100
AcDbEntity
  8
本体
  6
Continuous
100
AcDbBlockReference
  2
TB8
 10
1980.729945742093
 20
1580.433446905533
 30
0.0
  0
INSERT
  5
93
330
2
100
AcDbEntity
  8
本体
  6
Continuous
100
AcDbBlockReference
  2
TB8
 10
1980.729945742093
 20
1480.433446905533
 30
0.0
  0
INSERT
  5
94
330
2
100
AcDbEntity
  8
本体
  6
Continuous
100
AcDbBlockReference
  2
TB8
 10
1980.729945742093
 20
1380.433446905533
 30
0.0
  0
INSERT
  5
95
330
2
100
AcDbEntity
  8
本体
  6
Continuous
100
AcDbBlockReference
  2
TB8
 10
1980.729945742093
 20
1280.433446905533
 30
0.0
  0
LINE
  5
96
330
2
100
AcDbEntity
  8
本体
  6
Continuous
100
AcDbLine
 10
541.7999911844744
 20
1625.433446905533
 30
0.0
 11
1135.799991184474
 21
1625.433446905533
 31
0.0
  0
LINE
  5
97
330
2
100
AcDbEntity
  8
本体
  6
Continuous
100
AcDbLine
 10
541.7999911844744
 20
1620.933446905533
 30
0.0
 11
1135.799991184474
 21
1620.933446905533
 31
0.0
  0
LINE
  5
98
330
2
100
AcDbEntity
  8
本体
  6
Continuous
100
AcDbLine
 10
541.7999911844744
 20
1235.433446905533
 30
0.0
 11
1135.799991184474
 21
1235.433446905533
 31
0.0
  0
LINE
  5
99
330
2
100
AcDbEntity
  8
本体
  6
Continuous
100
AcDbLine
 10
541.7999911844744
 20
1239.933446905533
 30
0.0
 11
1135.799991184474
 21
1239.933446905533
 31
0.0
  0
DIMENSION
  5
9A
330
2
100
AcDbEntity
  8
寸法線
  6
Continuous
100
AcDbDimension
  2
*D4
 10
1780.74378203227
 20
1235.433446905533
 30
0.0
 11
1760.74378203227
 21
1430.433446905534
 31
0.0
 70
    32
 71
     5
 42
-1.0
  3
ISO-25
100
AcDbAlignedDimension
 13
1980.729945742093
 23
1625.433446905533
 33
0.0
 14
1980.729945742093
 24
1235.433446905533
 34
0.0
 50
90.0
100
AcDbRotatedDimension
  0
DIMENSION
  5
AF
330
2
100
AcDbEntity
  8
寸法線
  6
Continuous
100
AcDbDimension
  2
*D5
 10
1878.731359992384
 20
1480.433446905533
 30
0.0
 11
1858.731359992383
 21
1530.433446905533
 31
0.0
 70
    32
 71
     5
 42
-1.0
  3
ISO-25
100
AcDbAlignedDimension
 13
1978.729945742093
 23
1580.433446905533
 33
0.0
 14
1978.729945742093
 24
1480.433446905533
 34
0.0
 50
90.0
100
AcDbRotatedDimension
  0
LEADER
  5
C0
330
2
100
AcDbEntity
  8
寸法線
  6
Continuous
100
AcDbLeader
  3
ISO-25
 73
     0
 74
     0
 75
     1
 40
30.0
 41
171.1675126903553
 76
     3
 10
1135.444531407126
 20
1625.433446905533
 30
0.0
 10
1191.155209525781
 20
1696.144125024188
 30
0.0
 10
1206.155209525781
 20
1696.144125024188
 30
0.0
340
C1
1001
ACAD
1000
DSTYLE
1002
{
1070
     5
1000
OPEN30
1070
    77
1070
     1
1070
   147
1040
0.5
1070
   342
1005
9C
1002
}
  0
MTEXT
  5
C1
102
{ACAD_REACTORS
330
C0
102
}
330
2
100
AcDbEntity
  8
寸法線
  6
Continuous
100
AcDbMText
 10
1211.155209525781
 20
1701.144125024188
 30
0.0
 40
30.0
 41
0.0
 71
     7
 72
     1
  1
FB4.5\U+00D725
 73
     1
 44
1.0
1001
ACAD
1000
MTEXTBEGIN
1070
    73
1070
     1
1070
    44
1040
1.0
1070
    74
1070
     0
1000
MTEXTEND
  0
DIMENSION
  5
C2
330
2
100
AcDbEntity
  8
寸法線
  6
Continuous
100
AcDbDimension
  2
*D6
 10
1245.804966467169
 20
659.3493681823856
 30
0.0
 11
1225.804966467169
 21
629.3493681823857
 31
0.0
 70
    32
 71
     5
 42
60.0
  3
ISO-25
100
AcDbAlignedDimension
 13
1133.799991884474
 23
599.3493681823856
 33
0.0
 14
1133.799991884474
 24
659.3493681823856
 34
0.0
 50
270.0
100
AcDbRotatedDimension
  0
DIMENSION
  5
CF
330
2
100
AcDbEntity
  8
寸法線
  6
Continuous
100
AcDbDimension
  2
*D7
 10
1245.804966467169
 20
691.3493681823856
 30
0.0
 11
1225.804966467169
 21
743.9382006696954
 31
0.0
 70
    32
 71
     5
 42
32.0
  3
ISO-25
100
AcDbAlignedDimension
 13
1133.799991884474
 23
659.3493681823856
 33
0.0
 14
1135.799991884474
 24
691.3493681823856
 34
0.0
 50
270.0
100
AcDbRotatedDimension
  0
DIMENSION
  5
DE
330
2
100
AcDbEntity
  8
寸法線
  6
Continuous
100
AcDbDimension
  2
*D8
 10
2172.727688224806
 20
1245.433445905533
 30
0.0
 11
2152.727688224806
 21
1430.433446905533
 31
0.0
 70
    32
 71
     5
 42
-1.0
  3
ISO-25
100
AcDbAlignedDimension
 13
2062.729942742093
 23
1615.433447905533
 33
0.0
 14
2062.729942742093
 24
1245.433445905533
 34
0.0
 50
90.0
100
AcDbRotatedDimension
  0
LEADER
  5
EB
330
2
100
AcDbEntity
  8
寸法線
  6
Continuous
100
AcDbLeader
  3
ISO-25
 73
     0
 74
     0
 75
     1
 40
31.82741116751269
 41
385.4314720812182
 76
     3
 10
2055.729942742093
 20
1615.433447905533
 30
0.0
 10
2111.440620860748
 20
1691.144126024188
 30
0.0
 10
2126.440620860748
 20
1691.144126024188
 30
0.0
340
EC
1001
ACAD
1000
DSTYLE
1002
{
1070
     5
1000
OPEN30
1070
    77
1070
     1
1070
   147
1040
0.5
1070
   342
1005
9C
1002
}
  0
MTEXT
  5
EC
102
{ACAD_REACTORS
330
EB
102
}
330
2
100
AcDbEntity
  8
寸法線
  6
Continuous
100
AcDbMText
 10
2131.440620860748
 20
1696.144126024188
 30
0.0
 40
30.0
 41
0.0
 71
     7
 72
     1
  1
P2.3\U+00D760\U+00D740+HGRゴム
 73
     1
 44
1.0
1001
ACAD
1000
MTEXTBEGIN
1070
    73
1070
     1
1070
    44
1040
1.0
1070
    74
1070
     0
1000
MTEXTEND
  0
LINE
  5
10E
330
2
100
AcDbEntity
  8
本体
  6
Continuous
100
AcDbLine
 10
541.7999911844744
 20
1620.933446905533
 30
0.0
 11
541.7999911844744
 21
1583.433446905533
 31
0.0
  0
LINE
  5
110
330
2
100
AcDbEntity
  8
本体
  6
Continuous
100
AcDbLine
 10
541.7999911844744
 20
1577.433446905533
 30
0.0
 11
541.7999911844744
 21
1483.433446905533
 31
0.0
  0
LINE
  5
112
330
2
100
AcDbEntity
  8
本体
  6
Continuous
100
AcDbLine
 10
541.7999911844744
 20
1477.433446905533
 30
0.0
 11
541.7999911844744
 21
1383.433446905533
 31
0.0
  0
LINE
  5
114
330
2
100
AcDbEntity
  8
本体
  6
Continuous
100
AcDbLine
 10
541.7999911844744
 20
1377.433446905533
 30
0.0
 11
541.7999911844744
 21
1283.433446905533
 31
0.0
  0
LINE
  5
116
330
2
100
AcDbEntity
  8
本体
  6
Continuous
100
AcDbLine
 10
541.7999911844744
 20
1277.433446905533
 30
0.0
 11
541.7999911844744
 21
1239.933446905533
 31
0.0
  0
LINE
  5
117
330
2
100
AcDbEntity
  8
本体
  6
Continuous
100
AcDbLine
 10
541.7999911844744
 20
1625.433446905533
 30
0.0
 11
541.7999911844744
 21
1235.433446905533
 31
0.0
  0
DIMENSION
  5
11B
330
2
100
AcDbEntity
  8
寸法線
  6
Continuous
100
AcDbDimension
  2
*D9
 10
1325.799991884474
 20
594.3493681823857
 30
0.0
 11
1305.799991884474
 21
642.8493681823859
 31
0.0
 70
    32
 71
     5
 42
96.99999999999977
  3
ISO-25
100
AcDbAlignedDimension
 13
1135.799991884474
 23
691.3493681823856
 33
0.0
 14
1133.652266039526
 24
594.3493681823858
 34
0.0
 50
90.0
100
AcDbRotatedDimension
  0
LINE
  5
128
330
2
100
AcDbEntity
  8
嵩上断面
  6
Continuous
100
AcDbLine
 10
543.7999911844745
 20
659.3493681823856
 30
0.0
 11
1135.799991184474
 21
659.3493681823856
 31
0.0
  0
LINE
  5
131
330
2
100
AcDbEntity
  8
本体
  6
Continuous
100
AcDbLine
 10
544.7999911844744
 20
1620.933446905533
 30
0.0
 11
544.7999911844744
 21
1583.433446905533
 31
0.0
  0
LINE
  5
132
330
2
100
AcDbEntity
  8
本体
  6
Continuous
100
AcDbLine
 10
544.7999911844744
 20
1577.433446905533
 30
0.0
 11
544.7999911844744
 21
1483.433446905533
 31
0.0
  0
LINE
  5
133
330
2
100
AcDbEntity
  8
本体
  6
Continuous
100
AcDbLine
 10
544.7999911844744
 20
1477.433446905533
 30
0.0
 11
544.7999911844744
 21
1383.433446905533
 31
0.0
  0
LINE
  5
134
330
2
100
AcDbEntity
  8
本体
  6
Continuous
100
AcDbLine
 10
544.7999911844744
 20
1377.433446905533
 30
0.0
 11
544.7999911844744
 21
1283.433446905533
 31
0.0
  0
LINE
  5
135
330
2
100
AcDbEntity
  8
本体
  6
Continuous
100
AcDbLine
 10
544.7999911844744
 20
1277.433446905533
 30
0.0
 11
544.7999911844744
 21
1239.933446905533
 31
0.0
  0
LINE
  5
136
330
2
100
AcDbEntity
  8
本体
  6
Continuous
100
AcDbLine
 10
541.7999911844744
 20
691.3493681823855
 30
0.0
 11
541.7999911844744
 21
659.3493681823855
 31
0.0
  0
LINE
  5
137
330
2
100
AcDbEntity
  8
本体
  6
Continuous
100
AcDbLine
 10
541.7999911844744
 20
691.3493681823855
 30
0.0
 11
544.7999911844744
 21
691.3493681823855
 31
0.0
  0
LINE
  5
138
330
2
100
AcDbEntity
  8
本体
  6
Continuous
100
AcDbLine
 10
544.7999911844744
 20
691.3493681823855
 30
0.0
 11
544.7999911844744
 21
659.3493681823856
 31
0.0
  0
LINE
  5
139
330
2
100
AcDbEntity
  8
本体
  6
Continuous
100
AcDbLine
 10
544.7999911844744
 20
659.3493681823856
 30
0.0
 11
541.7999911844744
 21
659.3493681823855
 31
0.0
  0
LINE
  5
1F2
330
2
100
AcDbEntity
  8
本体
  6
Continuous
100
AcDbLine
 10
1135.799991884474
 20
691.3493681823855
 30
0.0
 11
1135.799991884474
 21
659.3493681823856
 31
0.0
  0
LINE
  5
1F3
330
2
100
AcDbEntity
  8
本体
  6
Continuous
100
AcDbLine
 10
1132.799991884474
 20
691.3493681823855
 30
0.0
 11
1132.799991884474
 21
659.3493681823855
 31
0.0
  0
LINE
  5
1F4
330
2
100
AcDbEntity
  8
本体
  6
Continuous
100
AcDbLine
 10
1135.799991884474
 20
659.3493681823856
 30
0.0
 11
1132.799991884474
 21
659.3493681823855
 31
0.0
  0
LINE
  5
1F5
330
2
100
AcDbEntity
  8
本体
  6
Continuous
100
AcDbLine
 10
1132.799991884474
 20
691.3493681823855
 30
0.0
 11
1135.799991884474
 21
691.3493681823855
 31
0.0
  0
LINE
  5
252
330
2
100
AcDbEntity
  8
本体
  6
Continuous
100
AcDbLine
 10
1123.225523784475
 20
686.3493681823855
 30
0.0
 11
1132.799991884474
 21
686.3493681823855
 31
0.0
  0
LINE
  5
253
330
2
100
AcDbEntity
  8
本体
  6
Continuous
100
AcDbLine
 10
1123.225523784475
 20
691.3493681823855
 30
0.0
 11
1132.799991884474
 21
691.3493681823855
 31
0.0
  0
LINE
  5
255
330
2
100
AcDbEntity
  8
嵩上断面
  6
Continuous
100
AcDbLine
 10
1133.799991184474
 20
659.3493681823856
 30
0.0
 11
1133.799991184474
 21
599.3493681823856
 31
0.0
  0
LINE
  5
4AC
330
2
100
AcDbEntity
  8
本体
  6
Continuous
100
AcDbLine
 10
1135.799991884474
 20
1620.933446905533
 30
0.0
 11
1135.799991884474
 21
1583.433446905533
 31
0.0
  0
LINE
  5
4AD
330
2
100
AcDbEntity
  8
本体
  6
Continuous
100
AcDbLine
 10
1132.799991884474
 20
1620.933446905533
 30
0.0
 11
1132.799991884474
 21
1583.433446905533
 31
0.0
  0
LINE
  5
4AE
330
2
100
AcDbEntity
  8
本体
  6
Continuous
100
AcDbLine
 10
1135.799991884474
 20
1577.433446905533
 30
0.0
 11
1135.799991884474
 21
1483.433446905533
 31
0.0
  0
LINE
  5
4AF
330
2
100
AcDbEntity
  8
本体
  6
Continuous
100
AcDbLine
 10
1132.799991884474
 20
1577.433446905533
 30
0.0
 11
1132.799991884474
 21
1483.433446905533
 31
0.0
  0
LINE
  5
4B0
330
2
100
AcDbEntity
  8
本体
  6
Continuous
100
AcDbLine
 10
1135.799991884474
 20
1477.433446905533
 30
0.0
 11
1135.799991884474
 21
1383.433446905533
 31
0.0
  0
LINE
  5
4B1
330
2
100
AcDbEntity
  8
本体
  6
Continuous
100
AcDbLine
 10
1132.799991884474
 20
1477.433446905533
 30
0.0
 11
1132.799991884474
 21
1383.433446905533
 31
0.0
  0
LINE
  5
4B3
330
2
100
AcDbEntity
  8
本体
  6
Continuous
100
AcDbLine
 10
1135.799991884474
 20
1377.433446905533
 30
0.0
 11
1135.799991884474
 21
1283.433446905533
 31
0.0
  0
LINE
  5
4B4
330
2
100
AcDbEntity
  8
本体
  6
Continuous
100
AcDbLine
 10
1132.799991884474
 20
1377.433446905533
 30
0.0
 11
1132.799991884474
 21
1283.433446905533
 31
0.0
  0
LINE
  5
4B7
330
2
100
AcDbEntity
  8
本体
  6
Continuous
100
AcDbLine
 10
1135.799991884474
 20
1277.433446905533
 30
0.0
 11
1135.799991884474
 21
1239.933446905533
 31
0.0
  0
LINE
  5
4B8
330
2
100
AcDbEntity
  8
本体
  6
Continuous
100
AcDbLine
 10
1132.799991884474
 20
1277.433446905533
 30
0.0
 11
1132.799991884474
 21
1239.933446905533
 31
0.0
  0
LINE
  5
4BE
330
2
100
AcDbEntity
  8
本体
  6
Continuous
100
AcDbLine
 10
1135.799991184474
 20
1625.433446905533
 30
0.0
 11
1135.799991184474
 21
1235.433446905533
 31
0.0
  0
DIMENSION
  5
4BF
330
2
100
AcDbEntity
  8
寸法線
  6
Continuous
100
AcDbDimension
  2
*D10
 10
1135.799991884474
 20
851.3493681823856
 30
0.0
 11
838.7999915344744
 21
851.3493681823856
 31
0.0
 70
   160
 71
     5
 42
594.0000006999999
  3
ISO-25
100
AcDbAlignedDimension
 13
541.7999911844744
 23
691.3493681823855
 33
0.0
 14
1135.799991884474
 24
691.3493681823855
 34
0.0
100
AcDbRotatedDimension
1001
ACAD
1000
DSTYLE
1002
{
1070
   279
1070
     0
1002
}
  0
LINE
  5
4CC
330
2
100
AcDbEntity
  8
本体
  6
Continuous
100
AcDbLine
 10
1997.729945742093
 20
1625.433446905533
 30
0.0
 11
2005.729945742093
 21
1625.433446905533
 31
0.0
  0
LINE
  5
4CD
330
2
100
AcDbEntity
  8
本体
  6
Continuous
100
AcDbLine
 10
2005.729945742093
 20
1625.433446905533
 30
0.0
 11
2005.729945742093
 21
1620.933446905533
 31
0.0
  0
LINE
  5
4CE
330
2
100
AcDbEntity
  8
本体
  6
Continuous
100
AcDbLine
 10
1997.729945742093
 20
1235.433446905533
 30
0.0
 11
2005.729945742093
 21
1235.433446905533
 31
0.0
  0
LINE
  5
4CF
330
2
100
AcDbEntity
  8
本体
  6
Continuous
100
AcDbLine
 10
2005.729945742093
 20
1235.433446905533
 30
0.0
 11
2005.729945742093
 21
1239.933446905533
 31
0.0
  0
INSERT
  5
4D0
330
2
100
AcDbEntity
  8
ゴム
  6
Continuous
100
AcDbBlockReference
  2
平ゴムパッキン
 10
2072.729942742093
 20
1615.433447905533
 30
0.0
  0
INSERT
  5
4E2
330
2
100
AcDbEntity
  8
ゴム
  6
Continuous
100
AcDbBlockReference
  2
平ゴムパッキン
 10
2072.729942742093
 20
1245.433445905533
 30
0.0
 41
-1.0
 50
180.0
  0
LINE
  5
4E3
330
2
100
AcDbEntity
  8
ゴム
  6
Continuous
100
AcDbLine
 10
543.7999911844745
 20
599.3493681823856
 30
0.0
 11
543.7999911844745
 21
594.3493681823857
 31
0.0
  0
LINE
  5
4E4
330
2
100
AcDbEntity
  8
ゴム
  6
Continuous
100
AcDbLine
 10
543.7999911844745
 20
594.3493681823857
 30
0.0
 11
1133.799991184474
 21
594.3493681823858
 31
0.0
  0
LINE
  5
4E5
330
2
100
AcDbEntity
  8
ゴム
  6
Continuous
100
AcDbLine
 10
1133.799991184474
 20
594.3493681823858
 30
0.0
 11
1133.799991184474
 21
599.3493681823856
 31
0.0
  0
DIMENSION
  5
4EF
330
2
100
AcDbEntity
  8
寸法線
  6
Continuous
100
AcDbDimension
  2
*D11
 10
1245.804966467169
 20
594.3493681823858
 30
0.0
 11
1225.804966467169
 21
551.5828707204571
 31
0.0
 70
    32
 71
     5
 42
4.999999999999772
  3
ISO-25
100
AcDbAlignedDimension
 13
1133.799991884474
 23
599.3493681823856
 33
0.0
 14
1133.799991184474
 24
594.3493681823858
 34
0.0
 50
90.0
100
AcDbRotatedDimension
  0
LINE
  5
4FE
330
2
100
AcDbEntity
  8
中心線
  6
Continuous
100
AcDbLine
 10
933.1435022844745
 20
699.3493681823856
 30
0.0
 11
933.1435022844763
 21
651.3493681823856
 31
0.0
  0
LINE
  5
4FF
330
2
100
AcDbEntity
  8
中心線
  6
Continuous
100
AcDbLine
 10
945.6479703844742
 20
699.3493681823856
 30
0.0
 11
945.647970384476
 21
651.3493681823856
 31
0.0
  0
LINE
  5
57E
330
2
100
AcDbEntity
  8
本体
  6
Continuous
100
AcDbLine
 10
1123.225523784475
 20
686.3493681823855
 30
0.0
 11
1132.799991884474
 21
691.3493681823855
 31
0.0
  0
LINE
  5
57F
330
2
100
AcDbEntity
  8
エンボス
  6
Continuous
100
AcDbLine
 10
544.7999911844744
 20
1606.683446905533
 30
0.0
 11
541.7999911844744
 21
1607.883446905533
 31
0.0
  0
LINE
  5
581
330
2
100
AcDbEntity
  8
エンボス
  6
Continuous
100
AcDbLine
 10
541.7999911844744
 20
1610.883446905533
 30
0.0
 11
544.7999911844744
 21
1612.083446905533
 31
0.0
  0
LINE
  5
582
330
2
100
AcDbEntity
  8
エンボス
  6
Continuous
100
AcDbLine
 10
541.7999911844744
 20
1598.883446905533
 30
0.0
 11
544.7999911844744
 21
1597.683446905533
 31
0.0
  0
LINE
  5
583
330
2
100
AcDbEntity
  8
エンボス
  6
Continuous
100
AcDbLine
 10
544.7999911844744
 20
1593.083446905533
 30
0.0
 11
541.7999911844744
 21
1591.883446905533
 31
0.0
  0
LINE
  5
584
330
2
100
AcDbEntity
  8
エンボス
  6
Continuous
100
AcDbLine
 10
541.7999911844744
 20
1555.133446905533
 30
0.0
 11
544.7999911844744
 21
1553.933446905533
 31
0.0
  0
LINE
  5
585
330
2
100
AcDbEntity
  8
エンボス
  6
Continuous
100
AcDbLine
 10
541.7999911844744
 20
1511.133446905533
 30
0.0
 11
544.7999911844744
 21
1512.333446905533
 31
0.0
  0
LINE
  5
586
330
2
100
AcDbEntity
  8
エンボス
  6
Continuous
100
AcDbLine
 10
544.7999911844744
 20
1506.933446905533
 30
0.0
 11
541.7999911844744
 21
1508.133446905533
 31
0.0
  0
LINE
  5
587
330
2
100
AcDbEntity
  8
エンボス
  6
Continuous
100
AcDbLine
 10
541.7999911844744
 20
1499.133446905533
 30
0.0
 11
544.7999911844744
 21
1497.933446905533
 31
0.0
  0
LINE
  5
588
330
2
100
AcDbEntity
  8
エンボス
  6
Continuous
100
AcDbLine
 10
544.7999911844744
 20
1493.333446905533
 30
0.0
 11
541.7999911844744
 21
1492.133446905533
 31
0.0
  0
LINE
  5
589
330
2
100
AcDbEntity
  8
エンボス
  6
Continuous
100
AcDbLine
 10
544.7999911844744
 20
1549.333446905533
 30
0.0
 11
541.7999911844744
 21
1548.133446905533
 31
0.0
  0
LINE
  5
58A
330
2
100
AcDbEntity
  8
エンボス
  6
Continuous
100
AcDbLine
 10
541.7999911844744
 20
1539.133446905533
 30
0.0
 11
544.7999911844744
 21
1540.333446905533
 31
0.0
  0
LINE
  5
58B
330
2
100
AcDbEntity
  8
エンボス
  6
Continuous
100
AcDbLine
 10
544.7999911844744
 20
1534.933446905533
 30
0.0
 11
541.7999911844744
 21
1536.133446905533
 31
0.0
  0
LINE
  5
58C
330
2
100
AcDbEntity
  8
エンボス
  6
Continuous
100
AcDbLine
 10
544.7999911844744
 20
1521.333446905533
 30
0.0
 11
541.7999911844744
 21
1520.133446905533
 31
0.0
  0
LINE
  5
58D
330
2
100
AcDbEntity
  8
エンボス
  6
Continuous
100
AcDbLine
 10
541.7999911844744
 20
1527.133446905533
 30
0.0
 11
544.7999911844744
 21
1525.933446905533
 31
0.0
  0
LINE
  5
58E
330
2
100
AcDbEntity
  8
エンボス
  6
Continuous
100
AcDbLine
 10
541.7999911844744
 20
1567.133446905533
 30
0.0
 11
544.7999911844744
 21
1568.333446905533
 31
0.0
  0
LINE
  5
58F
330
2
100
AcDbEntity
  8
エンボス
  6
Continuous
100
AcDbLine
 10
544.7999911844744
 20
1562.933446905533
 30
0.0
 11
541.7999911844744
 21
1564.133446905533
 31
0.0
  0
LINE
  5
590
330
2
100
AcDbEntity
  8
エンボス
  6
Continuous
100
AcDbLine
 10
544.7999911844744
 20
1393.333446905533
 30
0.0
 11
541.7999911844744
 21
1392.133446905533
 31
0.0
  0
LINE
  5
591
330
2
100
AcDbEntity
  8
エンボス
  6
Continuous
100
AcDbLine
 10
541.7999911844744
 20
1399.133446905533
 30
0.0
 11
544.7999911844744
 21
1397.933446905533
 31
0.0
  0
LINE
  5
592
330
2
100
AcDbEntity
  8
エンボス
  6
Continuous
100
AcDbLine
 10
541.7999911844744
 20
1427.133446905533
 30
0.0
 11
544.7999911844744
 21
1425.933446905533
 31
0.0
  0
LINE
  5
593
330
2
100
AcDbEntity
  8
エンボス
  6
Continuous
100
AcDbLine
 10
544.7999911844744
 20
1421.333446905533
 30
0.0
 11
541.7999911844744
 21
1420.133446905533
 31
0.0
  0
LINE
  5
594
330
2
100
AcDbEntity
  8
エンボス
  6
Continuous
100
AcDbLine
 10
544.7999911844744
 20
1434.933446905533
 30
0.0
 11
541.7999911844744
 21
1436.133446905533
 31
0.0
  0
LINE
  5
595
330
2
100
AcDbEntity
  8
エンボス
  6
Continuous
100
AcDbLine
 10
541.7999911844744
 20
1439.133446905533
 30
0.0
 11
544.7999911844744
 21
1440.333446905533
 31
0.0
  0
LINE
  5
596
330
2
100
AcDbEntity
  8
エンボス
  6
Continuous
100
AcDbLine
 10
544.7999911844744
 20
1406.933446905533
 30
0.0
 11
541.7999911844744
 21
1408.133446905533
 31
0.0
  0
LINE
  5
597
330
2
100
AcDbEntity
  8
エンボス
  6
Continuous
100
AcDbLine
 10
541.7999911844744
 20
1411.133446905533
 30
0.0
 11
544.7999911844744
 21
1412.333446905533
 31
0.0
  0
LINE
  5
598
330
2
100
AcDbEntity
  8
エンボス
  6
Continuous
100
AcDbLine
 10
544.7999911844744
 20
1462.933446905533
 30
0.0
 11
541.7999911844744
 21
1464.133446905533
 31
0.0
  0
LINE
  5
599
330
2
100
AcDbEntity
  8
エンボス
  6
Continuous
100
AcDbLine
 10
541.7999911844744
 20
1467.133446905533
 30
0.0
 11
544.7999911844744
 21
1468.333446905533
 31
0.0
  0
LINE
  5
59A
330
2
100
AcDbEntity
  8
エンボス
  6
Continuous
100
AcDbLine
 10
544.7999911844744
 20
1449.333446905533
 30
0.0
 11
541.7999911844744
 21
1448.133446905533
 31
0.0
  0
LINE
  5
59B
330
2
100
AcDbEntity
  8
エンボス
  6
Continuous
100
AcDbLine
 10
541.7999911844744
 20
1455.133446905533
 30
0.0
 11
544.7999911844744
 21
1453.933446905533
 31
0.0
  0
LINE
  5
59C
330
2
100
AcDbEntity
  8
エンボス
  6
Continuous
100
AcDbLine
 10
544.7999911844744
 20
1293.333446905533
 30
0.0
 11
541.7999911844744
 21
1292.133446905533
 31
0.0
  0
LINE
  5
59D
330
2
100
AcDbEntity
  8
エンボス
  6
Continuous
100
AcDbLine
 10
541.7999911844744
 20
1327.133446905533
 30
0.0
 11
544.7999911844744
 21
1325.933446905533
 31
0.0
  0
LINE
  5
59E
330
2
100
AcDbEntity
  8
エンボス
  6
Continuous
100
AcDbLine
 10
544.7999911844744
 20
1321.333446905533
 30
0.0
 11
541.7999911844744
 21
1320.133446905533
 31
0.0
  0
LINE
  5
59F
330
2
100
AcDbEntity
  8
エンボス
  6
Continuous
100
AcDbLine
 10
541.7999911844744
 20
1299.133446905533
 30
0.0
 11
544.7999911844744
 21
1297.933446905533
 31
0.0
  0
LINE
  5
5A0
330
2
100
AcDbEntity
  8
エンボス
  6
Continuous
100
AcDbLine
 10
544.7999911844744
 20
1306.933446905533
 30
0.0
 11
541.7999911844744
 21
1308.133446905533
 31
0.0
  0
LINE
  5
5A1
330
2
100
AcDbEntity
  8
エンボス
  6
Continuous
100
AcDbLine
 10
541.7999911844744
 20
1311.133446905533
 30
0.0
 11
544.7999911844744
 21
1312.333446905533
 31
0.0
  0
LINE
  5
5A2
330
2
100
AcDbEntity
  8
エンボス
  6
Continuous
100
AcDbLine
 10
544.7999911844744
 20
1362.933446905533
 30
0.0
 11
541.7999911844744
 21
1364.133446905533
 31
0.0
  0
LINE
  5
5A3
330
2
100
AcDbEntity
  8
エンボス
  6
Continuous
100
AcDbLine
 10
541.7999911844744
 20
1367.133446905533
 30
0.0
 11
544.7999911844744
 21
1368.333446905533
 31
0.0
  0
LINE
  5
5A4
330
2
100
AcDbEntity
  8
エンボス
  6
Continuous
100
AcDbLine
 10
544.7999911844744
 20
1334.933446905533
 30
0.0
 11
541.7999911844744
 21
1336.133446905533
 31
0.0
  0
LINE
  5
5A5
330
2
100
AcDbEntity
  8
エンボス
  6
Continuous
100
AcDbLine
 10
541.7999911844744
 20
1339.133446905533
 30
0.0
 11
544.7999911844744
 21
1340.333446905533
 31
0.0
  0
LINE
  5
5A6
330
2
100
AcDbEntity
  8
エンボス
  6
Continuous
100
AcDbLine
 10
544.7999911844744
 20
1349.333446905533
 30
0.0
 11
541.7999911844744
 21
1348.133446905533
 31
0.0
  0
LINE
  5
5A7
330
2
100
AcDbEntity
  8
エンボス
  6
Continuous
100
AcDbLine
 10
541.7999911844744
 20
1355.133446905533
 30
0.0
 11
544.7999911844744
 21
1353.933446905533
 31
0.0
  0
LINE
  5
5A8
330
2
100
AcDbEntity
  8
エンボス
  6
Continuous
100
AcDbLine
 10
544.7999911844744
 20
1249.583446905533
 30
0.0
 11
541.7999911844744
 21
1248.383446905533
 31
0.0
  0
LINE
  5
5A9
330
2
100
AcDbEntity
  8
エンボス
  6
Continuous
100
AcDbLine
 10
541.7999911844744
 20
1255.383446905533
 30
0.0
 11
544.7999911844744
 21
1254.183446905533
 31
0.0
  0
LINE
  5
5AA
330
2
100
AcDbEntity
  8
エンボス
  6
Continuous
100
AcDbLine
 10
541.7999911844744
 20
1267.383446905533
 30
0.0
 11
544.7999911844744
 21
1268.583446905533
 31
0.0
  0
LINE
  5
5AB
330
2
100
AcDbEntity
  8
エンボス
  6
Continuous
100
AcDbLine
 10
544.7999911844744
 20
1263.183446905533
 30
0.0
 11
541.7999911844744
 21
1264.383446905533
 31
0.0
  0
LINE
  5
D94
330
2
100
AcDbEntity
  8
エンボス
  6
Continuous
100
AcDbLine
 10
1135.799991414475
 20
1593.083446905533
 30
0.0
 11
1132.799991414475
 21
1591.883446905533
 31
0.0
  0
LINE
  5
D95
330
2
100
AcDbEntity
  8
エンボス
  6
Continuous
100
AcDbLine
 10
1132.799991414475
 20
1598.883446905533
 30
0.0
 11
1135.799991414475
 21
1597.683446905533
 31
0.0
  0
LINE
  5
D96
330
2
100
AcDbEntity
  8
エンボス
  6
Continuous
100
AcDbLine
 10
1132.799991414475
 20
1610.883446905533
 30
0.0
 11
1135.799991414475
 21
1612.083446905533
 31
0.0
  0
LINE
  5
D97
330
2
100
AcDbEntity
  8
エンボス
  6
Continuous
100
AcDbLine
 10
1135.799991414475
 20
1606.683446905533
 30
0.0
 11
1132.799991414475
 21
1607.883446905533
 31
0.0
  0
LINE
  5
D98
330
2
100
AcDbEntity
  8
エンボス
  6
Continuous
100
AcDbLine
 10
1132.799991414475
 20
1555.133446905533
 30
0.0
 11
1135.799991414475
 21
1553.933446905533
 31
0.0
  0
LINE
  5
D99
330
2
100
AcDbEntity
  8
エンボス
  6
Continuous
100
AcDbLine
 10
1135.799991414475
 20
1493.333446905533
 30
0.0
 11
1132.799991414475
 21
1492.133446905533
 31
0.0
  0
LINE
  5
D9A
330
2
100
AcDbEntity
  8
エンボス
  6
Continuous
100
AcDbLine
 10
1132.799991414475
 20
1499.133446905533
 30
0.0
 11
1135.799991414475
 21
1497.933446905533
 31
0.0
  0
LINE
  5
D9B
330
2
100
AcDbEntity
  8
エンボス
  6
Continuous
100
AcDbLine
 10
1135.799991414475
 20
1506.933446905533
 30
0.0
 11
1132.799991414475
 21
1508.133446905533
 31
0.0
  0
LINE
  5
D9C
330
2
100
AcDbEntity
  8
エンボス
  6
Continuous
100
AcDbLine
 10
1132.799991414475
 20
1511.133446905533
 30
0.0
 11
1135.799991414475
 21
1512.333446905533
 31
0.0
  0
LINE
  5
D9D
330
2
100
AcDbEntity
  8
エンボス
  6
Continuous
100
AcDbLine
 10
1132.799991414475
 20
1527.133446905533
 30
0.0
 11
1135.799991414475
 21
1525.933446905533
 31
0.0
  0
LINE
  5
D9E
330
2
100
AcDbEntity
  8
エンボス
  6
Continuous
100
AcDbLine
 10
1135.799991414475
 20
1521.333446905533
 30
0.0
 11
1132.799991414475
 21
1520.133446905533
 31
0.0
  0
LINE
  5
D9F
330
2
100
AcDbEntity
  8
エンボス
  6
Continuous
100
AcDbLine
 10
1135.799991414475
 20
1534.933446905533
 30
0.0
 11
1132.799991414475
 21
1536.133446905533
 31
0.0
  0
LINE
  5
DA0
330
2
100
AcDbEntity
  8
エンボス
  6
Continuous
100
AcDbLine
 10
1132.799991414475
 20
1539.133446905533
 30
0.0
 11
1135.799991414475
 21
1540.333446905533
 31
0.0
  0
LINE
  5
DA1
330
2
100
AcDbEntity
  8
エンボス
  6
Continuous
100
AcDbLine
 10
1135.799991414475
 20
1549.333446905533
 30
0.0
 11
1132.799991414475
 21
1548.133446905533
 31
0.0
  0
LINE
  5
DA2
330
2
100
AcDbEntity
  8
エンボス
  6
Continuous
100
AcDbLine
 10
1135.799991414475
 20
1562.933446905533
 30
0.0
 11
1132.799991414475
 21
1564.133446905533
 31
0.0
  0
LINE
  5
DA3
330
2
100
AcDbEntity
  8
エンボス
  6
Continuous
100
AcDbLine
 10
1132.799991414475
 20
1567.133446905533
 30
0.0
 11
1135.799991414475
 21
1568.333446905533
 31
0.0
  0
LINE
  5
DA4
330
2
100
AcDbEntity
  8
エンボス
  6
Continuous
100
AcDbLine
 10
1132.799991414475
 20
1399.133446905533
 30
0.0
 11
1135.799991414475
 21
1397.933446905533
 31
0.0
  0
LINE
  5
DA5
330
2
100
AcDbEntity
  8
エンボス
  6
Continuous
100
AcDbLine
 10
1135.799991414475
 20
1393.333446905533
 30
0.0
 11
1132.799991414475
 21
1392.133446905533
 31
0.0
  0
LINE
  5
DA6
330
2
100
AcDbEntity
  8
エンボス
  6
Continuous
100
AcDbLine
 10
1132.799991414475
 20
1411.133446905533
 30
0.0
 11
1135.799991414475
 21
1412.333446905533
 31
0.0
  0
LINE
  5
DA7
330
2
100
AcDbEntity
  8
エンボス
  6
Continuous
100
AcDbLine
 10
1135.799991414475
 20
1406.933446905533
 30
0.0
 11
1132.799991414475
 21
1408.133446905533
 31
0.0
  0
LINE
  5
DA8
330
2
100
AcDbEntity
  8
エンボス
  6
Continuous
100
AcDbLine
 10
1132.799991414475
 20
1439.133446905533
 30
0.0
 11
1135.799991414475
 21
1440.333446905533
 31
0.0
  0
LINE
  5
DA9
330
2
100
AcDbEntity
  8
エンボス
  6
Continuous
100
AcDbLine
 10
1135.799991414475
 20
1434.933446905533
 30
0.0
 11
1132.799991414475
 21
1436.133446905533
 31
0.0
  0
LINE
  5
DAA
330
2
100
AcDbEntity
  8
エンボス
  6
Continuous
100
AcDbLine
 10
1135.799991414475
 20
1421.333446905533
 30
0.0
 11
1132.799991414475
 21
1420.133446905533
 31
0.0
  0
LINE
  5
DAB
330
2
100
AcDbEntity
  8
エンボス
  6
Continuous
100
AcDbLine
 10
1132.799991414475
 20
1427.133446905533
 30
0.0
 11
1135.799991414475
 21
1425.933446905533
 31
0.0
  0
LINE
  5
DAC
330
2
100
AcDbEntity
  8
エンボス
  6
Continuous
100
AcDbLine
 10
1132.799991414475
 20
1455.133446905533
 30
0.0
 11
1135.799991414475
 21
1453.933446905533
 31
0.0
  0
LINE
  5
DAD
330
2
100
AcDbEntity
  8
エンボス
  6
Continuous
100
AcDbLine
 10
1135.799991414475
 20
1449.333446905533
 30
0.0
 11
1132.799991414475
 21
1448.133446905533
 31
0.0
  0
LINE
  5
DAE
330
2
100
AcDbEntity
  8
エンボス
  6
Continuous
100
AcDbLine
 10
1132.799991414475
 20
1467.133446905533
 30
0.0
 11
1135.799991414475
 21
1468.333446905533
 31
0.0
  0
LINE
  5
DAF
330
2
100
AcDbEntity
  8
エンボス
  6
Continuous
100
AcDbLine
 10
1135.799991414475
 20
1462.933446905533
 30
0.0
 11
1132.799991414475
 21
1464.133446905533
 31
0.0
  0
LINE
  5
DB0
330
2
100
AcDbEntity
  8
エンボス
  6
Continuous
100
AcDbLine
 10
1135.799991414475
 20
1293.333446905533
 30
0.0
 11
1132.799991414475
 21
1292.133446905533
 31
0.0
  0
LINE
  5
DB1
330
2
100
AcDbEntity
  8
エンボス
  6
Continuous
100
AcDbLine
 10
1132.799991414475
 20
1311.133446905533
 30
0.0
 11
1135.799991414475
 21
1312.333446905533
 31
0.0
  0
LINE
  5
DB2
330
2
100
AcDbEntity
  8
エンボス
  6
Continuous
100
AcDbLine
 10
1135.799991414475
 20
1306.933446905533
 30
0.0
 11
1132.799991414475
 21
1308.133446905533
 31
0.0
  0
LINE
  5
DB3
330
2
100
AcDbEntity
  8
エンボス
  6
Continuous
100
AcDbLine
 10
1132.799991414475
 20
1299.133446905533
 30
0.0
 11
1135.799991414475
 21
1297.933446905533
 31
0.0
  0
LINE
  5
DB4
330
2
100
AcDbEntity
  8
エンボス
  6
Continuous
100
AcDbLine
 10
1135.799991414475
 20
1321.333446905533
 30
0.0
 11
1132.799991414475
 21
1320.133446905533
 31
0.0
  0
LINE
  5
DB5
330
2
100
AcDbEntity
  8
エンボス
  6
Continuous
100
AcDbLine
 10
1132.799991414475
 20
1327.133446905533
 30
0.0
 11
1135.799991414475
 21
1325.933446905533
 31
0.0
  0
LINE
  5
DB6
330
2
100
AcDbEntity
  8
エンボス
  6
Continuous
100
AcDbLine
 10
1132.799991414475
 20
1355.133446905533
 30
0.0
 11
1135.799991414475
 21
1353.933446905533
 31
0.0
  0
LINE
  5
DB7
330
2
100
AcDbEntity
  8
エンボス
  6
Continuous
100
AcDbLine
 10
1135.799991414475
 20
1349.333446905533
 30
0.0
 11
1132.799991414475
 21
1348.133446905533
 31
0.0
  0
LINE
  5
DB8
330
2
100
AcDbEntity
  8
エンボス
  6
Continuous
100
AcDbLine
 10
1132.799991414475
 20
1339.133446905533
 30
0.0
 11
1135.799991414475
 21
1340.333446905533
 31
0.0
  0
LINE
  5
DB9
330
2
100
AcDbEntity
  8
エンボス
  6
Continuous
100
AcDbLine
 10
1135.799991414475
 20
1334.933446905533
 30
0.0
 11
1132.799991414475
 21
1336.133446905533
 31
0.0
  0
LINE
  5
DBA
330
2
100
AcDbEntity
  8
エンボス
  6
Continuous
100
AcDbLine
 10
1132.799991414475
 20
1367.133446905533
 30
0.0
 11
1135.799991414475
 21
1368.333446905533
 31
0.0
  0
LINE
  5
DBB
330
2
100
AcDbEntity
  8
エンボス
  6
Continuous
100
AcDbLine
 10
1135.799991414475
 20
1362.933446905533
 30
0.0
 11
1132.799991414475
 21
1364.133446905533
 31
0.0
  0
LINE
  5
DBC
330
2
100
AcDbEntity
  8
エンボス
  6
Continuous
100
AcDbLine
 10
1132.799991414475
 20
1255.383446905533
 30
0.0
 11
1135.799991414475
 21
1254.183446905533
 31
0.0
  0
LINE
  5
DBD
330
2
100
AcDbEntity
  8
エンボス
  6
Continuous
100
AcDbLine
 10
1135.799991414475
 20
1249.583446905533
 30
0.0
 11
1132.799991414475
 21
1248.383446905533
 31
0.0
  0
LINE
  5
DBE
330
2
100
AcDbEntity
  8
エンボス
  6
Continuous
100
AcDbLine
 10
1135.799991414475
 20
1263.183446905533
 30
0.0
 11
1132.799991414475
 21
1264.383446905533
 31
0.0
  0
LINE
  5
DBF
330
2
100
AcDbEntity
  8
エンボス
  6
Continuous
100
AcDbLine
 10
1132.799991414475
 20
1267.383446905533
 30
0.0
 11
1135.799991414475
 21
1268.583446905533
 31
0.0
  0
LINE
  5
E2F
330
2
100
AcDbEntity
  8
嵩上平面
  6
HIDDEN
 48
3.0
370
     9
100
AcDbLine
 10
544.2999911844744
 20
1615.433447905533
 30
0.0
 11
1133.299991184474
 21
1615.433447905533
 31
0.0
  0
LINE
  5
E30
330
2
100
AcDbEntity
  8
嵩上平面
  6
HIDDEN
 48
3.0
370
     9
100
AcDbLine
 10
544.2999911844744
 20
1575.433447905533
 30
0.0
 11
1133.299991184474
 21
1575.433447905533
 31
0.0
  0
LINE
  5
E31
330
2
100
AcDbEntity
  8
嵩上平面
  6
HIDDEN
 48
3.0
370
     9
100
AcDbLine
 10
544.2999911844744
 20
1285.433445905533
 30
0.0
 11
1133.299991184474
 21
1285.433445905533
 31
0.0
  0
LINE
  5
E32
330
2
100
AcDbEntity
  8
嵩上平面
  6
HIDDEN
 48
3.0
370
     9
100
AcDbLine
 10
544.2999911844744
 20
1245.433445905533
 30
0.0
 11
1133.299991184474
 21
1245.433445905533
 31
0.0
  0
LINE
  5
E33
330
2
100
AcDbEntity
  8
嵩上平面
  6
HIDDEN
 48
3.0
370
     9
100
AcDbLine
 10
1133.299991184474
 20
1245.433445905533
 30
0.0
 11
1133.299991184474
 21
1285.433445905533
 31
0.0
  0
LINE
  5
E34
330
2
100
AcDbEntity
  8
嵩上平面
  6
HIDDEN
 48
3.0
370
     9
100
AcDbLine
 10
544.2999911844744
 20
1245.433445905533
 30
0.0
 11
544.2999911844744
 21
1285.433445905533
 31
0.0
  0
LINE
  5
E35
330
2
100
AcDbEntity
  8
嵩上平面
  6
HIDDEN
 48
3.0
370
     9
100
AcDbLine
 10
1133.299991184474
 20
1575.433447905533
 30
0.0
 11
1133.299991184474
 21
1615.433447905533
 31
0.0
  0
LINE
  5
E36
330
2
100
AcDbEntity
  8
嵩上平面
  6
HIDDEN
 48
3.0
370
     9
100
AcDbLine
 10
544.2999911844744
 20
1575.433447905533
 30
0.0
 11
544.2999911844744
 21
1615.433447905533
 31
0.0
  0
MTEXT
  5
FBA
330
2
100
AcDbEntity
  8
外枠
  6
Continuous
 48
100.0
370
     9
100
AcDbMText
 10
1022.193186254242
 20
77.61017986570414
 30
0.0
 40
18.0
 41
122.0406
 71
     1
 72
     5
  1
【主部材】
 73
     1
 44
1.0
1001
ACAD
1000
MTEXTBEGIN
1070
    73
1070
     1
1070
    44
1040
1.0
1070
    74
1070
     0
1000
MTEXTEND
  0
MTEXT
  5
FBB
330
2
100
AcDbEntity
  8
外枠
  6
Continuous
 48
100.0
370
     9
100
AcDbMText
 10
1038.975343934131
 20
43.7816999552947
 30
0.0
 40
25.0
 41
122.0406
 71
     1
 72
     5
  1
SS400
 73
     1
 44
1.0
1001
ACAD
1000
MTEXTBEGIN
1070
    73
1070
     1
1070
    44
1040
1.0
1070
    74
1070
     0
1000
MTEXTEND
  0
MTEXT
  5
FBC
330
2
100
AcDbEntity
  8
外枠
  6
Continuous
 48
100.0
370
     9
100
AcDbMText
 10
1202.677957061338
 20
120.1377642323818
 30
0.0
 40
25.0
 41
1015.1375
 71
     1
 72
     5
  1
溶融亜鉛めっき仕上
 73
     1
 44
1.0
1001
ACAD
1000
MTEXTBEGIN
1070
    73
1070
     1
1070
    44
1040
1.0
1070
    74
1070
     0
1000
MTEXTEND
  0
MTEXT
  5
FBD
330
2
100
AcDbEntity
  8
外枠
  6
Continuous
 48
100.0
370
     9
100
AcDbMText
 10
1199.761738767627
 20
151.0819879350654
 30
0.0
 40
18.0
 41
301.8661
 71
     1
 72
     5
  1
【グレーチング】JIS　H8641
 73
     1
 44
1.0
1001
ACAD
1000
MTEXTBEGIN
1070
    73
1070
     1
1070
    44
1040
1.0
1070
    74
1070
     0
1000
MTEXTEND
  0
MTEXT
  5
FBE
330
2
100
AcDbEntity
  8
外枠
  6
Continuous
 48
100.0
370
     9
100
AcDbMText
 10
1159.385398923399
 20
148.6111115828503
 30
0.0
 40
20.0
 41
1015.1375
 71
     1
 72
     5
  1
表\P面\P処\P理
 73
     1
 44
1.0
1001
ACAD
1000
MTEXTBEGIN
1070
    73
1070
     1
1070
    44
1040
1.0
1070
    74
1070
     0
1000
MTEXTEND
  0
LINE
  5
FBF
330
2
100
AcDbEntity
  8
外枠
  6
Continuous
 48
100.0
370
     9
100
AcDbLine
 10
1188.531791166651
 20
155.3992728207999
 30
0.0
 11
1188.531791166651
 21
9.999999999996816
 31
0.0
  0
LINE
  5
FC0
330
2
100
AcDbEntity
  8
外枠
  6
Continuous
 48
100.0
370
     9
100
AcDbLine
 10
1153.531306970095
 20
155.3992728207999
 30
0.0
 11
1153.531306970095
 21
9.999999999996816
 31
0.0
  0
LINE
  5
FC1
330
2
100
AcDbEntity
  8
外枠
 48
3.0
100
AcDbLine
 10
1188.531791166651
 20
82.6996364103984
 30
0.0
 11
1593.951336296073
 21
82.6996364103984
 31
0.0
  0
LINE
  5
FF7
330
2
100
AcDbEntity
  8
本体
  6
Continuous
100
AcDbLine
 10
1123.225523784475
 20
666.3493681823855
 30
0.0
 11
1132.799991884474
 21
666.3493681823855
 31
0.0
  0
INSERT
  5
1131
330
2
100
AcDbEntity
  8
嵩上断面
 48
3.0
100
AcDbBlockReference
  2
P-H60
 10
2012.729945742093
 20
1615.433447905533
 30
0.0
  0
INSERT
  5
1132
330
2
100
AcDbEntity
  8
嵩上断面
 48
3.0
100
AcDbBlockReference
  2
P-H60
 10
2012.729945742093
 20
1245.433445905533
 30
0.0
 41
-1.0
 50
180.0
  0
MTEXT
  5
1161
330
2
100
AcDbEntity
  8
外枠
  6
Continuous
100
AcDbMText
 10
2427.938927859905
 20
67.25039165302274
 30
0.0
 40
28.17460800000001
 41
43.8527
 71
     1
 72
     5
  1
{\fHG正楷書体-PRO|b0|i0|c128|p65;水}
 73
     1
 44
1.0
1001
ACAD
1000
MTEXTBEGIN
1070
    73
1070
     1
1070
    44
1040
1.0
1070
    74
1070
     0
1000
MTEXTEND
  0
MTEXT
  5
1162
330
2
100
AcDbEntity
  8
外枠
  6
Continuous
100
AcDbMText
 10
2427.938927859905
 20
109.7804165221501
 30
0.0
 40
28.17460800000001
 41
43.8527
 71
     1
 72
     5
  1
{\fHG正楷書体-PRO|b0|i0|c128|p65;清}
 73
     1
 44
1.0
1001
ACAD
1000
MTEXTBEGIN
1070
    73
1070
     1
1070
    44
1040
1.0
1070
    74
1070
     0
1000
MTEXTEND
  0
ELLIPSE
  5
1163
330
2
100
AcDbEntity
  8
外枠
  6
Continuous
100
AcDbEllipse
 10
2449.066278910865
 20
70.80064248893592
 30
0.0
 11
0.0
 21
-47.8594442149426
 31
0.0
210
0.0
220
0.0
230
1.0
 40
0.7999999999999857
 41
0.0
 42
6.283185307179586
  0
MTEXT
  5
12DC
330
2
100
AcDbEntity
  8
外枠
  6
Continuous
 48
100.0
370
     9
100
AcDbMText
 10
2509.985545378613
 20
121.2206105686568
 30
0.0
 40
23.47884
 41
274.1381
 71
     1
 72
     5
  1
'14・09・01
 73
     1
 44
1.0
1001
ACAD
1000
MTEXTBEGIN
1070
    73
1070
     1
1070
    44
1040
1.0
1070
    74
1070
     0
1000
MTEXTEND
  0
INSERT
  5
12DD
330
2
100
AcDbEntity
  8
外枠
 48
3.0
100
AcDbBlockReference
  2
鎌下
 10
2271.730765417811
 20
155.3992728207995
 30
0.0
  0
DIMENSION
  5
132E
330
2
100
AcDbEntity
  8
寸法線
 48
3.0
100
AcDbDimension
  2
*D14
 10
1133.799991184474
 20
514.3493681823856
 30
0.0
 11
838.7999911844744
 21
534.3493681823856
 31
0.0
 70
    32
 71
     5
 42
590.0
  3
ISO-25
100
AcDbAlignedDimension
 13
543.7999911844745
 23
594.3493681823857
 33
0.0
 14
1133.799991184474
 24
594.3493681823858
 34
0.0
100
AcDbRotatedDimension
  0
LINE
  5
133B
330
2
100
AcDbEntity
  8
ゴム
  6
Continuous
100
AcDbLine
 10
543.7999911844745
 20
598.1939973178982
 30
0.0
 11
545.4553620489611
 21
599.3493681823849
 31
0.0
  0
LINE
  5
133C
330
2
100
AcDbEntity
  8
ゴム
  6
Continuous
100
AcDbLine
 10
544.9454901094964
 20
594.3493681823855
 30
0.0
 11
549.9454901094956
 21
599.3493681823848
 31
0.0
  0
LINE
  5
133D
330
2
100
AcDbEntity
  8
ゴム
  6
Continuous
100
AcDbLine
 10
549.435618170031
 20
594.3493681823857
 30
0.0
 11
554.4356181700303
 21
599.3493681823848
 31
0.0
  0
LINE
  5
133E
330
2
100
AcDbEntity
  8
ゴム
  6
Continuous
100
AcDbLine
 10
553.9257462305656
 20
594.3493681823857
 30
0.0
 11
558.9257462305648
 21
599.3493681823848
 31
0.0
  0
LINE
  5
133F
330
2
100
AcDbEntity
  8
ゴム
  6
Continuous
100
AcDbLine
 10
558.4158742911001
 20
594.3493681823855
 30
0.0
 11
563.4158742910995
 21
599.3493681823848
 31
0.0
  0
LINE
  5
1340
330
2
100
AcDbEntity
  8
ゴム
  6
Continuous
100
AcDbLine
 10
562.9060023516347
 20
594.3493681823857
 30
0.0
 11
567.906002351634
 21
599.3493681823848
 31
0.0
  0
LINE
  5
1341
330
2
100
AcDbEntity
  8
ゴム
  6
Continuous
100
AcDbLine
 10
567.3961304121693
 20
594.3493681823857
 30
0.0
 11
572.3961304121686
 21
599.3493681823849
 31
0.0
  0
LINE
  5
1342
330
2
100
AcDbEntity
  8
ゴム
  6
Continuous
100
AcDbLine
 10
571.8862584727039
 20
594.3493681823857
 30
0.0
 11
576.8862584727032
 21
599.3493681823849
 31
0.0
  0
LINE
  5
1343
330
2
100
AcDbEntity
  8
ゴム
  6
Continuous
100
AcDbLine
 10
576.3763865332385
 20
594.3493681823857
 30
0.0
 11
581.3763865332377
 21
599.3493681823849
 31
0.0
  0
LINE
  5
1344
330
2
100
AcDbEntity
  8
ゴム
  6
Continuous
100
AcDbLine
 10
580.866514593773
 20
594.3493681823857
 30
0.0
 11
585.8665145937724
 21
599.3493681823849
 31
0.0
  0
LINE
  5
1345
330
2
100
AcDbEntity
  8
ゴム
  6
Continuous
100
AcDbLine
 10
585.3566426543076
 20
594.3493681823857
 30
0.0
 11
590.356642654307
 21
599.3493681823849
 31
0.0
  0
LINE
  5
1346
330
2
100
AcDbEntity
  8
ゴム
  6
Continuous
100
AcDbLine
 10
589.8467707148422
 20
594.3493681823857
 30
0.0
 11
594.8467707148416
 21
599.3493681823849
 31
0.0
  0
LINE
  5
1347
330
2
100
AcDbEntity
  8
ゴム
  6
Continuous
100
AcDbLine
 10
594.3368987753768
 20
594.3493681823855
 30
0.0
 11
599.3368987753761
 21
599.3493681823849
 31
0.0
  0
LINE
  5
1348
330
2
100
AcDbEntity
  8
ゴム
  6
Continuous
100
AcDbLine
 10
598.8270268359114
 20
594.3493681823857
 30
0.0
 11
603.8270268359107
 21
599.3493681823849
 31
0.0
  0
LINE
  5
1349
330
2
100
AcDbEntity
  8
ゴム
  6
Continuous
100
AcDbLine
 10
603.317154896446
 20
594.3493681823857
 30
0.0
 11
608.3171548964453
 21
599.3493681823849
 31
0.0
  0
LINE
  5
134A
330
2
100
AcDbEntity
  8
ゴム
  6
Continuous
100
AcDbLine
 10
607.8072829569805
 20
594.3493681823857
 30
0.0
 11
612.8072829569799
 21
599.3493681823849
 31
0.0
  0
LINE
  5
134B
330
2
100
AcDbEntity
  8
ゴム
  6
Continuous
100
AcDbLine
 10
612.2974110175151
 20
594.3493681823857
 30
0.0
 11
617.2974110175145
 21
599.3493681823849
 31
0.0
  0
LINE
  5
134C
330
2
100
AcDbEntity
  8
ゴム
  6
Continuous
100
AcDbLine
 10
616.7875390780497
 20
594.3493681823857
 30
0.0
 11
621.787539078049
 21
599.3493681823849
 31
0.0
  0
LINE
  5
134D
330
2
100
AcDbEntity
  8
ゴム
  6
Continuous
100
AcDbLine
 10
621.2776671385843
 20
594.3493681823857
 30
0.0
 11
626.2776671385836
 21
599.349368182385
 31
0.0
  0
LINE
  5
134E
330
2
100
AcDbEntity
  8
ゴム
  6
Continuous
100
AcDbLine
 10
625.7677951991188
 20
594.3493681823855
 30
0.0
 11
630.7677951991182
 21
599.3493681823849
 31
0.0
  0
LINE
  5
134F
330
2
100
AcDbEntity
  8
ゴム
  6
Continuous
100
AcDbLine
 10
630.2579232596534
 20
594.3493681823857
 30
0.0
 11
635.2579232596528
 21
599.3493681823849
 31
0.0
  0
LINE
  5
1350
330
2
100
AcDbEntity
  8
ゴム
  6
Continuous
100
AcDbLine
 10
634.748051320188
 20
594.3493681823857
 30
0.0
 11
639.7480513201874
 21
599.349368182385
 31
0.0
  0
LINE
  5
1351
330
2
100
AcDbEntity
  8
ゴム
  6
Continuous
100
AcDbLine
 10
639.2381793807226
 20
594.3493681823857
 30
0.0
 11
644.238179380722
 21
599.349368182385
 31
0.0
  0
LINE
  5
1352
330
2
100
AcDbEntity
  8
ゴム
  6
Continuous
100
AcDbLine
 10
643.7283074412571
 20
594.3493681823855
 30
0.0
 11
648.7283074412565
 21
599.3493681823849
 31
0.0
  0
LINE
  5
1353
330
2
100
AcDbEntity
  8
ゴム
  6
Continuous
100
AcDbLine
 10
648.2184355017917
 20
594.3493681823857
 30
0.0
 11
653.2184355017911
 21
599.349368182385
 31
0.0
  0
LINE
  5
1354
330
2
100
AcDbEntity
  8
ゴム
  6
Continuous
100
AcDbLine
 10
652.7085635623263
 20
594.3493681823857
 30
0.0
 11
657.7085635623257
 21
599.349368182385
 31
0.0
  0
LINE
  5
1355
330
2
100
AcDbEntity
  8
ゴム
  6
Continuous
100
AcDbLine
 10
657.1986916228609
 20
594.3493681823857
 30
0.0
 11
662.1986916228603
 21
599.349368182385
 31
0.0
  0
LINE
  5
1356
330
2
100
AcDbEntity
  8
ゴム
  6
Continuous
100
AcDbLine
 10
661.6888196833955
 20
594.3493681823857
 30
0.0
 11
666.688819683395
 21
599.349368182385
 31
0.0
  0
LINE
  5
1357
330
2
100
AcDbEntity
  8
ゴム
  6
Continuous
100
AcDbLine
 10
666.17894774393
 20
594.3493681823857
 30
0.0
 11
671.1789477439294
 21
599.349368182385
 31
0.0
  0
LINE
  5
1358
330
2
100
AcDbEntity
  8
ゴム
  6
Continuous
100
AcDbLine
 10
670.6690758044646
 20
594.3493681823857
 30
0.0
 11
675.6690758044641
 21
599.3493681823852
 31
0.0
  0
LINE
  5
1359
330
2
100
AcDbEntity
  8
ゴム
  6
Continuous
100
AcDbLine
 10
675.1592038649992
 20
594.3493681823855
 30
0.0
 11
680.1592038649987
 21
599.349368182385
 31
0.0
  0
LINE
  5
135A
330
2
100
AcDbEntity
  8
ゴム
  6
Continuous
100
AcDbLine
 10
679.6493319255338
 20
594.3493681823857
 30
0.0
 11
684.6493319255332
 21
599.349368182385
 31
0.0
  0
LINE
  5
135B
330
2
100
AcDbEntity
  8
ゴム
  6
Continuous
100
AcDbLine
 10
684.1394599860683
 20
594.3493681823857
 30
0.0
 11
689.1394599860679
 21
599.3493681823852
 31
0.0
  0
LINE
  5
135C
330
2
100
AcDbEntity
  8
ゴム
  6
Continuous
100
AcDbLine
 10
688.6295880466029
 20
594.3493681823857
 30
0.0
 11
693.6295880466023
 21
599.3493681823852
 31
0.0
  0
LINE
  5
135D
330
2
100
AcDbEntity
  8
ゴム
  6
Continuous
100
AcDbLine
 10
693.1197161071375
 20
594.3493681823857
 30
0.0
 11
698.119716107137
 21
599.349368182385
 31
0.0
  0
LINE
  5
135E
330
2
100
AcDbEntity
  8
ゴム
  6
Continuous
100
AcDbLine
 10
697.6098441676721
 20
594.3493681823857
 30
0.0
 11
702.6098441676716
 21
599.3493681823852
 31
0.0
  0
LINE
  5
135F
330
2
100
AcDbEntity
  8
ゴム
  6
Continuous
100
AcDbLine
 10
702.0999722282067
 20
594.3493681823857
 30
0.0
 11
707.0999722282062
 21
599.3493681823852
 31
0.0
  0
LINE
  5
1360
330
2
100
AcDbEntity
  8
ゴム
  6
Continuous
100
AcDbLine
 10
706.5901002887413
 20
594.3493681823857
 30
0.0
 11
711.5901002887406
 21
599.3493681823852
 31
0.0
  0
LINE
  5
1361
330
2
100
AcDbEntity
  8
ゴム
  6
Continuous
100
AcDbLine
 10
711.0802283492759
 20
594.3493681823857
 30
0.0
 11
716.0802283492754
 21
599.3493681823852
 31
0.0
  0
LINE
  5
1362
330
2
100
AcDbEntity
  8
ゴム
  6
Continuous
100
AcDbLine
 10
715.5703564098105
 20
594.3493681823857
 30
0.0
 11
720.5703564098101
 21
599.3493681823852
 31
0.0
  0
LINE
  5
1363
330
2
100
AcDbEntity
  8
ゴム
  6
Continuous
100
AcDbLine
 10
720.060484470345
 20
594.3493681823857
 30
0.0
 11
725.0604844703445
 21
599.3493681823852
 31
0.0
  0
LINE
  5
1364
330
2
100
AcDbEntity
  8
ゴム
  6
Continuous
100
AcDbLine
 10
724.5506125308796
 20
594.3493681823857
 30
0.0
 11
729.5506125308791
 21
599.3493681823852
 31
0.0
  0
LINE
  5
1365
330
2
100
AcDbEntity
  8
ゴム
  6
Continuous
100
AcDbLine
 10
729.0407405914143
 20
594.3493681823857
 30
0.0
 11
734.0407405914137
 21
599.3493681823852
 31
0.0
  0
LINE
  5
1366
330
2
100
AcDbEntity
  8
ゴム
  6
Continuous
100
AcDbLine
 10
733.5308686519488
 20
594.3493681823857
 30
0.0
 11
738.5308686519482
 21
599.3493681823852
 31
0.0
  0
LINE
  5
1367
330
2
100
AcDbEntity
  8
ゴム
  6
Continuous
100
AcDbLine
 10
738.0209967124834
 20
594.3493681823858
 30
0.0
 11
743.0209967124828
 21
599.3493681823853
 31
0.0
  0
LINE
  5
1368
330
2
100
AcDbEntity
  8
ゴム
  6
Continuous
100
AcDbLine
 10
742.511124773018
 20
594.3493681823857
 30
0.0
 11
747.5111247730175
 21
599.3493681823852
 31
0.0
  0
LINE
  5
1369
330
2
100
AcDbEntity
  8
ゴム
  6
Continuous
100
AcDbLine
 10
747.0012528335526
 20
594.3493681823857
 30
0.0
 11
752.0012528335521
 21
599.3493681823852
 31
0.0
  0
LINE
  5
136A
330
2
100
AcDbEntity
  8
ゴム
  6
Continuous
100
AcDbLine
 10
751.4913808940871
 20
594.3493681823857
 30
0.0
 11
756.4913808940866
 21
599.3493681823852
 31
0.0
  0
LINE
  5
136B
330
2
100
AcDbEntity
  8
ゴム
  6
Continuous
100
AcDbLine
 10
755.9815089546217
 20
594.3493681823858
 30
0.0
 11
760.9815089546211
 21
599.3493681823853
 31
0.0
  0
LINE
  5
136C
330
2
100
AcDbEntity
  8
ゴム
  6
Continuous
100
AcDbLine
 10
760.4716370151565
 20
594.3493681823858
 30
0.0
 11
765.4716370151557
 21
599.3493681823852
 31
0.0
  0
LINE
  5
136D
330
2
100
AcDbEntity
  8
ゴム
  6
Continuous
100
AcDbLine
 10
764.9617650756909
 20
594.3493681823858
 30
0.0
 11
769.9617650756904
 21
599.3493681823853
 31
0.0
  0
LINE
  5
136E
330
2
100
AcDbEntity
  8
ゴム
  6
Continuous
100
AcDbLine
 10
769.4518931362255
 20
594.3493681823858
 30
0.0
 11
774.4518931362249
 21
599.3493681823853
 31
0.0
  0
LINE
  5
136F
330
2
100
AcDbEntity
  8
ゴム
  6
Continuous
100
AcDbLine
 10
773.94202119676
 20
594.3493681823858
 30
0.0
 11
778.9420211967596
 21
599.3493681823854
 31
0.0
  0
LINE
  5
1370
330
2
100
AcDbEntity
  8
ゴム
  6
Continuous
100
AcDbLine
 10
778.4321492572948
 20
594.3493681823858
 30
0.0
 11
783.4321492572942
 21
599.3493681823852
 31
0.0
  0
LINE
  5
1371
330
2
100
AcDbEntity
  8
ゴム
  6
Continuous
100
AcDbLine
 10
782.9222773178293
 20
594.3493681823858
 30
0.0
 11
787.9222773178287
 21
599.3493681823853
 31
0.0
  0
LINE
  5
1372
330
2
100
AcDbEntity
  8
ゴム
  6
Continuous
100
AcDbLine
 10
787.4124053783639
 20
594.3493681823858
 30
0.0
 11
792.4124053783632
 21
599.3493681823853
 31
0.0
  0
LINE
  5
1373
330
2
100
AcDbEntity
  8
ゴム
  6
Continuous
100
AcDbLine
 10
791.9025334388984
 20
594.3493681823858
 30
0.0
 11
796.9025334388978
 21
599.3493681823854
 31
0.0
  0
LINE
  5
1374
330
2
100
AcDbEntity
  8
ゴム
  6
Continuous
100
AcDbLine
 10
796.392661499433
 20
594.3493681823858
 30
0.0
 11
801.3926614994325
 21
599.3493681823853
 31
0.0
  0
LINE
  5
1375
330
2
100
AcDbEntity
  8
ゴム
  6
Continuous
100
AcDbLine
 10
800.8827895599676
 20
594.3493681823858
 30
0.0
 11
805.8827895599671
 21
599.3493681823854
 31
0.0
  0
LINE
  5
1376
330
2
100
AcDbEntity
  8
ゴム
  6
Continuous
100
AcDbLine
 10
805.3729176205022
 20
594.3493681823859
 30
0.0
 11
810.3729176205018
 21
599.3493681823854
 31
0.0
  0
LINE
  5
1377
330
2
100
AcDbEntity
  8
ゴム
  6
Continuous
100
AcDbLine
 10
809.8630456810367
 20
594.3493681823858
 30
0.0
 11
814.8630456810362
 21
599.3493681823853
 31
0.0
  0
LINE
  5
1378
330
2
100
AcDbEntity
  8
ゴム
  6
Continuous
100
AcDbLine
 10
814.3531737415715
 20
594.3493681823858
 30
0.0
 11
819.3531737415707
 21
599.3493681823853
 31
0.0
  0
LINE
  5
1379
330
2
100
AcDbEntity
  8
ゴム
  6
Continuous
100
AcDbLine
 10
818.843301802106
 20
594.3493681823858
 30
0.0
 11
823.8433018021053
 21
599.3493681823854
 31
0.0
  0
LINE
  5
137A
330
2
100
AcDbEntity
  8
ゴム
  6
Continuous
100
AcDbLine
 10
823.3334298626404
 20
594.3493681823858
 30
0.0
 11
828.33342986264
 21
599.3493681823854
 31
0.0
  0
LINE
  5
137B
330
2
100
AcDbEntity
  8
ゴム
  6
Continuous
100
AcDbLine
 10
827.8235579231751
 20
594.3493681823858
 30
0.0
 11
832.8235579231746
 21
599.3493681823854
 31
0.0
  0
LINE
  5
137C
330
2
100
AcDbEntity
  8
ゴム
  6
Continuous
100
AcDbLine
 10
832.3136859837097
 20
594.3493681823859
 30
0.0
 11
837.3136859837092
 21
599.3493681823854
 31
0.0
  0
LINE
  5
137D
330
2
100
AcDbEntity
  8
ゴム
  6
Continuous
100
AcDbLine
 10
836.8038140442443
 20
594.3493681823859
 30
0.0
 11
841.8038140442439
 21
599.3493681823854
 31
0.0
  0
LINE
  5
137E
330
2
100
AcDbEntity
  8
ゴム
  6
Continuous
100
AcDbLine
 10
841.293942104779
 20
594.3493681823861
 30
0.0
 11
846.2939421047783
 21
599.3493681823856
 31
0.0
  0
LINE
  5
137F
330
2
100
AcDbEntity
  8
ゴム
  6
Continuous
100
AcDbLine
 10
845.7840701653136
 20
594.3493681823858
 30
0.0
 11
850.784070165313
 21
599.3493681823854
 31
0.0
  0
LINE
  5
1380
330
2
100
AcDbEntity
  8
ゴム
  6
Continuous
100
AcDbLine
 10
850.2741982258481
 20
594.3493681823858
 30
0.0
 11
855.2741982258474
 21
599.3493681823854
 31
0.0
  0
LINE
  5
1381
330
2
100
AcDbEntity
  8
ゴム
  6
Continuous
100
AcDbLine
 10
854.7643262863825
 20
594.3493681823859
 30
0.0
 11
859.7643262863821
 21
599.3493681823854
 31
0.0
  0
LINE
  5
1382
330
2
100
AcDbEntity
  8
ゴム
  6
Continuous
100
AcDbLine
 10
859.2544543469172
 20
594.3493681823861
 30
0.0
 11
864.2544543469167
 21
599.3493681823856
 31
0.0
  0
LINE
  5
1383
330
2
100
AcDbEntity
  8
ゴム
  6
Continuous
100
AcDbLine
 10
863.7445824074518
 20
594.3493681823859
 30
0.0
 11
868.7445824074513
 21
599.3493681823854
 31
0.0
  0
LINE
  5
1384
330
2
100
AcDbEntity
  8
ゴム
  6
Continuous
100
AcDbLine
 10
868.2347104679864
 20
594.3493681823861
 30
0.0
 11
873.2347104679858
 21
599.3493681823856
 31
0.0
  0
LINE
  5
1385
330
2
100
AcDbEntity
  8
ゴム
  6
Continuous
100
AcDbLine
 10
872.7248385285209
 20
594.3493681823861
 30
0.0
 11
877.7248385285204
 21
599.3493681823856
 31
0.0
  0
LINE
  5
1386
330
2
100
AcDbEntity
  8
ゴム
  6
Continuous
100
AcDbLine
 10
877.2149665890555
 20
594.3493681823861
 30
0.0
 11
882.2149665890549
 21
599.3493681823856
 31
0.0
  0
LINE
  5
1387
330
2
100
AcDbEntity
  8
ゴム
  6
Continuous
100
AcDbLine
 10
881.7050946495902
 20
594.3493681823859
 30
0.0
 11
886.7050946495897
 21
599.3493681823854
 31
0.0
  0
LINE
  5
1388
330
2
100
AcDbEntity
  8
ゴム
  6
Continuous
100
AcDbLine
 10
886.1952227101248
 20
594.3493681823861
 30
0.0
 11
891.1952227101242
 21
599.3493681823856
 31
0.0
  0
LINE
  5
1389
330
2
100
AcDbEntity
  8
ゴム
  6
Continuous
100
AcDbLine
 10
890.6853507706593
 20
594.3493681823861
 30
0.0
 11
895.6853507706586
 21
599.3493681823856
 31
0.0
  0
LINE
  5
138A
330
2
100
AcDbEntity
  8
ゴム
  6
Continuous
100
AcDbLine
 10
895.1754788311939
 20
594.3493681823861
 30
0.0
 11
900.1754788311933
 21
599.3493681823856
 31
0.0
  0
LINE
  5
138B
330
2
100
AcDbEntity
  8
ゴム
  6
Continuous
100
AcDbLine
 10
899.6656068917285
 20
594.3493681823861
 30
0.0
 11
904.6656068917279
 21
599.3493681823856
 31
0.0
  0
LINE
  5
138C
330
2
100
AcDbEntity
  8
ゴム
  6
Continuous
100
AcDbLine
 10
904.155734952263
 20
594.3493681823861
 30
0.0
 11
909.1557349522625
 21
599.3493681823856
 31
0.0
  0
LINE
  5
138D
330
2
100
AcDbEntity
  8
ゴム
  6
Continuous
100
AcDbLine
 10
908.6458630127976
 20
594.3493681823862
 30
0.0
 11
913.6458630127972
 21
599.3493681823856
 31
0.0
  0
LINE
  5
138E
330
2
100
AcDbEntity
  8
ゴム
  6
Continuous
100
AcDbLine
 10
913.1359910733321
 20
594.3493681823861
 30
0.0
 11
918.1359910733318
 21
599.3493681823856
 31
0.0
  0
LINE
  5
138F
330
2
100
AcDbEntity
  8
ゴム
  6
Continuous
100
AcDbLine
 10
917.6261191338667
 20
594.3493681823861
 30
0.0
 11
922.6261191338663
 21
599.3493681823856
 31
0.0
  0
LINE
  5
1390
330
2
100
AcDbEntity
  8
ゴム
  6
Continuous
100
AcDbLine
 10
922.1162471944014
 20
594.3493681823861
 30
0.0
 11
927.1162471944009
 21
599.3493681823856
 31
0.0
  0
LINE
  5
1391
330
2
100
AcDbEntity
  8
ゴム
  6
Continuous
100
AcDbLine
 10
926.606375254936
 20
594.3493681823861
 30
0.0
 11
931.6063752549354
 21
599.3493681823856
 31
0.0
  0
LINE
  5
1392
330
2
100
AcDbEntity
  8
ゴム
  6
Continuous
100
AcDbLine
 10
931.0965033154706
 20
594.3493681823861
 30
0.0
 11
936.09650331547
 21
599.3493681823856
 31
0.0
  0
LINE
  5
1393
330
2
100
AcDbEntity
  8
ゴム
  6
Continuous
100
AcDbLine
 10
935.5866313760053
 20
594.3493681823862
 30
0.0
 11
940.5866313760046
 21
599.3493681823856
 31
0.0
  0
LINE
  5
1394
330
2
100
AcDbEntity
  8
ゴム
  6
Continuous
100
AcDbLine
 10
940.0767594365397
 20
594.3493681823862
 30
0.0
 11
945.0767594365393
 21
599.3493681823856
 31
0.0
  0
LINE
  5
1395
330
2
100
AcDbEntity
  8
ゴム
  6
Continuous
100
AcDbLine
 10
944.5668874970744
 20
594.3493681823863
 30
0.0
 11
949.5668874970737
 21
599.3493681823856
 31
0.0
  0
LINE
  5
1396
330
2
100
AcDbEntity
  8
ゴム
  6
Continuous
100
AcDbLine
 10
949.057015557609
 20
594.3493681823861
 30
0.0
 11
954.0570155576086
 21
599.3493681823856
 31
0.0
  0
LINE
  5
1397
330
2
100
AcDbEntity
  8
ゴム
  6
Continuous
100
AcDbLine
 10
953.5471436181435
 20
594.3493681823861
 30
0.0
 11
958.547143618143
 21
599.3493681823856
 31
0.0
  0
LINE
  5
1398
330
2
100
AcDbEntity
  8
ゴム
  6
Continuous
100
AcDbLine
 10
958.0372716786781
 20
594.3493681823862
 30
0.0
 11
963.0372716786776
 21
599.3493681823856
 31
0.0
  0
LINE
  5
1399
330
2
100
AcDbEntity
  8
ゴム
  6
Continuous
100
AcDbLine
 10
962.5273997392126
 20
594.3493681823862
 30
0.0
 11
967.5273997392121
 21
599.3493681823856
 31
0.0
  0
LINE
  5
139A
330
2
100
AcDbEntity
  8
ゴム
  6
Continuous
100
AcDbLine
 10
967.0175277997472
 20
594.3493681823862
 30
0.0
 11
972.0175277997467
 21
599.3493681823856
 31
0.0
  0
LINE
  5
139B
330
2
100
AcDbEntity
  8
ゴム
  6
Continuous
100
AcDbLine
 10
971.5076558602818
 20
594.3493681823863
 30
0.0
 11
976.5076558602814
 21
599.3493681823857
 31
0.0
  0
LINE
  5
139C
330
2
100
AcDbEntity
  8
ゴム
  6
Continuous
100
AcDbLine
 10
975.9977839208165
 20
594.3493681823863
 30
0.0
 11
980.9977839208158
 21
599.3493681823857
 31
0.0
  0
LINE
  5
139D
330
2
100
AcDbEntity
  8
ゴム
  6
Continuous
100
AcDbLine
 10
980.4879119813509
 20
594.3493681823861
 30
0.0
 11
985.4879119813503
 21
599.3493681823856
 31
0.0
  0
LINE
  5
139E
330
2
100
AcDbEntity
  8
ゴム
  6
Continuous
100
AcDbLine
 10
984.9780400418856
 20
594.3493681823862
 30
0.0
 11
989.9780400418851
 21
599.3493681823856
 31
0.0
  0
LINE
  5
139F
330
2
100
AcDbEntity
  8
ゴム
  6
Continuous
100
AcDbLine
 10
989.4681681024204
 20
594.3493681823863
 30
0.0
 11
994.4681681024196
 21
599.3493681823856
 31
0.0
  0
LINE
  5
13A0
330
2
100
AcDbEntity
  8
ゴム
  6
Continuous
100
AcDbLine
 10
993.9582961629549
 20
594.3493681823863
 30
0.0
 11
998.9582961629542
 21
599.3493681823857
 31
0.0
  0
LINE
  5
13A1
330
2
100
AcDbEntity
  8
ゴム
  6
Continuous
100
AcDbLine
 10
998.4484242234893
 20
594.3493681823863
 30
0.0
 11
1003.448424223488
 21
599.3493681823856
 31
0.0
  0
LINE
  5
13A2
330
2
100
AcDbEntity
  8
ゴム
  6
Continuous
100
AcDbLine
 10
1002.938552284024
 20
594.3493681823863
 30
0.0
 11
1007.938552284023
 21
599.3493681823857
 31
0.0
  0
LINE
  5
13A3
330
2
100
AcDbEntity
  8
ゴム
  6
Continuous
100
AcDbLine
 10
1007.428680344558
 20
594.3493681823863
 30
0.0
 11
1012.428680344558
 21
599.3493681823857
 31
0.0
  0
LINE
  5
13A4
330
2
100
AcDbEntity
  8
ゴム
  6
Continuous
100
AcDbLine
 10
1011.918808405093
 20
594.3493681823865
 30
0.0
 11
1016.918808405092
 21
599.3493681823857
 31
0.0
  0
LINE
  5
13A5
330
2
100
AcDbEntity
  8
ゴム
  6
Continuous
100
AcDbLine
 10
1016.408936465627
 20
594.3493681823863
 30
0.0
 11
1021.408936465627
 21
599.3493681823856
 31
0.0
  0
LINE
  5
13A6
330
2
100
AcDbEntity
  8
ゴム
  6
Continuous
100
AcDbLine
 10
1020.899064526162
 20
594.3493681823863
 30
0.0
 11
1025.899064526162
 21
599.3493681823857
 31
0.0
  0
LINE
  5
13A7
330
2
100
AcDbEntity
  8
ゴム
  6
Continuous
100
AcDbLine
 10
1025.389192586697
 20
594.3493681823863
 30
0.0
 11
1030.389192586696
 21
599.3493681823857
 31
0.0
  0
LINE
  5
13A8
330
2
100
AcDbEntity
  8
ゴム
  6
Continuous
100
AcDbLine
 10
1029.879320647231
 20
594.3493681823863
 30
0.0
 11
1034.879320647231
 21
599.3493681823856
 31
0.0
  0
LINE
  5
13A9
330
2
100
AcDbEntity
  8
ゴム
  6
Continuous
100
AcDbLine
 10
1034.369448707766
 20
594.3493681823863
 30
0.0
 11
1039.369448707765
 21
599.3493681823856
 31
0.0
  0
LINE
  5
13AA
330
2
100
AcDbEntity
  8
ゴム
  6
Continuous
100
AcDbLine
 10
1038.859576768301
 20
594.3493681823865
 30
0.0
 11
1043.8595767683
 21
599.3493681823857
 31
0.0
  0
LINE
  5
13AB
330
2
100
AcDbEntity
  8
ゴム
  6
Continuous
100
AcDbLine
 10
1043.349704828835
 20
594.3493681823865
 30
0.0
 11
1048.349704828834
 21
599.3493681823857
 31
0.0
  0
LINE
  5
13AC
330
2
100
AcDbEntity
  8
ゴム
  6
Continuous
100
AcDbLine
 10
1047.83983288937
 20
594.3493681823863
 30
0.0
 11
1052.839832889369
 21
599.3493681823856
 31
0.0
  0
LINE
  5
13AD
330
2
100
AcDbEntity
  8
ゴム
  6
Continuous
100
AcDbLine
 10
1052.329960949904
 20
594.3493681823865
 30
0.0
 11
1057.329960949904
 21
599.3493681823856
 31
0.0
  0
LINE
  5
13AE
330
2
100
AcDbEntity
  8
ゴム
  6
Continuous
100
AcDbLine
 10
1056.820089010439
 20
594.3493681823865
 30
0.0
 11
1061.820089010438
 21
599.3493681823857
 31
0.0
  0
LINE
  5
13AF
330
2
100
AcDbEntity
  8
ゴム
  6
Continuous
100
AcDbLine
 10
1061.310217070974
 20
594.3493681823865
 30
0.0
 11
1066.310217070973
 21
599.3493681823857
 31
0.0
  0
LINE
  5
13B0
330
2
100
AcDbEntity
  8
ゴム
  6
Continuous
100
AcDbLine
 10
1065.800345131508
 20
594.3493681823865
 30
0.0
 11
1070.800345131507
 21
599.3493681823856
 31
0.0
  0
LINE
  5
13B1
330
2
100
AcDbEntity
  8
ゴム
  6
Continuous
100
AcDbLine
 10
1070.290473192043
 20
594.3493681823865
 30
0.0
 11
1075.290473192042
 21
599.3493681823856
 31
0.0
  0
LINE
  5
13B2
330
2
100
AcDbEntity
  8
ゴム
  6
Continuous
100
AcDbLine
 10
1074.780601252577
 20
594.3493681823865
 30
0.0
 11
1079.780601252577
 21
599.3493681823857
 31
0.0
  0
LINE
  5
13B3
330
2
100
AcDbEntity
  8
ゴム
  6
Continuous
100
AcDbLine
 10
1079.270729313112
 20
594.3493681823865
 30
0.0
 11
1084.270729313111
 21
599.3493681823857
 31
0.0
  0
LINE
  5
13B4
330
2
100
AcDbEntity
  8
ゴム
  6
Continuous
100
AcDbLine
 10
1083.760857373646
 20
594.3493681823865
 30
0.0
 11
1088.760857373645
 21
599.3493681823856
 31
0.0
  0
LINE
  5
13B5
330
2
100
AcDbEntity
  8
ゴム
  6
Continuous
100
AcDbLine
 10
1088.250985434181
 20
594.3493681823865
 30
0.0
 11
1093.25098543418
 21
599.3493681823857
 31
0.0
  0
LINE
  5
13B6
330
2
100
AcDbEntity
  8
ゴム
  6
Continuous
100
AcDbLine
 10
1092.741113494716
 20
594.3493681823865
 30
0.0
 11
1097.741113494715
 21
599.3493681823857
 31
0.0
  0
LINE
  5
13B7
330
2
100
AcDbEntity
  8
ゴム
  6
Continuous
100
AcDbLine
 10
1097.23124155525
 20
594.3493681823865
 30
0.0
 11
1102.231241555249
 21
599.3493681823856
 31
0.0
  0
LINE
  5
13B8
330
2
100
AcDbEntity
  8
ゴム
  6
Continuous
100
AcDbLine
 10
1101.721369615785
 20
594.3493681823865
 30
0.0
 11
1106.721369615784
 21
599.3493681823856
 31
0.0
  0
LINE
  5
13B9
330
2
100
AcDbEntity
  8
ゴム
  6
Continuous
100
AcDbLine
 10
1106.211497676319
 20
594.3493681823865
 30
0.0
 11
1111.211497676318
 21
599.3493681823857
 31
0.0
  0
LINE
  5
13BA
330
2
100
AcDbEntity
  8
ゴム
  6
Continuous
100
AcDbLine
 10
1110.701625736854
 20
594.3493681823865
 30
0.0
 11
1115.701625736853
 21
599.3493681823857
 31
0.0
  0
LINE
  5
13BB
330
2
100
AcDbEntity
  8
ゴム
  6
Continuous
100
AcDbLine
 10
1115.191753797388
 20
594.3493681823865
 30
0.0
 11
1120.191753797388
 21
599.3493681823856
 31
0.0
  0
LINE
  5
13BC
330
2
100
AcDbEntity
  8
ゴム
  6
Continuous
100
AcDbLine
 10
1119.681881857923
 20
594.3493681823865
 30
0.0
 11
1124.681881857922
 21
599.3493681823856
 31
0.0
  0
LINE
  5
13BD
330
2
100
AcDbEntity
  8
ゴム
  6
Continuous
100
AcDbLine
 10
1124.172009918458
 20
594.3493681823865
 30
0.0
 11
1129.172009918457
 21
599.3493681823857
 31
0.0
  0
LINE
  5
13BE
330
2
100
AcDbEntity
  8
ゴム
  6
Continuous
100
AcDbLine
 10
1128.662137978992
 20
594.3493681823865
 30
0.0
 11
1133.799991184474
 21
598.9872213878686
 31
0.0
  0
LINE
  5
13BF
330
2
100
AcDbEntity
  8
ゴム
  6
Continuous
100
AcDbLine
 10
1133.652266039527
 20
594.3493681823865
 30
0.0
 11
1133.799991184474
 21
594.497093327334
 31
0.0
  0
DIMENSION
  5
1407
330
2
100
AcDbEntity
  8
寸法線
 48
3.0
100
AcDbDimension
  2
*D15
 10
945.6479703844742
 20
771.3493681823855
 30
0.0
 11
1016.58705667889
 21
791.3493681823855
 31
0.0
 70
    32
 71
     5
 42
12.50446809999971
  3
ISO-25
100
AcDbAlignedDimension
 13
933.1435022844745
 23
699.3493681823856
 33
0.0
 14
945.6479703844742
 24
699.3493681823856
 34
0.0
100
AcDbRotatedDimension
1001
ACAD
1000
DSTYLE
1002
{
1070
   279
1070
     0
1002
}
  0
INSERT
  5
14E6
330
2
100
AcDbEntity
  8
寸法線
 48
3.0
100
AcDbBlockReference
  2
GFB新
 10
2774.219625023061
 20
166.6250408207972
 30
0.0
  0
LEADER
  5
14E7
330
2
100
AcDbEntity
  8
寸法線
  6
Continuous
100
AcDbLeader
  3
ISO-25
 73
     0
 74
     0
 75
     1
 40
30.0
 41
152.2842639593908
 76
     3
 10
1135.444531407126
 20
1518.573059532465
 30
0.0
 10
1191.155209525781
 20
1589.28373765112
 30
0.0
 10
1206.155209525781
 20
1589.28373765112
 30
0.0
340
14E8
1001
ACAD
1000
DSTYLE
1002
{
1070
     5
1000
OPEN30
1070
    77
1070
     1
1070
   147
1040
0.5
1070
   342
1005
9C
1002
}
  0
MTEXT
  5
14E8
102
{ACAD_REACTORS
330
14E7
102
}
330
2
100
AcDbEntity
  8
寸法線
  6
Continuous
100
AcDbMText
 10
1211.155209525781
 20
1594.28373765112
 30
0.0
 40
30.0
 41
0.0
 71
     7
 72
     1
  1
GFB3\U+00D732
 73
     1
 44
1.0
1001
ACAD
1000
MTEXTBEGIN
1070
    73
1070
     1
1070
    44
1040
1.0
1070
    74
1070
     0
1000
MTEXTEND
  0
LEADER
  5
14E9
330
2
100
AcDbEntity
  8
寸法線
  6
Continuous
100
AcDbLeader
  3
ISO-25
 73
     0
 74
     0
 75
     1
 40
30.0
 41
35.78680203045685
 76
     3
 10
1135.444531407126
 20
1380.271268903879
 30
0.0
 10
1191.155209525781
 20
1450.981947022534
 30
0.0
 10
1206.155209525781
 20
1450.981947022534
 30
0.0
340
14EA
1001
ACAD
1000
DSTYLE
1002
{
1070
     5
1000
OPEN30
1070
    77
1070
     1
1070
   147
1040
0.5
1070
   342
1005
9C
1002
}
  0
MTEXT
  5
14EA
102
{ACAD_REACTORS
330
14E9
102
}
330
2
100
AcDbEntity
  8
寸法線
  6
Continuous
100
AcDbMText
 10
1211.155209525781
 20
1455.981947022534
 30
0.0
 40
30.0
 41
0.0
 71
     7
 72
     1
  1
TB
 73
     1
 44
1.0
1001
ACAD
1000
MTEXTBEGIN
1070
    73
1070
     1
1070
    44
1040
1.0
1070
    74
1070
     0
1000
MTEXTEND
  0
LINE
  5
150C
330
2
100
AcDbEntity
  8
本体
  6
Continuous
100
AcDbLine
 10
1120.225523784474
 20
1577.433446905533
 30
0.0
 11
1132.799991884474
 21
1583.433446905533
 31
0.0
  0
LINE
  5
150D
330
2
100
AcDbEntity
  8
本体
  6
Continuous
100
AcDbLine
 10
1120.225523784474
 20
1477.433446905533
 30
0.0
 11
1132.799991884474
 21
1483.433446905533
 31
0.0
  0
LINE
  5
150E
330
2
100
AcDbEntity
  8
本体
  6
Continuous
100
AcDbLine
 10
1120.225523784474
 20
1377.433446905533
 30
0.0
 11
1132.799991884474
 21
1383.433446905533
 31
0.0
  0
LINE
  5
150F
330
2
100
AcDbEntity
  8
本体
  6
Continuous
100
AcDbLine
 10
1120.225523784474
 20
1277.433446905533
 30
0.0
 11
1132.799991884474
 21
1283.433446905533
 31
0.0
  0
INSERT
  5
1520
102
{ACAD_REACTORS
330
1534
102
}
330
2
100
AcDbEntity
  8
エンボス
100
AcDbBlockReference
  2
*U18
 10
557.3744592844746
 20
691.3493681823855
 30
0.0
  0
INSERT
  5
156C
102
{ACAD_REACTORS
330
15AE
102
}
330
2
100
AcDbEntity
  8
エンボス
100
AcDbBlockReference
  2
*U20
 10
549.5872252344745
 20
1430.433446905533
 30
0.0
  0
ENDSEC
  0
SECTION
  2
OBJECTS
  0
DICTIONARY
  5
7
330
0
100
AcDbDictionary
281
     1
  3
ACAD_ASSOCNETWORK
350
152C
  3
ACAD_CIP_PREVIOUS_PRODUCT_INFO
350
120B
  3
ACAD_COLOR
350
11E9
  3
ACAD_DETAILVIEWSTYLE
350
1202
  3
ACAD_GROUP
350
DDF
  3
ACAD_LAYOUT
350
DC5
  3
ACAD_MATERIAL
350
11B7
  3
ACAD_MLEADERSTYLE
350
11FE
  3
ACAD_MLINESTYLE
350
DE0
  3
ACAD_PLOTSETTINGS
350
DE1
  3
ACAD_PLOTSTYLENAME
350
6
  3
ACAD_SCALELIST
350
11EC
  3
ACAD_SECTIONVIEWSTYLE
350
1200
  3
ACAD_TABLESTYLE
350
11EA
  3
ACAD_VISUALSTYLE
350
11D0
  3
ACDB_RECOMPOSE_DATA
350
1697
  3
AcDbVariableDictionary
350
12BB
  3
DWGPROPS
350
1698
  0
DICTIONARY
  5
127E
330
DDA
100
AcDbDictionary
280
     1
281
     1
  0
DICTIONARY
  5
1500
330
DD2
100
AcDbDictionary
280
     1
281
     1
  3
ACAD_LAYERSTATES
360
1501
  0
DICTIONARY
  5
120C
330
91
100
AcDbDictionary
280
     1
281
     1
  3
ADSK_XREC_LAYER_RECONCILED
360
120D
  0
DICTIONARY
  5
120E
330
76
100
AcDbDictionary
280
     1
281
     1
  3
ADSK_XREC_LAYER_RECONCILED
360
120F
  0
DICTIONARY
  5
1210
330
4
100
AcDbDictionary
280
     1
281
     1
  3
ADSK_XREC_LAYER_RECONCILED
360
1211
  0
DICTIONARY
  5
1214
330
580
100
AcDbDictionary
280
     1
281
     1
  3
ADSK_XREC_LAYER_RECONCILED
360
1215
  0
DICTIONARY
  5
1216
330
11
100
AcDbDictionary
280
     1
281
     1
  3
ADSK_XREC_LAYER_RECONCILED
360
1217
  0
DICTIONARY
  5
121A
330
1143
100
AcDbDictionary
280
     1
281
     1
  3
ADSK_XREC_LAYER_RECONCILED
360
121B
  0
DICTIONARY
  5
121C
330
1148
100
AcDbDictionary
280
     1
281
     1
  3
ADSK_XREC_LAYER_RECONCILED
360
121D
  0
DICTIONARY
  5
121E
330
114D
100
AcDbDictionary
280
     1
281
     1
  3
ADSK_XREC_LAYER_RECONCILED
360
121F
  0
DICTIONARY
  5
1220
330
1152
100
AcDbDictionary
280
     1
281
     1
  3
ADSK_XREC_LAYER_RECONCILED
360
1221
  0
DICTIONARY
  5
DC0
330
2
100
AcDbDictionary
280
     1
281
     1
  3
ACAD_ASSOCNETWORK
360
152A
  3
ACAD_LAYOUTSELFREF
360
10E7
  3
ACAD_SORTENTS
360
13C0
  0
DICTIONARY
  5
DC7
330
DC6
100
AcDbDictionary
280
     1
281
     1
  3
ACAD_LAYOUTSELFREF
360
10F4
  0
DICTIONARY
  5
DCD
330
DCC
100
AcDbDictionary
280
     1
281
     1
  3
ACAD_LAYOUTSELFREF
360
10F5
  0
DICTIONARY
  5
12CE
330
12CD
100
AcDbDictionary
280
     1
281
     1
  0
DICTIONARY
  5
14E3
330
14D8
100
AcDbDictionary
280
     1
281
     1
  0
DICTIONARY
  5
1623
330
151D
100
AcDbDictionary
280
     1
281
     1
  3
AcDbBlockTableRecordData
360
16D9
  0
DICTIONARY
  5
1626
330
1569
100
AcDbDictionary
280
     1
281
     1
  3
AcDbBlockTableRecordData
360
16DB
  0
DICTIONARY
  5
163F
330
163D
100
AcDbDictionary
280
     1
281
     1
  3
ACAD_SORTENTS
360
1640
  0
DICTIONARY
  5
152C
102
{ACAD_REACTORS
330
7
102
}
330
7
100
AcDbDictionary
281
     1
  3
ACAD_ASSOCNETWORK
350
152D
  0
XRECORD
  5
120B
102
{ACAD_REACTORS
330
7
102
}
330
7
100
AcDbXrecord
280
     1
300
ACDLT
300
2014
300
ACDLT_F_S
  0
DICTIONARY
  5
11E9
102
{ACAD_REACTORS
330
7
102
}
330
7
100
AcDbDictionary
281
     1
  0
DICTIONARY
  5
1202
102
{ACAD_REACTORS
330
7
102
}
330
7
100
AcDbDictionary
281
     1
  3
Metric50
350
1203
  0
DICTIONARY
  5
DDF
102
{ACAD_REACTORS
330
7
102
}
330
7
100
AcDbDictionary
281
     1
  0
DICTIONARY
  5
DC5
102
{ACAD_REACTORS
330
7
102
}
330
7
100
AcDbDictionary
281
     1
  3
Layout1
350
DCB
  3
Layout2
350
DD1
  3
Model
350
DC4
  0
DICTIONARY
  5
11B7
102
{ACAD_REACTORS
330
7
102
}
330
7
100
AcDbDictionary
281
     1
  3
ByBlock
350
11C0
  3
ByLayer
350
11B8
  3
Global
350
11C8
  0
DICTIONARY
  5
11FE
102
{ACAD_REACTORS
330
7
102
}
330
7
100
AcDbDictionary
281
     1
  3
Standard
350
11FF
  0
DICTIONARY
  5
DE0
102
{ACAD_REACTORS
330
7
102
}
330
7
100
AcDbDictionary
281
     1
  3
Standard
350
DE2
  0
DICTIONARY
  5
DE1
102
{ACAD_REACTORS
330
7
102
}
330
7
100
AcDbDictionary
281
     1
  0
ACDBDICTIONARYWDFLT
  5
6
102
{ACAD_REACTORS
330
7
102
}
330
7
100
AcDbDictionary
281
     1
  3
Normal
350
5
100
AcDbDictionaryWithDefault
340
5
  0
DICTIONARY
  5
11EC
102
{ACAD_REACTORS
330
7
102
}
330
7
100
AcDbDictionary
281
     1
  3
A0
350
11ED
  3
A1
350
11EE
  3
A2
350
11EF
  3
A3
350
11F0
  3
A4
350
11F1
  3
A5
350
11F2
  3
A6
350
11F3
  3
A7
350
11F4
  3
A8
350
11F5
  3
A9
350
11F6
  3
B0
350
11F7
  3
B1
350
11F8
  3
B2
350
11F9
  3
B3
350
11FA
  3
B4
350
11FB
  3
B5
350
11FC
  3
B6
350
11FD
  0
DICTIONARY
  5
1200
102
{ACAD_REACTORS
330
7
102
}
330
7
100
AcDbDictionary
281
     1
  3
Metric50
350
1201
  0
DICTIONARY
  5
11EA
102
{ACAD_REACTORS
330
7
102
}
330
7
100
AcDbDictionary
281
     1
  3
Standard
350
11EB
  0
DICTIONARY
  5
11D0
102
{ACAD_REACTORS
330
7
102
}
330
7
100
AcDbDictionary
281
     1
  3
2dWireframe
350
11D6
  3
Basic
350
11D5
  3
Brighten
350
11DC
  3
ColorChange
350
11E0
  3
Conceptual
350
11D9
  3
Dim
350
11DB
  3
EdgeColorOff
350
11E8
  3
Facepattern
350
11DF
  3
Flat
350
11D1
  3
FlatWithEdges
350
11D2
  3
Gouraud
350
11D3
  3
GouraudWithEdges
350
11D4
  3
Hidden
350
11D8
  3
JitterOff
350
11E6
  3
Linepattern
350
11DE
  3
OverhangOff
350
11E7
  3
Realistic
350
11DA
  3
Shaded
350
11E5
  3
Shaded with edges
350
11E4
  3
Shades of Gray
350
11E1
  3
Sketchy
350
11E2
  3
Thicken
350
11DD
  3
Wireframe
350
11D7
  3
X-Ray
350
11E3
  0
XRECORD
  5
1697
102
{ACAD_REACTORS
330
7
102
}
330
7
100
AcDbXrecord
280
     1
 90
        1
330
11EB
  0
DICTIONARY
  5
12BB
102
{ACAD_REACTORS
330
7
102
}
330
7
100
AcDbDictionary
281
     1
  3
CANNOSCALE
350
12C0
  3
CMLEADERSTYLE
350
12BD
  3
CTABLESTYLE
350
12BC
  3
CVIEWDETAILSTYLE
350
12BE
  3
CVIEWSECTIONSTYLE
350
12BF
  3
DIMASSOC
350
12C3
  3
INDEXCTL
350
12C2
  3
SORTENTS
350
12C1
  3
XCLIPFRAME
350
1695
  0
XRECORD
  5
1698
102
{ACAD_REACTORS
330
7
102
}
330
7
100
AcDbXrecord
280
     1
  1
DWGPROPS COOKIE
  2

  3

  4

  6

  7

  8
takara
  9

300
=
301
=
302
=
303
=
304
=
305
=
306
=
307
=
308
=
309
=
 40
0.0687363078703704
 41
2453510.558637211
 42
2457556.726159328
  1

 90
        0
  0
DICTIONARY
  5
1501
102
{ACAD_REACTORS
330
1500
102
}
330
1500
100
AcDbDictionary
281
     1
  3
_LAYISO_STATE
350
1502
1001
AcLayerTools
1000
DC4
1000
0
  0
XRECORD
  5
120D
102
{ACAD_REACTORS
330
120C
102
}
330
120C
100
AcDbXrecord
280
     1
290
     1
  0
XRECORD
  5
120F
102
{ACAD_REACTORS
330
120E
102
}
330
120E
100
AcDbXrecord
280
     1
290
     1
  0
XRECORD
  5
1211
102
{ACAD_REACTORS
330
1210
102
}
330
1210
100
AcDbXrecord
280
     1
290
     1
  0
XRECORD
  5
1215
102
{ACAD_REACTORS
330
1214
102
}
330
1214
100
AcDbXrecord
280
     1
290
     1
  0
XRECORD
  5
1217
102
{ACAD_REACTORS
330
1216
102
}
330
1216
100
AcDbXrecord
280
     1
290
     1
  0
XRECORD
  5
121B
102
{ACAD_REACTORS
330
121A
102
}
330
121A
100
AcDbXrecord
280
     1
290
     1
  0
XRECORD
  5
121D
102
{ACAD_REACTORS
330
121C
102
}
330
121C
100
AcDbXrecord
280
     1
290
     1
  0
XRECORD
  5
121F
102
{ACAD_REACTORS
330
121E
102
}
330
121E
100
AcDbXrecord
280
     1
290
     1
  0
XRECORD
  5
1221
102
{ACAD_REACTORS
330
1220
102
}
330
1220
100
AcDbXrecord
280
     1
290
     1
  0
DICTIONARY
  5
152A
102
{ACAD_REACTORS
330
DC0
102
}
330
DC0
100
AcDbDictionary
281
     1
  3
ACAD_ASSOCNETWORK
350
152B
  0
XRECORD
  5
10E7
102
{ACAD_REACTORS
330
DC0
102
}
330
DC0
100
AcDbXrecord
280
     1
340
2
  0
SORTENTSTABLE
  5
13C0
102
{ACAD_REACTORS
330
DC0
102
}
330
DC0
100
AcDbSortentsTable
330
2
331
1163
  5
13BC
331
1162
  5
13BB
331
12DD
  5
13BE
331
1161
  5
13BA
331
12DC
  5
13BD
331
1132
  5
13B9
331
1131
  5
13B8
331
6F
  5
6F
331
5F
  5
5F
331
4F
  5
4F
331
5E
  5
5E
331
6D
  5
6D
331
3F
  5
3F
331
4E
  5
4E
331
5D
  5
5D
331
6C
  5
6C
331
2F
  5
2F
331
3E
  5
3E
331
4D
  5
4D
331
5C
  5
5C
331
6B
  5
6B
331
1F
  5
1F
331
3D
  5
3D
331
4C
  5
4C
331
5B
  5
5B
331
6A
  5
6A
331
1E
  5
1E
331
3C
  5
3C
331
4B
  5
4B
331
5A
  5
5A
331
69
  5
69
331
1D
  5
1D
331
2C
  5
2C
331
3B
  5
3B
331
4A
  5
4A
331
59
  5
59
331
68
  5
68
331
77
  5
77
331
1C
  5
1C
331
2B
  5
2B
331
3A
  5
3A
331
49
  5
49
331
58
  5
58
331
67
  5
67
331
1B
  5
1B
331
2A
  5
2A
331
48
  5
48
331
57
  5
57
331
66
  5
66
331
75
  5
75
331
1A
  5
1A
331
29
  5
29
331
38
  5
38
331
47
  5
47
331
56
  5
56
331
19
  5
19
331
28
  5
28
331
37
  5
37
331
46
  5
46
331
55
  5
55
331
64
  5
64
331
73
  5
73
331
18
  5
18
331
27
  5
27
331
45
  5
45
331
54
  5
54
331
63
  5
63
331
72
  5
72
331
17
  5
17
331
26
  5
26
331
44
  5
44
331
53
  5
53
331
62
  5
62
331
25
  5
25
331
43
  5
43
331
52
  5
52
331
61
  5
61
331
70
  5
70
331
24
  5
24
331
33
  5
33
331
42
  5
42
331
51
  5
51
331
60
  5
60
331
14
  5
14
331
23
  5
23
331
32
  5
32
331
41
  5
41
331
50
  5
50
331
13
  5
13
331
22
  5
22
331
31
  5
31
331
40
  5
40
331
12
  5
12
331
21
  5
21
331
20
  5
20
331
1397
  5
559
331
1387
  5
549
331
1396
  5
558
331
1377
  5
539
331
1386
  5
548
331
1395
  5
557
331
1394
  5
556
331
1367
  5
529
331
1376
  5
538
331
1385
  5
547
331
1393
  5
555
331
1366
  5
528
331
1375
  5
537
331
1384
  5
546
331
1357
  5
519
331
1392
  5
554
331
1383
  5
545
331
1365
  5
527
331
1374
  5
536
331
1356
  5
518
331
1347
  5
509
331
1391
  5
553
331
1382
  5
544
331
1364
  5
526
331
1373
  5
535
331
1355
  5
517
331
1346
  5
508
331
1390
  5
552
331
1381
  5
543
331
1372
  5
534
331
1363
  5
525
331
139F
  5
561
331
1354
  5
516
331
1345
  5
507
331
139E
  5
560
331
1380
  5
542
331
1371
  5
533
331
1362
  5
524
331
138F
  5
551
331
1353
  5
515
331
1344
  5
506
331
139D
  5
55F
331
138E
  5
550
331
1370
  5
532
331
1361
  5
523
331
137F
  5
541
331
1352
  5
514
331
1343
  5
505
331
138D
  5
54F
331
137E
  5
540
331
1360
  5
522
331
136F
  5
531
331
139C
  5
55E
331
1351
  5
513
331
1342
  5
504
331
138C
  5
54E
331
137D
  5
53F
331
136E
  5
530
331
139B
  5
55D
331
1350
  5
512
331
1341
  5
503
331
135F
  5
521
331
137C
  5
53E
331
136D
  5
52F
331
138B
  5
54D
331
139A
  5
55C
331
134F
  5
511
331
1340
  5
502
331
135E
  5
520
331
137B
  5
53D
331
136C
  5
52E
331
138A
  5
54C
331
1399
  5
55B
331
133F
  5
501
331
13BF
  5
582
331
134E
  5
510
331
135D
  5
51F
331
136B
  5
52D
331
137A
  5
53C
331
1389
  5
54B
331
1398
  5
55A
331
133E
  5
500
331
13AF
  5
571
331
13BE
  5
581
331
134D
  5
50F
331
135C
  5
51E
331
136A
  5
52C
331
1379
  5
53B
331
1388
  5
54A
331
132E
  5
13BF
331
13AE
  5
570
331
13BD
  5
57F
331
133D
  5
4FF
331
134C
  5
50E
331
135B
  5
51D
331
1369
  5
52B
331
1378
  5
53A
331
133C
  5
4FE
331
134B
  5
50D
331
135A
  5
51C
331
13AD
  5
56F
331
13BC
  5
57E
331
1407
  5
1407
331
1368
  5
52A
331
133B
  5
4EF
331
13AC
  5
56E
331
13BB
  5
57D
331
134A
  5
50C
331
1359
  5
51B
331
1349
  5
50B
331
13AB
  5
56D
331
13BA
  5
57C
331
1358
  5
51A
331
1348
  5
50A
331
13AA
  5
56C
331
13B9
  5
57B
331
13A9
  5
56B
331
13B8
  5
57A
331
13A8
  5
56A
331
13B7
  5
579
331
13B6
  5
578
331
13A7
  5
569
331
13B5
  5
577
331
13A6
  5
568
331
13B4
  5
576
331
13A5
  5
567
331
13B3
  5
575
331
13A4
  5
566
331
13B2
  5
574
331
13A3
  5
565
331
13B1
  5
573
331
13A2
  5
564
331
13B0
  5
572
331
13A1
  5
563
331
13A0
  5
562
331
DA7
  5
FD3
331
D97
  5
FBC
331
DA6
  5
FD2
331
D96
  5
FBB
331
DA5
  5
FD1
331
5A7
  5
62C
331
D95
  5
FBA
331
DA4
  5
FD0
331
597
  5
61C
331
5A6
  5
62B
331
D94
  5
FB9
331
DA3
  5
FCF
331
587
  5
60C
331
596
  5
61B
331
5A5
  5
62A
331
DA2
  5
FCE
331
586
  5
60B
331
595
  5
61A
331
5A4
  5
629
331
4FF
  5
585
331
DA1
  5
FCD
331
585
  5
60A
331
594
  5
619
331
5A3
  5
628
331
4EF
  5
583
331
4FE
  5
584
331
DA0
  5
FCC
331
DAF
  5
FDB
331
5A2
  5
627
331
584
  5
609
331
593
  5
618
331
D9F
  5
FCB
331
DAE
  5
FDA
331
5A1
  5
626
331
583
  5
608
331
592
  5
617
331
D9E
  5
FCA
331
DAD
  5
FD9
331
5A0
  5
625
331
591
  5
616
331
582
  5
607
331
D9D
  5
FC9
331
DAC
  5
FD8
331
59F
  5
624
331
590
  5
615
331
581
  5
606
331
D9C
  5
FC1
331
DAB
  5
FD7
331
59E
  5
623
331
E36
  5
FF4
331
58F
  5
614
331
D9B
  5
FC0
331
DAA
  5
FD6
331
58E
  5
613
331
E35
  5
FF3
331
57F
  5
605
331
59D
  5
622
331
D9A
  5
FBF
331
DA9
  5
FD5
331
58D
  5
612
331
E34
  5
FF2
331
57E
  5
604
331
59C
  5
621
331
5AB
  5
630
331
D99
  5
FBE
331
DA8
  5
FD4
331
E33
  5
FF1
331
DBF
  5
FEB
331
58C
  5
611
331
59B
  5
620
331
5AA
  5
62F
331
D98
  5
FBD
331
58B
  5
610
331
59A
  5
61F
331
5A9
  5
62E
331
E32
  5
FF0
331
DBE
  5
FEA
331
FC1
  5
1055
331
58A
  5
60F
331
599
  5
61E
331
5A8
  5
62D
331
E31
  5
FEF
331
DBD
  5
FE9
331
FC0
  5
1054
331
FF7
  5
1084
331
4E5
  5
4E5
331
589
  5
60E
331
598
  5
61D
331
E30
  5
FEE
331
DBC
  5
FE8
331
FBF
  5
1053
331
4E4
  5
4E4
331
588
  5
60D
331
DBB
  5
FE7
331
E2F
  5
FED
331
FBE
  5
1052
331
4E3
  5
4E3
331
DBA
  5
FE6
331
FBD
  5
1051
331
4E2
  5
4E2
331
DB9
  5
FE5
331
FBC
  5
1050
331
DB8
  5
FE4
331
FBB
  5
104F
331
DB7
  5
FE3
331
FBA
  5
104E
331
DB6
  5
FE2
331
DB5
  5
FE1
331
DB4
  5
FE0
331
DB3
  5
FDF
331
DB2
  5
FDE
331
DB1
  5
FDD
331
DB0
  5
FDC
331
EC
  5
EC
331
EB
  5
EB
331
97
  5
97
331
96
  5
96
331
87
  5
87
331
86
  5
86
331
95
  5
95
331
C2
  5
C2
331
10E
  5
10E
331
85
  5
85
331
94
  5
94
331
C1
  5
C1
331
84
  5
84
331
93
  5
93
331
C0
  5
C0
331
CF
  5
CF
331
DE
  5
DE
331
83
  5
83
331
4B7
  5
4B7
331
82
  5
82
331
AF
  5
AF
331
80
  5
80
331
4B4
  5
4B4
331
255
  5
255
331
7F
  5
7F
331
4B3
  5
4B3
331
7E
  5
7E
331
4D0
  5
4D0
331
253
  5
253
331
7D
  5
7D
331
4B1
  5
4B1
331
4CF
  5
4CF
331
252
  5
252
331
7C
  5
7C
331
9A
  5
9A
331
4B0
  5
4B0
331
4BF
  5
4BF
331
4CE
  5
4CE
331
99
  5
99
331
7B
  5
7B
331
139
  5
139
331
11B
  5
11B
331
4AF
  5
4AF
331
4BE
  5
4BE
331
4CD
  5
4CD
331
98
  5
98
331
7A
  5
7A
331
89
  5
89
331
138
  5
138
331
4AE
  5
4AE
331
4CC
  5
4CC
331
88
  5
88
331
79
  5
79
331
137
  5
137
331
128
  5
128
331
4AD
  5
4AD
331
78
  5
78
331
1F5
  5
1F5
331
136
  5
136
331
4AC
  5
4AC
331
1F4
  5
1F4
331
135
  5
135
331
117
  5
117
331
1F3
  5
1F3
331
116
  5
116
331
134
  5
134
331
1F2
  5
1F2
331
133
  5
133
331
4B8
  5
4B8
331
114
  5
114
331
132
  5
132
331
131
  5
131
331
112
  5
112
331
110
  5
110
  0
XRECORD
  5
10F4
102
{ACAD_REACTORS
330
DC7
102
}
330
DC7
100
AcDbXrecord
280
     1
340
DC6
  0
XRECORD
  5
10F5
102
{ACAD_REACTORS
330
DCD
102
}
330
DCD
100
AcDbXrecord
280
     1
340
DCC
  0
DICTIONARY
  5
16D9
102
{ACAD_REACTORS
330
1623
102
}
330
1623
100
AcDbDictionary
280
     1
281
     1
  3
Edit
360
16DA
  0
DICTIONARY
  5
16DB
102
{ACAD_REACTORS
330
1626
102
}
330
1626
100
AcDbDictionary
280
     1
281
     1
  3
Edit
360
16DC
  0
SORTENTSTABLE
  5
1640
102
{ACAD_REACTORS
330
163F
102
}
330
163F
100
AcDbSortentsTable
330
163D
  0
ACDBASSOCNETWORK
  5
152D
102
{ACAD_REACTORS
330
152C
102
}
330
152C
100
AcDbAssocAction
 90
        1
 90
        1
330
0
360
0
 90
        0
 90
        0
 90
        0
100
AcDbAssocNetwork
 90
        0
 90
        1
 90
        1
330
152B
 90
        1
330
152B
  0
ACDBDETAILVIEWSTYLE
  5
1203
102
{ACAD_XDICTIONARY
360
16D7
102
}
102
{ACAD_REACTORS
330
1202
102
}
330
1202
100
AcDbModelDocViewStyle
 70
     0
  3
Metric50
290
     0
100
AcDbDetailViewStyle
 70
     0
 71
     0
 90
        3
 71
     1
340
9
 40
5.0
340
0
 40
5.0
300

 40
0.0
280
     1
 71
     2
340
8
 90
       25
 71
     3
340
9
 40
5.0
 90
        0
 40
15.0
 90
        1
300
%<\AcVar ViewDetailId>% (%<\AcVar ViewScale \f "%sn">%)
 71
     4
340
8
 90
       25
340
8
 90
       25
280
     0
  0
LAYOUT
  5
DCB
102
{ACAD_XDICTIONARY
360
169B
102
}
102
{ACAD_REACTORS
330
DC5
102
}
330
DC5
100
AcDbPlotSettings
  1

  2
None
  4

  6

 40
0.0
 41
0.0
 42
0.0
 43
0.0
 44
0.0
 45
0.0
 46
0.0
 47
0.0
 48
0.0
 49
0.0
140
0.0
141
0.0
142
1.0
143
1.0
 70
   688
 72
     0
 73
     0
 74
     5
  7
monochrome.ctb
 75
    16
147
1.0
148
0.0
149
0.0
100
AcDbLayout
  1
Layout1
 70
     1
 71
     1
 10
0.0
 20
0.0
 11
12.0
 21
9.0
 12
0.0
 22
0.0
 32
0.0
 14
0.0
 24
0.0
 34
0.0
 15
0.0
 25
0.0
 35
0.0
146
0.0
 13
0.0
 23
0.0
 33
0.0
 16
1.0
 26
0.0
 36
0.0
 17
0.0
 27
1.0
 37
0.0
 76
     0
330
DC6
  0
LAYOUT
  5
DD1
102
{ACAD_XDICTIONARY
360
169D
102
}
102
{ACAD_REACTORS
330
DC5
102
}
330
DC5
100
AcDbPlotSettings
  1

  2
None
  4

  6

 40
0.0
 41
0.0
 42
0.0
 43
0.0
 44
0.0
 45
0.0
 46
0.0
 47
0.0
 48
0.0
 49
0.0
140
0.0
141
0.0
142
1.0
143
1.0
 70
   688
 72
     0
 73
     0
 74
     5
  7
monochrome.ctb
 75
    16
147
1.0
148
0.0
149
0.0
100
AcDbLayout
  1
Layout2
 70
     1
 71
     2
 10
0.0
 20
0.0
 11
12.0
 21
9.0
 12
0.0
 22
0.0
 32
0.0
 14
0.0
 24
0.0
 34
0.0
 15
0.0
 25
0.0
 35
0.0
146
0.0
 13
0.0
 23
0.0
 33
0.0
 16
1.0
 26
0.0
 36
0.0
 17
0.0
 27
1.0
 37
0.0
 76
     0
330
DCC
  0
LAYOUT
  5
DC4
102
{ACAD_XDICTIONARY
360
1699
102
}
102
{ACAD_REACTORS
330
DC5
102
}
330
DC5
100
AcDbPlotSettings
  1

  2
EPSON LP-9400
  4
A4
  6

 40
5.873749732971191
 41
5.873747825622558
 42
5.873748779296875
 43
5.873748779296875
 44
209.9733276367187
 45
297.0106506347656
 46
2.339999999999999
 47
0.0
 48
0.0
 49
0.0
140
0.0
141
0.0
142
1.0
143
9.816891609963194
 70
 11956
 72
     1
 73
     1
 74
     1
  7
monochrome.ctb
 75
     0
147
0.1018652379725877
148
1264.94917075748
149
959.6633564695521
100
AcDbLayout
  1
Model
 70
     1
 71
     0
 10
0.0
 20
0.0
 11
12.0
 21
9.0
 12
0.0
 22
0.0
 32
0.0
 14
0.0
 24
0.0
 34
0.0
 15
0.0
 25
0.0
 35
0.0
146
0.0
 13
0.0
 23
0.0
 33
0.0
 16
1.0
 26
0.0
 36
0.0
 17
0.0
 27
1.0
 37
0.0
 76
     0
330
2
331
11B5
  0
MATERIAL
  5
11C0
102
{ACAD_XDICTIONARY
360
11C1
102
}
102
{ACAD_REACTORS
330
11B7
102
}
330
11B7
100
AcDbMaterial
  1
ByBlock
 72
     0
 43
0.0008202099737533
 43
0.0
 43
0.0
 43
0.0
 43
0.0
 43
0.0008202099737533
 43
0.0
 43
0.0
 43
0.0
 43
0.0
 43
1.0
 43
0.0
 43
0.0
 43
0.0
 43
0.0
 43
1.0
 77
     0
 47
0.0008202099737533
 47
0.0
 47
0.0
 47
0.0
 47
0.0
 47
0.0008202099737533
 47
0.0
 47
0.0
 47
0.0
 47
0.0
 47
1.0
 47
0.0
 47
0.0
 47
0.0
 47
0.0
 47
1.0
171
     0
 49
0.0008202099737533
 49
0.0
 49
0.0
 49
0.0
 49
0.0
 49
0.0008202099737533
 49
0.0
 49
0.0
 49
0.0
 49
0.0
 49
1.0
 49
0.0
 49
0.0
 49
0.0
 49
0.0
 49
1.0
175
     0
142
0.0008202099737533
142
0.0
142
0.0
142
0.0
142
0.0
142
0.0008202099737533
142
0.0
142
0.0
142
0.0
142
0.0
142
1.0
142
0.0
142
0.0
142
0.0
142
0.0
142
1.0
179
     0
144
0.0008202099737533
144
0.0
144
0.0
144
0.0
144
0.0
144
0.0008202099737533
144
0.0
144
0.0
144
0.0
144
0.0
144
1.0
144
0.0
144
0.0
144
0.0
144
0.0
144
1.0
147
0.0008202099737533
147
0.0
147
0.0
147
0.0
147
0.0
147
0.0008202099737533
147
0.0
147
0.0
147
0.0
147
0.0
147
1.0
147
0.0
147
0.0
147
0.0
147
0.0
147
1.0
  0
MATERIAL
  5
11B8
102
{ACAD_XDICTIONARY
360
11B9
102
}
102
{ACAD_REACTORS
330
11B7
102
}
330
11B7
100
AcDbMaterial
  1
ByLayer
 72
     0
 43
0.0008202099737533
 43
0.0
 43
0.0
 43
0.0
 43
0.0
 43
0.0008202099737533
 43
0.0
 43
0.0
 43
0.0
 43
0.0
 43
1.0
 43
0.0
 43
0.0
 43
0.0
 43
0.0
 43
1.0
 77
     0
 47
0.0008202099737533
 47
0.0
 47
0.0
 47
0.0
 47
0.0
 47
0.0008202099737533
 47
0.0
 47
0.0
 47
0.0
 47
0.0
 47
1.0
 47
0.0
 47
0.0
 47
0.0
 47
0.0
 47
1.0
171
     0
 49
0.0008202099737533
 49
0.0
 49
0.0
 49
0.0
 49
0.0
 49
0.0008202099737533
 49
0.0
 49
0.0
 49
0.0
 49
0.0
 49
1.0
 49
0.0
 49
0.0
 49
0.0
 49
0.0
 49
1.0
175
     0
142
0.0008202099737533
142
0.0
142
0.0
142
0.0
142
0.0
142
0.0008202099737533
142
0.0
142
0.0
142
0.0
142
0.0
142
1.0
142
0.0
142
0.0
142
0.0
142
0.0
142
1.0
179
     0
144
0.0008202099737533
144
0.0
144
0.0
144
0.0
144
0.0
144
0.0008202099737533
144
0.0
144
0.0
144
0.0
144
0.0
144
1.0
144
0.0
144
0.0
144
0.0
144
0.0
144
1.0
147
0.0008202099737533
147
0.0
147
0.0
147
0.0
147
0.0
147
0.0008202099737533
147
0.0
147
0.0
147
0.0
147
0.0
147
1.0
147
0.0
147
0.0
147
0.0
147
0.0
147
1.0
  0
MATERIAL
  5
11C8
102
{ACAD_XDICTIONARY
360
11C9
102
}
102
{ACAD_REACTORS
330
11B7
102
}
330
11B7
100
AcDbMaterial
  1
Global
 72
     0
 43
0.0008202099737533
 43
0.0
 43
0.0
 43
0.0
 43
0.0
 43
0.0008202099737533
 43
0.0
 43
0.0
 43
0.0
 43
0.0
 43
1.0
 43
0.0
 43
0.0
 43
0.0
 43
0.0
 43
1.0
 77
     0
 47
0.0008202099737533
 47
0.0
 47
0.0
 47
0.0
 47
0.0
 47
0.0008202099737533
 47
0.0
 47
0.0
 47
0.0
 47
0.0
 47
1.0
 47
0.0
 47
0.0
 47
0.0
 47
0.0
 47
1.0
171
     0
 49
0.0008202099737533
 49
0.0
 49
0.0
 49
0.0
 49
0.0
 49
0.0008202099737533
 49
0.0
 49
0.0
 49
0.0
 49
0.0
 49
1.0
 49
0.0
 49
0.0
 49
0.0
 49
0.0
 49
1.0
175
     0
142
0.0008202099737533
142
0.0
142
0.0
142
0.0
142
0.0
142
0.0008202099737533
142
0.0
142
0.0
142
0.0
142
0.0
142
1.0
142
0.0
142
0.0
142
0.0
142
0.0
142
1.0
179
     0
144
0.0008202099737533
144
0.0
144
0.0
144
0.0
144
0.0
144
0.0008202099737533
144
0.0
144
0.0
144
0.0
144
0.0
144
1.0
144
0.0
144
0.0
144
0.0
144
0.0
144
1.0
147
0.0008202099737533
147
0.0
147
0.0
147
0.0
147
0.0
147
0.0008202099737533
147
0.0
147
0.0
147
0.0
147
0.0
147
1.0
147
0.0
147
0.0
147
0.0
147
0.0
147
1.0
  0
MLEADERSTYLE
  5
11FF
102
{ACAD_XDICTIONARY
360
16D3
102
}
102
{ACAD_REACTORS
330
11FE
102
}
330
11FE
100
AcDbMLeaderStyle
170
     2
171
     1
172
     0
 90
        2
 40
0.0
 41
0.0
173
     1
 91
-1056964608
340
DD6
 92
       -2
290
     1
 42
2.0
291
     1
 43
0.36
  3
Standard
 44
4.0
300

342
9
174
     1
178
     6
175
     1
176
     0
 93
-1056964608
 45
4.0
292
     0
297
     0
 46
4.0
 94
-1056964608
 47
1.0
 49
1.0
140
1.0
293
     1
141
0.0
294
     1
177
     0
142
1.0
295
     0
296
     0
143
0.125
1001
ACAD_MLEADERVER
1070
     2
  0
MLINESTYLE
  5
DE2
102
{ACAD_REACTORS
330
DE0
102
}
330
DE0
100
AcDbMlineStyle
  2
STANDARD
 70
     0
  3

 62
   256
 51
90.0
 52
90.0
 71
     2
 49
0.5
 62
   256
  6
BYLAYER
 49
-0.5
 62
   256
  6
BYLAYER
  0
ACDBPLACEHOLDER
  5
5
102
{ACAD_REACTORS
330
6
102
}
330
6
  0
SCALE
  5
11ED
102
{ACAD_REACTORS
330
11EC
102
}
330
11EC
100
AcDbScale
 70
     0
300
1:1
140
1.0
141
1.0
290
     1
  0
SCALE
  5
11EE
102
{ACAD_REACTORS
330
11EC
102
}
330
11EC
100
AcDbScale
 70
     0
300
1:2
140
1.0
141
2.0
290
     0
  0
SCALE
  5
11EF
102
{ACAD_REACTORS
330
11EC
102
}
330
11EC
100
AcDbScale
 70
     0
300
1:4
140
1.0
141
4.0
290
     0
  0
SCALE
  5
11F0
102
{ACAD_REACTORS
330
11EC
102
}
330
11EC
100
AcDbScale
 70
     0
300
1:5
140
1.0
141
5.0
290
     0
  0
SCALE
  5
11F1
102
{ACAD_REACTORS
330
11EC
102
}
330
11EC
100
AcDbScale
 70
     0
300
1:8
140
1.0
141
8.0
290
     0
  0
SCALE
  5
11F2
102
{ACAD_REACTORS
330
11EC
102
}
330
11EC
100
AcDbScale
 70
     0
300
1:10
140
1.0
141
10.0
290
     0
  0
SCALE
  5
11F3
102
{ACAD_REACTORS
330
11EC
102
}
330
11EC
100
AcDbScale
 70
     0
300
1:16
140
1.0
141
16.0
290
     0
  0
SCALE
  5
11F4
102
{ACAD_REACTORS
330
11EC
102
}
330
11EC
100
AcDbScale
 70
     0
300
1:20
140
1.0
141
20.0
290
     0
  0
SCALE
  5
11F5
102
{ACAD_REACTORS
330
11EC
102
}
330
11EC
100
AcDbScale
 70
     0
300
1:30
140
1.0
141
30.0
290
     0
  0
SCALE
  5
11F6
102
{ACAD_REACTORS
330
11EC
102
}
330
11EC
100
AcDbScale
 70
     0
300
1:40
140
1.0
141
40.0
290
     0
  0
SCALE
  5
11F7
102
{ACAD_REACTORS
330
11EC
102
}
330
11EC
100
AcDbScale
 70
     0
300
1:50
140
1.0
141
50.0
290
     0
  0
SCALE
  5
11F8
102
{ACAD_REACTORS
330
11EC
102
}
330
11EC
100
AcDbScale
 70
     0
300
1:100
140
1.0
141
100.0
290
     0
  0
SCALE
  5
11F9
102
{ACAD_REACTORS
330
11EC
102
}
330
11EC
100
AcDbScale
 70
     0
300
2:1
140
2.0
141
1.0
290
     0
  0
SCALE
  5
11FA
102
{ACAD_REACTORS
330
11EC
102
}
330
11EC
100
AcDbScale
 70
     0
300
4:1
140
4.0
141
1.0
290
     0
  0
SCALE
  5
11FB
102
{ACAD_REACTORS
330
11EC
102
}
330
11EC
100
AcDbScale
 70
     0
300
8:1
140
8.0
141
1.0
290
     0
  0
SCALE
  5
11FC
102
{ACAD_REACTORS
330
11EC
102
}
330
11EC
100
AcDbScale
 70
     0
300
10:1
140
10.0
141
1.0
290
     0
  0
SCALE
  5
11FD
102
{ACAD_REACTORS
330
11EC
102
}
330
11EC
100
AcDbScale
 70
     0
300
100:1
140
100.0
141
1.0
290
     0
  0
ACDBSECTIONVIEWSTYLE
  5
1201
102
{ACAD_XDICTIONARY
360
16D5
102
}
102
{ACAD_REACTORS
330
1200
102
}
330
1200
100
AcDbModelDocViewStyle
 70
     0
  3
Metric50
290
     0
100
AcDbSectionViewStyle
 70
     0
 71
     0
 90
      102
 71
     1
340
9
 40
5.0
340
0
340
0
 40
5.0
300
I, O, Q, S, X, Z
 40
10.0
 90
        0
 40
2.5
 90
        0
 71
     2
340
8
 90
       25
340
8
 90
       50
 40
5.0
 40
2.5
 40
5.0
 71
     3
340
9
 40
5.0
 90
        0
 40
15.0
 90
        1
300
%<\AcVar ViewSectionStartId>%-%<\AcVar ViewSectionEndId>% (%<\AcVar ViewScale \f "%sn">%)
 71
     4
300
ANSI31
 40
1.0
 90
        0
290
     0
290
     0
 90
        6
 40
0.0
 40
1.570796326794896
 40
0.2617993877991494
 40
1.308996938995747
 40
-0.2617993877991494
 40
1.832595714594046
  0
TABLESTYLE
  5
11EB
102
{ACAD_XDICTIONARY
360
1274
102
}
102
{ACAD_REACTORS
330
11EA
102
}
330
11EA
100
AcDbTableStyle
  3
Standard
 70
     0
 71
     0
 40
1.5
 41
1.5
280
     0
281
     0
  7
Standard
140
4.5
170
     2
 62
     0
 63
     7
283
     0
274
    -2
284
     1
 64
     0
275
    -2
285
     1
 65
     0
276
    -2
286
     1
 66
     0
277
    -2
287
     1
 67
     0
278
    -2
288
     1
 68
     0
279
    -2
289
     1
 69
     0
  7
Standard
140
6.0
170
     5
 62
     0
 63
     7
283
     0
274
    -2
284
     1
 64
     0
275
    -2
285
     1
 65
     0
276
    -2
286
     1
 66
     0
277
    -2
287
     1
 67
     0
278
    -2
288
     1
 68
     0
279
    -2
289
     1
 69
     0
  7
Standard
140
4.5
170
     5
 62
     0
 63
     7
283
     0
274
    -2
284
     1
 64
     0
275
    -2
285
     1
 65
     0
276
    -2
286
     1
 66
     0
277
    -2
287
     1
 67
     0
278
    -2
288
     1
 68
     0
279
    -2
289
     1
 69
     0
  0
VISUALSTYLE
  5
11D6
102
{ACAD_XDICTIONARY
360
16AC
102
}
102
{ACAD_REACTORS
330
11D0
102
}
330
11D0
100
AcDbVisualStyle
  2
2dWireframe
 70
     4
 71
     0
 72
     2
 73
     0
 90
        0
 40
-0.6
 41
-30.0
 62
     5
 63
     7
 74
     1
 91
        4
 64
     7
 65
   257
 75
     1
175
     1
 42
1.0
 92
        0
 66
   257
 43
1.0
 76
     1
 77
     6
 78
     2
 67
     7
 79
     5
170
     0
171
     0
290
     0
174
     0
 93
        1
 44
0.0
173
     0
291
     0
 45
0.0
1001
ACAD
1000
AcDbSavedByObjectVersion
1070
     0
  0
VISUALSTYLE
  5
11D5
102
{ACAD_XDICTIONARY
360
16AA
102
}
102
{ACAD_REACTORS
330
11D0
102
}
330
11D0
100
AcDbVisualStyle
  2
Basic
 70
     7
 71
     1
 72
     0
 73
     1
 90
        0
 40
-0.6
 41
-30.0
 62
     5
 63
     7
 74
     0
 91
        4
 64
     7
 65
   257
 75
     1
175
     1
 42
1.0
 92
        8
 66
     7
 43
1.0
 76
     1
 77
     6
 78
     2
 67
     7
 79
     5
170
     0
171
     0
290
     0
174
     0
 93
        1
 44
0.0
173
     0
291
     1
 45
0.0
1001
ACAD
1000
AcDbSavedByObjectVersion
1070
     0
  0
VISUALSTYLE
  5
11DC
102
{ACAD_XDICTIONARY
360
16B8
102
}
102
{ACAD_REACTORS
330
11D0
102
}
330
11D0
100
AcDbVisualStyle
  2
Brighten
 70
    12
 71
     2
 72
     2
 73
     0
 90
        0
 40
-0.6
 41
-30.0
 62
     5
 63
     7
 74
     1
 91
        4
 64
     7
 65
   257
 75
     1
175
     1
 42
1.0
 92
        8
 66
     7
 43
1.0
 76
     1
 77
     6
 78
     2
 67
     7
 79
     5
170
     0
171
     0
290
     0
174
     0
 93
        1
 44
50.0
173
     0
291
     1
 45
0.0
1001
ACAD
1000
AcDbSavedByObjectVersion
1070
     0
  0
VISUALSTYLE
  5
11E0
102
{ACAD_XDICTIONARY
360
16C0
102
}
102
{ACAD_REACTORS
330
11D0
102
}
330
11D0
100
AcDbVisualStyle
  2
ColorChange
 70
    16
 71
     2
 72
     2
 73
     3
 90
        0
 40
-0.6
 41
-30.0
 62
     5
 63
     8
 74
     1
 91
        4
 64
     7
 65
   257
 75
     1
175
     1
 42
1.0
 92
        8
 66
     8
 43
1.0
 76
     1
 77
     6
 78
     2
 67
     7
 79
     5
170
     0
171
     0
290
     0
174
     0
 93
        1
 44
0.0
173
     0
291
     1
 45
0.0
1001
ACAD
1000
AcDbSavedByObjectVersion
1070
     0
  0
VISUALSTYLE
  5
11D9
102
{ACAD_XDICTIONARY
360
16B2
102
}
102
{ACAD_REACTORS
330
11D0
102
}
330
11D0
100
AcDbVisualStyle
  2
Conceptual
 70
     9
 71
     3
 72
     2
 73
     0
 90
        0
 40
-0.6
 41
-30.0
 62
     5
 63
     7
 74
     2
 91
        2
 64
     7
 65
   257
 75
     1
175
     1
 42
179.0
 92
        8
 66
     7
 43
1.0
 76
     1
 77
     6
 78
     2
 67
     7
 79
     3
170
     0
171
     0
290
     0
174
     0
 93
        1
 44
0.0
173
     0
291
     0
 45
0.0
1001
ACAD
1000
AcDbSavedByObjectVersion
1070
     0
  0
VISUALSTYLE
  5
11DB
102
{ACAD_XDICTIONARY
360
16B6
102
}
102
{ACAD_REACTORS
330
11D0
102
}
330
11D0
100
AcDbVisualStyle
  2
Dim
 70
    11
 71
     2
 72
     2
 73
     0
 90
        0
 40
-0.6
 41
-30.0
 62
     5
 63
     7
 74
     1
 91
        4
 64
     7
 65
   257
 75
     1
175
     1
 42
1.0
 92
        8
 66
     7
 43
1.0
 76
     1
 77
     6
 78
     2
 67
     7
 79
     5
170
     0
171
     0
290
     0
174
     0
 93
        1
 44
-50.0
173
     0
291
     1
 45
0.0
1001
ACAD
1000
AcDbSavedByObjectVersion
1070
     0
  0
VISUALSTYLE
  5
11E8
102
{ACAD_XDICTIONARY
360
16D0
102
}
102
{ACAD_REACTORS
330
11D0
102
}
330
11D0
100
AcDbVisualStyle
  2
EdgeColorOff
 70
    22
 71
     2
 72
     2
 73
     0
 90
        0
 40
-0.6
 41
-30.0
 62
     5
 63
     7
 74
     1
 91
        4
 64
     7
 65
   257
 75
     1
175
     1
 42
1.0
 92
        8
 66
     7
 43
1.0
 76
     1
 77
     6
 78
     2
 67
     7
 79
     5
170
     0
171
     0
290
     0
174
     0
 93
        1
 44
0.0
173
     0
291
     1
 45
0.0
1001
ACAD
1000
AcDbSavedByObjectVersion
1070
     0
  0
VISUALSTYLE
  5
11DF
102
{ACAD_XDICTIONARY
360
16BE
102
}
102
{ACAD_REACTORS
330
11D0
102
}
330
11D0
100
AcDbVisualStyle
  2
Facepattern
 70
    15
 71
     2
 72
     2
 73
     0
 90
        0
 40
-0.6
 41
-30.0
 62
     5
 63
     7
 74
     1
 91
        4
 64
     7
 65
   257
 75
     1
175
     1
 42
1.0
 92
        8
 66
     7
 43
1.0
 76
     1
 77
     6
 78
     2
 67
     7
 79
     5
170
     0
171
     0
290
     0
174
     0
 93
        1
 44
0.0
173
     0
291
     1
 45
0.0
1001
ACAD
1000
AcDbSavedByObjectVersion
1070
     0
  0
VISUALSTYLE
  5
11D1
102
{ACAD_XDICTIONARY
360
16A2
102
}
102
{ACAD_REACTORS
330
11D0
102
}
330
11D0
100
AcDbVisualStyle
  2
Flat
 70
     0
 71
     2
 72
     1
 73
     1
 90
        2
 40
-0.6
 41
30.0
 62
     5
 63
     7
 74
     0
 91
        0
 64
     7
 65
   257
 75
     1
175
     1
 42
1.0
 92
        8
 66
     7
 43
1.0
 76
     1
 77
     6
 78
     2
 67
     7
 79
     5
170
     0
171
     0
290
     0
174
     0
 93
       13
 44
0.0
173
     0
291
     1
 45
0.0
1001
ACAD
1000
AcDbSavedByObjectVersion
1070
     0
  0
VISUALSTYLE
  5
11D2
102
{ACAD_XDICTIONARY
360
16A4
102
}
102
{ACAD_REACTORS
330
11D0
102
}
330
11D0
100
AcDbVisualStyle
  2
FlatWithEdges
 70
     1
 71
     2
 72
     1
 73
     1
 90
        2
 40
-0.6
 41
30.0
 62
     5
 63
     7
 74
     1
 91
        0
 64
     7
 65
   257
 75
     1
175
     1
 42
1.0
 92
        0
 66
   257
 43
1.0
 76
     1
 77
     6
 78
     2
 67
     7
 79
     5
170
     0
171
     0
290
     0
174
     0
 93
       13
 44
0.0
173
     0
291
     1
 45
0.0
1001
ACAD
1000
AcDbSavedByObjectVersion
1070
     0
  0
VISUALSTYLE
  5
11D3
102
{ACAD_XDICTIONARY
360
16A6
102
}
102
{ACAD_REACTORS
330
11D0
102
}
330
11D0
100
AcDbVisualStyle
  2
Gouraud
 70
     2
 71
     2
 72
     2
 73
     1
 90
        2
 40
-0.6
 41
30.0
 62
     5
 63
     7
 74
     0
 91
        0
 64
     7
 65
   257
 75
     1
175
     1
 42
1.0
 92
        0
 66
     7
 43
1.0
 76
     1
 77
     6
 78
     2
 67
     7
 79
     5
170
     0
171
     0
290
     0
174
     0
 93
       13
 44
0.0
173
     0
291
     1
 45
0.0
1001
ACAD
1000
AcDbSavedByObjectVersion
1070
     0
  0
VISUALSTYLE
  5
11D4
102
{ACAD_XDICTIONARY
360
16A8
102
}
102
{ACAD_REACTORS
330
11D0
102
}
330
11D0
100
AcDbVisualStyle
  2
GouraudWithEdges
 70
     3
 71
     2
 72
     2
 73
     1
 90
        2
 40
-0.6
 41
30.0
 62
     5
 63
     7
 74
     1
 91
        0
 64
     7
 65
   257
 75
     1
175
     1
 42
1.0
 92
        0
 66
   257
 43
1.0
 76
     1
 77
     6
 78
     2
 67
     7
 79
     5
170
     0
171
     0
290
     0
174
     0
 93
       13
 44
0.0
173
     0
291
     1
 45
0.0
1001
ACAD
1000
AcDbSavedByObjectVersion
1070
     0
  0
VISUALSTYLE
  5
11D8
102
{ACAD_XDICTIONARY
360
16B0
102
}
102
{ACAD_REACTORS
330
11D0
102
}
330
11D0
100
AcDbVisualStyle
  2
Hidden
 70
     6
 71
     1
 72
     2
 73
     2
 90
        0
 40
-0.6
 41
-30.0
 62
     5
 63
     7
 74
     2
 91
        2
 64
     7
 65
   257
 75
     2
175
     1
 42
40.0
 92
        0
 66
   257
 43
1.0
 76
     1
 77
     6
 78
     2
 67
     7
 79
     3
170
     0
171
     0
290
     0
174
     0
 93
        1
 44
0.0
173
     0
291
     0
 45
0.0
1001
ACAD
1000
AcDbSavedByObjectVersion
1070
     0
  0
VISUALSTYLE
  5
11E6
102
{ACAD_XDICTIONARY
360
16CC
102
}
102
{ACAD_REACTORS
330
11D0
102
}
330
11D0
100
AcDbVisualStyle
  2
JitterOff
 70
    20
 71
     2
 72
     2
 73
     0
 90
        0
 40
-0.6
 41
-30.0
 62
     5
 63
     7
 74
     1
 91
        4
 64
     7
 65
   257
 75
     1
175
     1
 42
1.0
 92
       10
 66
     7
 43
1.0
 76
     1
 77
     6
 78
     2
 67
     7
 79
     5
170
     0
171
     0
290
     0
174
     0
 93
        1
 44
0.0
173
     0
291
     1
 45
0.0
1001
ACAD
1000
AcDbSavedByObjectVersion
1070
     0
  0
VISUALSTYLE
  5
11DE
102
{ACAD_XDICTIONARY
360
16BC
102
}
102
{ACAD_REACTORS
330
11D0
102
}
330
11D0
100
AcDbVisualStyle
  2
Linepattern
 70
    14
 71
     2
 72
     2
 73
     0
 90
        0
 40
-0.6
 41
-30.0
 62
     5
 63
     7
 74
     1
 91
        4
 64
     7
 65
   257
 75
     7
175
     7
 42
1.0
 92
        8
 66
     7
 43
1.0
 76
     1
 77
     6
 78
     2
 67
     7
 79
     5
170
     0
171
     0
290
     0
174
     0
 93
        1
 44
0.0
173
     0
291
     1
 45
0.0
1001
ACAD
1000
AcDbSavedByObjectVersion
1070
     0
  0
VISUALSTYLE
  5
11E7
102
{ACAD_XDICTIONARY
360
16CE
102
}
102
{ACAD_REACTORS
330
11D0
102
}
330
11D0
100
AcDbVisualStyle
  2
OverhangOff
 70
    21
 71
     2
 72
     2
 73
     0
 90
        0
 40
-0.6
 41
-30.0
 62
     5
 63
     7
 74
     1
 91
        4
 64
     7
 65
   257
 75
     1
175
     1
 42
1.0
 92
        9
 66
     7
 43
1.0
 76
     1
 77
     6
 78
     2
 67
     7
 79
     5
170
     0
171
     0
290
     0
174
     0
 93
        1
 44
0.0
173
     0
291
     1
 45
0.0
1001
ACAD
1000
AcDbSavedByObjectVersion
1070
     0
  0
VISUALSTYLE
  5
11DA
102
{ACAD_XDICTIONARY
360
16B4
102
}
102
{ACAD_REACTORS
330
11D0
102
}
330
11D0
100
AcDbVisualStyle
  2
Realistic
 70
     8
 71
     2
 72
     2
 73
     0
 90
        2
 40
-0.6
 41
30.0
 62
     5
 63
     7
 74
     0
 91
        0
 64
     7
 65
   257
 75
     1
175
     1
 42
1.0
 92
        8
 66
   257
 43
1.0
 76
     1
 77
     6
 78
     2
 67
     7
 79
     3
170
     0
171
     0
290
     0
174
     0
 93
       13
 44
0.0
173
     0
291
     0
 45
0.0
1001
ACAD
1000
AcDbSavedByObjectVersion
1070
     0
  0
VISUALSTYLE
  5
11E5
102
{ACAD_XDICTIONARY
360
16CA
102
}
102
{ACAD_REACTORS
330
11D0
102
}
330
11D0
100
AcDbVisualStyle
  2
Shaded
 70
    27
 71
     2
 72
     2
 73
     1
 90
        2
 40
-0.6
 41
30.0
 62
     5
 63
     7
 74
     0
 91
        4
 64
     7
 65
   257
 75
     1
175
     1
 42
1.0
 92
        8
 66
   257
 43
1.0
 76
     1
 77
     6
 78
     2
 67
     8
 79
     3
170
     0
171
     0
290
     0
174
     0
 93
        5
 44
0.0
173
     0
291
     0
 45
0.0
1001
ACAD
1000
AcDbSavedByObjectVersion
1070
     0
  0
VISUALSTYLE
  5
11E4
102
{ACAD_XDICTIONARY
360
16C8
102
}
102
{ACAD_REACTORS
330
11D0
102
}
330
11D0
100
AcDbVisualStyle
  2
Shaded with edges
 70
    26
 71
     2
 72
     2
 73
     1
 90
        2
 40
-0.6
 41
30.0
 62
     5
 63
     7
 74
     1
 91
       10
 64
     7
 65
   257
 75
     2
175
     1
 42
1.0
 92
        8
 66
   257
 43
1.0
 76
     1
 77
     6
 78
     2
 67
     7
 79
     3
170
     0
171
     0
290
     0
174
     0
 93
        5
 44
0.0
173
     0
291
     0
 45
0.0
1001
ACAD
1000
AcDbSavedByObjectVersion
1070
     0
  0
VISUALSTYLE
  5
11E1
102
{ACAD_XDICTIONARY
360
16C2
102
}
102
{ACAD_REACTORS
330
11D0
102
}
330
11D0
100
AcDbVisualStyle
  2
Shades of Gray
 70
    23
 71
     2
 72
     2
 73
     3
 90
        0
 40
-0.6
 41
-30.0
 62
     5
 63
     7
 74
     2
 91
        2
 64
     7
 65
     7
 75
     1
175
     1
 42
40.0
 92
        8
 66
     7
 43
1.0
 76
     1
 77
     6
 78
     2
 67
     7
 79
     3
170
     0
171
     0
290
     0
174
     0
 93
        1
 44
0.0
173
     0
291
     0
 45
0.0
1001
ACAD
1000
AcDbSavedByObjectVersion
1070
     0
  0
VISUALSTYLE
  5
11E2
102
{ACAD_XDICTIONARY
360
16C4
102
}
102
{ACAD_REACTORS
330
11D0
102
}
330
11D0
100
AcDbVisualStyle
  2
Sketchy
 70
    24
 71
     1
 72
     2
 73
     2
 90
        0
 40
-0.6
 41
-30.0
 62
     5
 63
     7
 74
     2
 91
        2
 64
     7
 65
     7
 75
     1
175
     1
 42
40.0
 92
       11
 66
     7
 43
1.0
 76
     1
 77
     6
 78
     2
 67
     7
 79
     6
170
     0
171
     0
290
     0
174
     0
 93
        1
 44
0.0
173
     0
291
     0
 45
0.0
1001
ACAD
1000
AcDbSavedByObjectVersion
1070
     0
  0
VISUALSTYLE
  5
11DD
102
{ACAD_XDICTIONARY
360
16BA
102
}
102
{ACAD_REACTORS
330
11D0
102
}
330
11D0
100
AcDbVisualStyle
  2
Thicken
 70
    13
 71
     2
 72
     2
 73
     0
 90
        0
 40
-0.6
 41
-30.0
 62
     5
 63
     7
 74
     1
 91
        4
 64
     7
 65
   257
 75
     1
175
     1
 42
1.0
 92
       12
 66
     7
 43
1.0
 76
     1
 77
     6
 78
     2
 67
     7
 79
     5
170
     0
171
     0
290
     0
174
     0
 93
        1
 44
0.0
173
     0
291
     1
 45
0.0
1001
ACAD
1000
AcDbSavedByObjectVersion
1070
     0
  0
VISUALSTYLE
  5
11D7
102
{ACAD_XDICTIONARY
360
16AE
102
}
102
{ACAD_REACTORS
330
11D0
102
}
330
11D0
100
AcDbVisualStyle
  2
Wireframe
 70
     5
 71
     0
 72
     2
 73
     0
 90
        0
 40
-0.6
 41
-30.0
 62
     5
 63
     7
 74
     1
 91
        4
 64
     7
 65
   257
 75
     1
175
     1
 42
1.0
 92
        0
 66
   257
 43
1.0
 76
     1
 77
     6
 78
     2
 67
     7
 79
     3
170
     0
171
     0
290
     0
174
     0
 93
        1
 44
0.0
173
     0
291
     0
 45
0.0
1001
ACAD
1000
AcDbSavedByObjectVersion
1070
     0
  0
VISUALSTYLE
  5
11E3
102
{ACAD_XDICTIONARY
360
16C6
102
}
102
{ACAD_REACTORS
330
11D0
102
}
330
11D0
100
AcDbVisualStyle
  2
X-Ray
 70
    25
 71
     2
 72
     2
 73
     1
 90
        1
 40
0.5
 41
-30.0
 62
     5
 63
     7
 74
     1
 91
        0
 64
     7
 65
   257
 75
     1
175
     1
 42
1.0
 92
        8
 66
     7
 43
1.0
 76
     1
 77
     6
 78
     2
 67
     7
 79
     3
170
     0
171
     0
290
     0
174
     0
 93
       13
 44
0.0
173
     0
291
     0
 45
0.0
1001
ACAD
1000
AcDbSavedByObjectVersion
1070
     0
  0
DICTIONARYVAR
  5
12C0
102
{ACAD_REACTORS
330
12BB
102
}
330
12BB
100
DictionaryVariables
280
     0
  1
1:1
  0
DICTIONARYVAR
  5
12BD
102
{ACAD_REACTORS
330
12BB
102
}
330
12BB
100
DictionaryVariables
280
     0
  1
STANDARD
  0
DICTIONARYVAR
  5
12BC
102
{ACAD_REACTORS
330
12BB
102
}
330
12BB
100
DictionaryVariables
280
     0
  1
STANDARD
  0
DICTIONARYVAR
  5
12BE
102
{ACAD_REACTORS
330
12BB
102
}
330
12BB
100
DictionaryVariables
280
     0
  1
Metric50
  0
DICTIONARYVAR
  5
12BF
102
{ACAD_REACTORS
330
12BB
102
}
330
12BB
100
DictionaryVariables
280
     0
  1
Metric50
  0
DICTIONARYVAR
  5
12C3
102
{ACAD_REACTORS
330
12BB
102
}
330
12BB
100
DictionaryVariables
280
     0
  1
1
  0
DICTIONARYVAR
  5
12C2
102
{ACAD_REACTORS
330
12BB
102
}
330
12BB
100
DictionaryVariables
280
     0
  1
0
  0
DICTIONARYVAR
  5
12C1
102
{ACAD_REACTORS
330
12BB
102
}
330
12BB
100
DictionaryVariables
280
     0
  1
127
  0
DICTIONARYVAR
  5
1695
102
{ACAD_REACTORS
330
12BB
102
}
330
12BB
100
DictionaryVariables
280
     0
  1
2
  0
XRECORD
  5
1502
102
{ACAD_XDICTIONARY
360
1503
102
}
102
{ACAD_REACTORS
330
1501
102
}
330
1501
100
AcDbXrecord
280
     1
 91
      535
301

290
     0
302
寸法線
330
1152
 90
        8
 62
    51
370
    13
331
8
  1
色_51
440
        0
330
114D
 90
        8
 62
   112
370
    13
331
8
  1
色_112
440
        0
330
1148
 90
        8
 62
   112
370
    13
331
81
  1
色_112
440
        0
330
1143
 90
        8
 62
     1
370
     5
331
8D
  1
色_1
440
        0
330
0
 90
        8
 62
     3
370
     9
331
8
  1
色_3
440
        0
330
AA
 90
        0
 62
     7
370
    -3
331
8
  1
色_7
440
        0
330
11
 90
        8
 62
     7
370
    -3
331
8
  1
色_7
440
        0
330
580
 90
        8
 62
     4
370
     5
331
8
  1
色_4
440
        0
330
0
 90
        8
 62
    31
370
     9
331
8
  1
色_31
440
        0
330
4
 90
        8
 62
     2
370
     9
331
8
  1
色_2
440
        0
330
76
 90
        8
 62
     7
370
    13
331
8
  1
色_7
440
        0
330
91
 90
        8
 62
     7
370
    -3
331
8
  1
色_7
440
        0
  0
ACDBASSOCNETWORK
  5
152B
102
{ACAD_REACTORS
330
152A
102
}
330
152A
100
AcDbAssocAction
 90
        1
 90
        1
330
152D
360
0
 90
        1
 90
        0
 90
        0
100
AcDbAssocNetwork
 90
        0
 90
        2
 90
        2
360
152E
360
15A8
 90
        2
330
152E
330
15A8
  0
XRECORD
  5
16DA
102
{ACAD_REACTORS
330
16D9
102
}
330
16D9
100
AcDbXrecord
280
     1
1070
     0
1070
     1
1070
     1
  0
XRECORD
  5
16DC
102
{ACAD_REACTORS
330
16DB
102
}
330
16DB
100
AcDbXrecord
280
     1
1070
     0
1070
     1
1070
     1
  0
DICTIONARY
  5
16D7
330
1203
100
AcDbDictionary
280
     1
281
     1
  3
ACAD_XREC_ROUNDTRIP
360
16D8
  0
DICTIONARY
  5
169B
330
DCB
100
AcDbDictionary
280
     1
281
     1
  3
ACAD_XREC_ROUNDTRIP
360
169C
  0
DICTIONARY
  5
169D
330
DD1
100
AcDbDictionary
280
     1
281
     1
  3
ACAD_XREC_ROUNDTRIP
360
169E
  0
DICTIONARY
  5
1699
330
DC4
100
AcDbDictionary
280
     1
281
     1
  3
ACAD_XREC_ROUNDTRIP
360
169A
  0
DICTIONARY
  5
11C1
330
11C0
100
AcDbDictionary
280
     1
281
     1
  3
ACAD_XREC_ROUNDTRIP
360
16A0
  3
BUMPTILE
360
11C3
  3
DIFFUSETILE
360
11C2
  3
OPACITYTILE
360
11C6
  3
REFLECTIONTILE
360
11C5
  3
REFRACTIONTILE
360
11C7
  3
SPECULARTILE
360
11C4
  0
DICTIONARY
  5
11B9
330
11B8
100
AcDbDictionary
280
     1
281
     1
  3
ACAD_XREC_ROUNDTRIP
360
169F
  3
BUMPTILE
360
11BB
  3
DIFFUSETILE
360
11BA
  3
OPACITYTILE
360
11BE
  3
REFLECTIONTILE
360
11BD
  3
REFRACTIONTILE
360
11BF
  3
SPECULARTILE
360
11BC
  0
DICTIONARY
  5
11C9
330
11C8
100
AcDbDictionary
280
     1
281
     1
  3
ACAD_XREC_ROUNDTRIP
360
16A1
  3
BUMPTILE
360
11CB
  3
DIFFUSETILE
360
11CA
  3
OPACITYTILE
360
11CE
  3
REFLECTIONTILE
360
11CD
  3
REFRACTIONTILE
360
11CF
  3
SPECULARTILE
360
11CC
  0
DICTIONARY
  5
16D3
330
11FF
100
AcDbDictionary
280
     1
281
     1
  3
ACAD_XREC_ROUNDTRIP
360
16D4
  0
DICTIONARY
  5
16D5
330
1201
100
AcDbDictionary
280
     1
281
     1
  3
ACAD_XREC_ROUNDTRIP
360
16D6
  0
DICTIONARY
  5
1274
330
11EB
100
AcDbDictionary
280
     1
281
     1
  3
ACAD_ROUNDTRIP_2008_TABLESTYLE_CELLSTYLEMAP
360
1696
  3
ACAD_XREC_ROUNDTRIP
360
16D2
  0
DICTIONARY
  5
16AC
330
11D6
100
AcDbDictionary
280
     1
281
     1
  3
ACAD_XREC_ROUNDTRIP
360
16AD
  0
DICTIONARY
  5
16AA
330
11D5
100
AcDbDictionary
280
     1
281
     1
  3
ACAD_XREC_ROUNDTRIP
360
16AB
  0
DICTIONARY
  5
16B8
330
11DC
100
AcDbDictionary
280
     1
281
     1
  3
ACAD_XREC_ROUNDTRIP
360
16B9
  0
DICTIONARY
  5
16C0
330
11E0
100
AcDbDictionary
280
     1
281
     1
  3
ACAD_XREC_ROUNDTRIP
360
16C1
  0
DICTIONARY
  5
16B2
330
11D9
100
AcDbDictionary
280
     1
281
     1
  3
ACAD_XREC_ROUNDTRIP
360
16B3
  0
DICTIONARY
  5
16B6
330
11DB
100
AcDbDictionary
280
     1
281
     1
  3
ACAD_XREC_ROUNDTRIP
360
16B7
  0
DICTIONARY
  5
16D0
330
11E8
100
AcDbDictionary
280
     1
281
     1
  3
ACAD_XREC_ROUNDTRIP
360
16D1
  0
DICTIONARY
  5
16BE
330
11DF
100
AcDbDictionary
280
     1
281
     1
  3
ACAD_XREC_ROUNDTRIP
360
16BF
  0
DICTIONARY
  5
16A2
330
11D1
100
AcDbDictionary
280
     1
281
     1
  3
ACAD_XREC_ROUNDTRIP
360
16A3
  0
DICTIONARY
  5
16A4
330
11D2
100
AcDbDictionary
280
     1
281
     1
  3
ACAD_XREC_ROUNDTRIP
360
16A5
  0
DICTIONARY
  5
16A6
330
11D3
100
AcDbDictionary
280
     1
281
     1
  3
ACAD_XREC_ROUNDTRIP
360
16A7
  0
DICTIONARY
  5
16A8
330
11D4
100
AcDbDictionary
280
     1
281
     1
  3
ACAD_XREC_ROUNDTRIP
360
16A9
  0
DICTIONARY
  5
16B0
330
11D8
100
AcDbDictionary
280
     1
281
     1
  3
ACAD_XREC_ROUNDTRIP
360
16B1
  0
DICTIONARY
  5
16CC
330
11E6
100
AcDbDictionary
280
     1
281
     1
  3
ACAD_XREC_ROUNDTRIP
360
16CD
  0
DICTIONARY
  5
16BC
330
11DE
100
AcDbDictionary
280
     1
281
     1
  3
ACAD_XREC_ROUNDTRIP
360
16BD
  0
DICTIONARY
  5
16CE
330
11E7
100
AcDbDictionary
280
     1
281
     1
  3
ACAD_XREC_ROUNDTRIP
360
16CF
  0
DICTIONARY
  5
16B4
330
11DA
100
AcDbDictionary
280
     1
281
     1
  3
ACAD_XREC_ROUNDTRIP
360
16B5
  0
DICTIONARY
  5
16CA
330
11E5
100
AcDbDictionary
280
     1
281
     1
  3
ACAD_XREC_ROUNDTRIP
360
16CB
  0
DICTIONARY
  5
16C8
330
11E4
100
AcDbDictionary
280
     1
281
     1
  3
ACAD_XREC_ROUNDTRIP
360
16C9
  0
DICTIONARY
  5
16C2
330
11E1
100
AcDbDictionary
280
     1
281
     1
  3
ACAD_XREC_ROUNDTRIP
360
16C3
  0
DICTIONARY
  5
16C4
330
11E2
100
AcDbDictionary
280
     1
281
     1
  3
ACAD_XREC_ROUNDTRIP
360
16C5
  0
DICTIONARY
  5
16BA
330
11DD
100
AcDbDictionary
280
     1
281
     1
  3
ACAD_XREC_ROUNDTRIP
360
16BB
  0
DICTIONARY
  5
16AE
330
11D7
100
AcDbDictionary
280
     1
281
     1
  3
ACAD_XREC_ROUNDTRIP
360
16AF
  0
DICTIONARY
  5
16C6
330
11E3
100
AcDbDictionary
280
     1
281
     1
  3
ACAD_XREC_ROUNDTRIP
360
16C7
  0
DICTIONARY
  5
1503
330
1502
100
AcDbDictionary
280
     1
281
     1
  3
AcadLayerStateAnnoScale
360
1504
  0
ACDBASSOCACTION
  5
152E
330
152B
100
AcDbAssocAction
 90
        1
 90
        1
330
152B
360
152F
 90
        1
 90
        3
 90
        3
360
1532
360
1533
360
1534
  0
ACDBASSOCACTION
  5
15A8
330
152B
100
AcDbAssocAction
 90
        1
 90
        1
330
152B
360
15A9
 90
        2
 90
        3
 90
        3
360
15AC
360
15AD
360
15AE
  0
XRECORD
  5
16D8
102
{ACAD_REACTORS
330
16D7
102
}
330
16D7
100
AcDbXrecord
280
     1
102
DISPLAYNAME
  1
Metric50
102
FLAGS
 90
        0
  0
XRECORD
  5
169C
102
{ACAD_REACTORS
330
169B
102
}
330
169B
100
AcDbXrecord
280
     1
102
SHADEPLOT
 70
     0
102
SHADEPLOTRESLEVEL
 70
     2
102
SHADEPLOTCUSTOMDPI
 70
   300
  0
XRECORD
  5
169E
102
{ACAD_REACTORS
330
169D
102
}
330
169D
100
AcDbXrecord
280
     1
102
SHADEPLOT
 70
     0
102
SHADEPLOTRESLEVEL
 70
     2
102
SHADEPLOTCUSTOMDPI
 70
   300
  0
XRECORD
  5
169A
102
{ACAD_REACTORS
330
1699
102
}
330
1699
100
AcDbXrecord
280
     1
102
SHADEPLOT
 70
     0
102
SHADEPLOTRESLEVEL
 70
     2
102
SHADEPLOTCUSTOMDPI
 70
   300
  0
XRECORD
  5
16A0
102
{ACAD_REACTORS
330
11C1
102
}
330
11C1
100
AcDbXrecord
280
     1
102
MATERIAL
148
0.0
149
0.0
149
0.0
 93
        0
 94
      127
282
     0
 72
     0
 77
     0
171
     0
175
     0
179
     0
273
     0
  0
XRECORD
  5
11C3
102
{ACAD_REACTORS
330
11C1
102
}
330
11C1
100
AcDbXrecord
280
     1
270
     1
271
     1
  0
XRECORD
  5
11C2
102
{ACAD_REACTORS
330
11C1
102
}
330
11C1
100
AcDbXrecord
280
     1
270
     1
271
     1
  0
XRECORD
  5
11C6
102
{ACAD_REACTORS
330
11C1
102
}
330
11C1
100
AcDbXrecord
280
     1
270
     1
271
     1
  0
XRECORD
  5
11C5
102
{ACAD_REACTORS
330
11C1
102
}
330
11C1
100
AcDbXrecord
280
     1
270
     1
271
     1
  0
XRECORD
  5
11C7
102
{ACAD_REACTORS
330
11C1
102
}
330
11C1
100
AcDbXrecord
280
     1
270
     1
271
     1
  0
XRECORD
  5
11C4
102
{ACAD_REACTORS
330
11C1
102
}
330
11C1
100
AcDbXrecord
280
     1
270
     1
271
     1
  0
XRECORD
  5
169F
102
{ACAD_REACTORS
330
11B9
102
}
330
11B9
100
AcDbXrecord
280
     1
102
MATERIAL
148
0.0
149
0.0
149
0.0
 93
        0
 94
      127
282
     0
 72
     0
 77
     0
171
     0
175
     0
179
     0
273
     0
  0
XRECORD
  5
11BB
102
{ACAD_REACTORS
330
11B9
102
}
330
11B9
100
AcDbXrecord
280
     1
270
     1
271
     1
  0
XRECORD
  5
11BA
102
{ACAD_REACTORS
330
11B9
102
}
330
11B9
100
AcDbXrecord
280
     1
270
     1
271
     1
  0
XRECORD
  5
11BE
102
{ACAD_REACTORS
330
11B9
102
}
330
11B9
100
AcDbXrecord
280
     1
270
     1
271
     1
  0
XRECORD
  5
11BD
102
{ACAD_REACTORS
330
11B9
102
}
330
11B9
100
AcDbXrecord
280
     1
270
     1
271
     1
  0
XRECORD
  5
11BF
102
{ACAD_REACTORS
330
11B9
102
}
330
11B9
100
AcDbXrecord
280
     1
270
     1
271
     1
  0
XRECORD
  5
11BC
102
{ACAD_REACTORS
330
11B9
102
}
330
11B9
100
AcDbXrecord
280
     1
270
     1
271
     1
  0
XRECORD
  5
16A1
102
{ACAD_REACTORS
330
11C9
102
}
330
11C9
100
AcDbXrecord
280
     1
102
MATERIAL
148
0.0
149
0.0
149
0.0
 93
        0
 94
      127
282
     0
 72
     0
 77
     0
171
     0
175
     0
179
     0
273
     0
  0
XRECORD
  5
11CB
102
{ACAD_REACTORS
330
11C9
102
}
330
11C9
100
AcDbXrecord
280
     1
270
     1
271
     1
  0
XRECORD
  5
11CA
102
{ACAD_REACTORS
330
11C9
102
}
330
11C9
100
AcDbXrecord
280
     1
270
     1
271
     1
  0
XRECORD
  5
11CE
102
{ACAD_REACTORS
330
11C9
102
}
330
11C9
100
AcDbXrecord
280
     1
270
     1
271
     1
  0
XRECORD
  5
11CD
102
{ACAD_REACTORS
330
11C9
102
}
330
11C9
100
AcDbXrecord
280
     1
270
     1
271
     1
  0
XRECORD
  5
11CF
102
{ACAD_REACTORS
330
11C9
102
}
330
11C9
100
AcDbXrecord
280
     1
270
     1
271
     1
  0
XRECORD
  5
11CC
102
{ACAD_REACTORS
330
11C9
102
}
330
11C9
100
AcDbXrecord
280
     1
270
     1
271
     1
  0
XRECORD
  5
16D4
102
{ACAD_REACTORS
330
16D3
102
}
330
16D3
100
AcDbXrecord
280
     1
102
ACAD_ROUNDTRIP_2012_MLEADER_STYLE
298
     1
  0
XRECORD
  5
16D6
102
{ACAD_REACTORS
330
16D5
102
}
330
16D5
100
AcDbXrecord
280
     1
102
DISPLAYNAME
  1
Metric50
102
FLAGS
 90
        0
  0
CELLSTYLEMAP
  5
1696
102
{ACAD_REACTORS
330
1274
102
}
330
1274
100
AcDbCellStyleMap
 90
        3
300
CELLSTYLE
  1
TABLEFORMAT_BEGIN
 90
        5
170
     1
 91
        0
 92
    32768
 62
   257
 93
        1
300
CONTENTFORMAT
  1
CONTENTFORMAT_BEGIN
 90
        0
 91
        0
 92
      512
 93
        0
300

 40
0.0
140
1.0
 94
        5
 62
     0
340
9
144
6.0
309
CONTENTFORMAT_END
171
     1
301
MARGIN
  1
CELLMARGIN_BEGIN
 40
1.5
 40
1.5
 40
1.5
 40
1.5
 40
4.5
 40
4.5
309
CELLMARGIN_END
 94
        6
 95
        1
302
GRIDFORMAT
  1
GRIDFORMAT_BEGIN
 90
        0
 91
        1
 62
     0
 92
       -2
340
0
 93
        0
 40
1.125
309
GRIDFORMAT_END
 95
        2
302
GRIDFORMAT
  1
GRIDFORMAT_BEGIN
 90
        0
 91
        1
 62
     0
 92
       -2
340
0
 93
        0
 40
1.125
309
GRIDFORMAT_END
 95
        4
302
GRIDFORMAT
  1
GRIDFORMAT_BEGIN
 90
        0
 91
        1
 62
     0
 92
       -2
340
0
 93
        0
 40
1.125
309
GRIDFORMAT_END
 95
        8
302
GRIDFORMAT
  1
GRIDFORMAT_BEGIN
 90
        0
 91
        1
 62
     0
 92
       -2
340
0
 93
        0
 40
1.125
309
GRIDFORMAT_END
 95
       16
302
GRIDFORMAT
  1
GRIDFORMAT_BEGIN
 90
        0
 91
        1
 62
     0
 92
       -2
340
0
 93
        0
 40
1.125
309
GRIDFORMAT_END
 95
       32
302
GRIDFORMAT
  1
GRIDFORMAT_BEGIN
 90
        0
 91
        1
 62
     0
 92
       -2
340
0
 93
        0
 40
1.125
309
GRIDFORMAT_END
309
TABLEFORMAT_END
  1
CELLSTYLE_BEGIN
 90
        1
 91
        1
300
_TITLE
309
CELLSTYLE_END
300
CELLSTYLE
  1
TABLEFORMAT_BEGIN
 90
        5
170
     1
 91
        0
 92
        0
 62
   257
 93
        1
300
CONTENTFORMAT
  1
CONTENTFORMAT_BEGIN
 90
        0
 91
        0
 92
      512
 93
        0
300

 40
0.0
140
1.0
 94
        5
 62
     0
340
9
144
4.5
309
CONTENTFORMAT_END
171
     1
301
MARGIN
  1
CELLMARGIN_BEGIN
 40
1.5
 40
1.5
 40
1.5
 40
1.5
 40
4.5
 40
4.5
309
CELLMARGIN_END
 94
        6
 95
        1
302
GRIDFORMAT
  1
GRIDFORMAT_BEGIN
 90
        0
 91
        1
 62
     0
 92
       -2
340
0
 93
        0
 40
1.125
309
GRIDFORMAT_END
 95
        2
302
GRIDFORMAT
  1
GRIDFORMAT_BEGIN
 90
        0
 91
        1
 62
     0
 92
       -2
340
0
 93
        0
 40
1.125
309
GRIDFORMAT_END
 95
        4
302
GRIDFORMAT
  1
GRIDFORMAT_BEGIN
 90
        0
 91
        1
 62
     0
 92
       -2
340
0
 93
        0
 40
1.125
309
GRIDFORMAT_END
 95
        8
302
GRIDFORMAT
  1
GRIDFORMAT_BEGIN
 90
        0
 91
        1
 62
     0
 92
       -2
340
0
 93
        0
 40
1.125
309
GRIDFORMAT_END
 95
       16
302
GRIDFORMAT
  1
GRIDFORMAT_BEGIN
 90
        0
 91
        1
 62
     0
 92
       -2
340
0
 93
        0
 40
1.125
309
GRIDFORMAT_END
 95
       32
302
GRIDFORMAT
  1
GRIDFORMAT_BEGIN
 90
        0
 91
        1
 62
     0
 92
       -2
340
0
 93
        0
 40
1.125
309
GRIDFORMAT_END
309
TABLEFORMAT_END
  1
CELLSTYLE_BEGIN
 90
        2
 91
        1
300
_HEADER
309
CELLSTYLE_END
300
CELLSTYLE
  1
TABLEFORMAT_BEGIN
 90
        5
170
     1
 91
        0
 92
        0
 62
   257
 93
        1
300
CONTENTFORMAT
  1
CONTENTFORMAT_BEGIN
 90
        0
 91
        0
 92
      512
 93
        0
300

 40
0.0
140
1.0
 94
        2
 62
     0
340
9
144
4.5
309
CONTENTFORMAT_END
171
     1
301
MARGIN
  1
CELLMARGIN_BEGIN
 40
1.5
 40
1.5
 40
1.5
 40
1.5
 40
4.5
 40
4.5
309
CELLMARGIN_END
 94
        6
 95
        1
302
GRIDFORMAT
  1
GRIDFORMAT_BEGIN
 90
        0
 91
        1
 62
     0
 92
       -2
340
0
 93
        0
 40
1.125
309
GRIDFORMAT_END
 95
        2
302
GRIDFORMAT
  1
GRIDFORMAT_BEGIN
 90
        0
 91
        1
 62
     0
 92
       -2
340
0
 93
        0
 40
1.125
309
GRIDFORMAT_END
 95
        4
302
GRIDFORMAT
  1
GRIDFORMAT_BEGIN
 90
        0
 91
        1
 62
     0
 92
       -2
340
0
 93
        0
 40
1.125
309
GRIDFORMAT_END
 95
        8
302
GRIDFORMAT
  1
GRIDFORMAT_BEGIN
 90
        0
 91
        1
 62
     0
 92
       -2
340
0
 93
        0
 40
1.125
309
GRIDFORMAT_END
 95
       16
302
GRIDFORMAT
  1
GRIDFORMAT_BEGIN
 90
        0
 91
        1
 62
     0
 92
       -2
340
0
 93
        0
 40
1.125
309
GRIDFORMAT_END
 95
       32
302
GRIDFORMAT
  1
GRIDFORMAT_BEGIN
 90
        0
 91
        1
 62
     0
 92
       -2
340
0
 93
        0
 40
1.125
309
GRIDFORMAT_END
309
TABLEFORMAT_END
  1
CELLSTYLE_BEGIN
 90
        3
 91
        2
300
_DATA
309
CELLSTYLE_END
  0
XRECORD
  5
16D2
102
{ACAD_REACTORS
330
1274
102
}
330
1274
100
AcDbXrecord
280
     1
102
ACAD_ROUNDTRIP_PRE2007_TABLESTYLE
 90
      512
 91
        0
  1

 92
      512
 93
        0
  2

 94
      512
 95
        0
  3

  0
XRECORD
  5
16AD
102
{ACAD_REACTORS
330
16AC
102
}
330
16AC
100
AcDbXrecord
280
     1
102
RTVSPost2010Prop28
280
     1
102
RTVSPost2010PropOp28
 70
     1
102
RTVSPost2010Prop29
280
     1
102
RTVSPost2010PropOp29
 70
     1
102
RTVSPost2010Prop30
280
     0
102
RTVSPost2010PropOp30
 70
     1
102
RTVSPost2010Prop31
280
     0
102
RTVSPost2010PropOp31
 70
     1
102
RTVSPost2010Prop32
280
     0
102
RTVSPost2010PropOp32
 70
     1
102
RTVSPost2010Prop33
280
     0
102
RTVSPost2010PropOp33
 70
     1
102
RTVSPost2010Prop34
280
     0
102
RTVSPost2010PropOp34
 70
     1
102
RTVSPost2010Prop35
280
     0
102
RTVSPost2010PropOp35
 70
     1
102
RTVSPost2010Prop36
280
     0
102
RTVSPost2010PropOp36
 70
     1
102
RTVSPost2010Prop37
 90
       50
102
RTVSPost2010PropOp37
 70
     1
102
RTVSPost2010Prop38
140
0.0
102
RTVSPost2010PropOp38
 70
     1
102
RTVSPost2010Prop39
140
1.0
102
RTVSPost2010PropOp39
 70
     1
102
RTVSPost2010Prop40
 90
        0
102
RTVSPost2010PropOp40
 70
     1
102
RTVSPost2010Prop41ColorIndex
 90
       18
102
RTVSPost2010Prop41ColorRGB
 90
        0
102
RTVSPost2010PropOp41
 70
     1
102
RTVSPost2010Prop42
 90
       50
102
RTVSPost2010PropOp42
 70
     1
102
RTVSPost2010Prop43
 90
        3
102
RTVSPost2010PropOp43
 70
     1
102
RTVSPost2010Prop44ColorIndex
 90
        5
102
RTVSPost2010Prop44ColorRGB
 90
      255
102
RTVSPost2010PropOp44
 70
     1
102
RTVSPost2010Prop45
280
     0
102
RTVSPost2010PropOp45
 70
     1
102
RTVSPost2010Prop46
 90
       50
102
RTVSPost2010PropOp46
 70
     1
102
RTVSPost2010Prop47
 90
       50
102
RTVSPost2010PropOp47
 70
     1
102
RTVSPost2010Prop48
 90
       50
102
RTVSPost2010PropOp48
 70
     1
102
RTVSPost2010Prop49
280
     0
102
RTVSPost2010PropOp49
 70
     1
102
RTVSPost2010Prop50
 90
       50
102
RTVSPost2010PropOp50
 70
     1
102
RTVSPost2010Prop51ColorIndex
 90
      256
102
RTVSPost2010Prop51ColorRGB
 90
-16777216
102
RTVSPost2010PropOp51
 70
     0
102
RTVSPost2010Prop52
140
1.0
102
RTVSPost2010PropOp52
 70
     0
102
RTVSPost2010Prop53
 90
        2
102
RTVSPost2010PropOp53
 70
     1
102
RTVSPost2010Prop54
  1
strokes_ogs.tif
102
RTVSPost2010PropOp54
 70
     1
102
RTVSPost2010Prop55
280
     0
102
RTVSPost2010PropOp55
 70
     1
102
RTVSPost2010Prop56
140
1.0
102
RTVSPost2010PropOp56
 70
     1
102
RTVSPost2010Prop57
140
1.0
102
RTVSPost2010PropOp57
 70
     1
102
RTVSPropertyOp0
 70
     1
102
RTVSPropertyOp1
 70
     1
102
RTVSPropertyOp2
 70
     1
102
RTVSPropertyOp3
 70
     1
102
RTVSPropertyOp4
 70
     1
102
RTVSPropertyOp5
 70
     1
102
RTVSPropertyOp6
 70
     1
102
RTVSPropertyOp7
 70
     1
102
RTVSPropertyOp8
 70
     1
102
RTVSPropertyOp9
 70
     1
102
RTVSPropertyOp10
 70
     1
102
RTVSPropertyOp11
 70
     1
102
RTVSPropertyOp12
 70
     1
102
RTVSPropertyOp13
 70
     1
102
RTVSPropertyOp14
 70
     1
102
RTVSPropertyOp15
 70
     1
102
RTVSPropertyOp16
 70
     1
102
RTVSPropertyOp17
 70
     1
102
RTVSPropertyOp18
 70
     1
102
RTVSPropertyOp19
 70
     1
102
RTVSPropertyOp20
 70
     1
102
RTVSPropertyOp21
 70
     1
102
RTVSPropertyOp22
 70
     1
102
RTVSPropertyOp23
 70
     1
102
RTVSPropertyOp24
 70
     1
102
RTVSPropertyOp25
 70
     1
102
RTVSPropertyOp26
 70
     1
102
RTVSPropertyOp27
 70
     1
102
RTVSPropertyOp28
 70
     1
102
RTVSPropertyOp29
 70
     1
102
RTVSPropertyOp30
 70
     1
102
RTVSPropertyOp31
 70
     1
102
RTVSPropertyOp32
 70
     1
102
RTVSPropertyOp33
 70
     1
102
RTVSPropertyOp34
 70
     1
102
RTVSPropertyOp35
 70
     1
102
RTVSPropertyOp36
 70
     1
102
RTVSPropertyOp37
 70
     1
102
RTVSPropertyOp38
 70
     1
102
RTVSPropertyOp39
 70
     1
102
RTVSPropertyOp40
 70
     1
102
RTVSPropertyOp41
 70
     1
102
RTVSPropertyOp42
 70
     1
102
RTVSPropertyOp43
 70
     1
102
RTVSPropertyOp44
 70
     1
102
RTVSPropertyOp45
 70
     1
102
RTVSPropertyOp46
 70
     1
102
RTVSPropertyOp47
 70
     1
102
RTVSPropertyOp48
 70
     1
102
RTVSPropertyOp49
 70
     1
102
RTVSPropertyOp50
 70
     1
102
RTVSPropertyOp51
 70
     0
102
RTVSPropertyOp52
 70
     0
102
RTVSPropertyOp53
 70
     1
102
RTVSPropertyOp54
 70
     1
102
RTVSPropertyOp55
 70
     1
102
RTVSPropertyOp56
 70
     1
102
RTVSPropertyOp57
 70
     1
102
RTVSPropertyOp58
 70
     1
102
RTVSPropertyOp59
 70
     1
102
RTVSPropertyOp60
 70
     1
102
RTVSPropertyOp61
 70
     1
102
RTVSPropertyOp62
 70
     1
  0
XRECORD
  5
16AB
102
{ACAD_REACTORS
330
16AA
102
}
330
16AA
100
AcDbXrecord
280
     1
102
RTVSPost2010Prop28
280
     0
102
RTVSPost2010PropOp28
 70
     1
102
RTVSPost2010Prop29
280
     1
102
RTVSPost2010PropOp29
 70
     1
102
RTVSPost2010Prop30
280
     1
102
RTVSPost2010PropOp30
 70
     1
102
RTVSPost2010Prop31
280
     0
102
RTVSPost2010PropOp31
 70
     1
102
RTVSPost2010Prop32
280
     0
102
RTVSPost2010PropOp32
 70
     1
102
RTVSPost2010Prop33
280
     0
102
RTVSPost2010PropOp33
 70
     1
102
RTVSPost2010Prop34
280
     0
102
RTVSPost2010PropOp34
 70
     1
102
RTVSPost2010Prop35
280
     0
102
RTVSPost2010PropOp35
 70
     1
102
RTVSPost2010Prop36
280
     0
102
RTVSPost2010PropOp36
 70
     1
102
RTVSPost2010Prop37
 90
       50
102
RTVSPost2010PropOp37
 70
     1
102
RTVSPost2010Prop38
140
0.0
102
RTVSPost2010PropOp38
 70
     1
102
RTVSPost2010Prop39
140
1.0
102
RTVSPost2010PropOp39
 70
     1
102
RTVSPost2010Prop40
 90
        0
102
RTVSPost2010PropOp40
 70
     1
102
RTVSPost2010Prop41ColorIndex
 90
       18
102
RTVSPost2010Prop41ColorRGB
 90
        0
102
RTVSPost2010PropOp41
 70
     1
102
RTVSPost2010Prop42
 90
       50
102
RTVSPost2010PropOp42
 70
     1
102
RTVSPost2010Prop43
 90
        3
102
RTVSPost2010PropOp43
 70
     1
102
RTVSPost2010Prop44ColorIndex
 90
        5
102
RTVSPost2010Prop44ColorRGB
 90
      255
102
RTVSPost2010PropOp44
 70
     1
102
RTVSPost2010Prop45
280
     0
102
RTVSPost2010PropOp45
 70
     1
102
RTVSPost2010Prop46
 90
       50
102
RTVSPost2010PropOp46
 70
     1
102
RTVSPost2010Prop47
 90
       50
102
RTVSPost2010PropOp47
 70
     1
102
RTVSPost2010Prop48
 90
       50
102
RTVSPost2010PropOp48
 70
     1
102
RTVSPost2010Prop49
280
     0
102
RTVSPost2010PropOp49
 70
     1
102
RTVSPost2010Prop50
 90
       50
102
RTVSPost2010PropOp50
 70
     1
102
RTVSPost2010Prop51ColorIndex
 90
      256
102
RTVSPost2010Prop51ColorRGB
 90
-16777216
102
RTVSPost2010PropOp51
 70
     0
102
RTVSPost2010Prop52
140
1.0
102
RTVSPost2010PropOp52
 70
     0
102
RTVSPost2010Prop53
 90
        2
102
RTVSPost2010PropOp53
 70
     1
102
RTVSPost2010Prop54
  1
strokes_ogs.tif
102
RTVSPost2010PropOp54
 70
     1
102
RTVSPost2010Prop55
280
     0
102
RTVSPost2010PropOp55
 70
     1
102
RTVSPost2010Prop56
140
1.0
102
RTVSPost2010PropOp56
 70
     1
102
RTVSPost2010Prop57
140
1.0
102
RTVSPost2010PropOp57
 70
     1
102
RTVSPropertyOp0
 70
     1
102
RTVSPropertyOp1
 70
     1
102
RTVSPropertyOp2
 70
     1
102
RTVSPropertyOp3
 70
     1
102
RTVSPropertyOp4
 70
     1
102
RTVSPropertyOp5
 70
     1
102
RTVSPropertyOp6
 70
     1
102
RTVSPropertyOp7
 70
     1
102
RTVSPropertyOp8
 70
     1
102
RTVSPropertyOp9
 70
     1
102
RTVSPropertyOp10
 70
     1
102
RTVSPropertyOp11
 70
     1
102
RTVSPropertyOp12
 70
     1
102
RTVSPropertyOp13
 70
     1
102
RTVSPropertyOp14
 70
     1
102
RTVSPropertyOp15
 70
     1
102
RTVSPropertyOp16
 70
     1
102
RTVSPropertyOp17
 70
     1
102
RTVSPropertyOp18
 70
     1
102
RTVSPropertyOp19
 70
     1
102
RTVSPropertyOp20
 70
     1
102
RTVSPropertyOp21
 70
     1
102
RTVSPropertyOp22
 70
     1
102
RTVSPropertyOp23
 70
     1
102
RTVSPropertyOp24
 70
     1
102
RTVSPropertyOp25
 70
     1
102
RTVSPropertyOp26
 70
     1
102
RTVSPropertyOp27
 70
     1
102
RTVSPropertyOp28
 70
     1
102
RTVSPropertyOp29
 70
     1
102
RTVSPropertyOp30
 70
     1
102
RTVSPropertyOp31
 70
     1
102
RTVSPropertyOp32
 70
     1
102
RTVSPropertyOp33
 70
     1
102
RTVSPropertyOp34
 70
     1
102
RTVSPropertyOp35
 70
     1
102
RTVSPropertyOp36
 70
     1
102
RTVSPropertyOp37
 70
     1
102
RTVSPropertyOp38
 70
     1
102
RTVSPropertyOp39
 70
     1
102
RTVSPropertyOp40
 70
     1
102
RTVSPropertyOp41
 70
     1
102
RTVSPropertyOp42
 70
     1
102
RTVSPropertyOp43
 70
     1
102
RTVSPropertyOp44
 70
     1
102
RTVSPropertyOp45
 70
     1
102
RTVSPropertyOp46
 70
     1
102
RTVSPropertyOp47
 70
     1
102
RTVSPropertyOp48
 70
     1
102
RTVSPropertyOp49
 70
     1
102
RTVSPropertyOp50
 70
     1
102
RTVSPropertyOp51
 70
     0
102
RTVSPropertyOp52
 70
     0
102
RTVSPropertyOp53
 70
     1
102
RTVSPropertyOp54
 70
     1
102
RTVSPropertyOp55
 70
     1
102
RTVSPropertyOp56
 70
     1
102
RTVSPropertyOp57
 70
     1
102
RTVSPropertyOp58
 70
     1
102
RTVSPropertyOp59
 70
     1
102
RTVSPropertyOp60
 70
     1
102
RTVSPropertyOp61
 70
     1
102
RTVSPropertyOp62
 70
     1
  0
XRECORD
  5
16B9
102
{ACAD_REACTORS
330
16B8
102
}
330
16B8
100
AcDbXrecord
280
     1
102
RTVSPost2010Prop28
280
     0
102
RTVSPost2010PropOp28
 70
     1
102
RTVSPost2010Prop29
280
     1
102
RTVSPost2010PropOp29
 70
     1
102
RTVSPost2010Prop30
280
     1
102
RTVSPost2010PropOp30
 70
     1
102
RTVSPost2010Prop31
280
     0
102
RTVSPost2010PropOp31
 70
     1
102
RTVSPost2010Prop32
280
     0
102
RTVSPost2010PropOp32
 70
     1
102
RTVSPost2010Prop33
280
     0
102
RTVSPost2010PropOp33
 70
     1
102
RTVSPost2010Prop34
280
     0
102
RTVSPost2010PropOp34
 70
     1
102
RTVSPost2010Prop35
280
     0
102
RTVSPost2010PropOp35
 70
     1
102
RTVSPost2010Prop36
280
     0
102
RTVSPost2010PropOp36
 70
     1
102
RTVSPost2010Prop37
 90
       50
102
RTVSPost2010PropOp37
 70
     1
102
RTVSPost2010Prop38
140
0.0
102
RTVSPost2010PropOp38
 70
     1
102
RTVSPost2010Prop39
140
1.0
102
RTVSPost2010PropOp39
 70
     1
102
RTVSPost2010Prop40
 90
        0
102
RTVSPost2010PropOp40
 70
     1
102
RTVSPost2010Prop41ColorIndex
 90
       18
102
RTVSPost2010Prop41ColorRGB
 90
        0
102
RTVSPost2010PropOp41
 70
     1
102
RTVSPost2010Prop42
 90
       50
102
RTVSPost2010PropOp42
 70
     1
102
RTVSPost2010Prop43
 90
        3
102
RTVSPost2010PropOp43
 70
     1
102
RTVSPost2010Prop44ColorIndex
 90
        5
102
RTVSPost2010Prop44ColorRGB
 90
      255
102
RTVSPost2010PropOp44
 70
     1
102
RTVSPost2010Prop45
280
     0
102
RTVSPost2010PropOp45
 70
     1
102
RTVSPost2010Prop46
 90
       50
102
RTVSPost2010PropOp46
 70
     1
102
RTVSPost2010Prop47
 90
       50
102
RTVSPost2010PropOp47
 70
     1
102
RTVSPost2010Prop48
 90
       50
102
RTVSPost2010PropOp48
 70
     1
102
RTVSPost2010Prop49
280
     0
102
RTVSPost2010PropOp49
 70
     1
102
RTVSPost2010Prop50
 90
       50
102
RTVSPost2010PropOp50
 70
     1
102
RTVSPost2010Prop51ColorIndex
 90
      256
102
RTVSPost2010Prop51ColorRGB
 90
-16777216
102
RTVSPost2010PropOp51
 70
     0
102
RTVSPost2010Prop52
140
1.0
102
RTVSPost2010PropOp52
 70
     0
102
RTVSPost2010Prop53
 90
        2
102
RTVSPost2010PropOp53
 70
     1
102
RTVSPost2010Prop54
  1
strokes_ogs.tif
102
RTVSPost2010PropOp54
 70
     1
102
RTVSPost2010Prop55
280
     0
102
RTVSPost2010PropOp55
 70
     1
102
RTVSPost2010Prop56
140
1.0
102
RTVSPost2010PropOp56
 70
     1
102
RTVSPost2010Prop57
140
1.0
102
RTVSPost2010PropOp57
 70
     1
102
RTVSPropertyOp0
 70
     1
102
RTVSPropertyOp1
 70
     1
102
RTVSPropertyOp2
 70
     1
102
RTVSPropertyOp3
 70
     1
102
RTVSPropertyOp4
 70
     1
102
RTVSPropertyOp5
 70
     1
102
RTVSPropertyOp6
 70
     1
102
RTVSPropertyOp7
 70
     1
102
RTVSPropertyOp8
 70
     1
102
RTVSPropertyOp9
 70
     1
102
RTVSPropertyOp10
 70
     1
102
RTVSPropertyOp11
 70
     1
102
RTVSPropertyOp12
 70
     1
102
RTVSPropertyOp13
 70
     1
102
RTVSPropertyOp14
 70
     1
102
RTVSPropertyOp15
 70
     1
102
RTVSPropertyOp16
 70
     1
102
RTVSPropertyOp17
 70
     1
102
RTVSPropertyOp18
 70
     1
102
RTVSPropertyOp19
 70
     1
102
RTVSPropertyOp20
 70
     1
102
RTVSPropertyOp21
 70
     1
102
RTVSPropertyOp22
 70
     1
102
RTVSPropertyOp23
 70
     1
102
RTVSPropertyOp24
 70
     1
102
RTVSPropertyOp25
 70
     1
102
RTVSPropertyOp26
 70
     1
102
RTVSPropertyOp27
 70
     1
102
RTVSPropertyOp28
 70
     1
102
RTVSPropertyOp29
 70
     1
102
RTVSPropertyOp30
 70
     1
102
RTVSPropertyOp31
 70
     1
102
RTVSPropertyOp32
 70
     1
102
RTVSPropertyOp33
 70
     1
102
RTVSPropertyOp34
 70
     1
102
RTVSPropertyOp35
 70
     1
102
RTVSPropertyOp36
 70
     1
102
RTVSPropertyOp37
 70
     1
102
RTVSPropertyOp38
 70
     1
102
RTVSPropertyOp39
 70
     1
102
RTVSPropertyOp40
 70
     1
102
RTVSPropertyOp41
 70
     1
102
RTVSPropertyOp42
 70
     1
102
RTVSPropertyOp43
 70
     1
102
RTVSPropertyOp44
 70
     1
102
RTVSPropertyOp45
 70
     1
102
RTVSPropertyOp46
 70
     1
102
RTVSPropertyOp47
 70
     1
102
RTVSPropertyOp48
 70
     1
102
RTVSPropertyOp49
 70
     1
102
RTVSPropertyOp50
 70
     1
102
RTVSPropertyOp51
 70
     0
102
RTVSPropertyOp52
 70
     0
102
RTVSPropertyOp53
 70
     1
102
RTVSPropertyOp54
 70
     1
102
RTVSPropertyOp55
 70
     1
102
RTVSPropertyOp56
 70
     1
102
RTVSPropertyOp57
 70
     1
102
RTVSPropertyOp58
 70
     1
102
RTVSPropertyOp59
 70
     1
102
RTVSPropertyOp60
 70
     1
102
RTVSPropertyOp61
 70
     1
102
RTVSPropertyOp62
 70
     1
  0
XRECORD
  5
16C1
102
{ACAD_REACTORS
330
16C0
102
}
330
16C0
100
AcDbXrecord
280
     1
102
RTVSPost2010Prop28
280
     0
102
RTVSPost2010PropOp28
 70
     1
102
RTVSPost2010Prop29
280
     1
102
RTVSPost2010PropOp29
 70
     1
102
RTVSPost2010Prop30
280
     1
102
RTVSPost2010PropOp30
 70
     1
102
RTVSPost2010Prop31
280
     0
102
RTVSPost2010PropOp31
 70
     1
102
RTVSPost2010Prop32
280
     0
102
RTVSPost2010PropOp32
 70
     1
102
RTVSPost2010Prop33
280
     0
102
RTVSPost2010PropOp33
 70
     1
102
RTVSPost2010Prop34
280
     0
102
RTVSPost2010PropOp34
 70
     1
102
RTVSPost2010Prop35
280
     0
102
RTVSPost2010PropOp35
 70
     1
102
RTVSPost2010Prop36
280
     0
102
RTVSPost2010PropOp36
 70
     1
102
RTVSPost2010Prop37
 90
       50
102
RTVSPost2010PropOp37
 70
     1
102
RTVSPost2010Prop38
140
0.0
102
RTVSPost2010PropOp38
 70
     1
102
RTVSPost2010Prop39
140
1.0
102
RTVSPost2010PropOp39
 70
     1
102
RTVSPost2010Prop40
 90
        0
102
RTVSPost2010PropOp40
 70
     1
102
RTVSPost2010Prop41ColorIndex
 90
       18
102
RTVSPost2010Prop41ColorRGB
 90
        0
102
RTVSPost2010PropOp41
 70
     1
102
RTVSPost2010Prop42
 90
       50
102
RTVSPost2010PropOp42
 70
     1
102
RTVSPost2010Prop43
 90
        3
102
RTVSPost2010PropOp43
 70
     1
102
RTVSPost2010Prop44ColorIndex
 90
        5
102
RTVSPost2010Prop44ColorRGB
 90
      255
102
RTVSPost2010PropOp44
 70
     1
102
RTVSPost2010Prop45
280
     0
102
RTVSPost2010PropOp45
 70
     1
102
RTVSPost2010Prop46
 90
       50
102
RTVSPost2010PropOp46
 70
     1
102
RTVSPost2010Prop47
 90
       50
102
RTVSPost2010PropOp47
 70
     1
102
RTVSPost2010Prop48
 90
       50
102
RTVSPost2010PropOp48
 70
     1
102
RTVSPost2010Prop49
280
     0
102
RTVSPost2010PropOp49
 70
     1
102
RTVSPost2010Prop50
 90
       50
102
RTVSPost2010PropOp50
 70
     1
102
RTVSPost2010Prop51ColorIndex
 90
      256
102
RTVSPost2010Prop51ColorRGB
 90
-16777216
102
RTVSPost2010PropOp51
 70
     0
102
RTVSPost2010Prop52
140
1.0
102
RTVSPost2010PropOp52
 70
     0
102
RTVSPost2010Prop53
 90
        2
102
RTVSPost2010PropOp53
 70
     1
102
RTVSPost2010Prop54
  1
strokes_ogs.tif
102
RTVSPost2010PropOp54
 70
     1
102
RTVSPost2010Prop55
280
     0
102
RTVSPost2010PropOp55
 70
     1
102
RTVSPost2010Prop56
140
1.0
102
RTVSPost2010PropOp56
 70
     1
102
RTVSPost2010Prop57
140
1.0
102
RTVSPost2010PropOp57
 70
     1
102
RTVSPropertyOp0
 70
     1
102
RTVSPropertyOp1
 70
     1
102
RTVSPropertyOp2
 70
     1
102
RTVSPropertyOp3
 70
     1
102
RTVSPropertyOp4
 70
     1
102
RTVSPropertyOp5
 70
     1
102
RTVSPropertyOp6
 70
     1
102
RTVSPropertyOp7
 70
     1
102
RTVSPropertyOp8
 70
     1
102
RTVSPropertyOp9
 70
     1
102
RTVSPropertyOp10
 70
     1
102
RTVSPropertyOp11
 70
     1
102
RTVSPropertyOp12
 70
     1
102
RTVSPropertyOp13
 70
     1
102
RTVSPropertyOp14
 70
     1
102
RTVSPropertyOp15
 70
     1
102
RTVSPropertyOp16
 70
     1
102
RTVSPropertyOp17
 70
     1
102
RTVSPropertyOp18
 70
     1
102
RTVSPropertyOp19
 70
     1
102
RTVSPropertyOp20
 70
     1
102
RTVSPropertyOp21
 70
     1
102
RTVSPropertyOp22
 70
     1
102
RTVSPropertyOp23
 70
     1
102
RTVSPropertyOp24
 70
     1
102
RTVSPropertyOp25
 70
     1
102
RTVSPropertyOp26
 70
     1
102
RTVSPropertyOp27
 70
     1
102
RTVSPropertyOp28
 70
     1
102
RTVSPropertyOp29
 70
     1
102
RTVSPropertyOp30
 70
     1
102
RTVSPropertyOp31
 70
     1
102
RTVSPropertyOp32
 70
     1
102
RTVSPropertyOp33
 70
     1
102
RTVSPropertyOp34
 70
     1
102
RTVSPropertyOp35
 70
     1
102
RTVSPropertyOp36
 70
     1
102
RTVSPropertyOp37
 70
     1
102
RTVSPropertyOp38
 70
     1
102
RTVSPropertyOp39
 70
     1
102
RTVSPropertyOp40
 70
     1
102
RTVSPropertyOp41
 70
     1
102
RTVSPropertyOp42
 70
     1
102
RTVSPropertyOp43
 70
     1
102
RTVSPropertyOp44
 70
     1
102
RTVSPropertyOp45
 70
     1
102
RTVSPropertyOp46
 70
     1
102
RTVSPropertyOp47
 70
     1
102
RTVSPropertyOp48
 70
     1
102
RTVSPropertyOp49
 70
     1
102
RTVSPropertyOp50
 70
     1
102
RTVSPropertyOp51
 70
     0
102
RTVSPropertyOp52
 70
     0
102
RTVSPropertyOp53
 70
     1
102
RTVSPropertyOp54
 70
     1
102
RTVSPropertyOp55
 70
     1
102
RTVSPropertyOp56
 70
     1
102
RTVSPropertyOp57
 70
     1
102
RTVSPropertyOp58
 70
     1
102
RTVSPropertyOp59
 70
     1
102
RTVSPropertyOp60
 70
     1
102
RTVSPropertyOp61
 70
     1
102
RTVSPropertyOp62
 70
     1
  0
XRECORD
  5
16B3
102
{ACAD_REACTORS
330
16B2
102
}
330
16B2
100
AcDbXrecord
280
     1
102
RTVSPost2010Prop28
280
     0
102
RTVSPost2010PropOp28
 70
     1
102
RTVSPost2010Prop29
280
     1
102
RTVSPost2010PropOp29
 70
     1
102
RTVSPost2010Prop30
280
     1
102
RTVSPost2010PropOp30
 70
     1
102
RTVSPost2010Prop31
280
     0
102
RTVSPost2010PropOp31
 70
     1
102
RTVSPost2010Prop32
280
     0
102
RTVSPost2010PropOp32
 70
     1
102
RTVSPost2010Prop33
280
     0
102
RTVSPost2010PropOp33
 70
     1
102
RTVSPost2010Prop34
280
     0
102
RTVSPost2010PropOp34
 70
     1
102
RTVSPost2010Prop35
280
     0
102
RTVSPost2010PropOp35
 70
     1
102
RTVSPost2010Prop36
280
     0
102
RTVSPost2010PropOp36
 70
     1
102
RTVSPost2010Prop37
 90
       50
102
RTVSPost2010PropOp37
 70
     1
102
RTVSPost2010Prop38
140
0.0
102
RTVSPost2010PropOp38
 70
     1
102
RTVSPost2010Prop39
140
1.0
102
RTVSPost2010PropOp39
 70
     1
102
RTVSPost2010Prop40
 90
        0
102
RTVSPost2010PropOp40
 70
     1
102
RTVSPost2010Prop41ColorIndex
 90
       18
102
RTVSPost2010Prop41ColorRGB
 90
        0
102
RTVSPost2010PropOp41
 70
     1
102
RTVSPost2010Prop42
 90
       50
102
RTVSPost2010PropOp42
 70
     1
102
RTVSPost2010Prop43
 90
        3
102
RTVSPost2010PropOp43
 70
     1
102
RTVSPost2010Prop44ColorIndex
 90
        5
102
RTVSPost2010Prop44ColorRGB
 90
      255
102
RTVSPost2010PropOp44
 70
     1
102
RTVSPost2010Prop45
280
     0
102
RTVSPost2010PropOp45
 70
     1
102
RTVSPost2010Prop46
 90
       50
102
RTVSPost2010PropOp46
 70
     1
102
RTVSPost2010Prop47
 90
       50
102
RTVSPost2010PropOp47
 70
     1
102
RTVSPost2010Prop48
 90
       50
102
RTVSPost2010PropOp48
 70
     1
102
RTVSPost2010Prop49
280
     0
102
RTVSPost2010PropOp49
 70
     1
102
RTVSPost2010Prop50
 90
       50
102
RTVSPost2010PropOp50
 70
     1
102
RTVSPost2010Prop51ColorIndex
 90
      256
102
RTVSPost2010Prop51ColorRGB
 90
-16777216
102
RTVSPost2010PropOp51
 70
     0
102
RTVSPost2010Prop52
140
1.0
102
RTVSPost2010PropOp52
 70
     0
102
RTVSPost2010Prop53
 90
        2
102
RTVSPost2010PropOp53
 70
     1
102
RTVSPost2010Prop54
  1
strokes_ogs.tif
102
RTVSPost2010PropOp54
 70
     1
102
RTVSPost2010Prop55
280
     0
102
RTVSPost2010PropOp55
 70
     1
102
RTVSPost2010Prop56
140
1.0
102
RTVSPost2010PropOp56
 70
     1
102
RTVSPost2010Prop57
140
1.0
102
RTVSPost2010PropOp57
 70
     1
102
RTVSPropertyOp0
 70
     1
102
RTVSPropertyOp1
 70
     1
102
RTVSPropertyOp2
 70
     1
102
RTVSPropertyOp3
 70
     1
102
RTVSPropertyOp4
 70
     1
102
RTVSPropertyOp5
 70
     1
102
RTVSPropertyOp6
 70
     1
102
RTVSPropertyOp7
 70
     1
102
RTVSPropertyOp8
 70
     1
102
RTVSPropertyOp9
 70
     1
102
RTVSPropertyOp10
 70
     1
102
RTVSPropertyOp11
 70
     1
102
RTVSPropertyOp12
 70
     1
102
RTVSPropertyOp13
 70
     1
102
RTVSPropertyOp14
 70
     1
102
RTVSPropertyOp15
 70
     1
102
RTVSPropertyOp16
 70
     1
102
RTVSPropertyOp17
 70
     1
102
RTVSPropertyOp18
 70
     1
102
RTVSPropertyOp19
 70
     1
102
RTVSPropertyOp20
 70
     1
102
RTVSPropertyOp21
 70
     1
102
RTVSPropertyOp22
 70
     1
102
RTVSPropertyOp23
 70
     1
102
RTVSPropertyOp24
 70
     1
102
RTVSPropertyOp25
 70
     1
102
RTVSPropertyOp26
 70
     1
102
RTVSPropertyOp27
 70
     1
102
RTVSPropertyOp28
 70
     1
102
RTVSPropertyOp29
 70
     1
102
RTVSPropertyOp30
 70
     1
102
RTVSPropertyOp31
 70
     1
102
RTVSPropertyOp32
 70
     1
102
RTVSPropertyOp33
 70
     1
102
RTVSPropertyOp34
 70
     1
102
RTVSPropertyOp35
 70
     1
102
RTVSPropertyOp36
 70
     1
102
RTVSPropertyOp37
 70
     1
102
RTVSPropertyOp38
 70
     1
102
RTVSPropertyOp39
 70
     1
102
RTVSPropertyOp40
 70
     1
102
RTVSPropertyOp41
 70
     1
102
RTVSPropertyOp42
 70
     1
102
RTVSPropertyOp43
 70
     1
102
RTVSPropertyOp44
 70
     1
102
RTVSPropertyOp45
 70
     1
102
RTVSPropertyOp46
 70
     1
102
RTVSPropertyOp47
 70
     1
102
RTVSPropertyOp48
 70
     1
102
RTVSPropertyOp49
 70
     1
102
RTVSPropertyOp50
 70
     1
102
RTVSPropertyOp51
 70
     0
102
RTVSPropertyOp52
 70
     0
102
RTVSPropertyOp53
 70
     1
102
RTVSPropertyOp54
 70
     1
102
RTVSPropertyOp55
 70
     1
102
RTVSPropertyOp56
 70
     1
102
RTVSPropertyOp57
 70
     1
102
RTVSPropertyOp58
 70
     1
102
RTVSPropertyOp59
 70
     1
102
RTVSPropertyOp60
 70
     1
102
RTVSPropertyOp61
 70
     1
102
RTVSPropertyOp62
 70
     1
  0
XRECORD
  5
16B7
102
{ACAD_REACTORS
330
16B6
102
}
330
16B6
100
AcDbXrecord
280
     1
102
RTVSPost2010Prop28
280
     0
102
RTVSPost2010PropOp28
 70
     1
102
RTVSPost2010Prop29
280
     1
102
RTVSPost2010PropOp29
 70
     1
102
RTVSPost2010Prop30
280
     1
102
RTVSPost2010PropOp30
 70
     1
102
RTVSPost2010Prop31
280
     0
102
RTVSPost2010PropOp31
 70
     1
102
RTVSPost2010Prop32
280
     0
102
RTVSPost2010PropOp32
 70
     1
102
RTVSPost2010Prop33
280
     0
102
RTVSPost2010PropOp33
 70
     1
102
RTVSPost2010Prop34
280
     0
102
RTVSPost2010PropOp34
 70
     1
102
RTVSPost2010Prop35
280
     0
102
RTVSPost2010PropOp35
 70
     1
102
RTVSPost2010Prop36
280
     0
102
RTVSPost2010PropOp36
 70
     1
102
RTVSPost2010Prop37
 90
       50
102
RTVSPost2010PropOp37
 70
     1
102
RTVSPost2010Prop38
140
0.0
102
RTVSPost2010PropOp38
 70
     1
102
RTVSPost2010Prop39
140
1.0
102
RTVSPost2010PropOp39
 70
     1
102
RTVSPost2010Prop40
 90
        0
102
RTVSPost2010PropOp40
 70
     1
102
RTVSPost2010Prop41ColorIndex
 90
       18
102
RTVSPost2010Prop41ColorRGB
 90
        0
102
RTVSPost2010PropOp41
 70
     1
102
RTVSPost2010Prop42
 90
       50
102
RTVSPost2010PropOp42
 70
     1
102
RTVSPost2010Prop43
 90
        3
102
RTVSPost2010PropOp43
 70
     1
102
RTVSPost2010Prop44ColorIndex
 90
        5
102
RTVSPost2010Prop44ColorRGB
 90
      255
102
RTVSPost2010PropOp44
 70
     1
102
RTVSPost2010Prop45
280
     0
102
RTVSPost2010PropOp45
 70
     1
102
RTVSPost2010Prop46
 90
       50
102
RTVSPost2010PropOp46
 70
     1
102
RTVSPost2010Prop47
 90
       50
102
RTVSPost2010PropOp47
 70
     1
102
RTVSPost2010Prop48
 90
       50
102
RTVSPost2010PropOp48
 70
     1
102
RTVSPost2010Prop49
280
     0
102
RTVSPost2010PropOp49
 70
     1
102
RTVSPost2010Prop50
 90
       50
102
RTVSPost2010PropOp50
 70
     1
102
RTVSPost2010Prop51ColorIndex
 90
      256
102
RTVSPost2010Prop51ColorRGB
 90
-16777216
102
RTVSPost2010PropOp51
 70
     0
102
RTVSPost2010Prop52
140
1.0
102
RTVSPost2010PropOp52
 70
     0
102
RTVSPost2010Prop53
 90
        2
102
RTVSPost2010PropOp53
 70
     1
102
RTVSPost2010Prop54
  1
strokes_ogs.tif
102
RTVSPost2010PropOp54
 70
     1
102
RTVSPost2010Prop55
280
     0
102
RTVSPost2010PropOp55
 70
     1
102
RTVSPost2010Prop56
140
1.0
102
RTVSPost2010PropOp56
 70
     1
102
RTVSPost2010Prop57
140
1.0
102
RTVSPost2010PropOp57
 70
     1
102
RTVSPropertyOp0
 70
     1
102
RTVSPropertyOp1
 70
     1
102
RTVSPropertyOp2
 70
     1
102
RTVSPropertyOp3
 70
     1
102
RTVSPropertyOp4
 70
     1
102
RTVSPropertyOp5
 70
     1
102
RTVSPropertyOp6
 70
     1
102
RTVSPropertyOp7
 70
     1
102
RTVSPropertyOp8
 70
     1
102
RTVSPropertyOp9
 70
     1
102
RTVSPropertyOp10
 70
     1
102
RTVSPropertyOp11
 70
     1
102
RTVSPropertyOp12
 70
     1
102
RTVSPropertyOp13
 70
     1
102
RTVSPropertyOp14
 70
     1
102
RTVSPropertyOp15
 70
     1
102
RTVSPropertyOp16
 70
     1
102
RTVSPropertyOp17
 70
     1
102
RTVSPropertyOp18
 70
     1
102
RTVSPropertyOp19
 70
     1
102
RTVSPropertyOp20
 70
     1
102
RTVSPropertyOp21
 70
     1
102
RTVSPropertyOp22
 70
     1
102
RTVSPropertyOp23
 70
     1
102
RTVSPropertyOp24
 70
     1
102
RTVSPropertyOp25
 70
     1
102
RTVSPropertyOp26
 70
     1
102
RTVSPropertyOp27
 70
     1
102
RTVSPropertyOp28
 70
     1
102
RTVSPropertyOp29
 70
     1
102
RTVSPropertyOp30
 70
     1
102
RTVSPropertyOp31
 70
     1
102
RTVSPropertyOp32
 70
     1
102
RTVSPropertyOp33
 70
     1
102
RTVSPropertyOp34
 70
     1
102
RTVSPropertyOp35
 70
     1
102
RTVSPropertyOp36
 70
     1
102
RTVSPropertyOp37
 70
     1
102
RTVSPropertyOp38
 70
     1
102
RTVSPropertyOp39
 70
     1
102
RTVSPropertyOp40
 70
     1
102
RTVSPropertyOp41
 70
     1
102
RTVSPropertyOp42
 70
     1
102
RTVSPropertyOp43
 70
     1
102
RTVSPropertyOp44
 70
     1
102
RTVSPropertyOp45
 70
     1
102
RTVSPropertyOp46
 70
     1
102
RTVSPropertyOp47
 70
     1
102
RTVSPropertyOp48
 70
     1
102
RTVSPropertyOp49
 70
     1
102
RTVSPropertyOp50
 70
     1
102
RTVSPropertyOp51
 70
     0
102
RTVSPropertyOp52
 70
     0
102
RTVSPropertyOp53
 70
     1
102
RTVSPropertyOp54
 70
     1
102
RTVSPropertyOp55
 70
     1
102
RTVSPropertyOp56
 70
     1
102
RTVSPropertyOp57
 70
     1
102
RTVSPropertyOp58
 70
     1
102
RTVSPropertyOp59
 70
     1
102
RTVSPropertyOp60
 70
     1
102
RTVSPropertyOp61
 70
     1
102
RTVSPropertyOp62
 70
     1
  0
XRECORD
  5
16D1
102
{ACAD_REACTORS
330
16D0
102
}
330
16D0
100
AcDbXrecord
280
     1
102
RTVSPost2010Prop28
280
     0
102
RTVSPost2010PropOp28
 70
     0
102
RTVSPost2010Prop29
280
     1
102
RTVSPost2010PropOp29
 70
     0
102
RTVSPost2010Prop30
280
     1
102
RTVSPost2010PropOp30
 70
     0
102
RTVSPost2010Prop31
280
     0
102
RTVSPost2010PropOp31
 70
     0
102
RTVSPost2010Prop32
280
     0
102
RTVSPost2010PropOp32
 70
     0
102
RTVSPost2010Prop33
280
     0
102
RTVSPost2010PropOp33
 70
     0
102
RTVSPost2010Prop34
280
     0
102
RTVSPost2010PropOp34
 70
     0
102
RTVSPost2010Prop35
280
     0
102
RTVSPost2010PropOp35
 70
     0
102
RTVSPost2010Prop36
280
     0
102
RTVSPost2010PropOp36
 70
     0
102
RTVSPost2010Prop37
 90
       50
102
RTVSPost2010PropOp37
 70
     0
102
RTVSPost2010Prop38
140
0.0
102
RTVSPost2010PropOp38
 70
     0
102
RTVSPost2010Prop39
140
1.0
102
RTVSPost2010PropOp39
 70
     0
102
RTVSPost2010Prop40
 90
        0
102
RTVSPost2010PropOp40
 70
     0
102
RTVSPost2010Prop41ColorIndex
 90
       18
102
RTVSPost2010Prop41ColorRGB
 90
        0
102
RTVSPost2010PropOp41
 70
     0
102
RTVSPost2010Prop42
 90
       50
102
RTVSPost2010PropOp42
 70
     0
102
RTVSPost2010Prop43
 90
        3
102
RTVSPost2010PropOp43
 70
     0
102
RTVSPost2010Prop44ColorIndex
 90
        5
102
RTVSPost2010Prop44ColorRGB
 90
      255
102
RTVSPost2010PropOp44
 70
     0
102
RTVSPost2010Prop45
280
     0
102
RTVSPost2010PropOp45
 70
     0
102
RTVSPost2010Prop46
 90
       50
102
RTVSPost2010PropOp46
 70
     0
102
RTVSPost2010Prop47
 90
       50
102
RTVSPost2010PropOp47
 70
     0
102
RTVSPost2010Prop48
 90
       50
102
RTVSPost2010PropOp48
 70
     0
102
RTVSPost2010Prop49
280
     0
102
RTVSPost2010PropOp49
 70
     0
102
RTVSPost2010Prop50
 90
       50
102
RTVSPost2010PropOp50
 70
     0
102
RTVSPost2010Prop51ColorIndex
 90
      256
102
RTVSPost2010Prop51ColorRGB
 90
-16777216
102
RTVSPost2010PropOp51
 70
     0
102
RTVSPost2010Prop52
140
1.0
102
RTVSPost2010PropOp52
 70
     0
102
RTVSPost2010Prop53
 90
        2
102
RTVSPost2010PropOp53
 70
     0
102
RTVSPost2010Prop54
  1
strokes_ogs.tif
102
RTVSPost2010PropOp54
 70
     0
102
RTVSPost2010Prop55
280
     0
102
RTVSPost2010PropOp55
 70
     0
102
RTVSPost2010Prop56
140
1.0
102
RTVSPost2010PropOp56
 70
     0
102
RTVSPost2010Prop57
140
1.0
102
RTVSPost2010PropOp57
 70
     0
102
RTVSPropertyOp0
 70
     0
102
RTVSPropertyOp1
 70
     0
102
RTVSPropertyOp2
 70
     0
102
RTVSPropertyOp3
 70
     0
102
RTVSPropertyOp4
 70
     0
102
RTVSPropertyOp5
 70
     0
102
RTVSPropertyOp6
 70
     0
102
RTVSPropertyOp7
 70
     0
102
RTVSPropertyOp8
 70
     0
102
RTVSPropertyOp9
 70
     0
102
RTVSPropertyOp10
 70
     0
102
RTVSPropertyOp11
 70
     0
102
RTVSPropertyOp12
 70
     0
102
RTVSPropertyOp13
 70
     0
102
RTVSPropertyOp14
 70
     2
102
RTVSPropertyOp15
 70
     0
102
RTVSPropertyOp16
 70
     0
102
RTVSPropertyOp17
 70
     0
102
RTVSPropertyOp18
 70
     0
102
RTVSPropertyOp19
 70
     0
102
RTVSPropertyOp20
 70
     0
102
RTVSPropertyOp21
 70
     0
102
RTVSPropertyOp22
 70
     0
102
RTVSPropertyOp23
 70
     0
102
RTVSPropertyOp24
 70
     0
102
RTVSPropertyOp25
 70
     0
102
RTVSPropertyOp26
 70
     0
102
RTVSPropertyOp27
 70
     0
102
RTVSPropertyOp28
 70
     0
102
RTVSPropertyOp29
 70
     0
102
RTVSPropertyOp30
 70
     0
102
RTVSPropertyOp31
 70
     0
102
RTVSPropertyOp32
 70
     0
102
RTVSPropertyOp33
 70
     0
102
RTVSPropertyOp34
 70
     0
102
RTVSPropertyOp35
 70
     0
102
RTVSPropertyOp36
 70
     0
102
RTVSPropertyOp37
 70
     0
102
RTVSPropertyOp38
 70
     0
102
RTVSPropertyOp39
 70
     0
102
RTVSPropertyOp40
 70
     0
102
RTVSPropertyOp41
 70
     0
102
RTVSPropertyOp42
 70
     0
102
RTVSPropertyOp43
 70
     0
102
RTVSPropertyOp44
 70
     0
102
RTVSPropertyOp45
 70
     0
102
RTVSPropertyOp46
 70
     0
102
RTVSPropertyOp47
 70
     0
102
RTVSPropertyOp48
 70
     0
102
RTVSPropertyOp49
 70
     0
102
RTVSPropertyOp50
 70
     0
102
RTVSPropertyOp51
 70
     0
102
RTVSPropertyOp52
 70
     0
102
RTVSPropertyOp53
 70
     0
102
RTVSPropertyOp54
 70
     0
102
RTVSPropertyOp55
 70
     0
102
RTVSPropertyOp56
 70
     0
102
RTVSPropertyOp57
 70
     0
102
RTVSPropertyOp58
 70
     0
102
RTVSPropertyOp59
 70
     0
102
RTVSPropertyOp60
 70
     0
102
RTVSPropertyOp61
 70
     0
102
RTVSPropertyOp62
 70
     0
  0
XRECORD
  5
16BF
102
{ACAD_REACTORS
330
16BE
102
}
330
16BE
100
AcDbXrecord
280
     1
102
RTVSPost2010Prop28
280
     0
102
RTVSPost2010PropOp28
 70
     1
102
RTVSPost2010Prop29
280
     1
102
RTVSPost2010PropOp29
 70
     1
102
RTVSPost2010Prop30
280
     1
102
RTVSPost2010PropOp30
 70
     1
102
RTVSPost2010Prop31
280
     0
102
RTVSPost2010PropOp31
 70
     1
102
RTVSPost2010Prop32
280
     0
102
RTVSPost2010PropOp32
 70
     1
102
RTVSPost2010Prop33
280
     0
102
RTVSPost2010PropOp33
 70
     1
102
RTVSPost2010Prop34
280
     0
102
RTVSPost2010PropOp34
 70
     1
102
RTVSPost2010Prop35
280
     0
102
RTVSPost2010PropOp35
 70
     1
102
RTVSPost2010Prop36
280
     0
102
RTVSPost2010PropOp36
 70
     1
102
RTVSPost2010Prop37
 90
       50
102
RTVSPost2010PropOp37
 70
     1
102
RTVSPost2010Prop38
140
0.0
102
RTVSPost2010PropOp38
 70
     1
102
RTVSPost2010Prop39
140
1.0
102
RTVSPost2010PropOp39
 70
     1
102
RTVSPost2010Prop40
 90
        0
102
RTVSPost2010PropOp40
 70
     1
102
RTVSPost2010Prop41ColorIndex
 90
       18
102
RTVSPost2010Prop41ColorRGB
 90
        0
102
RTVSPost2010PropOp41
 70
     1
102
RTVSPost2010Prop42
 90
       50
102
RTVSPost2010PropOp42
 70
     1
102
RTVSPost2010Prop43
 90
        3
102
RTVSPost2010PropOp43
 70
     1
102
RTVSPost2010Prop44ColorIndex
 90
        5
102
RTVSPost2010Prop44ColorRGB
 90
      255
102
RTVSPost2010PropOp44
 70
     1
102
RTVSPost2010Prop45
280
     0
102
RTVSPost2010PropOp45
 70
     1
102
RTVSPost2010Prop46
 90
       50
102
RTVSPost2010PropOp46
 70
     1
102
RTVSPost2010Prop47
 90
       50
102
RTVSPost2010PropOp47
 70
     1
102
RTVSPost2010Prop48
 90
       50
102
RTVSPost2010PropOp48
 70
     1
102
RTVSPost2010Prop49
280
     0
102
RTVSPost2010PropOp49
 70
     1
102
RTVSPost2010Prop50
 90
       50
102
RTVSPost2010PropOp50
 70
     1
102
RTVSPost2010Prop51ColorIndex
 90
      256
102
RTVSPost2010Prop51ColorRGB
 90
-16777216
102
RTVSPost2010PropOp51
 70
     0
102
RTVSPost2010Prop52
140
1.0
102
RTVSPost2010PropOp52
 70
     0
102
RTVSPost2010Prop53
 90
        2
102
RTVSPost2010PropOp53
 70
     1
102
RTVSPost2010Prop54
  1
strokes_ogs.tif
102
RTVSPost2010PropOp54
 70
     1
102
RTVSPost2010Prop55
280
     0
102
RTVSPost2010PropOp55
 70
     1
102
RTVSPost2010Prop56
140
1.0
102
RTVSPost2010PropOp56
 70
     1
102
RTVSPost2010Prop57
140
1.0
102
RTVSPost2010PropOp57
 70
     1
102
RTVSPropertyOp0
 70
     1
102
RTVSPropertyOp1
 70
     1
102
RTVSPropertyOp2
 70
     1
102
RTVSPropertyOp3
 70
     1
102
RTVSPropertyOp4
 70
     1
102
RTVSPropertyOp5
 70
     1
102
RTVSPropertyOp6
 70
     1
102
RTVSPropertyOp7
 70
     1
102
RTVSPropertyOp8
 70
     1
102
RTVSPropertyOp9
 70
     1
102
RTVSPropertyOp10
 70
     1
102
RTVSPropertyOp11
 70
     1
102
RTVSPropertyOp12
 70
     1
102
RTVSPropertyOp13
 70
     1
102
RTVSPropertyOp14
 70
     1
102
RTVSPropertyOp15
 70
     1
102
RTVSPropertyOp16
 70
     1
102
RTVSPropertyOp17
 70
     1
102
RTVSPropertyOp18
 70
     1
102
RTVSPropertyOp19
 70
     1
102
RTVSPropertyOp20
 70
     1
102
RTVSPropertyOp21
 70
     1
102
RTVSPropertyOp22
 70
     1
102
RTVSPropertyOp23
 70
     1
102
RTVSPropertyOp24
 70
     1
102
RTVSPropertyOp25
 70
     1
102
RTVSPropertyOp26
 70
     1
102
RTVSPropertyOp27
 70
     1
102
RTVSPropertyOp28
 70
     1
102
RTVSPropertyOp29
 70
     1
102
RTVSPropertyOp30
 70
     1
102
RTVSPropertyOp31
 70
     1
102
RTVSPropertyOp32
 70
     1
102
RTVSPropertyOp33
 70
     1
102
RTVSPropertyOp34
 70
     1
102
RTVSPropertyOp35
 70
     1
102
RTVSPropertyOp36
 70
     1
102
RTVSPropertyOp37
 70
     1
102
RTVSPropertyOp38
 70
     1
102
RTVSPropertyOp39
 70
     1
102
RTVSPropertyOp40
 70
     1
102
RTVSPropertyOp41
 70
     1
102
RTVSPropertyOp42
 70
     1
102
RTVSPropertyOp43
 70
     1
102
RTVSPropertyOp44
 70
     1
102
RTVSPropertyOp45
 70
     1
102
RTVSPropertyOp46
 70
     1
102
RTVSPropertyOp47
 70
     1
102
RTVSPropertyOp48
 70
     1
102
RTVSPropertyOp49
 70
     1
102
RTVSPropertyOp50
 70
     1
102
RTVSPropertyOp51
 70
     0
102
RTVSPropertyOp52
 70
     0
102
RTVSPropertyOp53
 70
     1
102
RTVSPropertyOp54
 70
     1
102
RTVSPropertyOp55
 70
     1
102
RTVSPropertyOp56
 70
     1
102
RTVSPropertyOp57
 70
     1
102
RTVSPropertyOp58
 70
     1
102
RTVSPropertyOp59
 70
     1
102
RTVSPropertyOp60
 70
     1
102
RTVSPropertyOp61
 70
     1
102
RTVSPropertyOp62
 70
     1
  0
XRECORD
  5
16A3
102
{ACAD_REACTORS
330
16A2
102
}
330
16A2
100
AcDbXrecord
280
     1
102
RTVSPost2010Prop28
280
     0
102
RTVSPost2010PropOp28
 70
     1
102
RTVSPost2010Prop29
280
     1
102
RTVSPost2010PropOp29
 70
     1
102
RTVSPost2010Prop30
280
     1
102
RTVSPost2010PropOp30
 70
     1
102
RTVSPost2010Prop31
280
     0
102
RTVSPost2010PropOp31
 70
     1
102
RTVSPost2010Prop32
280
     0
102
RTVSPost2010PropOp32
 70
     1
102
RTVSPost2010Prop33
280
     0
102
RTVSPost2010PropOp33
 70
     1
102
RTVSPost2010Prop34
280
     0
102
RTVSPost2010PropOp34
 70
     1
102
RTVSPost2010Prop35
280
     0
102
RTVSPost2010PropOp35
 70
     1
102
RTVSPost2010Prop36
280
     0
102
RTVSPost2010PropOp36
 70
     1
102
RTVSPost2010Prop37
 90
       50
102
RTVSPost2010PropOp37
 70
     1
102
RTVSPost2010Prop38
140
0.0
102
RTVSPost2010PropOp38
 70
     1
102
RTVSPost2010Prop39
140
1.0
102
RTVSPost2010PropOp39
 70
     1
102
RTVSPost2010Prop40
 90
        0
102
RTVSPost2010PropOp40
 70
     1
102
RTVSPost2010Prop41ColorIndex
 90
       18
102
RTVSPost2010Prop41ColorRGB
 90
        0
102
RTVSPost2010PropOp41
 70
     1
102
RTVSPost2010Prop42
 90
       50
102
RTVSPost2010PropOp42
 70
     1
102
RTVSPost2010Prop43
 90
        3
102
RTVSPost2010PropOp43
 70
     1
102
RTVSPost2010Prop44ColorIndex
 90
        5
102
RTVSPost2010Prop44ColorRGB
 90
      255
102
RTVSPost2010PropOp44
 70
     1
102
RTVSPost2010Prop45
280
     0
102
RTVSPost2010PropOp45
 70
     1
102
RTVSPost2010Prop46
 90
       50
102
RTVSPost2010PropOp46
 70
     1
102
RTVSPost2010Prop47
 90
       50
102
RTVSPost2010PropOp47
 70
     1
102
RTVSPost2010Prop48
 90
       50
102
RTVSPost2010PropOp48
 70
     1
102
RTVSPost2010Prop49
280
     0
102
RTVSPost2010PropOp49
 70
     1
102
RTVSPost2010Prop50
 90
       50
102
RTVSPost2010PropOp50
 70
     1
102
RTVSPost2010Prop51ColorIndex
 90
      256
102
RTVSPost2010Prop51ColorRGB
 90
-16777216
102
RTVSPost2010PropOp51
 70
     0
102
RTVSPost2010Prop52
140
1.0
102
RTVSPost2010PropOp52
 70
     0
102
RTVSPost2010Prop53
 90
        2
102
RTVSPost2010PropOp53
 70
     1
102
RTVSPost2010Prop54
  1
strokes_ogs.tif
102
RTVSPost2010PropOp54
 70
     1
102
RTVSPost2010Prop55
280
     0
102
RTVSPost2010PropOp55
 70
     1
102
RTVSPost2010Prop56
140
1.0
102
RTVSPost2010PropOp56
 70
     1
102
RTVSPost2010Prop57
140
1.0
102
RTVSPost2010PropOp57
 70
     1
102
RTVSPropertyOp0
 70
     1
102
RTVSPropertyOp1
 70
     1
102
RTVSPropertyOp2
 70
     1
102
RTVSPropertyOp3
 70
     1
102
RTVSPropertyOp4
 70
     1
102
RTVSPropertyOp5
 70
     1
102
RTVSPropertyOp6
 70
     1
102
RTVSPropertyOp7
 70
     1
102
RTVSPropertyOp8
 70
     1
102
RTVSPropertyOp9
 70
     1
102
RTVSPropertyOp10
 70
     1
102
RTVSPropertyOp11
 70
     1
102
RTVSPropertyOp12
 70
     1
102
RTVSPropertyOp13
 70
     1
102
RTVSPropertyOp14
 70
     1
102
RTVSPropertyOp15
 70
     1
102
RTVSPropertyOp16
 70
     1
102
RTVSPropertyOp17
 70
     1
102
RTVSPropertyOp18
 70
     1
102
RTVSPropertyOp19
 70
     1
102
RTVSPropertyOp20
 70
     1
102
RTVSPropertyOp21
 70
     1
102
RTVSPropertyOp22
 70
     1
102
RTVSPropertyOp23
 70
     1
102
RTVSPropertyOp24
 70
     1
102
RTVSPropertyOp25
 70
     1
102
RTVSPropertyOp26
 70
     1
102
RTVSPropertyOp27
 70
     1
102
RTVSPropertyOp28
 70
     1
102
RTVSPropertyOp29
 70
     1
102
RTVSPropertyOp30
 70
     1
102
RTVSPropertyOp31
 70
     1
102
RTVSPropertyOp32
 70
     1
102
RTVSPropertyOp33
 70
     1
102
RTVSPropertyOp34
 70
     1
102
RTVSPropertyOp35
 70
     1
102
RTVSPropertyOp36
 70
     1
102
RTVSPropertyOp37
 70
     1
102
RTVSPropertyOp38
 70
     1
102
RTVSPropertyOp39
 70
     1
102
RTVSPropertyOp40
 70
     1
102
RTVSPropertyOp41
 70
     1
102
RTVSPropertyOp42
 70
     1
102
RTVSPropertyOp43
 70
     1
102
RTVSPropertyOp44
 70
     1
102
RTVSPropertyOp45
 70
     1
102
RTVSPropertyOp46
 70
     1
102
RTVSPropertyOp47
 70
     1
102
RTVSPropertyOp48
 70
     1
102
RTVSPropertyOp49
 70
     1
102
RTVSPropertyOp50
 70
     1
102
RTVSPropertyOp51
 70
     0
102
RTVSPropertyOp52
 70
     0
102
RTVSPropertyOp53
 70
     1
102
RTVSPropertyOp54
 70
     1
102
RTVSPropertyOp55
 70
     1
102
RTVSPropertyOp56
 70
     1
102
RTVSPropertyOp57
 70
     1
102
RTVSPropertyOp58
 70
     1
102
RTVSPropertyOp59
 70
     1
102
RTVSPropertyOp60
 70
     1
102
RTVSPropertyOp61
 70
     1
102
RTVSPropertyOp62
 70
     1
  0
XRECORD
  5
16A5
102
{ACAD_REACTORS
330
16A4
102
}
330
16A4
100
AcDbXrecord
280
     1
102
RTVSPost2010Prop28
280
     0
102
RTVSPost2010PropOp28
 70
     1
102
RTVSPost2010Prop29
280
     1
102
RTVSPost2010PropOp29
 70
     1
102
RTVSPost2010Prop30
280
     1
102
RTVSPost2010PropOp30
 70
     1
102
RTVSPost2010Prop31
280
     0
102
RTVSPost2010PropOp31
 70
     1
102
RTVSPost2010Prop32
280
     0
102
RTVSPost2010PropOp32
 70
     1
102
RTVSPost2010Prop33
280
     0
102
RTVSPost2010PropOp33
 70
     1
102
RTVSPost2010Prop34
280
     0
102
RTVSPost2010PropOp34
 70
     1
102
RTVSPost2010Prop35
280
     0
102
RTVSPost2010PropOp35
 70
     1
102
RTVSPost2010Prop36
280
     0
102
RTVSPost2010PropOp36
 70
     1
102
RTVSPost2010Prop37
 90
       50
102
RTVSPost2010PropOp37
 70
     1
102
RTVSPost2010Prop38
140
0.0
102
RTVSPost2010PropOp38
 70
     1
102
RTVSPost2010Prop39
140
1.0
102
RTVSPost2010PropOp39
 70
     1
102
RTVSPost2010Prop40
 90
        0
102
RTVSPost2010PropOp40
 70
     1
102
RTVSPost2010Prop41ColorIndex
 90
       18
102
RTVSPost2010Prop41ColorRGB
 90
        0
102
RTVSPost2010PropOp41
 70
     1
102
RTVSPost2010Prop42
 90
       50
102
RTVSPost2010PropOp42
 70
     1
102
RTVSPost2010Prop43
 90
        3
102
RTVSPost2010PropOp43
 70
     1
102
RTVSPost2010Prop44ColorIndex
 90
        5
102
RTVSPost2010Prop44ColorRGB
 90
      255
102
RTVSPost2010PropOp44
 70
     1
102
RTVSPost2010Prop45
280
     0
102
RTVSPost2010PropOp45
 70
     1
102
RTVSPost2010Prop46
 90
       50
102
RTVSPost2010PropOp46
 70
     1
102
RTVSPost2010Prop47
 90
       50
102
RTVSPost2010PropOp47
 70
     1
102
RTVSPost2010Prop48
 90
       50
102
RTVSPost2010PropOp48
 70
     1
102
RTVSPost2010Prop49
280
     0
102
RTVSPost2010PropOp49
 70
     1
102
RTVSPost2010Prop50
 90
       50
102
RTVSPost2010PropOp50
 70
     1
102
RTVSPost2010Prop51ColorIndex
 90
      256
102
RTVSPost2010Prop51ColorRGB
 90
-16777216
102
RTVSPost2010PropOp51
 70
     0
102
RTVSPost2010Prop52
140
1.0
102
RTVSPost2010PropOp52
 70
     0
102
RTVSPost2010Prop53
 90
        2
102
RTVSPost2010PropOp53
 70
     1
102
RTVSPost2010Prop54
  1
strokes_ogs.tif
102
RTVSPost2010PropOp54
 70
     1
102
RTVSPost2010Prop55
280
     0
102
RTVSPost2010PropOp55
 70
     1
102
RTVSPost2010Prop56
140
1.0
102
RTVSPost2010PropOp56
 70
     1
102
RTVSPost2010Prop57
140
1.0
102
RTVSPost2010PropOp57
 70
     1
102
RTVSPropertyOp0
 70
     1
102
RTVSPropertyOp1
 70
     1
102
RTVSPropertyOp2
 70
     1
102
RTVSPropertyOp3
 70
     1
102
RTVSPropertyOp4
 70
     1
102
RTVSPropertyOp5
 70
     1
102
RTVSPropertyOp6
 70
     1
102
RTVSPropertyOp7
 70
     1
102
RTVSPropertyOp8
 70
     1
102
RTVSPropertyOp9
 70
     1
102
RTVSPropertyOp10
 70
     1
102
RTVSPropertyOp11
 70
     1
102
RTVSPropertyOp12
 70
     1
102
RTVSPropertyOp13
 70
     1
102
RTVSPropertyOp14
 70
     1
102
RTVSPropertyOp15
 70
     1
102
RTVSPropertyOp16
 70
     1
102
RTVSPropertyOp17
 70
     1
102
RTVSPropertyOp18
 70
     1
102
RTVSPropertyOp19
 70
     1
102
RTVSPropertyOp20
 70
     1
102
RTVSPropertyOp21
 70
     1
102
RTVSPropertyOp22
 70
     1
102
RTVSPropertyOp23
 70
     1
102
RTVSPropertyOp24
 70
     1
102
RTVSPropertyOp25
 70
     1
102
RTVSPropertyOp26
 70
     1
102
RTVSPropertyOp27
 70
     1
102
RTVSPropertyOp28
 70
     1
102
RTVSPropertyOp29
 70
     1
102
RTVSPropertyOp30
 70
     1
102
RTVSPropertyOp31
 70
     1
102
RTVSPropertyOp32
 70
     1
102
RTVSPropertyOp33
 70
     1
102
RTVSPropertyOp34
 70
     1
102
RTVSPropertyOp35
 70
     1
102
RTVSPropertyOp36
 70
     1
102
RTVSPropertyOp37
 70
     1
102
RTVSPropertyOp38
 70
     1
102
RTVSPropertyOp39
 70
     1
102
RTVSPropertyOp40
 70
     1
102
RTVSPropertyOp41
 70
     1
102
RTVSPropertyOp42
 70
     1
102
RTVSPropertyOp43
 70
     1
102
RTVSPropertyOp44
 70
     1
102
RTVSPropertyOp45
 70
     1
102
RTVSPropertyOp46
 70
     1
102
RTVSPropertyOp47
 70
     1
102
RTVSPropertyOp48
 70
     1
102
RTVSPropertyOp49
 70
     1
102
RTVSPropertyOp50
 70
     1
102
RTVSPropertyOp51
 70
     0
102
RTVSPropertyOp52
 70
     0
102
RTVSPropertyOp53
 70
     1
102
RTVSPropertyOp54
 70
     1
102
RTVSPropertyOp55
 70
     1
102
RTVSPropertyOp56
 70
     1
102
RTVSPropertyOp57
 70
     1
102
RTVSPropertyOp58
 70
     1
102
RTVSPropertyOp59
 70
     1
102
RTVSPropertyOp60
 70
     1
102
RTVSPropertyOp61
 70
     1
102
RTVSPropertyOp62
 70
     1
  0
XRECORD
  5
16A7
102
{ACAD_REACTORS
330
16A6
102
}
330
16A6
100
AcDbXrecord
280
     1
102
RTVSPost2010Prop28
280
     0
102
RTVSPost2010PropOp28
 70
     1
102
RTVSPost2010Prop29
280
     1
102
RTVSPost2010PropOp29
 70
     1
102
RTVSPost2010Prop30
280
     1
102
RTVSPost2010PropOp30
 70
     1
102
RTVSPost2010Prop31
280
     0
102
RTVSPost2010PropOp31
 70
     1
102
RTVSPost2010Prop32
280
     0
102
RTVSPost2010PropOp32
 70
     1
102
RTVSPost2010Prop33
280
     0
102
RTVSPost2010PropOp33
 70
     1
102
RTVSPost2010Prop34
280
     0
102
RTVSPost2010PropOp34
 70
     1
102
RTVSPost2010Prop35
280
     0
102
RTVSPost2010PropOp35
 70
     1
102
RTVSPost2010Prop36
280
     0
102
RTVSPost2010PropOp36
 70
     1
102
RTVSPost2010Prop37
 90
       50
102
RTVSPost2010PropOp37
 70
     1
102
RTVSPost2010Prop38
140
0.0
102
RTVSPost2010PropOp38
 70
     1
102
RTVSPost2010Prop39
140
1.0
102
RTVSPost2010PropOp39
 70
     1
102
RTVSPost2010Prop40
 90
        0
102
RTVSPost2010PropOp40
 70
     1
102
RTVSPost2010Prop41ColorIndex
 90
       18
102
RTVSPost2010Prop41ColorRGB
 90
        0
102
RTVSPost2010PropOp41
 70
     1
102
RTVSPost2010Prop42
 90
       50
102
RTVSPost2010PropOp42
 70
     1
102
RTVSPost2010Prop43
 90
        3
102
RTVSPost2010PropOp43
 70
     1
102
RTVSPost2010Prop44ColorIndex
 90
        5
102
RTVSPost2010Prop44ColorRGB
 90
      255
102
RTVSPost2010PropOp44
 70
     1
102
RTVSPost2010Prop45
280
     0
102
RTVSPost2010PropOp45
 70
     1
102
RTVSPost2010Prop46
 90
       50
102
RTVSPost2010PropOp46
 70
     1
102
RTVSPost2010Prop47
 90
       50
102
RTVSPost2010PropOp47
 70
     1
102
RTVSPost2010Prop48
 90
       50
102
RTVSPost2010PropOp48
 70
     1
102
RTVSPost2010Prop49
280
     0
102
RTVSPost2010PropOp49
 70
     1
102
RTVSPost2010Prop50
 90
       50
102
RTVSPost2010PropOp50
 70
     1
102
RTVSPost2010Prop51ColorIndex
 90
      256
102
RTVSPost2010Prop51ColorRGB
 90
-16777216
102
RTVSPost2010PropOp51
 70
     0
102
RTVSPost2010Prop52
140
1.0
102
RTVSPost2010PropOp52
 70
     0
102
RTVSPost2010Prop53
 90
        2
102
RTVSPost2010PropOp53
 70
     1
102
RTVSPost2010Prop54
  1
strokes_ogs.tif
102
RTVSPost2010PropOp54
 70
     1
102
RTVSPost2010Prop55
280
     0
102
RTVSPost2010PropOp55
 70
     1
102
RTVSPost2010Prop56
140
1.0
102
RTVSPost2010PropOp56
 70
     1
102
RTVSPost2010Prop57
140
1.0
102
RTVSPost2010PropOp57
 70
     1
102
RTVSPropertyOp0
 70
     1
102
RTVSPropertyOp1
 70
     1
102
RTVSPropertyOp2
 70
     1
102
RTVSPropertyOp3
 70
     1
102
RTVSPropertyOp4
 70
     1
102
RTVSPropertyOp5
 70
     1
102
RTVSPropertyOp6
 70
     1
102
RTVSPropertyOp7
 70
     1
102
RTVSPropertyOp8
 70
     1
102
RTVSPropertyOp9
 70
     1
102
RTVSPropertyOp10
 70
     1
102
RTVSPropertyOp11
 70
     1
102
RTVSPropertyOp12
 70
     1
102
RTVSPropertyOp13
 70
     1
102
RTVSPropertyOp14
 70
     1
102
RTVSPropertyOp15
 70
     1
102
RTVSPropertyOp16
 70
     1
102
RTVSPropertyOp17
 70
     1
102
RTVSPropertyOp18
 70
     1
102
RTVSPropertyOp19
 70
     1
102
RTVSPropertyOp20
 70
     1
102
RTVSPropertyOp21
 70
     1
102
RTVSPropertyOp22
 70
     1
102
RTVSPropertyOp23
 70
     1
102
RTVSPropertyOp24
 70
     1
102
RTVSPropertyOp25
 70
     1
102
RTVSPropertyOp26
 70
     1
102
RTVSPropertyOp27
 70
     1
102
RTVSPropertyOp28
 70
     1
102
RTVSPropertyOp29
 70
     1
102
RTVSPropertyOp30
 70
     1
102
RTVSPropertyOp31
 70
     1
102
RTVSPropertyOp32
 70
     1
102
RTVSPropertyOp33
 70
     1
102
RTVSPropertyOp34
 70
     1
102
RTVSPropertyOp35
 70
     1
102
RTVSPropertyOp36
 70
     1
102
RTVSPropertyOp37
 70
     1
102
RTVSPropertyOp38
 70
     1
102
RTVSPropertyOp39
 70
     1
102
RTVSPropertyOp40
 70
     1
102
RTVSPropertyOp41
 70
     1
102
RTVSPropertyOp42
 70
     1
102
RTVSPropertyOp43
 70
     1
102
RTVSPropertyOp44
 70
     1
102
RTVSPropertyOp45
 70
     1
102
RTVSPropertyOp46
 70
     1
102
RTVSPropertyOp47
 70
     1
102
RTVSPropertyOp48
 70
     1
102
RTVSPropertyOp49
 70
     1
102
RTVSPropertyOp50
 70
     1
102
RTVSPropertyOp51
 70
     0
102
RTVSPropertyOp52
 70
     0
102
RTVSPropertyOp53
 70
     1
102
RTVSPropertyOp54
 70
     1
102
RTVSPropertyOp55
 70
     1
102
RTVSPropertyOp56
 70
     1
102
RTVSPropertyOp57
 70
     1
102
RTVSPropertyOp58
 70
     1
102
RTVSPropertyOp59
 70
     1
102
RTVSPropertyOp60
 70
     1
102
RTVSPropertyOp61
 70
     1
102
RTVSPropertyOp62
 70
     1
  0
XRECORD
  5
16A9
102
{ACAD_REACTORS
330
16A8
102
}
330
16A8
100
AcDbXrecord
280
     1
102
RTVSPost2010Prop28
280
     0
102
RTVSPost2010PropOp28
 70
     1
102
RTVSPost2010Prop29
280
     1
102
RTVSPost2010PropOp29
 70
     1
102
RTVSPost2010Prop30
280
     1
102
RTVSPost2010PropOp30
 70
     1
102
RTVSPost2010Prop31
280
     0
102
RTVSPost2010PropOp31
 70
     1
102
RTVSPost2010Prop32
280
     0
102
RTVSPost2010PropOp32
 70
     1
102
RTVSPost2010Prop33
280
     0
102
RTVSPost2010PropOp33
 70
     1
102
RTVSPost2010Prop34
280
     0
102
RTVSPost2010PropOp34
 70
     1
102
RTVSPost2010Prop35
280
     0
102
RTVSPost2010PropOp35
 70
     1
102
RTVSPost2010Prop36
280
     0
102
RTVSPost2010PropOp36
 70
     1
102
RTVSPost2010Prop37
 90
       50
102
RTVSPost2010PropOp37
 70
     1
102
RTVSPost2010Prop38
140
0.0
102
RTVSPost2010PropOp38
 70
     1
102
RTVSPost2010Prop39
140
1.0
102
RTVSPost2010PropOp39
 70
     1
102
RTVSPost2010Prop40
 90
        0
102
RTVSPost2010PropOp40
 70
     1
102
RTVSPost2010Prop41ColorIndex
 90
       18
102
RTVSPost2010Prop41ColorRGB
 90
        0
102
RTVSPost2010PropOp41
 70
     1
102
RTVSPost2010Prop42
 90
       50
102
RTVSPost2010PropOp42
 70
     1
102
RTVSPost2010Prop43
 90
        3
102
RTVSPost2010PropOp43
 70
     1
102
RTVSPost2010Prop44ColorIndex
 90
        5
102
RTVSPost2010Prop44ColorRGB
 90
      255
102
RTVSPost2010PropOp44
 70
     1
102
RTVSPost2010Prop45
280
     0
102
RTVSPost2010PropOp45
 70
     1
102
RTVSPost2010Prop46
 90
       50
102
RTVSPost2010PropOp46
 70
     1
102
RTVSPost2010Prop47
 90
       50
102
RTVSPost2010PropOp47
 70
     1
102
RTVSPost2010Prop48
 90
       50
102
RTVSPost2010PropOp48
 70
     1
102
RTVSPost2010Prop49
280
     0
102
RTVSPost2010PropOp49
 70
     1
102
RTVSPost2010Prop50
 90
       50
102
RTVSPost2010PropOp50
 70
     1
102
RTVSPost2010Prop51ColorIndex
 90
      256
102
RTVSPost2010Prop51ColorRGB
 90
-16777216
102
RTVSPost2010PropOp51
 70
     0
102
RTVSPost2010Prop52
140
1.0
102
RTVSPost2010PropOp52
 70
     0
102
RTVSPost2010Prop53
 90
        2
102
RTVSPost2010PropOp53
 70
     1
102
RTVSPost2010Prop54
  1
strokes_ogs.tif
102
RTVSPost2010PropOp54
 70
     1
102
RTVSPost2010Prop55
280
     0
102
RTVSPost2010PropOp55
 70
     1
102
RTVSPost2010Prop56
140
1.0
102
RTVSPost2010PropOp56
 70
     1
102
RTVSPost2010Prop57
140
1.0
102
RTVSPost2010PropOp57
 70
     1
102
RTVSPropertyOp0
 70
     1
102
RTVSPropertyOp1
 70
     1
102
RTVSPropertyOp2
 70
     1
102
RTVSPropertyOp3
 70
     1
102
RTVSPropertyOp4
 70
     1
102
RTVSPropertyOp5
 70
     1
102
RTVSPropertyOp6
 70
     1
102
RTVSPropertyOp7
 70
     1
102
RTVSPropertyOp8
 70
     1
102
RTVSPropertyOp9
 70
     1
102
RTVSPropertyOp10
 70
     1
102
RTVSPropertyOp11
 70
     1
102
RTVSPropertyOp12
 70
     1
102
RTVSPropertyOp13
 70
     1
102
RTVSPropertyOp14
 70
     1
102
RTVSPropertyOp15
 70
     1
102
RTVSPropertyOp16
 70
     1
102
RTVSPropertyOp17
 70
     1
102
RTVSPropertyOp18
 70
     1
102
RTVSPropertyOp19
 70
     1
102
RTVSPropertyOp20
 70
     1
102
RTVSPropertyOp21
 70
     1
102
RTVSPropertyOp22
 70
     1
102
RTVSPropertyOp23
 70
     1
102
RTVSPropertyOp24
 70
     1
102
RTVSPropertyOp25
 70
     1
102
RTVSPropertyOp26
 70
     1
102
RTVSPropertyOp27
 70
     1
102
RTVSPropertyOp28
 70
     1
102
RTVSPropertyOp29
 70
     1
102
RTVSPropertyOp30
 70
     1
102
RTVSPropertyOp31
 70
     1
102
RTVSPropertyOp32
 70
     1
102
RTVSPropertyOp33
 70
     1
102
RTVSPropertyOp34
 70
     1
102
RTVSPropertyOp35
 70
     1
102
RTVSPropertyOp36
 70
     1
102
RTVSPropertyOp37
 70
     1
102
RTVSPropertyOp38
 70
     1
102
RTVSPropertyOp39
 70
     1
102
RTVSPropertyOp40
 70
     1
102
RTVSPropertyOp41
 70
     1
102
RTVSPropertyOp42
 70
     1
102
RTVSPropertyOp43
 70
     1
102
RTVSPropertyOp44
 70
     1
102
RTVSPropertyOp45
 70
     1
102
RTVSPropertyOp46
 70
     1
102
RTVSPropertyOp47
 70
     1
102
RTVSPropertyOp48
 70
     1
102
RTVSPropertyOp49
 70
     1
102
RTVSPropertyOp50
 70
     1
102
RTVSPropertyOp51
 70
     0
102
RTVSPropertyOp52
 70
     0
102
RTVSPropertyOp53
 70
     1
102
RTVSPropertyOp54
 70
     1
102
RTVSPropertyOp55
 70
     1
102
RTVSPropertyOp56
 70
     1
102
RTVSPropertyOp57
 70
     1
102
RTVSPropertyOp58
 70
     1
102
RTVSPropertyOp59
 70
     1
102
RTVSPropertyOp60
 70
     1
102
RTVSPropertyOp61
 70
     1
102
RTVSPropertyOp62
 70
     1
  0
XRECORD
  5
16B1
102
{ACAD_REACTORS
330
16B0
102
}
330
16B0
100
AcDbXrecord
280
     1
102
RTVSPost2010Prop28
280
     0
102
RTVSPost2010PropOp28
 70
     1
102
RTVSPost2010Prop29
280
     1
102
RTVSPost2010PropOp29
 70
     1
102
RTVSPost2010Prop30
280
     1
102
RTVSPost2010PropOp30
 70
     1
102
RTVSPost2010Prop31
280
     0
102
RTVSPost2010PropOp31
 70
     1
102
RTVSPost2010Prop32
280
     0
102
RTVSPost2010PropOp32
 70
     1
102
RTVSPost2010Prop33
280
     0
102
RTVSPost2010PropOp33
 70
     1
102
RTVSPost2010Prop34
280
     0
102
RTVSPost2010PropOp34
 70
     1
102
RTVSPost2010Prop35
280
     0
102
RTVSPost2010PropOp35
 70
     1
102
RTVSPost2010Prop36
280
     0
102
RTVSPost2010PropOp36
 70
     1
102
RTVSPost2010Prop37
 90
       50
102
RTVSPost2010PropOp37
 70
     1
102
RTVSPost2010Prop38
140
0.0
102
RTVSPost2010PropOp38
 70
     1
102
RTVSPost2010Prop39
140
1.0
102
RTVSPost2010PropOp39
 70
     1
102
RTVSPost2010Prop40
 90
        0
102
RTVSPost2010PropOp40
 70
     1
102
RTVSPost2010Prop41ColorIndex
 90
       18
102
RTVSPost2010Prop41ColorRGB
 90
        0
102
RTVSPost2010PropOp41
 70
     1
102
RTVSPost2010Prop42
 90
       50
102
RTVSPost2010PropOp42
 70
     1
102
RTVSPost2010Prop43
 90
        3
102
RTVSPost2010PropOp43
 70
     1
102
RTVSPost2010Prop44ColorIndex
 90
        5
102
RTVSPost2010Prop44ColorRGB
 90
      255
102
RTVSPost2010PropOp44
 70
     1
102
RTVSPost2010Prop45
280
     0
102
RTVSPost2010PropOp45
 70
     1
102
RTVSPost2010Prop46
 90
       50
102
RTVSPost2010PropOp46
 70
     1
102
RTVSPost2010Prop47
 90
       50
102
RTVSPost2010PropOp47
 70
     1
102
RTVSPost2010Prop48
 90
       50
102
RTVSPost2010PropOp48
 70
     1
102
RTVSPost2010Prop49
280
     0
102
RTVSPost2010PropOp49
 70
     1
102
RTVSPost2010Prop50
 90
       50
102
RTVSPost2010PropOp50
 70
     1
102
RTVSPost2010Prop51ColorIndex
 90
      256
102
RTVSPost2010Prop51ColorRGB
 90
-16777216
102
RTVSPost2010PropOp51
 70
     0
102
RTVSPost2010Prop52
140
1.0
102
RTVSPost2010PropOp52
 70
     0
102
RTVSPost2010Prop53
 90
        2
102
RTVSPost2010PropOp53
 70
     1
102
RTVSPost2010Prop54
  1
strokes_ogs.tif
102
RTVSPost2010PropOp54
 70
     1
102
RTVSPost2010Prop55
280
     0
102
RTVSPost2010PropOp55
 70
     1
102
RTVSPost2010Prop56
140
1.0
102
RTVSPost2010PropOp56
 70
     1
102
RTVSPost2010Prop57
140
1.0
102
RTVSPost2010PropOp57
 70
     1
102
RTVSPropertyOp0
 70
     1
102
RTVSPropertyOp1
 70
     1
102
RTVSPropertyOp2
 70
     1
102
RTVSPropertyOp3
 70
     1
102
RTVSPropertyOp4
 70
     1
102
RTVSPropertyOp5
 70
     1
102
RTVSPropertyOp6
 70
     1
102
RTVSPropertyOp7
 70
     1
102
RTVSPropertyOp8
 70
     1
102
RTVSPropertyOp9
 70
     1
102
RTVSPropertyOp10
 70
     1
102
RTVSPropertyOp11
 70
     1
102
RTVSPropertyOp12
 70
     1
102
RTVSPropertyOp13
 70
     1
102
RTVSPropertyOp14
 70
     1
102
RTVSPropertyOp15
 70
     1
102
RTVSPropertyOp16
 70
     1
102
RTVSPropertyOp17
 70
     1
102
RTVSPropertyOp18
 70
     1
102
RTVSPropertyOp19
 70
     1
102
RTVSPropertyOp20
 70
     1
102
RTVSPropertyOp21
 70
     1
102
RTVSPropertyOp22
 70
     1
102
RTVSPropertyOp23
 70
     1
102
RTVSPropertyOp24
 70
     1
102
RTVSPropertyOp25
 70
     1
102
RTVSPropertyOp26
 70
     1
102
RTVSPropertyOp27
 70
     1
102
RTVSPropertyOp28
 70
     1
102
RTVSPropertyOp29
 70
     1
102
RTVSPropertyOp30
 70
     1
102
RTVSPropertyOp31
 70
     1
102
RTVSPropertyOp32
 70
     1
102
RTVSPropertyOp33
 70
     1
102
RTVSPropertyOp34
 70
     1
102
RTVSPropertyOp35
 70
     1
102
RTVSPropertyOp36
 70
     1
102
RTVSPropertyOp37
 70
     1
102
RTVSPropertyOp38
 70
     1
102
RTVSPropertyOp39
 70
     1
102
RTVSPropertyOp40
 70
     1
102
RTVSPropertyOp41
 70
     1
102
RTVSPropertyOp42
 70
     1
102
RTVSPropertyOp43
 70
     1
102
RTVSPropertyOp44
 70
     1
102
RTVSPropertyOp45
 70
     1
102
RTVSPropertyOp46
 70
     1
102
RTVSPropertyOp47
 70
     1
102
RTVSPropertyOp48
 70
     1
102
RTVSPropertyOp49
 70
     1
102
RTVSPropertyOp50
 70
     1
102
RTVSPropertyOp51
 70
     0
102
RTVSPropertyOp52
 70
     0
102
RTVSPropertyOp53
 70
     1
102
RTVSPropertyOp54
 70
     1
102
RTVSPropertyOp55
 70
     1
102
RTVSPropertyOp56
 70
     1
102
RTVSPropertyOp57
 70
     1
102
RTVSPropertyOp58
 70
     1
102
RTVSPropertyOp59
 70
     1
102
RTVSPropertyOp60
 70
     1
102
RTVSPropertyOp61
 70
     1
102
RTVSPropertyOp62
 70
     1
  0
XRECORD
  5
16CD
102
{ACAD_REACTORS
330
16CC
102
}
330
16CC
100
AcDbXrecord
280
     1
102
RTVSPost2010Prop28
280
     0
102
RTVSPost2010PropOp28
 70
     0
102
RTVSPost2010Prop29
280
     1
102
RTVSPost2010PropOp29
 70
     0
102
RTVSPost2010Prop30
280
     1
102
RTVSPost2010PropOp30
 70
     0
102
RTVSPost2010Prop31
280
     0
102
RTVSPost2010PropOp31
 70
     0
102
RTVSPost2010Prop32
280
     0
102
RTVSPost2010PropOp32
 70
     0
102
RTVSPost2010Prop33
280
     0
102
RTVSPost2010PropOp33
 70
     0
102
RTVSPost2010Prop34
280
     0
102
RTVSPost2010PropOp34
 70
     0
102
RTVSPost2010Prop35
280
     0
102
RTVSPost2010PropOp35
 70
     0
102
RTVSPost2010Prop36
280
     0
102
RTVSPost2010PropOp36
 70
     0
102
RTVSPost2010Prop37
 90
       50
102
RTVSPost2010PropOp37
 70
     0
102
RTVSPost2010Prop38
140
0.0
102
RTVSPost2010PropOp38
 70
     0
102
RTVSPost2010Prop39
140
1.0
102
RTVSPost2010PropOp39
 70
     0
102
RTVSPost2010Prop40
 90
        0
102
RTVSPost2010PropOp40
 70
     0
102
RTVSPost2010Prop41ColorIndex
 90
       18
102
RTVSPost2010Prop41ColorRGB
 90
        0
102
RTVSPost2010PropOp41
 70
     0
102
RTVSPost2010Prop42
 90
       50
102
RTVSPost2010PropOp42
 70
     0
102
RTVSPost2010Prop43
 90
        3
102
RTVSPost2010PropOp43
 70
     0
102
RTVSPost2010Prop44ColorIndex
 90
        5
102
RTVSPost2010Prop44ColorRGB
 90
      255
102
RTVSPost2010PropOp44
 70
     0
102
RTVSPost2010Prop45
280
     0
102
RTVSPost2010PropOp45
 70
     0
102
RTVSPost2010Prop46
 90
       50
102
RTVSPost2010PropOp46
 70
     0
102
RTVSPost2010Prop47
 90
       50
102
RTVSPost2010PropOp47
 70
     0
102
RTVSPost2010Prop48
 90
       50
102
RTVSPost2010PropOp48
 70
     0
102
RTVSPost2010Prop49
280
     0
102
RTVSPost2010PropOp49
 70
     0
102
RTVSPost2010Prop50
 90
       50
102
RTVSPost2010PropOp50
 70
     0
102
RTVSPost2010Prop51ColorIndex
 90
      256
102
RTVSPost2010Prop51ColorRGB
 90
-16777216
102
RTVSPost2010PropOp51
 70
     0
102
RTVSPost2010Prop52
140
1.0
102
RTVSPost2010PropOp52
 70
     0
102
RTVSPost2010Prop53
 90
        2
102
RTVSPost2010PropOp53
 70
     0
102
RTVSPost2010Prop54
  1
strokes_ogs.tif
102
RTVSPost2010PropOp54
 70
     0
102
RTVSPost2010Prop55
280
     0
102
RTVSPost2010PropOp55
 70
     0
102
RTVSPost2010Prop56
140
1.0
102
RTVSPost2010PropOp56
 70
     0
102
RTVSPost2010Prop57
140
1.0
102
RTVSPost2010PropOp57
 70
     0
102
RTVSPropertyOp0
 70
     0
102
RTVSPropertyOp1
 70
     0
102
RTVSPropertyOp2
 70
     0
102
RTVSPropertyOp3
 70
     0
102
RTVSPropertyOp4
 70
     0
102
RTVSPropertyOp5
 70
     0
102
RTVSPropertyOp6
 70
     0
102
RTVSPropertyOp7
 70
     0
102
RTVSPropertyOp8
 70
     0
102
RTVSPropertyOp9
 70
     0
102
RTVSPropertyOp10
 70
     0
102
RTVSPropertyOp11
 70
     0
102
RTVSPropertyOp12
 70
     0
102
RTVSPropertyOp13
 70
     0
102
RTVSPropertyOp14
 70
     2
102
RTVSPropertyOp15
 70
     0
102
RTVSPropertyOp16
 70
     0
102
RTVSPropertyOp17
 70
     0
102
RTVSPropertyOp18
 70
     0
102
RTVSPropertyOp19
 70
     0
102
RTVSPropertyOp20
 70
     0
102
RTVSPropertyOp21
 70
     0
102
RTVSPropertyOp22
 70
     0
102
RTVSPropertyOp23
 70
     0
102
RTVSPropertyOp24
 70
     0
102
RTVSPropertyOp25
 70
     0
102
RTVSPropertyOp26
 70
     0
102
RTVSPropertyOp27
 70
     0
102
RTVSPropertyOp28
 70
     0
102
RTVSPropertyOp29
 70
     0
102
RTVSPropertyOp30
 70
     0
102
RTVSPropertyOp31
 70
     0
102
RTVSPropertyOp32
 70
     0
102
RTVSPropertyOp33
 70
     0
102
RTVSPropertyOp34
 70
     0
102
RTVSPropertyOp35
 70
     0
102
RTVSPropertyOp36
 70
     0
102
RTVSPropertyOp37
 70
     0
102
RTVSPropertyOp38
 70
     0
102
RTVSPropertyOp39
 70
     0
102
RTVSPropertyOp40
 70
     0
102
RTVSPropertyOp41
 70
     0
102
RTVSPropertyOp42
 70
     0
102
RTVSPropertyOp43
 70
     0
102
RTVSPropertyOp44
 70
     0
102
RTVSPropertyOp45
 70
     0
102
RTVSPropertyOp46
 70
     0
102
RTVSPropertyOp47
 70
     0
102
RTVSPropertyOp48
 70
     0
102
RTVSPropertyOp49
 70
     0
102
RTVSPropertyOp50
 70
     0
102
RTVSPropertyOp51
 70
     0
102
RTVSPropertyOp52
 70
     0
102
RTVSPropertyOp53
 70
     0
102
RTVSPropertyOp54
 70
     0
102
RTVSPropertyOp55
 70
     0
102
RTVSPropertyOp56
 70
     0
102
RTVSPropertyOp57
 70
     0
102
RTVSPropertyOp58
 70
     0
102
RTVSPropertyOp59
 70
     0
102
RTVSPropertyOp60
 70
     0
102
RTVSPropertyOp61
 70
     0
102
RTVSPropertyOp62
 70
     0
  0
XRECORD
  5
16BD
102
{ACAD_REACTORS
330
16BC
102
}
330
16BC
100
AcDbXrecord
280
     1
102
RTVSPost2010Prop28
280
     0
102
RTVSPost2010PropOp28
 70
     1
102
RTVSPost2010Prop29
280
     1
102
RTVSPost2010PropOp29
 70
     1
102
RTVSPost2010Prop30
280
     1
102
RTVSPost2010PropOp30
 70
     1
102
RTVSPost2010Prop31
280
     0
102
RTVSPost2010PropOp31
 70
     1
102
RTVSPost2010Prop32
280
     0
102
RTVSPost2010PropOp32
 70
     1
102
RTVSPost2010Prop33
280
     0
102
RTVSPost2010PropOp33
 70
     1
102
RTVSPost2010Prop34
280
     0
102
RTVSPost2010PropOp34
 70
     1
102
RTVSPost2010Prop35
280
     0
102
RTVSPost2010PropOp35
 70
     1
102
RTVSPost2010Prop36
280
     0
102
RTVSPost2010PropOp36
 70
     1
102
RTVSPost2010Prop37
 90
       50
102
RTVSPost2010PropOp37
 70
     1
102
RTVSPost2010Prop38
140
0.0
102
RTVSPost2010PropOp38
 70
     1
102
RTVSPost2010Prop39
140
1.0
102
RTVSPost2010PropOp39
 70
     1
102
RTVSPost2010Prop40
 90
        0
102
RTVSPost2010PropOp40
 70
     1
102
RTVSPost2010Prop41ColorIndex
 90
       18
102
RTVSPost2010Prop41ColorRGB
 90
        0
102
RTVSPost2010PropOp41
 70
     1
102
RTVSPost2010Prop42
 90
       50
102
RTVSPost2010PropOp42
 70
     1
102
RTVSPost2010Prop43
 90
        3
102
RTVSPost2010PropOp43
 70
     1
102
RTVSPost2010Prop44ColorIndex
 90
        5
102
RTVSPost2010Prop44ColorRGB
 90
      255
102
RTVSPost2010PropOp44
 70
     1
102
RTVSPost2010Prop45
280
     0
102
RTVSPost2010PropOp45
 70
     1
102
RTVSPost2010Prop46
 90
       50
102
RTVSPost2010PropOp46
 70
     1
102
RTVSPost2010Prop47
 90
       50
102
RTVSPost2010PropOp47
 70
     1
102
RTVSPost2010Prop48
 90
       50
102
RTVSPost2010PropOp48
 70
     1
102
RTVSPost2010Prop49
280
     0
102
RTVSPost2010PropOp49
 70
     1
102
RTVSPost2010Prop50
 90
       50
102
RTVSPost2010PropOp50
 70
     1
102
RTVSPost2010Prop51ColorIndex
 90
      256
102
RTVSPost2010Prop51ColorRGB
 90
-16777216
102
RTVSPost2010PropOp51
 70
     0
102
RTVSPost2010Prop52
140
1.0
102
RTVSPost2010PropOp52
 70
     0
102
RTVSPost2010Prop53
 90
        2
102
RTVSPost2010PropOp53
 70
     1
102
RTVSPost2010Prop54
  1
strokes_ogs.tif
102
RTVSPost2010PropOp54
 70
     1
102
RTVSPost2010Prop55
280
     0
102
RTVSPost2010PropOp55
 70
     1
102
RTVSPost2010Prop56
140
1.0
102
RTVSPost2010PropOp56
 70
     1
102
RTVSPost2010Prop57
140
1.0
102
RTVSPost2010PropOp57
 70
     1
102
RTVSPropertyOp0
 70
     1
102
RTVSPropertyOp1
 70
     1
102
RTVSPropertyOp2
 70
     1
102
RTVSPropertyOp3
 70
     1
102
RTVSPropertyOp4
 70
     1
102
RTVSPropertyOp5
 70
     1
102
RTVSPropertyOp6
 70
     1
102
RTVSPropertyOp7
 70
     1
102
RTVSPropertyOp8
 70
     1
102
RTVSPropertyOp9
 70
     1
102
RTVSPropertyOp10
 70
     1
102
RTVSPropertyOp11
 70
     1
102
RTVSPropertyOp12
 70
     1
102
RTVSPropertyOp13
 70
     1
102
RTVSPropertyOp14
 70
     1
102
RTVSPropertyOp15
 70
     1
102
RTVSPropertyOp16
 70
     1
102
RTVSPropertyOp17
 70
     1
102
RTVSPropertyOp18
 70
     1
102
RTVSPropertyOp19
 70
     1
102
RTVSPropertyOp20
 70
     1
102
RTVSPropertyOp21
 70
     1
102
RTVSPropertyOp22
 70
     1
102
RTVSPropertyOp23
 70
     1
102
RTVSPropertyOp24
 70
     1
102
RTVSPropertyOp25
 70
     1
102
RTVSPropertyOp26
 70
     1
102
RTVSPropertyOp27
 70
     1
102
RTVSPropertyOp28
 70
     1
102
RTVSPropertyOp29
 70
     1
102
RTVSPropertyOp30
 70
     1
102
RTVSPropertyOp31
 70
     1
102
RTVSPropertyOp32
 70
     1
102
RTVSPropertyOp33
 70
     1
102
RTVSPropertyOp34
 70
     1
102
RTVSPropertyOp35
 70
     1
102
RTVSPropertyOp36
 70
     1
102
RTVSPropertyOp37
 70
     1
102
RTVSPropertyOp38
 70
     1
102
RTVSPropertyOp39
 70
     1
102
RTVSPropertyOp40
 70
     1
102
RTVSPropertyOp41
 70
     1
102
RTVSPropertyOp42
 70
     1
102
RTVSPropertyOp43
 70
     1
102
RTVSPropertyOp44
 70
     1
102
RTVSPropertyOp45
 70
     1
102
RTVSPropertyOp46
 70
     1
102
RTVSPropertyOp47
 70
     1
102
RTVSPropertyOp48
 70
     1
102
RTVSPropertyOp49
 70
     1
102
RTVSPropertyOp50
 70
     1
102
RTVSPropertyOp51
 70
     0
102
RTVSPropertyOp52
 70
     0
102
RTVSPropertyOp53
 70
     1
102
RTVSPropertyOp54
 70
     1
102
RTVSPropertyOp55
 70
     1
102
RTVSPropertyOp56
 70
     1
102
RTVSPropertyOp57
 70
     1
102
RTVSPropertyOp58
 70
     1
102
RTVSPropertyOp59
 70
     1
102
RTVSPropertyOp60
 70
     1
102
RTVSPropertyOp61
 70
     1
102
RTVSPropertyOp62
 70
     1
  0
XRECORD
  5
16CF
102
{ACAD_REACTORS
330
16CE
102
}
330
16CE
100
AcDbXrecord
280
     1
102
RTVSPost2010Prop28
280
     0
102
RTVSPost2010PropOp28
 70
     0
102
RTVSPost2010Prop29
280
     1
102
RTVSPost2010PropOp29
 70
     0
102
RTVSPost2010Prop30
280
     1
102
RTVSPost2010PropOp30
 70
     0
102
RTVSPost2010Prop31
280
     0
102
RTVSPost2010PropOp31
 70
     0
102
RTVSPost2010Prop32
280
     0
102
RTVSPost2010PropOp32
 70
     0
102
RTVSPost2010Prop33
280
     0
102
RTVSPost2010PropOp33
 70
     0
102
RTVSPost2010Prop34
280
     0
102
RTVSPost2010PropOp34
 70
     0
102
RTVSPost2010Prop35
280
     0
102
RTVSPost2010PropOp35
 70
     0
102
RTVSPost2010Prop36
280
     0
102
RTVSPost2010PropOp36
 70
     0
102
RTVSPost2010Prop37
 90
       50
102
RTVSPost2010PropOp37
 70
     0
102
RTVSPost2010Prop38
140
0.0
102
RTVSPost2010PropOp38
 70
     0
102
RTVSPost2010Prop39
140
1.0
102
RTVSPost2010PropOp39
 70
     0
102
RTVSPost2010Prop40
 90
        0
102
RTVSPost2010PropOp40
 70
     0
102
RTVSPost2010Prop41ColorIndex
 90
       18
102
RTVSPost2010Prop41ColorRGB
 90
        0
102
RTVSPost2010PropOp41
 70
     0
102
RTVSPost2010Prop42
 90
       50
102
RTVSPost2010PropOp42
 70
     0
102
RTVSPost2010Prop43
 90
        3
102
RTVSPost2010PropOp43
 70
     0
102
RTVSPost2010Prop44ColorIndex
 90
        5
102
RTVSPost2010Prop44ColorRGB
 90
      255
102
RTVSPost2010PropOp44
 70
     0
102
RTVSPost2010Prop45
280
     0
102
RTVSPost2010PropOp45
 70
     0
102
RTVSPost2010Prop46
 90
       50
102
RTVSPost2010PropOp46
 70
     0
102
RTVSPost2010Prop47
 90
       50
102
RTVSPost2010PropOp47
 70
     0
102
RTVSPost2010Prop48
 90
       50
102
RTVSPost2010PropOp48
 70
     0
102
RTVSPost2010Prop49
280
     0
102
RTVSPost2010PropOp49
 70
     0
102
RTVSPost2010Prop50
 90
       50
102
RTVSPost2010PropOp50
 70
     0
102
RTVSPost2010Prop51ColorIndex
 90
      256
102
RTVSPost2010Prop51ColorRGB
 90
-16777216
102
RTVSPost2010PropOp51
 70
     0
102
RTVSPost2010Prop52
140
1.0
102
RTVSPost2010PropOp52
 70
     0
102
RTVSPost2010Prop53
 90
        2
102
RTVSPost2010PropOp53
 70
     0
102
RTVSPost2010Prop54
  1
strokes_ogs.tif
102
RTVSPost2010PropOp54
 70
     0
102
RTVSPost2010Prop55
280
     0
102
RTVSPost2010PropOp55
 70
     0
102
RTVSPost2010Prop56
140
1.0
102
RTVSPost2010PropOp56
 70
     0
102
RTVSPost2010Prop57
140
1.0
102
RTVSPost2010PropOp57
 70
     0
102
RTVSPropertyOp0
 70
     0
102
RTVSPropertyOp1
 70
     0
102
RTVSPropertyOp2
 70
     0
102
RTVSPropertyOp3
 70
     0
102
RTVSPropertyOp4
 70
     0
102
RTVSPropertyOp5
 70
     0
102
RTVSPropertyOp6
 70
     0
102
RTVSPropertyOp7
 70
     0
102
RTVSPropertyOp8
 70
     0
102
RTVSPropertyOp9
 70
     0
102
RTVSPropertyOp10
 70
     0
102
RTVSPropertyOp11
 70
     0
102
RTVSPropertyOp12
 70
     0
102
RTVSPropertyOp13
 70
     0
102
RTVSPropertyOp14
 70
     2
102
RTVSPropertyOp15
 70
     0
102
RTVSPropertyOp16
 70
     0
102
RTVSPropertyOp17
 70
     0
102
RTVSPropertyOp18
 70
     0
102
RTVSPropertyOp19
 70
     0
102
RTVSPropertyOp20
 70
     0
102
RTVSPropertyOp21
 70
     0
102
RTVSPropertyOp22
 70
     0
102
RTVSPropertyOp23
 70
     0
102
RTVSPropertyOp24
 70
     0
102
RTVSPropertyOp25
 70
     0
102
RTVSPropertyOp26
 70
     0
102
RTVSPropertyOp27
 70
     0
102
RTVSPropertyOp28
 70
     0
102
RTVSPropertyOp29
 70
     0
102
RTVSPropertyOp30
 70
     0
102
RTVSPropertyOp31
 70
     0
102
RTVSPropertyOp32
 70
     0
102
RTVSPropertyOp33
 70
     0
102
RTVSPropertyOp34
 70
     0
102
RTVSPropertyOp35
 70
     0
102
RTVSPropertyOp36
 70
     0
102
RTVSPropertyOp37
 70
     0
102
RTVSPropertyOp38
 70
     0
102
RTVSPropertyOp39
 70
     0
102
RTVSPropertyOp40
 70
     0
102
RTVSPropertyOp41
 70
     0
102
RTVSPropertyOp42
 70
     0
102
RTVSPropertyOp43
 70
     0
102
RTVSPropertyOp44
 70
     0
102
RTVSPropertyOp45
 70
     0
102
RTVSPropertyOp46
 70
     0
102
RTVSPropertyOp47
 70
     0
102
RTVSPropertyOp48
 70
     0
102
RTVSPropertyOp49
 70
     0
102
RTVSPropertyOp50
 70
     0
102
RTVSPropertyOp51
 70
     0
102
RTVSPropertyOp52
 70
     0
102
RTVSPropertyOp53
 70
     0
102
RTVSPropertyOp54
 70
     0
102
RTVSPropertyOp55
 70
     0
102
RTVSPropertyOp56
 70
     0
102
RTVSPropertyOp57
 70
     0
102
RTVSPropertyOp58
 70
     0
102
RTVSPropertyOp59
 70
     0
102
RTVSPropertyOp60
 70
     0
102
RTVSPropertyOp61
 70
     0
102
RTVSPropertyOp62
 70
     0
  0
XRECORD
  5
16B5
102
{ACAD_REACTORS
330
16B4
102
}
330
16B4
100
AcDbXrecord
280
     1
102
RTVSPost2010Prop28
280
     0
102
RTVSPost2010PropOp28
 70
     1
102
RTVSPost2010Prop29
280
     1
102
RTVSPost2010PropOp29
 70
     1
102
RTVSPost2010Prop30
280
     1
102
RTVSPost2010PropOp30
 70
     1
102
RTVSPost2010Prop31
280
     0
102
RTVSPost2010PropOp31
 70
     1
102
RTVSPost2010Prop32
280
     0
102
RTVSPost2010PropOp32
 70
     1
102
RTVSPost2010Prop33
280
     0
102
RTVSPost2010PropOp33
 70
     1
102
RTVSPost2010Prop34
280
     0
102
RTVSPost2010PropOp34
 70
     1
102
RTVSPost2010Prop35
280
     0
102
RTVSPost2010PropOp35
 70
     1
102
RTVSPost2010Prop36
280
     0
102
RTVSPost2010PropOp36
 70
     1
102
RTVSPost2010Prop37
 90
       50
102
RTVSPost2010PropOp37
 70
     1
102
RTVSPost2010Prop38
140
0.0
102
RTVSPost2010PropOp38
 70
     1
102
RTVSPost2010Prop39
140
1.0
102
RTVSPost2010PropOp39
 70
     1
102
RTVSPost2010Prop40
 90
        0
102
RTVSPost2010PropOp40
 70
     1
102
RTVSPost2010Prop41ColorIndex
 90
       18
102
RTVSPost2010Prop41ColorRGB
 90
        0
102
RTVSPost2010PropOp41
 70
     1
102
RTVSPost2010Prop42
 90
       50
102
RTVSPost2010PropOp42
 70
     1
102
RTVSPost2010Prop43
 90
        3
102
RTVSPost2010PropOp43
 70
     1
102
RTVSPost2010Prop44ColorIndex
 90
        5
102
RTVSPost2010Prop44ColorRGB
 90
      255
102
RTVSPost2010PropOp44
 70
     1
102
RTVSPost2010Prop45
280
     0
102
RTVSPost2010PropOp45
 70
     1
102
RTVSPost2010Prop46
 90
       50
102
RTVSPost2010PropOp46
 70
     1
102
RTVSPost2010Prop47
 90
       50
102
RTVSPost2010PropOp47
 70
     1
102
RTVSPost2010Prop48
 90
       50
102
RTVSPost2010PropOp48
 70
     1
102
RTVSPost2010Prop49
280
     0
102
RTVSPost2010PropOp49
 70
     1
102
RTVSPost2010Prop50
 90
       50
102
RTVSPost2010PropOp50
 70
     1
102
RTVSPost2010Prop51ColorIndex
 90
      256
102
RTVSPost2010Prop51ColorRGB
 90
-16777216
102
RTVSPost2010PropOp51
 70
     0
102
RTVSPost2010Prop52
140
1.0
102
RTVSPost2010PropOp52
 70
     0
102
RTVSPost2010Prop53
 90
        2
102
RTVSPost2010PropOp53
 70
     1
102
RTVSPost2010Prop54
  1
strokes_ogs.tif
102
RTVSPost2010PropOp54
 70
     1
102
RTVSPost2010Prop55
280
     0
102
RTVSPost2010PropOp55
 70
     1
102
RTVSPost2010Prop56
140
1.0
102
RTVSPost2010PropOp56
 70
     1
102
RTVSPost2010Prop57
140
1.0
102
RTVSPost2010PropOp57
 70
     1
102
RTVSPropertyOp0
 70
     1
102
RTVSPropertyOp1
 70
     1
102
RTVSPropertyOp2
 70
     1
102
RTVSPropertyOp3
 70
     1
102
RTVSPropertyOp4
 70
     1
102
RTVSPropertyOp5
 70
     1
102
RTVSPropertyOp6
 70
     1
102
RTVSPropertyOp7
 70
     1
102
RTVSPropertyOp8
 70
     1
102
RTVSPropertyOp9
 70
     1
102
RTVSPropertyOp10
 70
     1
102
RTVSPropertyOp11
 70
     1
102
RTVSPropertyOp12
 70
     1
102
RTVSPropertyOp13
 70
     1
102
RTVSPropertyOp14
 70
     1
102
RTVSPropertyOp15
 70
     1
102
RTVSPropertyOp16
 70
     1
102
RTVSPropertyOp17
 70
     1
102
RTVSPropertyOp18
 70
     1
102
RTVSPropertyOp19
 70
     1
102
RTVSPropertyOp20
 70
     1
102
RTVSPropertyOp21
 70
     1
102
RTVSPropertyOp22
 70
     1
102
RTVSPropertyOp23
 70
     1
102
RTVSPropertyOp24
 70
     1
102
RTVSPropertyOp25
 70
     1
102
RTVSPropertyOp26
 70
     1
102
RTVSPropertyOp27
 70
     1
102
RTVSPropertyOp28
 70
     1
102
RTVSPropertyOp29
 70
     1
102
RTVSPropertyOp30
 70
     1
102
RTVSPropertyOp31
 70
     1
102
RTVSPropertyOp32
 70
     1
102
RTVSPropertyOp33
 70
     1
102
RTVSPropertyOp34
 70
     1
102
RTVSPropertyOp35
 70
     1
102
RTVSPropertyOp36
 70
     1
102
RTVSPropertyOp37
 70
     1
102
RTVSPropertyOp38
 70
     1
102
RTVSPropertyOp39
 70
     1
102
RTVSPropertyOp40
 70
     1
102
RTVSPropertyOp41
 70
     1
102
RTVSPropertyOp42
 70
     1
102
RTVSPropertyOp43
 70
     1
102
RTVSPropertyOp44
 70
     1
102
RTVSPropertyOp45
 70
     1
102
RTVSPropertyOp46
 70
     1
102
RTVSPropertyOp47
 70
     1
102
RTVSPropertyOp48
 70
     1
102
RTVSPropertyOp49
 70
     1
102
RTVSPropertyOp50
 70
     1
102
RTVSPropertyOp51
 70
     0
102
RTVSPropertyOp52
 70
     0
102
RTVSPropertyOp53
 70
     1
102
RTVSPropertyOp54
 70
     1
102
RTVSPropertyOp55
 70
     1
102
RTVSPropertyOp56
 70
     1
102
RTVSPropertyOp57
 70
     1
102
RTVSPropertyOp58
 70
     1
102
RTVSPropertyOp59
 70
     1
102
RTVSPropertyOp60
 70
     1
102
RTVSPropertyOp61
 70
     1
102
RTVSPropertyOp62
 70
     1
  0
XRECORD
  5
16CB
102
{ACAD_REACTORS
330
16CA
102
}
330
16CA
100
AcDbXrecord
280
     1
102
RTVSPost2010Prop28
280
     0
102
RTVSPost2010PropOp28
 70
     1
102
RTVSPost2010Prop29
280
     1
102
RTVSPost2010PropOp29
 70
     1
102
RTVSPost2010Prop30
280
     1
102
RTVSPost2010PropOp30
 70
     1
102
RTVSPost2010Prop31
280
     0
102
RTVSPost2010PropOp31
 70
     1
102
RTVSPost2010Prop32
280
     0
102
RTVSPost2010PropOp32
 70
     1
102
RTVSPost2010Prop33
280
     0
102
RTVSPost2010PropOp33
 70
     1
102
RTVSPost2010Prop34
280
     0
102
RTVSPost2010PropOp34
 70
     1
102
RTVSPost2010Prop35
280
     0
102
RTVSPost2010PropOp35
 70
     1
102
RTVSPost2010Prop36
280
     0
102
RTVSPost2010PropOp36
 70
     1
102
RTVSPost2010Prop37
 90
       50
102
RTVSPost2010PropOp37
 70
     1
102
RTVSPost2010Prop38
140
0.0
102
RTVSPost2010PropOp38
 70
     1
102
RTVSPost2010Prop39
140
1.0
102
RTVSPost2010PropOp39
 70
     1
102
RTVSPost2010Prop40
 90
        0
102
RTVSPost2010PropOp40
 70
     1
102
RTVSPost2010Prop41ColorIndex
 90
       18
102
RTVSPost2010Prop41ColorRGB
 90
        0
102
RTVSPost2010PropOp41
 70
     1
102
RTVSPost2010Prop42
 90
       50
102
RTVSPost2010PropOp42
 70
     1
102
RTVSPost2010Prop43
 90
        3
102
RTVSPost2010PropOp43
 70
     1
102
RTVSPost2010Prop44ColorIndex
 90
        5
102
RTVSPost2010Prop44ColorRGB
 90
      255
102
RTVSPost2010PropOp44
 70
     1
102
RTVSPost2010Prop45
280
     0
102
RTVSPost2010PropOp45
 70
     1
102
RTVSPost2010Prop46
 90
       50
102
RTVSPost2010PropOp46
 70
     1
102
RTVSPost2010Prop47
 90
       50
102
RTVSPost2010PropOp47
 70
     1
102
RTVSPost2010Prop48
 90
       50
102
RTVSPost2010PropOp48
 70
     1
102
RTVSPost2010Prop49
280
     0
102
RTVSPost2010PropOp49
 70
     1
102
RTVSPost2010Prop50
 90
       50
102
RTVSPost2010PropOp50
 70
     1
102
RTVSPost2010Prop51ColorIndex
 90
      256
102
RTVSPost2010Prop51ColorRGB
 90
-16777216
102
RTVSPost2010PropOp51
 70
     0
102
RTVSPost2010Prop52
140
1.0
102
RTVSPost2010PropOp52
 70
     0
102
RTVSPost2010Prop53
 90
        2
102
RTVSPost2010PropOp53
 70
     1
102
RTVSPost2010Prop54
  1
strokes_ogs.tif
102
RTVSPost2010PropOp54
 70
     1
102
RTVSPost2010Prop55
280
     0
102
RTVSPost2010PropOp55
 70
     1
102
RTVSPost2010Prop56
140
1.0
102
RTVSPost2010PropOp56
 70
     1
102
RTVSPost2010Prop57
140
1.0
102
RTVSPost2010PropOp57
 70
     1
102
RTVSPropertyOp0
 70
     1
102
RTVSPropertyOp1
 70
     1
102
RTVSPropertyOp2
 70
     1
102
RTVSPropertyOp3
 70
     1
102
RTVSPropertyOp4
 70
     1
102
RTVSPropertyOp5
 70
     1
102
RTVSPropertyOp6
 70
     1
102
RTVSPropertyOp7
 70
     1
102
RTVSPropertyOp8
 70
     1
102
RTVSPropertyOp9
 70
     1
102
RTVSPropertyOp10
 70
     1
102
RTVSPropertyOp11
 70
     1
102
RTVSPropertyOp12
 70
     1
102
RTVSPropertyOp13
 70
     1
102
RTVSPropertyOp14
 70
     1
102
RTVSPropertyOp15
 70
     1
102
RTVSPropertyOp16
 70
     1
102
RTVSPropertyOp17
 70
     1
102
RTVSPropertyOp18
 70
     1
102
RTVSPropertyOp19
 70
     1
102
RTVSPropertyOp20
 70
     1
102
RTVSPropertyOp21
 70
     1
102
RTVSPropertyOp22
 70
     1
102
RTVSPropertyOp23
 70
     1
102
RTVSPropertyOp24
 70
     1
102
RTVSPropertyOp25
 70
     1
102
RTVSPropertyOp26
 70
     1
102
RTVSPropertyOp27
 70
     1
102
RTVSPropertyOp28
 70
     1
102
RTVSPropertyOp29
 70
     1
102
RTVSPropertyOp30
 70
     1
102
RTVSPropertyOp31
 70
     1
102
RTVSPropertyOp32
 70
     1
102
RTVSPropertyOp33
 70
     1
102
RTVSPropertyOp34
 70
     1
102
RTVSPropertyOp35
 70
     1
102
RTVSPropertyOp36
 70
     1
102
RTVSPropertyOp37
 70
     1
102
RTVSPropertyOp38
 70
     1
102
RTVSPropertyOp39
 70
     1
102
RTVSPropertyOp40
 70
     1
102
RTVSPropertyOp41
 70
     1
102
RTVSPropertyOp42
 70
     1
102
RTVSPropertyOp43
 70
     1
102
RTVSPropertyOp44
 70
     1
102
RTVSPropertyOp45
 70
     1
102
RTVSPropertyOp46
 70
     1
102
RTVSPropertyOp47
 70
     1
102
RTVSPropertyOp48
 70
     1
102
RTVSPropertyOp49
 70
     1
102
RTVSPropertyOp50
 70
     1
102
RTVSPropertyOp51
 70
     0
102
RTVSPropertyOp52
 70
     0
102
RTVSPropertyOp53
 70
     1
102
RTVSPropertyOp54
 70
     1
102
RTVSPropertyOp55
 70
     1
102
RTVSPropertyOp56
 70
     1
102
RTVSPropertyOp57
 70
     1
102
RTVSPropertyOp58
 70
     1
102
RTVSPropertyOp59
 70
     1
102
RTVSPropertyOp60
 70
     1
102
RTVSPropertyOp61
 70
     1
102
RTVSPropertyOp62
 70
     1
  0
XRECORD
  5
16C9
102
{ACAD_REACTORS
330
16C8
102
}
330
16C8
100
AcDbXrecord
280
     1
102
RTVSPost2010Prop28
280
     0
102
RTVSPost2010PropOp28
 70
     1
102
RTVSPost2010Prop29
280
     1
102
RTVSPost2010PropOp29
 70
     1
102
RTVSPost2010Prop30
280
     1
102
RTVSPost2010PropOp30
 70
     1
102
RTVSPost2010Prop31
280
     0
102
RTVSPost2010PropOp31
 70
     1
102
RTVSPost2010Prop32
280
     0
102
RTVSPost2010PropOp32
 70
     1
102
RTVSPost2010Prop33
280
     0
102
RTVSPost2010PropOp33
 70
     1
102
RTVSPost2010Prop34
280
     0
102
RTVSPost2010PropOp34
 70
     1
102
RTVSPost2010Prop35
280
     0
102
RTVSPost2010PropOp35
 70
     1
102
RTVSPost2010Prop36
280
     0
102
RTVSPost2010PropOp36
 70
     1
102
RTVSPost2010Prop37
 90
       50
102
RTVSPost2010PropOp37
 70
     1
102
RTVSPost2010Prop38
140
0.0
102
RTVSPost2010PropOp38
 70
     1
102
RTVSPost2010Prop39
140
1.0
102
RTVSPost2010PropOp39
 70
     1
102
RTVSPost2010Prop40
 90
        0
102
RTVSPost2010PropOp40
 70
     1
102
RTVSPost2010Prop41ColorIndex
 90
       18
102
RTVSPost2010Prop41ColorRGB
 90
        0
102
RTVSPost2010PropOp41
 70
     1
102
RTVSPost2010Prop42
 90
       50
102
RTVSPost2010PropOp42
 70
     1
102
RTVSPost2010Prop43
 90
        3
102
RTVSPost2010PropOp43
 70
     1
102
RTVSPost2010Prop44ColorIndex
 90
        5
102
RTVSPost2010Prop44ColorRGB
 90
      255
102
RTVSPost2010PropOp44
 70
     1
102
RTVSPost2010Prop45
280
     0
102
RTVSPost2010PropOp45
 70
     1
102
RTVSPost2010Prop46
 90
       50
102
RTVSPost2010PropOp46
 70
     1
102
RTVSPost2010Prop47
 90
       50
102
RTVSPost2010PropOp47
 70
     1
102
RTVSPost2010Prop48
 90
       50
102
RTVSPost2010PropOp48
 70
     1
102
RTVSPost2010Prop49
280
     0
102
RTVSPost2010PropOp49
 70
     1
102
RTVSPost2010Prop50
 90
       50
102
RTVSPost2010PropOp50
 70
     1
102
RTVSPost2010Prop51ColorIndex
 90
      256
102
RTVSPost2010Prop51ColorRGB
 90
-16777216
102
RTVSPost2010PropOp51
 70
     0
102
RTVSPost2010Prop52
140
1.0
102
RTVSPost2010PropOp52
 70
     0
102
RTVSPost2010Prop53
 90
        2
102
RTVSPost2010PropOp53
 70
     1
102
RTVSPost2010Prop54
  1
strokes_ogs.tif
102
RTVSPost2010PropOp54
 70
     1
102
RTVSPost2010Prop55
280
     0
102
RTVSPost2010PropOp55
 70
     1
102
RTVSPost2010Prop56
140
1.0
102
RTVSPost2010PropOp56
 70
     1
102
RTVSPost2010Prop57
140
1.0
102
RTVSPost2010PropOp57
 70
     1
102
RTVSPropertyOp0
 70
     1
102
RTVSPropertyOp1
 70
     1
102
RTVSPropertyOp2
 70
     1
102
RTVSPropertyOp3
 70
     1
102
RTVSPropertyOp4
 70
     1
102
RTVSPropertyOp5
 70
     1
102
RTVSPropertyOp6
 70
     1
102
RTVSPropertyOp7
 70
     1
102
RTVSPropertyOp8
 70
     1
102
RTVSPropertyOp9
 70
     1
102
RTVSPropertyOp10
 70
     1
102
RTVSPropertyOp11
 70
     1
102
RTVSPropertyOp12
 70
     1
102
RTVSPropertyOp13
 70
     1
102
RTVSPropertyOp14
 70
     1
102
RTVSPropertyOp15
 70
     1
102
RTVSPropertyOp16
 70
     1
102
RTVSPropertyOp17
 70
     1
102
RTVSPropertyOp18
 70
     1
102
RTVSPropertyOp19
 70
     1
102
RTVSPropertyOp20
 70
     1
102
RTVSPropertyOp21
 70
     1
102
RTVSPropertyOp22
 70
     1
102
RTVSPropertyOp23
 70
     1
102
RTVSPropertyOp24
 70
     1
102
RTVSPropertyOp25
 70
     1
102
RTVSPropertyOp26
 70
     1
102
RTVSPropertyOp27
 70
     1
102
RTVSPropertyOp28
 70
     1
102
RTVSPropertyOp29
 70
     1
102
RTVSPropertyOp30
 70
     1
102
RTVSPropertyOp31
 70
     1
102
RTVSPropertyOp32
 70
     1
102
RTVSPropertyOp33
 70
     1
102
RTVSPropertyOp34
 70
     1
102
RTVSPropertyOp35
 70
     1
102
RTVSPropertyOp36
 70
     1
102
RTVSPropertyOp37
 70
     1
102
RTVSPropertyOp38
 70
     1
102
RTVSPropertyOp39
 70
     1
102
RTVSPropertyOp40
 70
     1
102
RTVSPropertyOp41
 70
     1
102
RTVSPropertyOp42
 70
     1
102
RTVSPropertyOp43
 70
     1
102
RTVSPropertyOp44
 70
     1
102
RTVSPropertyOp45
 70
     1
102
RTVSPropertyOp46
 70
     1
102
RTVSPropertyOp47
 70
     1
102
RTVSPropertyOp48
 70
     1
102
RTVSPropertyOp49
 70
     1
102
RTVSPropertyOp50
 70
     1
102
RTVSPropertyOp51
 70
     0
102
RTVSPropertyOp52
 70
     0
102
RTVSPropertyOp53
 70
     1
102
RTVSPropertyOp54
 70
     1
102
RTVSPropertyOp55
 70
     1
102
RTVSPropertyOp56
 70
     1
102
RTVSPropertyOp57
 70
     1
102
RTVSPropertyOp58
 70
     1
102
RTVSPropertyOp59
 70
     1
102
RTVSPropertyOp60
 70
     1
102
RTVSPropertyOp61
 70
     1
102
RTVSPropertyOp62
 70
     1
  0
XRECORD
  5
16C3
102
{ACAD_REACTORS
330
16C2
102
}
330
16C2
100
AcDbXrecord
280
     1
102
RTVSPost2010Prop28
280
     0
102
RTVSPost2010PropOp28
 70
     1
102
RTVSPost2010Prop29
280
     1
102
RTVSPost2010PropOp29
 70
     1
102
RTVSPost2010Prop30
280
     1
102
RTVSPost2010PropOp30
 70
     1
102
RTVSPost2010Prop31
280
     0
102
RTVSPost2010PropOp31
 70
     1
102
RTVSPost2010Prop32
280
     0
102
RTVSPost2010PropOp32
 70
     1
102
RTVSPost2010Prop33
280
     0
102
RTVSPost2010PropOp33
 70
     1
102
RTVSPost2010Prop34
280
     0
102
RTVSPost2010PropOp34
 70
     1
102
RTVSPost2010Prop35
280
     0
102
RTVSPost2010PropOp35
 70
     1
102
RTVSPost2010Prop36
280
     0
102
RTVSPost2010PropOp36
 70
     1
102
RTVSPost2010Prop37
 90
       50
102
RTVSPost2010PropOp37
 70
     1
102
RTVSPost2010Prop38
140
0.0
102
RTVSPost2010PropOp38
 70
     1
102
RTVSPost2010Prop39
140
1.0
102
RTVSPost2010PropOp39
 70
     1
102
RTVSPost2010Prop40
 90
        0
102
RTVSPost2010PropOp40
 70
     1
102
RTVSPost2010Prop41ColorIndex
 90
       18
102
RTVSPost2010Prop41ColorRGB
 90
        0
102
RTVSPost2010PropOp41
 70
     1
102
RTVSPost2010Prop42
 90
       50
102
RTVSPost2010PropOp42
 70
     1
102
RTVSPost2010Prop43
 90
        3
102
RTVSPost2010PropOp43
 70
     1
102
RTVSPost2010Prop44ColorIndex
 90
        5
102
RTVSPost2010Prop44ColorRGB
 90
      255
102
RTVSPost2010PropOp44
 70
     1
102
RTVSPost2010Prop45
280
     0
102
RTVSPost2010PropOp45
 70
     1
102
RTVSPost2010Prop46
 90
       50
102
RTVSPost2010PropOp46
 70
     1
102
RTVSPost2010Prop47
 90
       50
102
RTVSPost2010PropOp47
 70
     1
102
RTVSPost2010Prop48
 90
       50
102
RTVSPost2010PropOp48
 70
     1
102
RTVSPost2010Prop49
280
     0
102
RTVSPost2010PropOp49
 70
     1
102
RTVSPost2010Prop50
 90
       50
102
RTVSPost2010PropOp50
 70
     1
102
RTVSPost2010Prop51ColorIndex
 90
      256
102
RTVSPost2010Prop51ColorRGB
 90
-16777216
102
RTVSPost2010PropOp51
 70
     0
102
RTVSPost2010Prop52
140
1.0
102
RTVSPost2010PropOp52
 70
     0
102
RTVSPost2010Prop53
 90
        2
102
RTVSPost2010PropOp53
 70
     1
102
RTVSPost2010Prop54
  1
strokes_ogs.tif
102
RTVSPost2010PropOp54
 70
     1
102
RTVSPost2010Prop55
280
     0
102
RTVSPost2010PropOp55
 70
     1
102
RTVSPost2010Prop56
140
1.0
102
RTVSPost2010PropOp56
 70
     1
102
RTVSPost2010Prop57
140
1.0
102
RTVSPost2010PropOp57
 70
     1
102
RTVSPropertyOp0
 70
     1
102
RTVSPropertyOp1
 70
     1
102
RTVSPropertyOp2
 70
     1
102
RTVSPropertyOp3
 70
     1
102
RTVSPropertyOp4
 70
     1
102
RTVSPropertyOp5
 70
     1
102
RTVSPropertyOp6
 70
     1
102
RTVSPropertyOp7
 70
     1
102
RTVSPropertyOp8
 70
     1
102
RTVSPropertyOp9
 70
     1
102
RTVSPropertyOp10
 70
     1
102
RTVSPropertyOp11
 70
     1
102
RTVSPropertyOp12
 70
     1
102
RTVSPropertyOp13
 70
     1
102
RTVSPropertyOp14
 70
     1
102
RTVSPropertyOp15
 70
     1
102
RTVSPropertyOp16
 70
     1
102
RTVSPropertyOp17
 70
     1
102
RTVSPropertyOp18
 70
     1
102
RTVSPropertyOp19
 70
     1
102
RTVSPropertyOp20
 70
     1
102
RTVSPropertyOp21
 70
     1
102
RTVSPropertyOp22
 70
     1
102
RTVSPropertyOp23
 70
     1
102
RTVSPropertyOp24
 70
     1
102
RTVSPropertyOp25
 70
     1
102
RTVSPropertyOp26
 70
     1
102
RTVSPropertyOp27
 70
     1
102
RTVSPropertyOp28
 70
     1
102
RTVSPropertyOp29
 70
     1
102
RTVSPropertyOp30
 70
     1
102
RTVSPropertyOp31
 70
     1
102
RTVSPropertyOp32
 70
     1
102
RTVSPropertyOp33
 70
     1
102
RTVSPropertyOp34
 70
     1
102
RTVSPropertyOp35
 70
     1
102
RTVSPropertyOp36
 70
     1
102
RTVSPropertyOp37
 70
     1
102
RTVSPropertyOp38
 70
     1
102
RTVSPropertyOp39
 70
     1
102
RTVSPropertyOp40
 70
     1
102
RTVSPropertyOp41
 70
     1
102
RTVSPropertyOp42
 70
     1
102
RTVSPropertyOp43
 70
     1
102
RTVSPropertyOp44
 70
     1
102
RTVSPropertyOp45
 70
     1
102
RTVSPropertyOp46
 70
     1
102
RTVSPropertyOp47
 70
     1
102
RTVSPropertyOp48
 70
     1
102
RTVSPropertyOp49
 70
     1
102
RTVSPropertyOp50
 70
     1
102
RTVSPropertyOp51
 70
     0
102
RTVSPropertyOp52
 70
     0
102
RTVSPropertyOp53
 70
     1
102
RTVSPropertyOp54
 70
     1
102
RTVSPropertyOp55
 70
     1
102
RTVSPropertyOp56
 70
     1
102
RTVSPropertyOp57
 70
     1
102
RTVSPropertyOp58
 70
     1
102
RTVSPropertyOp59
 70
     1
102
RTVSPropertyOp60
 70
     1
102
RTVSPropertyOp61
 70
     1
102
RTVSPropertyOp62
 70
     1
  0
XRECORD
  5
16C5
102
{ACAD_REACTORS
330
16C4
102
}
330
16C4
100
AcDbXrecord
280
     1
102
RTVSPost2010Prop28
280
     0
102
RTVSPost2010PropOp28
 70
     1
102
RTVSPost2010Prop29
280
     1
102
RTVSPost2010PropOp29
 70
     1
102
RTVSPost2010Prop30
280
     1
102
RTVSPost2010PropOp30
 70
     1
102
RTVSPost2010Prop31
280
     0
102
RTVSPost2010PropOp31
 70
     1
102
RTVSPost2010Prop32
280
     0
102
RTVSPost2010PropOp32
 70
     1
102
RTVSPost2010Prop33
280
     0
102
RTVSPost2010PropOp33
 70
     1
102
RTVSPost2010Prop34
280
     0
102
RTVSPost2010PropOp34
 70
     1
102
RTVSPost2010Prop35
280
     0
102
RTVSPost2010PropOp35
 70
     1
102
RTVSPost2010Prop36
280
     0
102
RTVSPost2010PropOp36
 70
     1
102
RTVSPost2010Prop37
 90
       50
102
RTVSPost2010PropOp37
 70
     1
102
RTVSPost2010Prop38
140
0.0
102
RTVSPost2010PropOp38
 70
     1
102
RTVSPost2010Prop39
140
1.0
102
RTVSPost2010PropOp39
 70
     1
102
RTVSPost2010Prop40
 90
        0
102
RTVSPost2010PropOp40
 70
     1
102
RTVSPost2010Prop41ColorIndex
 90
       18
102
RTVSPost2010Prop41ColorRGB
 90
        0
102
RTVSPost2010PropOp41
 70
     1
102
RTVSPost2010Prop42
 90
       50
102
RTVSPost2010PropOp42
 70
     1
102
RTVSPost2010Prop43
 90
        3
102
RTVSPost2010PropOp43
 70
     1
102
RTVSPost2010Prop44ColorIndex
 90
        5
102
RTVSPost2010Prop44ColorRGB
 90
      255
102
RTVSPost2010PropOp44
 70
     1
102
RTVSPost2010Prop45
280
     0
102
RTVSPost2010PropOp45
 70
     1
102
RTVSPost2010Prop46
 90
       50
102
RTVSPost2010PropOp46
 70
     1
102
RTVSPost2010Prop47
 90
       50
102
RTVSPost2010PropOp47
 70
     1
102
RTVSPost2010Prop48
 90
       50
102
RTVSPost2010PropOp48
 70
     1
102
RTVSPost2010Prop49
280
     0
102
RTVSPost2010PropOp49
 70
     1
102
RTVSPost2010Prop50
 90
       50
102
RTVSPost2010PropOp50
 70
     1
102
RTVSPost2010Prop51ColorIndex
 90
      256
102
RTVSPost2010Prop51ColorRGB
 90
-16777216
102
RTVSPost2010PropOp51
 70
     0
102
RTVSPost2010Prop52
140
1.0
102
RTVSPost2010PropOp52
 70
     0
102
RTVSPost2010Prop53
 90
        2
102
RTVSPost2010PropOp53
 70
     1
102
RTVSPost2010Prop54
  1
strokes_ogs.tif
102
RTVSPost2010PropOp54
 70
     1
102
RTVSPost2010Prop55
280
     0
102
RTVSPost2010PropOp55
 70
     1
102
RTVSPost2010Prop56
140
1.0
102
RTVSPost2010PropOp56
 70
     1
102
RTVSPost2010Prop57
140
1.0
102
RTVSPost2010PropOp57
 70
     1
102
RTVSPropertyOp0
 70
     1
102
RTVSPropertyOp1
 70
     1
102
RTVSPropertyOp2
 70
     1
102
RTVSPropertyOp3
 70
     1
102
RTVSPropertyOp4
 70
     1
102
RTVSPropertyOp5
 70
     1
102
RTVSPropertyOp6
 70
     1
102
RTVSPropertyOp7
 70
     1
102
RTVSPropertyOp8
 70
     1
102
RTVSPropertyOp9
 70
     1
102
RTVSPropertyOp10
 70
     1
102
RTVSPropertyOp11
 70
     1
102
RTVSPropertyOp12
 70
     1
102
RTVSPropertyOp13
 70
     1
102
RTVSPropertyOp14
 70
     1
102
RTVSPropertyOp15
 70
     1
102
RTVSPropertyOp16
 70
     1
102
RTVSPropertyOp17
 70
     1
102
RTVSPropertyOp18
 70
     1
102
RTVSPropertyOp19
 70
     1
102
RTVSPropertyOp20
 70
     1
102
RTVSPropertyOp21
 70
     1
102
RTVSPropertyOp22
 70
     1
102
RTVSPropertyOp23
 70
     1
102
RTVSPropertyOp24
 70
     1
102
RTVSPropertyOp25
 70
     1
102
RTVSPropertyOp26
 70
     1
102
RTVSPropertyOp27
 70
     1
102
RTVSPropertyOp28
 70
     1
102
RTVSPropertyOp29
 70
     1
102
RTVSPropertyOp30
 70
     1
102
RTVSPropertyOp31
 70
     1
102
RTVSPropertyOp32
 70
     1
102
RTVSPropertyOp33
 70
     1
102
RTVSPropertyOp34
 70
     1
102
RTVSPropertyOp35
 70
     1
102
RTVSPropertyOp36
 70
     1
102
RTVSPropertyOp37
 70
     1
102
RTVSPropertyOp38
 70
     1
102
RTVSPropertyOp39
 70
     1
102
RTVSPropertyOp40
 70
     1
102
RTVSPropertyOp41
 70
     1
102
RTVSPropertyOp42
 70
     1
102
RTVSPropertyOp43
 70
     1
102
RTVSPropertyOp44
 70
     1
102
RTVSPropertyOp45
 70
     1
102
RTVSPropertyOp46
 70
     1
102
RTVSPropertyOp47
 70
     1
102
RTVSPropertyOp48
 70
     1
102
RTVSPropertyOp49
 70
     1
102
RTVSPropertyOp50
 70
     1
102
RTVSPropertyOp51
 70
     0
102
RTVSPropertyOp52
 70
     0
102
RTVSPropertyOp53
 70
     1
102
RTVSPropertyOp54
 70
     1
102
RTVSPropertyOp55
 70
     1
102
RTVSPropertyOp56
 70
     1
102
RTVSPropertyOp57
 70
     1
102
RTVSPropertyOp58
 70
     1
102
RTVSPropertyOp59
 70
     1
102
RTVSPropertyOp60
 70
     1
102
RTVSPropertyOp61
 70
     1
102
RTVSPropertyOp62
 70
     1
  0
XRECORD
  5
16BB
102
{ACAD_REACTORS
330
16BA
102
}
330
16BA
100
AcDbXrecord
280
     1
102
RTVSPost2010Prop28
280
     0
102
RTVSPost2010PropOp28
 70
     1
102
RTVSPost2010Prop29
280
     1
102
RTVSPost2010PropOp29
 70
     1
102
RTVSPost2010Prop30
280
     1
102
RTVSPost2010PropOp30
 70
     1
102
RTVSPost2010Prop31
280
     0
102
RTVSPost2010PropOp31
 70
     1
102
RTVSPost2010Prop32
280
     0
102
RTVSPost2010PropOp32
 70
     1
102
RTVSPost2010Prop33
280
     0
102
RTVSPost2010PropOp33
 70
     1
102
RTVSPost2010Prop34
280
     0
102
RTVSPost2010PropOp34
 70
     1
102
RTVSPost2010Prop35
280
     0
102
RTVSPost2010PropOp35
 70
     1
102
RTVSPost2010Prop36
280
     0
102
RTVSPost2010PropOp36
 70
     1
102
RTVSPost2010Prop37
 90
       50
102
RTVSPost2010PropOp37
 70
     1
102
RTVSPost2010Prop38
140
0.0
102
RTVSPost2010PropOp38
 70
     1
102
RTVSPost2010Prop39
140
1.0
102
RTVSPost2010PropOp39
 70
     1
102
RTVSPost2010Prop40
 90
        0
102
RTVSPost2010PropOp40
 70
     1
102
RTVSPost2010Prop41ColorIndex
 90
       18
102
RTVSPost2010Prop41ColorRGB
 90
        0
102
RTVSPost2010PropOp41
 70
     1
102
RTVSPost2010Prop42
 90
       50
102
RTVSPost2010PropOp42
 70
     1
102
RTVSPost2010Prop43
 90
        3
102
RTVSPost2010PropOp43
 70
     1
102
RTVSPost2010Prop44ColorIndex
 90
        5
102
RTVSPost2010Prop44ColorRGB
 90
      255
102
RTVSPost2010PropOp44
 70
     1
102
RTVSPost2010Prop45
280
     0
102
RTVSPost2010PropOp45
 70
     1
102
RTVSPost2010Prop46
 90
       50
102
RTVSPost2010PropOp46
 70
     1
102
RTVSPost2010Prop47
 90
       50
102
RTVSPost2010PropOp47
 70
     1
102
RTVSPost2010Prop48
 90
       50
102
RTVSPost2010PropOp48
 70
     1
102
RTVSPost2010Prop49
280
     0
102
RTVSPost2010PropOp49
 70
     1
102
RTVSPost2010Prop50
 90
       50
102
RTVSPost2010PropOp50
 70
     1
102
RTVSPost2010Prop51ColorIndex
 90
      256
102
RTVSPost2010Prop51ColorRGB
 90
-16777216
102
RTVSPost2010PropOp51
 70
     0
102
RTVSPost2010Prop52
140
1.0
102
RTVSPost2010PropOp52
 70
     0
102
RTVSPost2010Prop53
 90
        2
102
RTVSPost2010PropOp53
 70
     1
102
RTVSPost2010Prop54
  1
strokes_ogs.tif
102
RTVSPost2010PropOp54
 70
     1
102
RTVSPost2010Prop55
280
     0
102
RTVSPost2010PropOp55
 70
     1
102
RTVSPost2010Prop56
140
1.0
102
RTVSPost2010PropOp56
 70
     1
102
RTVSPost2010Prop57
140
1.0
102
RTVSPost2010PropOp57
 70
     1
102
RTVSPropertyOp0
 70
     1
102
RTVSPropertyOp1
 70
     1
102
RTVSPropertyOp2
 70
     1
102
RTVSPropertyOp3
 70
     1
102
RTVSPropertyOp4
 70
     1
102
RTVSPropertyOp5
 70
     1
102
RTVSPropertyOp6
 70
     1
102
RTVSPropertyOp7
 70
     1
102
RTVSPropertyOp8
 70
     1
102
RTVSPropertyOp9
 70
     1
102
RTVSPropertyOp10
 70
     1
102
RTVSPropertyOp11
 70
     1
102
RTVSPropertyOp12
 70
     1
102
RTVSPropertyOp13
 70
     1
102
RTVSPropertyOp14
 70
     1
102
RTVSPropertyOp15
 70
     1
102
RTVSPropertyOp16
 70
     1
102
RTVSPropertyOp17
 70
     1
102
RTVSPropertyOp18
 70
     1
102
RTVSPropertyOp19
 70
     1
102
RTVSPropertyOp20
 70
     1
102
RTVSPropertyOp21
 70
     1
102
RTVSPropertyOp22
 70
     1
102
RTVSPropertyOp23
 70
     1
102
RTVSPropertyOp24
 70
     1
102
RTVSPropertyOp25
 70
     1
102
RTVSPropertyOp26
 70
     1
102
RTVSPropertyOp27
 70
     1
102
RTVSPropertyOp28
 70
     1
102
RTVSPropertyOp29
 70
     1
102
RTVSPropertyOp30
 70
     1
102
RTVSPropertyOp31
 70
     1
102
RTVSPropertyOp32
 70
     1
102
RTVSPropertyOp33
 70
     1
102
RTVSPropertyOp34
 70
     1
102
RTVSPropertyOp35
 70
     1
102
RTVSPropertyOp36
 70
     1
102
RTVSPropertyOp37
 70
     1
102
RTVSPropertyOp38
 70
     1
102
RTVSPropertyOp39
 70
     1
102
RTVSPropertyOp40
 70
     1
102
RTVSPropertyOp41
 70
     1
102
RTVSPropertyOp42
 70
     1
102
RTVSPropertyOp43
 70
     1
102
RTVSPropertyOp44
 70
     1
102
RTVSPropertyOp45
 70
     1
102
RTVSPropertyOp46
 70
     1
102
RTVSPropertyOp47
 70
     1
102
RTVSPropertyOp48
 70
     1
102
RTVSPropertyOp49
 70
     1
102
RTVSPropertyOp50
 70
     1
102
RTVSPropertyOp51
 70
     0
102
RTVSPropertyOp52
 70
     0
102
RTVSPropertyOp53
 70
     1
102
RTVSPropertyOp54
 70
     1
102
RTVSPropertyOp55
 70
     1
102
RTVSPropertyOp56
 70
     1
102
RTVSPropertyOp57
 70
     1
102
RTVSPropertyOp58
 70
     1
102
RTVSPropertyOp59
 70
     1
102
RTVSPropertyOp60
 70
     1
102
RTVSPropertyOp61
 70
     1
102
RTVSPropertyOp62
 70
     1
  0
XRECORD
  5
16AF
102
{ACAD_REACTORS
330
16AE
102
}
330
16AE
100
AcDbXrecord
280
     1
102
RTVSPost2010Prop28
280
     0
102
RTVSPost2010PropOp28
 70
     1
102
RTVSPost2010Prop29
280
     1
102
RTVSPost2010PropOp29
 70
     1
102
RTVSPost2010Prop30
280
     1
102
RTVSPost2010PropOp30
 70
     1
102
RTVSPost2010Prop31
280
     0
102
RTVSPost2010PropOp31
 70
     1
102
RTVSPost2010Prop32
280
     0
102
RTVSPost2010PropOp32
 70
     1
102
RTVSPost2010Prop33
280
     0
102
RTVSPost2010PropOp33
 70
     1
102
RTVSPost2010Prop34
280
     0
102
RTVSPost2010PropOp34
 70
     1
102
RTVSPost2010Prop35
280
     0
102
RTVSPost2010PropOp35
 70
     1
102
RTVSPost2010Prop36
280
     0
102
RTVSPost2010PropOp36
 70
     1
102
RTVSPost2010Prop37
 90
       50
102
RTVSPost2010PropOp37
 70
     1
102
RTVSPost2010Prop38
140
0.0
102
RTVSPost2010PropOp38
 70
     1
102
RTVSPost2010Prop39
140
1.0
102
RTVSPost2010PropOp39
 70
     1
102
RTVSPost2010Prop40
 90
        0
102
RTVSPost2010PropOp40
 70
     1
102
RTVSPost2010Prop41ColorIndex
 90
       18
102
RTVSPost2010Prop41ColorRGB
 90
        0
102
RTVSPost2010PropOp41
 70
     1
102
RTVSPost2010Prop42
 90
       50
102
RTVSPost2010PropOp42
 70
     1
102
RTVSPost2010Prop43
 90
        3
102
RTVSPost2010PropOp43
 70
     1
102
RTVSPost2010Prop44ColorIndex
 90
        5
102
RTVSPost2010Prop44ColorRGB
 90
      255
102
RTVSPost2010PropOp44
 70
     1
102
RTVSPost2010Prop45
280
     0
102
RTVSPost2010PropOp45
 70
     1
102
RTVSPost2010Prop46
 90
       50
102
RTVSPost2010PropOp46
 70
     1
102
RTVSPost2010Prop47
 90
       50
102
RTVSPost2010PropOp47
 70
     1
102
RTVSPost2010Prop48
 90
       50
102
RTVSPost2010PropOp48
 70
     1
102
RTVSPost2010Prop49
280
     0
102
RTVSPost2010PropOp49
 70
     1
102
RTVSPost2010Prop50
 90
       50
102
RTVSPost2010PropOp50
 70
     1
102
RTVSPost2010Prop51ColorIndex
 90
      256
102
RTVSPost2010Prop51ColorRGB
 90
-16777216
102
RTVSPost2010PropOp51
 70
     0
102
RTVSPost2010Prop52
140
1.0
102
RTVSPost2010PropOp52
 70
     0
102
RTVSPost2010Prop53
 90
        2
102
RTVSPost2010PropOp53
 70
     1
102
RTVSPost2010Prop54
  1
strokes_ogs.tif
102
RTVSPost2010PropOp54
 70
     1
102
RTVSPost2010Prop55
280
     0
102
RTVSPost2010PropOp55
 70
     1
102
RTVSPost2010Prop56
140
1.0
102
RTVSPost2010PropOp56
 70
     1
102
RTVSPost2010Prop57
140
1.0
102
RTVSPost2010PropOp57
 70
     1
102
RTVSPropertyOp0
 70
     1
102
RTVSPropertyOp1
 70
     1
102
RTVSPropertyOp2
 70
     1
102
RTVSPropertyOp3
 70
     1
102
RTVSPropertyOp4
 70
     1
102
RTVSPropertyOp5
 70
     1
102
RTVSPropertyOp6
 70
     1
102
RTVSPropertyOp7
 70
     1
102
RTVSPropertyOp8
 70
     1
102
RTVSPropertyOp9
 70
     1
102
RTVSPropertyOp10
 70
     1
102
RTVSPropertyOp11
 70
     1
102
RTVSPropertyOp12
 70
     1
102
RTVSPropertyOp13
 70
     1
102
RTVSPropertyOp14
 70
     1
102
RTVSPropertyOp15
 70
     1
102
RTVSPropertyOp16
 70
     1
102
RTVSPropertyOp17
 70
     1
102
RTVSPropertyOp18
 70
     1
102
RTVSPropertyOp19
 70
     1
102
RTVSPropertyOp20
 70
     1
102
RTVSPropertyOp21
 70
     1
102
RTVSPropertyOp22
 70
     1
102
RTVSPropertyOp23
 70
     1
102
RTVSPropertyOp24
 70
     1
102
RTVSPropertyOp25
 70
     1
102
RTVSPropertyOp26
 70
     1
102
RTVSPropertyOp27
 70
     1
102
RTVSPropertyOp28
 70
     1
102
RTVSPropertyOp29
 70
     1
102
RTVSPropertyOp30
 70
     1
102
RTVSPropertyOp31
 70
     1
102
RTVSPropertyOp32
 70
     1
102
RTVSPropertyOp33
 70
     1
102
RTVSPropertyOp34
 70
     1
102
RTVSPropertyOp35
 70
     1
102
RTVSPropertyOp36
 70
     1
102
RTVSPropertyOp37
 70
     1
102
RTVSPropertyOp38
 70
     1
102
RTVSPropertyOp39
 70
     1
102
RTVSPropertyOp40
 70
     1
102
RTVSPropertyOp41
 70
     1
102
RTVSPropertyOp42
 70
     1
102
RTVSPropertyOp43
 70
     1
102
RTVSPropertyOp44
 70
     1
102
RTVSPropertyOp45
 70
     1
102
RTVSPropertyOp46
 70
     1
102
RTVSPropertyOp47
 70
     1
102
RTVSPropertyOp48
 70
     1
102
RTVSPropertyOp49
 70
     1
102
RTVSPropertyOp50
 70
     1
102
RTVSPropertyOp51
 70
     0
102
RTVSPropertyOp52
 70
     0
102
RTVSPropertyOp53
 70
     1
102
RTVSPropertyOp54
 70
     1
102
RTVSPropertyOp55
 70
     1
102
RTVSPropertyOp56
 70
     1
102
RTVSPropertyOp57
 70
     1
102
RTVSPropertyOp58
 70
     1
102
RTVSPropertyOp59
 70
     1
102
RTVSPropertyOp60
 70
     1
102
RTVSPropertyOp61
 70
     1
102
RTVSPropertyOp62
 70
     1
  0
XRECORD
  5
16C7
102
{ACAD_REACTORS
330
16C6
102
}
330
16C6
100
AcDbXrecord
280
     1
102
RTVSPost2010Prop28
280
     0
102
RTVSPost2010PropOp28
 70
     1
102
RTVSPost2010Prop29
280
     1
102
RTVSPost2010PropOp29
 70
     1
102
RTVSPost2010Prop30
280
     1
102
RTVSPost2010PropOp30
 70
     1
102
RTVSPost2010Prop31
280
     0
102
RTVSPost2010PropOp31
 70
     1
102
RTVSPost2010Prop32
280
     0
102
RTVSPost2010PropOp32
 70
     1
102
RTVSPost2010Prop33
280
     0
102
RTVSPost2010PropOp33
 70
     1
102
RTVSPost2010Prop34
280
     0
102
RTVSPost2010PropOp34
 70
     1
102
RTVSPost2010Prop35
280
     0
102
RTVSPost2010PropOp35
 70
     1
102
RTVSPost2010Prop36
280
     0
102
RTVSPost2010PropOp36
 70
     1
102
RTVSPost2010Prop37
 90
       50
102
RTVSPost2010PropOp37
 70
     1
102
RTVSPost2010Prop38
140
0.0
102
RTVSPost2010PropOp38
 70
     1
102
RTVSPost2010Prop39
140
1.0
102
RTVSPost2010PropOp39
 70
     1
102
RTVSPost2010Prop40
 90
        0
102
RTVSPost2010PropOp40
 70
     1
102
RTVSPost2010Prop41ColorIndex
 90
       18
102
RTVSPost2010Prop41ColorRGB
 90
        0
102
RTVSPost2010PropOp41
 70
     1
102
RTVSPost2010Prop42
 90
       50
102
RTVSPost2010PropOp42
 70
     1
102
RTVSPost2010Prop43
 90
        3
102
RTVSPost2010PropOp43
 70
     1
102
RTVSPost2010Prop44ColorIndex
 90
        5
102
RTVSPost2010Prop44ColorRGB
 90
      255
102
RTVSPost2010PropOp44
 70
     1
102
RTVSPost2010Prop45
280
     0
102
RTVSPost2010PropOp45
 70
     1
102
RTVSPost2010Prop46
 90
       50
102
RTVSPost2010PropOp46
 70
     1
102
RTVSPost2010Prop47
 90
       50
102
RTVSPost2010PropOp47
 70
     1
102
RTVSPost2010Prop48
 90
       50
102
RTVSPost2010PropOp48
 70
     1
102
RTVSPost2010Prop49
280
     0
102
RTVSPost2010PropOp49
 70
     1
102
RTVSPost2010Prop50
 90
       50
102
RTVSPost2010PropOp50
 70
     1
102
RTVSPost2010Prop51ColorIndex
 90
      256
102
RTVSPost2010Prop51ColorRGB
 90
-16777216
102
RTVSPost2010PropOp51
 70
     0
102
RTVSPost2010Prop52
140
1.0
102
RTVSPost2010PropOp52
 70
     0
102
RTVSPost2010Prop53
 90
        2
102
RTVSPost2010PropOp53
 70
     1
102
RTVSPost2010Prop54
  1
strokes_ogs.tif
102
RTVSPost2010PropOp54
 70
     1
102
RTVSPost2010Prop55
280
     0
102
RTVSPost2010PropOp55
 70
     1
102
RTVSPost2010Prop56
140
1.0
102
RTVSPost2010PropOp56
 70
     1
102
RTVSPost2010Prop57
140
1.0
102
RTVSPost2010PropOp57
 70
     1
102
RTVSPropertyOp0
 70
     1
102
RTVSPropertyOp1
 70
     1
102
RTVSPropertyOp2
 70
     1
102
RTVSPropertyOp3
 70
     1
102
RTVSPropertyOp4
 70
     1
102
RTVSPropertyOp5
 70
     1
102
RTVSPropertyOp6
 70
     1
102
RTVSPropertyOp7
 70
     1
102
RTVSPropertyOp8
 70
     1
102
RTVSPropertyOp9
 70
     1
102
RTVSPropertyOp10
 70
     1
102
RTVSPropertyOp11
 70
     1
102
RTVSPropertyOp12
 70
     1
102
RTVSPropertyOp13
 70
     1
102
RTVSPropertyOp14
 70
     1
102
RTVSPropertyOp15
 70
     1
102
RTVSPropertyOp16
 70
     1
102
RTVSPropertyOp17
 70
     1
102
RTVSPropertyOp18
 70
     1
102
RTVSPropertyOp19
 70
     1
102
RTVSPropertyOp20
 70
     1
102
RTVSPropertyOp21
 70
     1
102
RTVSPropertyOp22
 70
     1
102
RTVSPropertyOp23
 70
     1
102
RTVSPropertyOp24
 70
     1
102
RTVSPropertyOp25
 70
     1
102
RTVSPropertyOp26
 70
     1
102
RTVSPropertyOp27
 70
     1
102
RTVSPropertyOp28
 70
     1
102
RTVSPropertyOp29
 70
     1
102
RTVSPropertyOp30
 70
     1
102
RTVSPropertyOp31
 70
     1
102
RTVSPropertyOp32
 70
     1
102
RTVSPropertyOp33
 70
     1
102
RTVSPropertyOp34
 70
     1
102
RTVSPropertyOp35
 70
     1
102
RTVSPropertyOp36
 70
     1
102
RTVSPropertyOp37
 70
     1
102
RTVSPropertyOp38
 70
     1
102
RTVSPropertyOp39
 70
     1
102
RTVSPropertyOp40
 70
     1
102
RTVSPropertyOp41
 70
     1
102
RTVSPropertyOp42
 70
     1
102
RTVSPropertyOp43
 70
     1
102
RTVSPropertyOp44
 70
     1
102
RTVSPropertyOp45
 70
     1
102
RTVSPropertyOp46
 70
     1
102
RTVSPropertyOp47
 70
     1
102
RTVSPropertyOp48
 70
     1
102
RTVSPropertyOp49
 70
     1
102
RTVSPropertyOp50
 70
     1
102
RTVSPropertyOp51
 70
     0
102
RTVSPropertyOp52
 70
     0
102
RTVSPropertyOp53
 70
     1
102
RTVSPropertyOp54
 70
     1
102
RTVSPropertyOp55
 70
     1
102
RTVSPropertyOp56
 70
     1
102
RTVSPropertyOp57
 70
     1
102
RTVSPropertyOp58
 70
     1
102
RTVSPropertyOp59
 70
     1
102
RTVSPropertyOp60
 70
     1
102
RTVSPropertyOp61
 70
     1
102
RTVSPropertyOp62
 70
     1
  0
XRECORD
  5
1504
102
{ACAD_REACTORS
330
1503
102
}
330
1503
100
AcDbXrecord
280
     1
330
11ED
  0
ACDBASSOCARRAYACTIONBODY
  5
152F
330
152E
100
AcDbAssocActionBody
 90
        1
100
AcDbAssocParamBasedActionBody
 90
        0
 90
        0
 90
        3
360
1530
360
1531
360
1535
 90
        0
 90
        9
 90
        0
  1
AlignItems
 90
        0
 90
        1
 90
        0
330
0
330
0
 90
        0
  1
AxesAngle
 90
        2
 90
        1
 40
1.570796326794896
330
0
330
0
 90
        0
  1
ItemSpacing
 90
        1
 90
        1
 40
12.5744681
330
0
330
0
 90
        0
  1
Items
 90
        0
 90
        1
 90
       46
330
0
330
0
 90
        0
  1
LevelSpacing
 90
        1
 90
        1
 40
1.0
330
0
330
0
 90
        0
  1
Levels
 90
        0
 90
        1
 90
        1
330
0
330
0
 90
        0
  1
RowElevation
 90
        1
 90
        1
 40
0.0
330
0
330
0
 90
        0
  1
RowSpacing
 90
        1
 90
        1
 40
48.0
330
0
330
0
 90
        0
  1
Rows
 90
        0
 90
        1
 90
        1
330
0
330
0
100
AcDbAssocArrayActionBody
 90
        1
  1
AcDbAssocArrayRectangularParameters
 90
        0
 90
       46
  1
AcDbAssocArrayItem
100
AcDbAssocArrayItem
 90
        0
 90
        0
 90
        0
 90
        0
 90
        8
 11
0.0
 21
0.0
 31
0.0
330
1537
100
AcDbAssocArrayItem
 90
        0
 90
        1
 90
        0
 90
        0
 90
        8
 11
12.5744681
 21
0.0
 31
0.0
330
1538
100
AcDbAssocArrayItem
 90
        0
 90
        2
 90
        0
 90
        0
 90
        8
 11
25.1489362
 21
0.0
 31
0.0
330
1539
100
AcDbAssocArrayItem
 90
        0
 90
        3
 90
        0
 90
        0
 90
        8
 11
37.72340430000001
 21
0.0
 31
0.0
330
153A
100
AcDbAssocArrayItem
 90
        0
 90
        4
 90
        0
 90
        0
 90
        8
 11
50.2978724
 21
0.0
 31
0.0
330
153B
100
AcDbAssocArrayItem
 90
        0
 90
        5
 90
        0
 90
        0
 90
        8
 11
62.87234050000002
 21
0.0
 31
0.0
330
153C
100
AcDbAssocArrayItem
 90
        0
 90
        6
 90
        0
 90
        0
 90
        8
 11
75.44680860000001
 21
0.0
 31
0.0
330
153D
100
AcDbAssocArrayItem
 90
        0
 90
        7
 90
        0
 90
        0
 90
        8
 11
88.02127670000002
 21
0.0
 31
0.0
330
153E
100
AcDbAssocArrayItem
 90
        0
 90
        8
 90
        0
 90
        0
 90
        8
 11
100.5957448
 21
0.0
 31
0.0
330
153F
100
AcDbAssocArrayItem
 90
        0
 90
        9
 90
        0
 90
        0
 90
        8
 11
113.1702129
 21
0.0
 31
0.0
330
1540
100
AcDbAssocArrayItem
 90
        0
 90
       10
 90
        0
 90
        0
 90
        8
 11
125.744681
 21
0.0
 31
0.0
330
1541
100
AcDbAssocArrayItem
 90
        0
 90
       11
 90
        0
 90
        0
 90
        8
 11
138.3191491
 21
0.0
 31
0.0
330
1542
100
AcDbAssocArrayItem
 90
        0
 90
       12
 90
        0
 90
        0
 90
        8
 11
150.8936172
 21
0.0
 31
0.0
330
1543
100
AcDbAssocArrayItem
 90
        0
 90
       13
 90
        0
 90
        0
 90
        8
 11
163.4680853
 21
0.0
 31
0.0
330
1544
100
AcDbAssocArrayItem
 90
        0
 90
       14
 90
        0
 90
        0
 90
        8
 11
176.0425534
 21
0.0
 31
0.0
330
1545
100
AcDbAssocArrayItem
 90
        0
 90
       15
 90
        0
 90
        0
 90
        8
 11
188.6170215
 21
0.0
 31
0.0
330
1546
100
AcDbAssocArrayItem
 90
        0
 90
       16
 90
        0
 90
        0
 90
        8
 11
201.1914896
 21
0.0
 31
0.0
330
1547
100
AcDbAssocArrayItem
 90
        0
 90
       17
 90
        0
 90
        0
 90
        8
 11
213.7659577
 21
0.0
 31
0.0
330
1548
100
AcDbAssocArrayItem
 90
        0
 90
       18
 90
        0
 90
        0
 90
        8
 11
226.3404258
 21
0.0
 31
0.0
330
1549
100
AcDbAssocArrayItem
 90
        0
 90
       19
 90
        0
 90
        0
 90
        8
 11
238.9148939
 21
0.0
 31
0.0
330
154A
100
AcDbAssocArrayItem
 90
        0
 90
       20
 90
        0
 90
        0
 90
        8
 11
251.489362
 21
0.0
 31
0.0
330
154B
100
AcDbAssocArrayItem
 90
        0
 90
       21
 90
        0
 90
        0
 90
        8
 11
264.0638301000001
 21
0.0
 31
0.0
330
154C
100
AcDbAssocArrayItem
 90
        0
 90
       22
 90
        0
 90
        0
 90
        8
 11
276.6382982
 21
0.0
 31
0.0
330
154D
100
AcDbAssocArrayItem
 90
        0
 90
       23
 90
        0
 90
        0
 90
        8
 11
289.2127663000001
 21
0.0
 31
0.0
330
154E
100
AcDbAssocArrayItem
 90
        0
 90
       24
 90
        0
 90
        0
 90
        8
 11
301.7872344000001
 21
0.0
 31
0.0
330
154F
100
AcDbAssocArrayItem
 90
        0
 90
       25
 90
        0
 90
        0
 90
        8
 11
314.3617025000001
 21
0.0
 31
0.0
330
1550
100
AcDbAssocArrayItem
 90
        0
 90
       26
 90
        0
 90
        0
 90
        8
 11
326.9361706000001
 21
0.0
 31
0.0
330
1551
100
AcDbAssocArrayItem
 90
        0
 90
       27
 90
        0
 90
        0
 90
        8
 11
339.5106387000001
 21
0.0
 31
0.0
330
1552
100
AcDbAssocArrayItem
 90
        0
 90
       28
 90
        0
 90
        0
 90
        8
 11
352.0851068000001
 21
0.0
 31
0.0
330
1553
100
AcDbAssocArrayItem
 90
        0
 90
       29
 90
        0
 90
        0
 90
        8
 11
364.6595749000001
 21
0.0
 31
0.0
330
1554
100
AcDbAssocArrayItem
 90
        0
 90
       30
 90
        0
 90
        0
 90
        8
 11
377.2340430000001
 21
0.0
 31
0.0
330
1555
100
AcDbAssocArrayItem
 90
        0
 90
       31
 90
        0
 90
        0
 90
        8
 11
389.8085111000001
 21
0.0
 31
0.0
330
1556
100
AcDbAssocArrayItem
 90
        0
 90
       32
 90
        0
 90
        0
 90
        8
 11
402.3829792
 21
0.0
 31
0.0
330
1557
100
AcDbAssocArrayItem
 90
        0
 90
       33
 90
        0
 90
        0
 90
        8
 11
414.9574473
 21
0.0
 31
0.0
330
1558
100
AcDbAssocArrayItem
 90
        0
 90
       34
 90
        0
 90
        0
 90
        8
 11
427.5319154
 21
0.0
 31
0.0
330
1559
100
AcDbAssocArrayItem
 90
        0
 90
       35
 90
        0
 90
        0
 90
        8
 11
440.1063835000001
 21
0.0
 31
0.0
330
155A
100
AcDbAssocArrayItem
 90
        0
 90
       36
 90
        0
 90
        0
 90
        8
 11
452.6808516
 21
0.0
 31
0.0
330
155B
100
AcDbAssocArrayItem
 90
        0
 90
       37
 90
        0
 90
        0
 90
        8
 11
465.2553197000001
 21
0.0
 31
0.0
330
155C
100
AcDbAssocArrayItem
 90
        0
 90
       38
 90
        0
 90
        0
 90
        8
 11
477.8297878
 21
0.0
 31
0.0
330
155D
100
AcDbAssocArrayItem
 90
        0
 90
       39
 90
        0
 90
        0
 90
        8
 11
490.4042559000001
 21
0.0
 31
0.0
330
155E
100
AcDbAssocArrayItem
 90
        0
 90
       40
 90
        0
 90
        0
 90
        8
 11
502.978724
 21
0.0
 31
0.0
330
155F
100
AcDbAssocArrayItem
 90
        0
 90
       41
 90
        0
 90
        0
 90
        8
 11
515.5531921
 21
0.0
 31
0.0
330
1560
100
AcDbAssocArrayItem
 90
        0
 90
       42
 90
        0
 90
        0
 90
        8
 11
528.1276602000001
 21
0.0
 31
0.0
330
1561
100
AcDbAssocArrayItem
 90
        0
 90
       43
 90
        0
 90
        0
 90
        8
 11
540.7021283000001
 21
0.0
 31
0.0
330
1562
100
AcDbAssocArrayItem
 90
        0
 90
       44
 90
        0
 90
        0
 90
        8
 11
553.2765964000001
 21
0.0
 31
0.0
330
1563
100
AcDbAssocArrayItem
 90
        0
 90
       45
 90
        0
 90
        0
 90
        8
 11
565.8510645000001
 21
0.0
 31
0.0
330
1564
 40
1.0
 40
0.0
 40
0.0
 40
557.3744592844746
 40
0.0
 40
1.0
 40
0.0
 40
691.3493681823855
 40
0.0
 40
0.0
 40
1.0
 40
0.0
 40
0.0
 40
0.0
 40
0.0
 40
1.0
  0
ACDBASSOCDEPENDENCY
  5
1532
330
152E
100
AcDbAssocDependency
 90
        2
 90
        1
290
     0
290
     1
290
     1
290
     1
 90
        0
330
151D
290
     0
330
0
330
0
360
0
 90
        1
  0
ACDBASSOCDEPENDENCY
  5
1533
330
152E
100
AcDbAssocDependency
 90
        2
 90
        1
290
     1
290
     0
290
     1
290
     1
 90
        0
330
151A
290
     0
330
0
330
0
360
0
 90
        2
  0
ACDBASSOCDEPENDENCY
  5
1534
330
152E
100
AcDbAssocDependency
 90
        2
 90
        0
290
     1
290
     1
290
     1
290
     1
 90
-2147483648
330
1520
290
     0
330
0
330
0
360
0
 90
        3
  0
ACDBASSOCARRAYACTIONBODY
  5
15A9
330
15A8
100
AcDbAssocActionBody
 90
        1
100
AcDbAssocParamBasedActionBody
 90
        0
 90
        0
 90
        3
360
15AA
360
15AB
360
15AF
 90
        0
 90
        9
 90
        0
  1
AlignItems
 90
        0
 90
        1
 90
        0
330
0
330
0
 90
        0
  1
AxesAngle
 90
        2
 90
        1
 40
1.570796326794896
330
0
330
0
 90
        0
  1
ItemSpacing
 90
        1
 90
        1
 40
12.5745
330
0
330
0
 90
        0
  1
Items
 90
        0
 90
        1
 90
       46
330
0
330
0
 90
        0
  1
LevelSpacing
 90
        1
 90
        1
 40
1.0
330
0
330
0
 90
        0
  1
Levels
 90
        0
 90
        1
 90
        1
330
0
330
0
 90
        0
  1
RowElevation
 90
        1
 90
        1
 40
0.0
330
0
330
0
 90
        0
  1
RowSpacing
 90
        1
 90
        1
 40
571.4999999999999
330
0
330
0
 90
        0
  1
Rows
 90
        0
 90
        1
 90
        1
330
0
330
0
100
AcDbAssocArrayActionBody
 90
        1
  1
AcDbAssocArrayRectangularParameters
 90
        0
 90
       46
  1
AcDbAssocArrayItem
100
AcDbAssocArrayItem
 90
        0
 90
        0
 90
        0
 90
        0
 90
        8
 11
0.0
 21
0.0
 31
0.0
330
15B1
100
AcDbAssocArrayItem
 90
        0
 90
        1
 90
        0
 90
        0
 90
        8
 11
12.5745
 21
0.0
 31
0.0
330
15B2
100
AcDbAssocArrayItem
 90
        0
 90
        2
 90
        0
 90
        0
 90
        8
 11
25.149
 21
0.0
 31
0.0
330
15B3
100
AcDbAssocArrayItem
 90
        0
 90
        3
 90
        0
 90
        0
 90
        8
 11
37.7235
 21
0.0
 31
0.0
330
15B4
100
AcDbAssocArrayItem
 90
        0
 90
        4
 90
        0
 90
        0
 90
        8
 11
50.298
 21
0.0
 31
0.0
330
15B5
100
AcDbAssocArrayItem
 90
        0
 90
        5
 90
        0
 90
        0
 90
        8
 11
62.8725
 21
0.0
 31
0.0
330
15B6
100
AcDbAssocArrayItem
 90
        0
 90
        6
 90
        0
 90
        0
 90
        8
 11
75.447
 21
0.0
 31
0.0
330
15B7
100
AcDbAssocArrayItem
 90
        0
 90
        7
 90
        0
 90
        0
 90
        8
 11
88.02150000000001
 21
0.0
 31
0.0
330
15B8
100
AcDbAssocArrayItem
 90
        0
 90
        8
 90
        0
 90
        0
 90
        8
 11
100.596
 21
0.0
 31
0.0
330
15B9
100
AcDbAssocArrayItem
 90
        0
 90
        9
 90
        0
 90
        0
 90
        8
 11
113.1705
 21
0.0
 31
0.0
330
15BA
100
AcDbAssocArrayItem
 90
        0
 90
       10
 90
        0
 90
        0
 90
        8
 11
125.745
 21
0.0
 31
0.0
330
15BB
100
AcDbAssocArrayItem
 90
        0
 90
       11
 90
        0
 90
        0
 90
        8
 11
138.3195
 21
0.0
 31
0.0
330
15BC
100
AcDbAssocArrayItem
 90
        0
 90
       12
 90
        0
 90
        0
 90
        8
 11
150.894
 21
0.0
 31
0.0
330
15BD
100
AcDbAssocArrayItem
 90
        0
 90
       13
 90
        0
 90
        0
 90
        8
 11
163.4685
 21
0.0
 31
0.0
330
15BE
100
AcDbAssocArrayItem
 90
        0
 90
       14
 90
        0
 90
        0
 90
        8
 11
176.043
 21
0.0
 31
0.0
330
15BF
100
AcDbAssocArrayItem
 90
        0
 90
       15
 90
        0
 90
        0
 90
        8
 11
188.6175
 21
0.0
 31
0.0
330
15C0
100
AcDbAssocArrayItem
 90
        0
 90
       16
 90
        0
 90
        0
 90
        8
 11
201.192
 21
0.0
 31
0.0
330
15C1
100
AcDbAssocArrayItem
 90
        0
 90
       17
 90
        0
 90
        0
 90
        8
 11
213.7665
 21
0.0
 31
0.0
330
15C2
100
AcDbAssocArrayItem
 90
        0
 90
       18
 90
        0
 90
        0
 90
        8
 11
226.341
 21
0.0
 31
0.0
330
15C3
100
AcDbAssocArrayItem
 90
        0
 90
       19
 90
        0
 90
        0
 90
        8
 11
238.9155
 21
0.0
 31
0.0
330
15C4
100
AcDbAssocArrayItem
 90
        0
 90
       20
 90
        0
 90
        0
 90
        8
 11
251.49
 21
0.0
 31
0.0
330
15C5
100
AcDbAssocArrayItem
 90
        0
 90
       21
 90
        0
 90
        0
 90
        8
 11
264.0645
 21
0.0
 31
0.0
330
15C6
100
AcDbAssocArrayItem
 90
        0
 90
       22
 90
        0
 90
        0
 90
        8
 11
276.639
 21
0.0
 31
0.0
330
15C7
100
AcDbAssocArrayItem
 90
        0
 90
       23
 90
        0
 90
        0
 90
        8
 11
289.2135
 21
0.0
 31
0.0
330
15C8
100
AcDbAssocArrayItem
 90
        0
 90
       24
 90
        0
 90
        0
 90
        8
 11
301.788
 21
0.0
 31
0.0
330
15C9
100
AcDbAssocArrayItem
 90
        0
 90
       25
 90
        0
 90
        0
 90
        8
 11
314.3625
 21
0.0
 31
0.0
330
15CA
100
AcDbAssocArrayItem
 90
        0
 90
       26
 90
        0
 90
        0
 90
        8
 11
326.937
 21
0.0
 31
0.0
330
15CB
100
AcDbAssocArrayItem
 90
        0
 90
       27
 90
        0
 90
        0
 90
        8
 11
339.5115
 21
0.0
 31
0.0
330
15CC
100
AcDbAssocArrayItem
 90
        0
 90
       28
 90
        0
 90
        0
 90
        8
 11
352.086
 21
0.0
 31
0.0
330
15CD
100
AcDbAssocArrayItem
 90
        0
 90
       29
 90
        0
 90
        0
 90
        8
 11
364.6605
 21
0.0
 31
0.0
330
15CE
100
AcDbAssocArrayItem
 90
        0
 90
       30
 90
        0
 90
        0
 90
        8
 11
377.235
 21
0.0
 31
0.0
330
15CF
100
AcDbAssocArrayItem
 90
        0
 90
       31
 90
        0
 90
        0
 90
        8
 11
389.8095
 21
0.0
 31
0.0
330
15D0
100
AcDbAssocArrayItem
 90
        0
 90
       32
 90
        0
 90
        0
 90
        8
 11
402.3839999999999
 21
0.0
 31
0.0
330
15D1
100
AcDbAssocArrayItem
 90
        0
 90
       33
 90
        0
 90
        0
 90
        8
 11
414.9585
 21
0.0
 31
0.0
330
15D2
100
AcDbAssocArrayItem
 90
        0
 90
       34
 90
        0
 90
        0
 90
        8
 11
427.533
 21
0.0
 31
0.0
330
15D3
100
AcDbAssocArrayItem
 90
        0
 90
       35
 90
        0
 90
        0
 90
        8
 11
440.1075
 21
0.0
 31
0.0
330
15D4
100
AcDbAssocArrayItem
 90
        0
 90
       36
 90
        0
 90
        0
 90
        8
 11
452.6819999999999
 21
0.0
 31
0.0
330
15D5
100
AcDbAssocArrayItem
 90
        0
 90
       37
 90
        0
 90
        0
 90
        8
 11
465.2565
 21
0.0
 31
0.0
330
15D6
100
AcDbAssocArrayItem
 90
        0
 90
       38
 90
        0
 90
        0
 90
        8
 11
477.831
 21
0.0
 31
0.0
330
15D7
100
AcDbAssocArrayItem
 90
        0
 90
       39
 90
        0
 90
        0
 90
        8
 11
490.4055
 21
0.0
 31
0.0
330
15D8
100
AcDbAssocArrayItem
 90
        0
 90
       40
 90
        0
 90
        0
 90
        8
 11
502.98
 21
0.0
 31
0.0
330
15D9
100
AcDbAssocArrayItem
 90
        0
 90
       41
 90
        0
 90
        0
 90
        8
 11
515.5545
 21
0.0
 31
0.0
330
15DA
100
AcDbAssocArrayItem
 90
        0
 90
       42
 90
        0
 90
        0
 90
        8
 11
528.129
 21
0.0
 31
0.0
330
15DB
100
AcDbAssocArrayItem
 90
        0
 90
       43
 90
        0
 90
        0
 90
        8
 11
540.7035
 21
0.0
 31
0.0
330
15DC
100
AcDbAssocArrayItem
 90
        0
 90
       44
 90
        0
 90
        0
 90
        8
 11
553.278
 21
0.0
 31
0.0
330
15DD
100
AcDbAssocArrayItem
 90
        0
 90
       45
 90
        0
 90
        0
 90
        8
 11
565.8525
 21
0.0
 31
0.0
330
15DE
 40
1.0
 40
0.0
 40
0.0
 40
549.5872252344745
 40
0.0
 40
1.0
 40
0.0
 40
1430.433446905533
 40
0.0
 40
0.0
 40
1.0
 40
0.0
 40
0.0
 40
0.0
 40
0.0
 40
1.0
  0
ACDBASSOCDEPENDENCY
  5
15AC
330
15A8
100
AcDbAssocDependency
 90
        2
 90
        1
290
     0
290
     1
290
     1
290
     1
 90
        0
330
1569
290
     0
330
0
330
0
360
0
 90
        1
  0
ACDBASSOCDEPENDENCY
  5
15AD
330
15A8
100
AcDbAssocDependency
 90
        2
 90
        1
290
     1
290
     0
290
     1
290
     1
 90
        0
330
1566
290
     0
330
0
330
0
360
0
 90
        2
  0
ACDBASSOCDEPENDENCY
  5
15AE
330
15A8
100
AcDbAssocDependency
 90
        2
 90
        0
290
     1
290
     1
290
     1
290
     1
 90
-2147483648
330
156C
290
     0
330
0
330
0
360
0
 90
        3
  0
ACDBASSOCVERTEXACTIONPARAM
  5
1530
330
152F
100
AcDbAssocActionParam
 90
        0
  1
BaseNormal
100
AcDbAssocSingleDependencyActionParam
 90
        0
330
0
100
AcDbAssocVertexActionParam
 90
        0
 10
0.0
 20
0.0
 30
1.0
  0
ACDBASSOCVERTEXACTIONPARAM
  5
1531
330
152F
100
AcDbAssocActionParam
 90
        0
  1
Origin
100
AcDbAssocSingleDependencyActionParam
 90
        0
330
0
100
AcDbAssocVertexActionParam
 90
        0
 10
0.0
 20
0.0
 30
0.0
  0
ACDBASSOCVERTEXACTIONPARAM
  5
1535
330
152F
100
AcDbAssocActionParam
 90
        0
  1
basePoint
100
AcDbAssocSingleDependencyActionParam
 90
        0
330
0
100
AcDbAssocVertexActionParam
 90
        0
 10
0.0
 20
0.0
 30
0.0
  0
ACDBASSOCVERTEXACTIONPARAM
  5
15AA
330
15A9
100
AcDbAssocActionParam
 90
        0
  1
BaseNormal
100
AcDbAssocSingleDependencyActionParam
 90
        0
330
0
100
AcDbAssocVertexActionParam
 90
        0
 10
0.0
 20
0.0
 30
1.0
  0
ACDBASSOCVERTEXACTIONPARAM
  5
15AB
330
15A9
100
AcDbAssocActionParam
 90
        0
  1
Origin
100
AcDbAssocSingleDependencyActionParam
 90
        0
330
0
100
AcDbAssocVertexActionParam
 90
        0
 10
0.0
 20
0.0
 30
0.0
  0
ACDBASSOCVERTEXACTIONPARAM
  5
15AF
330
15A9
100
AcDbAssocActionParam
 90
        0
  1
basePoint
100
AcDbAssocSingleDependencyActionParam
 90
        0
330
0
100
AcDbAssocVertexActionParam
 90
        0
 10
0.0
 20
0.0
 30
0.0
  0
ENDSEC
  0
EOF
