  0
SECTION
  2
HEADER
  9
$ACADVER
  1
AC1015
  9
$ACADMAINTVER
 70
    20
  9
$DWGCODEPAGE
  3
ANSI_932
  9
$INSBASE
 10
0.0
 20
0.0
 30
0.0
  9
$EXTMIN
 10
-0.0425346845286185
 20
-0.0300885618821667
 30
-0.0000000000112498
  9
$EXTMAX
 10
2789.553734678998
 20
1973.299228625456
 30
0.0000000000002956
  9
$LIMMIN
 10
0.0
 20
0.0
  9
$LIMMAX
 10
297.0
 20
209.0
  9
$ORTHOMODE
 70
     1
  9
$REGENMODE
 70
     1
  9
$FILLMODE
 70
     1
  9
$QTEXTMODE
 70
     0
  9
$MIRRTEXT
 70
     1
  9
$LTSCALE
 40
1.0
  9
$ATTMODE
 70
     1
  9
$TEXTSIZE
 40
2.5
  9
$TRACEWID
 40
1.0
  9
$TEXTSTYLE
  7
Standard
  9
$CLAYER
  8
本体
  9
$CELTYPE
  6
ByLayer
  9
$CECOLOR
 62
   256
  9
$CELTSCALE
 40
3.0
  9
$DISPSILH
 70
     0
  9
$DIMSCALE
 40
10.0
  9
$DIMASZ
 40
1.5
  9
$DIMEXO
 40
2.0
  9
$DIMDLI
 40
3.75
  9
$DIMRND
 40
0.0
  9
$DIMDLE
 40
0.0
  9
$DIMEXE
 40
1.5
  9
$DIMTP
 40
0.0
  9
$DIMTM
 40
0.0
  9
$DIMTXT
 40
3.0
  9
$DIMCEN
 40
2.5
  9
$DIMTSZ
 40
0.0
  9
$DIMTOL
 70
     0
  9
$DIMLIM
 70
     0
  9
$DIMTIH
 70
     0
  9
$DIMTOH
 70
     0
  9
$DIMSE1
 70
     0
  9
$DIMSE2
 70
     0
  9
$DIMTAD
 70
     1
  9
$DIMZIN
 70
     8
  9
$DIMBLK
  1
Open30
  9
$DIMASO
 70
     1
  9
$DIMSHO
 70
     1
  9
$DIMPOST
  1

  9
$DIMAPOST
  1

  9
$DIMALT
 70
     0
  9
$DIMALTD
 70
     3
  9
$DIMALTF
 40
0.03937007874016
  9
$DIMLFAC
 40
1.0
  9
$DIMTOFL
 70
     1
  9
$DIMTVP
 40
0.0
  9
$DIMTIX
 70
     0
  9
$DIMSOXD
 70
     0
  9
$DIMSAH
 70
     0
  9
$DIMBLK1
  1

  9
$DIMBLK2
  1

  9
$DIMSTYLE
  2
ISO-25
  9
$DIMCLRD
 70
     0
  9
$DIMCLRE
 70
     0
  9
$DIMCLRT
 70
     0
  9
$DIMTFAC
 40
1.0
  9
$DIMGAP
 40
0.5
  9
$DIMJUST
 70
     0
  9
$DIMSD1
 70
     0
  9
$DIMSD2
 70
     0
  9
$DIMTOLJ
 70
     0
  9
$DIMTZIN
 70
     8
  9
$DIMALTZ
 70
     0
  9
$DIMALTTZ
 70
     0
  9
$DIMUPT
 70
     0
  9
$DIMDEC
 70
     2
  9
$DIMTDEC
 70
     2
  9
$DIMALTU
 70
     2
  9
$DIMALTTD
 70
     3
  9
$DIMTXSTY
  7
Standard
  9
$DIMAUNIT
 70
     0
  9
$DIMADEC
 70
     0
  9
$DIMALTRND
 40
0.0
  9
$DIMAZIN
 70
     0
  9
$DIMDSEP
 70
    46
  9
$DIMATFIT
 70
     0
  9
$DIMFRAC
 70
     0
  9
$DIMLDRBLK
  1
Open30
  9
$DIMLUNIT
 70
     2
  9
$DIMLWD
 70
    -2
  9
$DIMLWE
 70
    -2
  9
$DIMTMOVE
 70
     0
  9
$LUNITS
 70
     2
  9
$LUPREC
 70
     4
  9
$SKETCHINC
 40
1.0
  9
$FILLETRAD
 40
9.9
  9
$AUNITS
 70
     0
  9
$AUPREC
 70
     0
  9
$MENU
  1
.
  9
$ELEVATION
 40
0.0
  9
$PELEVATION
 40
0.0
  9
$THICKNESS
 40
0.0
  9
$LIMCHECK
 70
     0
  9
$CHAMFERA
 40
10.0
  9
$CHAMFERB
 40
10.0
  9
$CHAMFERC
 40
20.0
  9
$CHAMFERD
 40
0.0
  9
$SKPOLY
 70
     0
  9
$TDCREATE
 40
2453510.558637211
  9
$TDUCREATE
 40
2453510.183637211
  9
$TDUPDATE
 40
2457560.572798403
  9
$TDUUPDATE
 40
2457560.197798403
  9
$TDINDWG
 40
0.0361762500
  9
$TDUSRTIMER
 40
0.0361762500
  9
$USRTIMER
 70
     1
  9
$ANGBASE
 50
0.0
  9
$ANGDIR
 70
     0
  9
$PDMODE
 70
     0
  9
$PDSIZE
 40
0.0
  9
$PLINEWID
 40
0.0
  9
$SPLFRAME
 70
     0
  9
$SPLINETYPE
 70
     6
  9
$SPLINESEGS
 70
     8
  9
$HANDSEED
  5
2A76
  9
$SURFTAB1
 70
     6
  9
$SURFTAB2
 70
     6
  9
$SURFTYPE
 70
     6
  9
$SURFU
 70
     6
  9
$SURFV
 70
     6
  9
$UCSBASE
  2

  9
$UCSNAME
  2

  9
$UCSORG
 10
0.0
 20
0.0
 30
0.0
  9
$UCSXDIR
 10
1.0
 20
0.0
 30
0.0
  9
$UCSYDIR
 10
0.0
 20
1.0
 30
0.0
  9
$UCSORTHOREF
  2

  9
$UCSORTHOVIEW
 70
     0
  9
$UCSORGTOP
 10
0.0
 20
0.0
 30
0.0
  9
$UCSORGBOTTOM
 10
0.0
 20
0.0
 30
0.0
  9
$UCSORGLEFT
 10
0.0
 20
0.0
 30
0.0
  9
$UCSORGRIGHT
 10
0.0
 20
0.0
 30
0.0
  9
$UCSORGFRONT
 10
0.0
 20
0.0
 30
0.0
  9
$UCSORGBACK
 10
0.0
 20
0.0
 30
0.0
  9
$PUCSBASE
  2

  9
$PUCSNAME
  2

  9
$PUCSORG
 10
0.0
 20
0.0
 30
0.0
  9
$PUCSXDIR
 10
1.0
 20
0.0
 30
0.0
  9
$PUCSYDIR
 10
0.0
 20
1.0
 30
0.0
  9
$PUCSORTHOREF
  2

  9
$PUCSORTHOVIEW
 70
     0
  9
$PUCSORGTOP
 10
0.0
 20
0.0
 30
0.0
  9
$PUCSORGBOTTOM
 10
0.0
 20
0.0
 30
0.0
  9
$PUCSORGLEFT
 10
0.0
 20
0.0
 30
0.0
  9
$PUCSORGRIGHT
 10
0.0
 20
0.0
 30
0.0
  9
$PUCSORGFRONT
 10
0.0
 20
0.0
 30
0.0
  9
$PUCSORGBACK
 10
0.0
 20
0.0
 30
0.0
  9
$USERI1
 70
     0
  9
$USERI2
 70
     0
  9
$USERI3
 70
     0
  9
$USERI4
 70
     0
  9
$USERI5
 70
     0
  9
$USERR1
 40
0.0
  9
$USERR2
 40
0.0
  9
$USERR3
 40
0.0
  9
$USERR4
 40
0.0
  9
$USERR5
 40
0.0
  9
$WORLDVIEW
 70
     1
  9
$SHADEDGE
 70
     3
  9
$SHADEDIF
 70
    70
  9
$TILEMODE
 70
     1
  9
$MAXACTVP
 70
    48
  9
$PINSBASE
 10
0.0
 20
0.0
 30
0.0
  9
$PLIMCHECK
 70
     0
  9
$PEXTMIN
 10
0.0
 20
0.0
 30
0.0
  9
$PEXTMAX
 10
0.0
 20
0.0
 30
0.0
  9
$PLIMMIN
 10
0.0
 20
0.0
  9
$PLIMMAX
 10
12.0
 20
9.0
  9
$UNITMODE
 70
     0
  9
$VISRETAIN
 70
     1
  9
$PLINEGEN
 70
     0
  9
$PSLTSCALE
 70
     1
  9
$TREEDEPTH
 70
  3020
  9
$CMLSTYLE
  2
Standard
  9
$CMLJUST
 70
     0
  9
$CMLSCALE
 40
20.0
  9
$PROXYGRAPHICS
 70
     1
  9
$MEASUREMENT
 70
     1
  9
$CELWEIGHT
370
    -1
  9
$ENDCAPS
280
     0
  9
$JOINSTYLE
280
     0
  9
$LWDISPLAY
290
     0
  9
$INSUNITS
 70
     4
  9
$HYPERLINKBASE
  1

  9
$STYLESHEET
  1
monochrome.ctb
  9
$XEDIT
290
     1
  9
$CEPSNTYPE
380
     0
  9
$PSTYLEMODE
290
     1
  9
$FINGERPRINTGUID
  2

  9
$VERSIONGUID
  2
{BB44BB6F-2A15-44EA-A8A9-6372A1A43128}
  9
$EXTNAMES
290
     1
  9
$PSVPSCALE
 40
0.0
  9
$OLESTARTUP
290
     0
  0
ENDSEC
  0
SECTION
  2
CLASSES
  0
CLASS
  1
ACDBDICTIONARYWDFLT
  2
AcDbDictionaryWithDefault
  3
ObjectDBX Classes
 90
        0
280
     0
281
     0
  0
CLASS
  1
ACDBPLACEHOLDER
  2
AcDbPlaceHolder
  3
ObjectDBX Classes
 90
        0
280
     0
281
     0
  0
CLASS
  1
LAYOUT
  2
AcDbLayout
  3
ObjectDBX Classes
 90
        0
280
     0
281
     0
  0
CLASS
  1
DICTIONARYVAR
  2
AcDbDictionaryVar
  3
ObjectDBX Classes
 90
        0
280
     0
281
     0
  0
CLASS
  1
MATERIAL
  2
AcDbMaterial
  3
ObjectDBX Classes
 90
     1153
280
     0
281
     0
  0
CLASS
  1
VISUALSTYLE
  2
AcDbVisualStyle
  3
ObjectDBX Classes
 90
     4095
280
     0
281
     0
  0
CLASS
  1
TABLESTYLE
  2
AcDbTableStyle
  3
ObjectDBX Classes
 90
     4095
280
     0
281
     0
  0
CLASS
  1
SCALE
  2
AcDbScale
  3
ObjectDBX Classes
 90
     1153
280
     0
281
     0
  0
CLASS
  1
MLEADERSTYLE
  2
AcDbMLeaderStyle
  3
ACDB_MLEADERSTYLE_CLASS
 90
     4095
280
     0
281
     0
  0
CLASS
  1
ACDBSECTIONVIEWSTYLE
  2
AcDbSectionViewStyle
  3
ObjectDBX Classes
 90
     1025
280
     0
281
     0
  0
CLASS
  1
ACDBDETAILVIEWSTYLE
  2
AcDbDetailViewStyle
  3
ObjectDBX Classes
 90
     1025
280
     0
281
     0
  0
CLASS
  1
CELLSTYLEMAP
  2
AcDbCellStyleMap
  3
ObjectDBX Classes
 90
     1152
280
     0
281
     0
  0
CLASS
  1
ACARRAYJIGENTITY
  2
AcArrayJigEntity
  3
ACAD_ARRAY
 90
      129
280
     0
281
     1
  0
CLASS
  1
ACDBASSOCNETWORK
  2
AcDbAssocNetwork
  3
ObjectDBX Classes
 90
     1025
280
     0
281
     0
  0
CLASS
  1
ACDBASSOCACTION
  2
AcDbAssocAction
  3
ObjectDBX Classes
 90
     1025
280
     0
281
     0
  0
CLASS
  1
ACDBASSOCARRAYACTIONBODY
  2
AcDbAssocArrayActionBody
  3
ObjectDBX Classes
 90
     1025
280
     0
281
     0
  0
CLASS
  1
ACDBASSOCVERTEXACTIONPARAM
  2
AcDbAssocVertexActionParam
  3
ObjectDBX Classes
 90
     1025
280
     0
281
     0
  0
CLASS
  1
ACDBASSOCDEPENDENCY
  2
AcDbAssocDependency
  3
ObjectDBX Classes
 90
     1025
280
     0
281
     0
  0
CLASS
  1
ACDBASSOCARRAYRECTANGULARPARAMETERS
  2
AcDbAssocArrayRectangularParameters
  3
ObjectDBX Classes
 90
    33793
280
     0
281
     0
  0
ENDSEC
  0
SECTION
  2
TABLES
  0
TABLE
  2
VPORT
  5
2226
102
{ACAD_XDICTIONARY
360
268D
102
}
330
0
100
AcDbSymbolTable
 70
     1
  0
VPORT
  5
2615
330
2226
100
AcDbSymbolTableRecord
100
AcDbViewportTableRecord
  2
*Active
 70
     0
 10
0.0
 20
0.0
 11
1.0
 21
1.0
 12
1394.755599997235
 22
986.6345700317872
 13
0.0
 23
0.0
 14
10.0
 24
10.0
 15
10.0
 25
10.0
 16
0.0
 26
0.0
 36
1.0
 17
0.0
 27
0.0
 37
0.0
 40
1992.48785424741
 41
3.006482982171799
 42
50.0
 43
0.0
 44
0.0
 50
0.0
 51
0.0
 71
     0
 72
   100
 73
     1
 74
     3
 75
     0
 76
     0
 77
     0
 78
     0
281
     0
 65
     1
110
0.0
120
0.0
130
0.0
111
1.0
121
0.0
131
0.0
112
0.0
122
1.0
132
0.0
 79
     0
146
0.0
1001
ACAD_NAV_VCDISPLAY
1070
     3
  0
ENDTAB
  0
TABLE
  2
LTYPE
  5
2221
330
0
100
AcDbSymbolTable
 70
     7
  0
LTYPE
  5
2222
330
2221
100
AcDbSymbolTableRecord
100
AcDbLinetypeTableRecord
  2
ByBlock
 70
     0
  3

 72
    65
 73
     0
 40
0.0
  0
LTYPE
  5
2223
330
2221
100
AcDbSymbolTableRecord
100
AcDbLinetypeTableRecord
  2
ByLayer
 70
     0
  3

 72
    65
 73
     0
 40
0.0
  0
LTYPE
  5
8
330
2221
100
AcDbSymbolTableRecord
100
AcDbLinetypeTableRecord
  2
Continuous
 70
     0
  3
Solid line
 72
    65
 73
     0
 40
0.0
  0
LTYPE
  5
D3
330
2221
100
AcDbSymbolTableRecord
100
AcDbLinetypeTableRecord
  2
HIDDEN
 70
     0
  3
Hidden __ __ __ __ __ __ __ __ __ __ __ __ __ _
 72
    65
 73
     2
 40
9.524999999999998
 49
6.349999999999999
 74
     0
 49
-3.174999999999999
 74
     0
  0
LTYPE
  5
EB
330
2221
100
AcDbSymbolTableRecord
100
AcDbLinetypeTableRecord
  2
CENTER
 70
     0
  3
------ - ------ - ----
 72
    65
 73
     4
 40
10.0
 49
6.25
 74
     0
 49
-1.25
 74
     0
 49
1.25
 74
     0
 49
-1.25
 74
     0
  0
ENDTAB
  0
TABLE
  2
LAYER
  5
221E
102
{ACAD_XDICTIONARY
360
278F
102
}
330
0
100
AcDbSymbolTable
 70
    12
  0
LAYER
  5
76
102
{ACAD_XDICTIONARY
360
266C
102
}
330
221E
100
AcDbSymbolTableRecord
100
AcDbLayerTableRecord
  2
0
 70
     0
 62
     7
  6
Continuous
370
    -3
390
5
  0
LAYER
  5
80
102
{ACAD_XDICTIONARY
360
266E
102
}
330
221E
100
AcDbSymbolTableRecord
100
AcDbLayerTableRecord
  2
本体
 70
     0
 62
     7
  6
Continuous
370
    13
390
5
  0
LAYER
  5
4
102
{ACAD_XDICTIONARY
360
2670
102
}
330
221E
100
AcDbSymbolTableRecord
100
AcDbLayerTableRecord
  2
寸法線
 70
     0
 62
     2
  6
Continuous
370
     9
390
5
  0
LAYER
  5
67F
102
{ACAD_XDICTIONARY
360
2674
102
}
330
221E
100
AcDbSymbolTableRecord
100
AcDbLayerTableRecord
  2
エンボス
 70
     0
 62
     4
  6
Continuous
370
     5
390
5
  0
LAYER
  5
11
102
{ACAD_XDICTIONARY
360
2676
102
}
330
221E
100
AcDbSymbolTableRecord
100
AcDbLayerTableRecord
  2
外枠
 70
     0
 62
     7
  6
Continuous
370
    -3
390
5
  0
LAYER
  5
AC
330
221E
100
AcDbSymbolTableRecord
100
AcDbLayerTableRecord
  2
Defpoints
 70
     0
 62
     7
  6
Continuous
290
     0
370
    -3
390
5
  0
LAYER
  5
25FC
102
{ACAD_XDICTIONARY
360
267C
102
}
330
221E
100
AcDbSymbolTableRecord
100
AcDbLayerTableRecord
  2
嵩上断面
 70
     0
 62
   112
  6
Continuous
370
    13
390
5
  0
LAYER
  5
2601
102
{ACAD_XDICTIONARY
360
267E
102
}
330
221E
100
AcDbSymbolTableRecord
100
AcDbLayerTableRecord
  2
嵩上平面
 70
     0
 62
   112
  6
HIDDEN
370
    13
390
5
  0
LAYER
  5
2606
102
{ACAD_XDICTIONARY
360
2680
102
}
330
221E
100
AcDbSymbolTableRecord
100
AcDbLayerTableRecord
  2
中心線
 70
     0
 62
     1
  6
CENTER
370
     5
390
5
  0
ENDTAB
  0
TABLE
  2
STYLE
  5
221F
330
0
100
AcDbSymbolTable
 70
     4
  0
STYLE
  5
9
330
221F
100
AcDbSymbolTableRecord
100
AcDbTextStyleTableRecord
  2
Standard
 70
     0
 40
0.0
 41
1.0
 50
0.0
 71
     0
 42
2.5
  3

  4

1001
ACAD
1000
MS Gothic
1071
    32817
  0
ENDTAB
  0
TABLE
  2
VIEW
  5
2224
330
0
100
AcDbSymbolTable
 70
     0
  0
ENDTAB
  0
TABLE
  2
UCS
  5
2225
330
0
100
AcDbSymbolTable
 70
     0
  0
ENDTAB
  0
TABLE
  2
APPID
  5
2228
330
0
100
AcDbSymbolTable
 70
     5
  0
APPID
  5
A
330
2228
100
AcDbSymbolTableRecord
100
AcDbRegAppTableRecord
  2
ACAD
 70
     0
  0
APPID
  5
2682
330
2228
100
AcDbSymbolTableRecord
100
AcDbRegAppTableRecord
  2
ACAD_NAV_VCDISPLAY
 70
     0
  0
APPID
  5
26C3
330
2228
100
AcDbSymbolTableRecord
100
AcDbRegAppTableRecord
  2
ACAD_MLEADERVER
 70
     0
  0
APPID
  5
26DC
330
2228
100
AcDbSymbolTableRecord
100
AcDbRegAppTableRecord
  2
ACAD_EXEMPT_FROM_CAD_STANDARDS
 70
     0
  0
APPID
  5
2794
330
2228
100
AcDbSymbolTableRecord
100
AcDbRegAppTableRecord
  2
AcLayerTools
 70
     0
  0
ENDTAB
  0
TABLE
  2
DIMSTYLE
  5
2229
330
0
100
AcDbSymbolTable
 70
     3
100
AcDbDimStyleTable
 71
     1
340
A0
  0
DIMSTYLE
105
A0
102
{ACAD_REACTORS
330
A3
330
B1
330
BE
330
D5
330
528
330
540
330
54F
330
21FF
330
299F
102
}
330
2229
100
AcDbSymbolTableRecord
100
AcDbDimStyleTableRecord
  2
ISO-25
 70
     0
 40
10.0
 41
1.5
 42
2.0
 43
3.75
 44
1.5
 73
     0
 74
     0
 77
     1
 78
     8
140
3.0
141
2.5
143
0.03937007874016
147
0.5
171
     3
172
     1
271
     2
272
     2
274
     3
283
     0
284
     8
289
     0
340
9
341
99
342
99
  0
DIMSTYLE
105
25CB
330
2229
100
AcDbSymbolTableRecord
100
AcDbDimStyleTableRecord
  2
Standard
 70
     0
340
9
  0
ENDTAB
  0
TABLE
  2
BLOCK_RECORD
  5
1
330
0
100
AcDbSymbolTable
 70
    31
  0
BLOCK_RECORD
  5
2
102
{ACAD_XDICTIONARY
360
220C
102
}
330
1
100
AcDbSymbolTableRecord
100
AcDbBlockTableRecord
  2
*Model_Space
340
2210
  0
BLOCK_RECORD
  5
2212
102
{ACAD_XDICTIONARY
360
2213
102
}
330
1
100
AcDbSymbolTableRecord
100
AcDbBlockTableRecord
  2
*Paper_Space
340
2217
  0
BLOCK_RECORD
  5
2218
102
{ACAD_XDICTIONARY
360
2219
102
}
330
1
100
AcDbSymbolTableRecord
100
AcDbBlockTableRecord
  2
*Paper_Space0
340
221D
  0
BLOCK_RECORD
  5
99
330
1
100
AcDbSymbolTableRecord
100
AcDbBlockTableRecord
  2
_Open30
340
0
102
{BLKREFS
331
29C9
331
29CA
331
29D2
331
29D3
331
A8
331
A9
331
B6
331
B7
331
C3
331
C4
331
DA
331
DB
331
547
331
548
331
554
331
555
331
2204
331
2205
102
}
  0
BLOCK_RECORD
  5
E8
330
1
100
AcDbSymbolTableRecord
100
AcDbBlockTableRecord
  2
TB6
340
0
102
{BLKREFS
331
E7
331
F0
331
F1
331
131
102
}
1001
ACAD
1000
DesignCenter Data
1002
{
1070
     1
1070
     4
1002
}
  0
BLOCK_RECORD
  5
A4
330
1
100
AcDbSymbolTableRecord
100
AcDbBlockTableRecord
  2
*D3
340
0
  0
BLOCK_RECORD
  5
B2
330
1
100
AcDbSymbolTableRecord
100
AcDbBlockTableRecord
  2
*D4
340
0
  0
BLOCK_RECORD
  5
BF
330
1
100
AcDbSymbolTableRecord
100
AcDbBlockTableRecord
  2
*D5
340
0
  0
BLOCK_RECORD
  5
D6
330
1
100
AcDbSymbolTableRecord
100
AcDbBlockTableRecord
  2
*D6
340
0
  0
BLOCK_RECORD
  5
529
330
1
100
AcDbSymbolTableRecord
100
AcDbBlockTableRecord
  2
*D7
340
0
  0
BLOCK_RECORD
  5
541
330
1
100
AcDbSymbolTableRecord
100
AcDbBlockTableRecord
  2
*D8
340
0
  0
BLOCK_RECORD
  5
550
330
1
100
AcDbSymbolTableRecord
100
AcDbBlockTableRecord
  2
*D9
340
0
  0
BLOCK_RECORD
  5
2200
330
1
100
AcDbSymbolTableRecord
100
AcDbBlockTableRecord
  2
*D10
340
0
  0
BLOCK_RECORD
  5
25CC
330
1
100
AcDbSymbolTableRecord
100
AcDbBlockTableRecord
  2
P-H60
340
0
102
{BLKREFS
331
25DA
331
25DB
102
}
  0
BLOCK_RECORD
  5
26DD
102
{ACAD_XDICTIONARY
360
26E1
102
}
330
1
100
AcDbSymbolTableRecord
100
AcDbBlockTableRecord
  2
鎌下
340
0
102
{BLKREFS
331
26E4
102
}
1001
ACAD
1000
DesignCenter Data
1002
{
1070
     1
1070
     4
1002
}
  0
BLOCK_RECORD
  5
2780
102
{ACAD_XDICTIONARY
360
278B
102
}
330
1
100
AcDbSymbolTableRecord
100
AcDbBlockTableRecord
  2
GFB新
340
0
102
{BLKREFS
331
278E
102
}
1001
ACAD
1000
DesignCenter Data
1002
{
1070
     1
1070
     4
1002
}
  0
BLOCK_RECORD
  5
2796
102
{ACAD_REACTORS
330
27AC
102
}
330
1
100
AcDbSymbolTableRecord
100
AcDbBlockTableRecord
  2
*U25
340
0
102
{BLKREFS
331
27B0
331
27B1
331
27B2
331
27B3
331
27B4
331
27B5
331
27B6
331
27B7
331
27B8
331
27B9
331
27BA
331
27BB
331
27BC
331
27BD
331
27BE
331
27BF
331
27C0
331
27C1
331
27C2
331
27C3
331
27C4
331
27C5
331
27C6
331
27C7
331
27C8
331
27C9
331
27CA
331
27CB
331
27CC
331
27CD
331
27CE
331
27CF
331
27D0
331
27D1
331
27D2
331
27D3
331
27D4
331
27D5
331
27D6
331
27D7
331
27D8
331
27D9
331
27DA
331
27DB
331
27DC
331
27DD
331
27DE
331
27DF
331
27E0
331
27E1
331
27E2
331
27E3
331
27E4
331
27E5
331
27E6
331
27E7
331
27E8
331
27E9
331
27EA
331
27EB
331
27EC
331
27ED
331
27EE
331
27EF
331
27F0
331
27F1
331
27F2
331
27F3
331
27F4
331
27F5
331
27F6
331
27F7
331
27F8
331
27F9
331
27FA
331
27FB
331
27FC
331
27FD
102
}
  0
BLOCK_RECORD
  5
2799
102
{ACAD_XDICTIONARY
360
2A70
102
}
102
{ACAD_REACTORS
330
27AB
102
}
330
1
100
AcDbSymbolTableRecord
100
AcDbBlockTableRecord
  2
*U26
340
0
102
{BLKREFS
331
279C
102
}
  0
BLOCK_RECORD
  5
28D5
102
{ACAD_REACTORS
330
2948
102
}
330
1
100
AcDbSymbolTableRecord
100
AcDbBlockTableRecord
  2
*U28
340
0
102
{BLKREFS
331
294C
331
294D
331
294E
331
294F
331
2950
331
2951
331
2952
331
2953
331
2954
331
2955
331
2956
331
2957
331
2958
331
2959
331
295A
331
295B
331
295C
331
295D
331
295E
331
295F
331
2960
331
2961
331
2962
331
2963
331
2964
331
2965
331
2966
331
2967
331
2968
331
2969
331
296A
331
296B
331
296C
331
296D
331
296E
331
296F
331
2970
331
2971
331
2972
331
2973
331
2974
331
2975
331
2976
331
2977
331
2978
331
2979
331
297A
331
297B
331
297C
331
297D
331
297E
331
297F
331
2980
331
2981
331
2982
331
2983
331
2984
331
2985
331
2986
331
2987
331
2988
331
2989
331
298A
331
298B
331
298C
331
298D
331
298E
331
298F
331
2990
331
2991
331
2992
331
2993
331
2994
331
2995
331
2996
331
2997
331
2998
331
2999
102
}
  0
BLOCK_RECORD
  5
28D8
102
{ACAD_XDICTIONARY
360
2A73
102
}
102
{ACAD_REACTORS
330
2947
102
}
330
1
100
AcDbSymbolTableRecord
100
AcDbBlockTableRecord
  2
*U29
340
0
102
{BLKREFS
331
28DB
102
}
  0
BLOCK_RECORD
  5
29A0
330
1
100
AcDbSymbolTableRecord
100
AcDbBlockTableRecord
  2
*D30
340
0
  0
ENDTAB
  0
ENDSEC
  0
SECTION
  2
BLOCKS
  0
BLOCK
  5
220E
330
2
100
AcDbEntity
  8
0
100
AcDbBlockBegin
  2
*Model_Space
 70
     0
 10
0.0
 20
0.0
 30
0.0
  3
*Model_Space
  1

  0
ENDBLK
  5
220F
330
2
100
AcDbEntity
  8
0
100
AcDbBlockEnd
  0
BLOCK
  5
2215
330
2212
100
AcDbEntity
 67
     1
  8
0
100
AcDbBlockBegin
  2
*Paper_Space
 70
     0
 10
0.0
 20
0.0
 30
0.0
  3
*Paper_Space
  1

  0
ENDBLK
  5
2216
330
2212
100
AcDbEntity
 67
     1
  8
0
100
AcDbBlockEnd
  0
BLOCK
  5
221B
330
2218
100
AcDbEntity
 67
     1
  8
0
100
AcDbBlockBegin
  2
*Paper_Space0
 70
     0
 10
0.0
 20
0.0
 30
0.0
  3
*Paper_Space0
  1

  0
ENDBLK
  5
221C
330
2218
100
AcDbEntity
 67
     1
  8
0
100
AcDbBlockEnd
  0
BLOCK
  5
9D
330
99
100
AcDbEntity
  8
0
100
AcDbBlockBegin
  2
_Open30
 70
     0
 10
0.0
 20
0.0
 30
0.0
  3
_Open30
  1

  0
LINE
  5
9A
330
99
100
AcDbEntity
  8
0
  6
ByBlock
 62
     0
370
    -2
100
AcDbLine
 10
-1.0
 20
0.26794919
 30
0.0
 11
0.0
 21
0.0
 31
0.0
  0
LINE
  5
9B
330
99
100
AcDbEntity
  8
0
  6
ByBlock
 62
     0
370
    -2
100
AcDbLine
 10
0.0
 20
0.0
 30
0.0
 11
-1.0
 21
-0.26794919
 31
0.0
  0
LINE
  5
9C
330
99
100
AcDbEntity
  8
0
  6
ByBlock
 62
     0
370
    -2
100
AcDbLine
 10
0.0
 20
0.0
 30
0.0
 11
-1.0
 21
0.0
 31
0.0
  0
ENDBLK
  5
9E
330
99
100
AcDbEntity
  8
0
100
AcDbBlockEnd
  0
BLOCK
  5
EE
330
E8
100
AcDbEntity
  8
0
100
AcDbBlockBegin
  2
TB6
 70
     0
 10
0.0
 20
0.0
 30
0.0
  3
TB6
  1

  0
MTEXT
  5
E9
330
E8
100
AcDbEntity
  8
寸法線
  6
Continuous
100
AcDbMText
 10
917.3216494432054
 20
235.349302881973
 30
0.0
 40
20.0
 41
17.2146
 71
     7
 72
     1
  1

 73
     1
 44
1.0
1001
ACAD
1000
MTEXTBEGIN
1070
    73
1070
     1
1070
    44
1040
1.0
1070
    74
1070
     0
1000
MTEXTEND
  0
LINE
  5
EA
330
E8
100
AcDbEntity
  8
本体
  6
CENTER
 62
     1
 48
0.3
100
AcDbLine
 10
9.0
 20
0.0
 30
0.0
 11
-3.0
 21
0.0
 31
0.0
  0
LINE
  5
EC
330
E8
100
AcDbEntity
  8
本体
  6
CENTER
 62
     1
 48
0.3
100
AcDbLine
 10
3.0
 20
6.0
 30
0.0
 11
3.0
 21
-6.0
 31
0.0
  0
CIRCLE
  5
ED
330
E8
100
AcDbEntity
  8
本体
  6
Continuous
 62
     0
100
AcDbCircle
 10
3.0
 20
0.0
 30
0.0
 40
3.0
  0
ENDBLK
  5
EF
330
E8
100
AcDbEntity
  8
0
100
AcDbBlockEnd
  0
BLOCK
  5
AF
330
A4
100
AcDbEntity
  8
0
 48
3.0
100
AcDbBlockBegin
  2
*D3
 70
     1
 10
0.0
 20
0.0
 30
0.0
  3
*D3
  1

  0
LINE
  5
A5
330
A4
100
AcDbEntity
  8
寸法線
  6
Continuous
 62
     0
 48
3.0
370
    -2
100
AcDbLine
 10
1989.072932310907
 20
1555.751878390281
 30
0.0
 11
1894.129262262274
 21
1555.751878390281
 31
0.0
  0
LINE
  5
A6
330
A4
100
AcDbEntity
  8
寸法線
  6
Continuous
 62
     0
 48
3.0
370
    -2
100
AcDbLine
 10
1989.072932310907
 20
1455.751878390281
 30
0.0
 11
1894.129262262274
 21
1455.751878390281
 31
0.0
  0
LINE
  5
A7
330
A4
100
AcDbEntity
  8
寸法線
  6
Continuous
 62
     0
 48
3.0
370
    -2
100
AcDbLine
 10
1909.129262262274
 20
1540.751878390281
 30
0.0
 11
1909.129262262274
 21
1470.751878390281
 31
0.0
  0
INSERT
  5
A8
330
A4
100
AcDbEntity
  8
寸法線
  6
Continuous
 62
     0
 48
3.0
370
    -2
100
AcDbBlockReference
  2
_Open30
 10
1909.129262262274
 20
1555.751878390281
 30
0.0
 41
15.0
 42
15.0
 43
15.0
 50
90.0
  0
INSERT
  5
A9
330
A4
100
AcDbEntity
  8
寸法線
  6
Continuous
 62
     0
 48
3.0
370
    -2
100
AcDbBlockReference
  2
_Open30
 10
1909.129262262274
 20
1455.751878390281
 30
0.0
 41
15.0
 42
15.0
 43
15.0
 50
270.0
  0
MTEXT
  5
AA
330
A4
100
AcDbEntity
  8
寸法線
  6
Continuous
 62
     0
 48
3.0
100
AcDbMText
 10
1889.129262262274
 20
1505.751878390281
 30
0.0
 40
30.0
 41
0.0
 71
     5
 72
     1
  1
100
 11
0.0000000000000001
 21
1.0
 31
0.0
 73
     1
 44
1.0
1001
ACAD
1000
MTEXTBEGIN
1070
    73
1070
     1
1070
    44
1040
1.0
1070
    74
1070
     0
1000
MTEXTEND
  0
POINT
  5
AB
330
A4
100
AcDbEntity
  8
Defpoints
  6
Continuous
 62
     0
 48
3.0
100
AcDbPoint
 10
2009.072932310907
 20
1555.751878390281
 30
0.0
  0
POINT
  5
AD
330
A4
100
AcDbEntity
  8
Defpoints
  6
Continuous
 62
     0
 48
3.0
100
AcDbPoint
 10
2009.072932310907
 20
1455.751878390281
 30
0.0
  0
POINT
  5
AE
330
A4
100
AcDbEntity
  8
Defpoints
  6
Continuous
 62
     0
 48
3.0
100
AcDbPoint
 10
1909.129262262274
 20
1455.751878390281
 30
0.0
  0
ENDBLK
  5
B0
330
A4
100
AcDbEntity
  8
0
 48
3.0
100
AcDbBlockEnd
  0
BLOCK
  5
BC
330
B2
100
AcDbEntity
  8
0
 48
3.0
100
AcDbBlockBegin
  2
*D4
 70
     1
 10
0.0
 20
0.0
 30
0.0
  3
*D4
  1

  0
LINE
  5
B3
330
B2
100
AcDbEntity
  8
寸法線
  6
Continuous
 62
     0
 48
3.0
370
    -2
100
AcDbLine
 10
1989.072932310907
 20
1610.751878390281
 30
0.0
 11
1794.085510378927
 21
1610.751878390281
 31
0.0
  0
LINE
  5
B4
330
B2
100
AcDbEntity
  8
寸法線
  6
Continuous
 62
     0
 48
3.0
370
    -2
100
AcDbLine
 10
1989.072932310907
 20
1200.751878390281
 30
0.0
 11
1794.085510378927
 21
1200.751878390281
 31
0.0
  0
LINE
  5
B5
330
B2
100
AcDbEntity
  8
寸法線
  6
Continuous
 62
     0
 48
3.0
370
    -2
100
AcDbLine
 10
1809.085510378927
 20
1595.751878390281
 30
0.0
 11
1809.085510378927
 21
1215.751878390281
 31
0.0
  0
INSERT
  5
B6
330
B2
100
AcDbEntity
  8
寸法線
  6
Continuous
 62
     0
 48
3.0
370
    -2
100
AcDbBlockReference
  2
_Open30
 10
1809.085510378927
 20
1610.751878390281
 30
0.0
 41
15.0
 42
15.0
 43
15.0
 50
90.0
  0
INSERT
  5
B7
330
B2
100
AcDbEntity
  8
寸法線
  6
Continuous
 62
     0
 48
3.0
370
    -2
100
AcDbBlockReference
  2
_Open30
 10
1809.085510378927
 20
1200.751878390281
 30
0.0
 41
15.0
 42
15.0
 43
15.0
 50
270.0
  0
MTEXT
  5
B8
330
B2
100
AcDbEntity
  8
寸法線
  6
Continuous
 62
     0
 48
3.0
100
AcDbMText
 10
1789.085510378927
 20
1405.751878390281
 30
0.0
 40
30.0
 41
0.0
 71
     5
 72
     1
  1
410
 11
0.0000000000000001
 21
1.0
 31
0.0
 73
     1
 44
1.0
1001
ACAD
1000
MTEXTBEGIN
1070
    73
1070
     1
1070
    44
1040
1.0
1070
    74
1070
     0
1000
MTEXTEND
  0
POINT
  5
B9
330
B2
100
AcDbEntity
  8
Defpoints
  6
Continuous
 62
     0
 48
3.0
100
AcDbPoint
 10
2009.072932310907
 20
1610.751878390281
 30
0.0
  0
POINT
  5
BA
330
B2
100
AcDbEntity
  8
Defpoints
  6
Continuous
 62
     0
 48
3.0
100
AcDbPoint
 10
2009.072932310907
 20
1200.751878390281
 30
0.0
  0
POINT
  5
BB
330
B2
100
AcDbEntity
  8
Defpoints
  6
Continuous
 62
     0
 48
3.0
100
AcDbPoint
 10
1809.085510378927
 20
1200.751878390281
 30
0.0
  0
ENDBLK
  5
BD
330
B2
100
AcDbEntity
  8
0
 48
3.0
100
AcDbBlockEnd
  0
BLOCK
  5
C9
330
BF
100
AcDbEntity
  8
0
 48
3.0
100
AcDbBlockBegin
  2
*D5
 70
     1
 10
0.0
 20
0.0
 30
0.0
  3
*D5
  1

  0
LINE
  5
C0
330
BF
100
AcDbEntity
  8
寸法線
  6
Continuous
 62
     0
 48
3.0
370
    -2
100
AcDbLine
 10
2118.072929310907
 20
1600.751879390281
 30
0.0
 11
2205.953850818784
 21
1600.751879390281
 31
0.0
  0
LINE
  5
C1
330
BF
100
AcDbEntity
  8
寸法線
  6
Continuous
 62
     0
 48
3.0
370
    -2
100
AcDbLine
 10
2118.072929310907
 20
1210.751877390281
 30
0.0
 11
2205.953850818784
 21
1210.751877390281
 31
0.0
  0
LINE
  5
C2
330
BF
100
AcDbEntity
  8
寸法線
  6
Continuous
 62
     0
 48
3.0
370
    -2
100
AcDbLine
 10
2190.953850818784
 20
1585.751879390281
 30
0.0
 11
2190.953850818784
 21
1225.751877390281
 31
0.0
  0
INSERT
  5
C3
330
BF
100
AcDbEntity
  8
寸法線
  6
Continuous
 62
     0
 48
3.0
370
    -2
100
AcDbBlockReference
  2
_Open30
 10
2190.953850818784
 20
1600.751879390281
 30
0.0
 41
15.0
 42
15.0
 43
15.0
 50
90.0
  0
INSERT
  5
C4
330
BF
100
AcDbEntity
  8
寸法線
  6
Continuous
 62
     0
 48
3.0
370
    -2
100
AcDbBlockReference
  2
_Open30
 10
2190.953850818784
 20
1210.751877390281
 30
0.0
 41
15.0
 42
15.0
 43
15.0
 50
270.0
  0
MTEXT
  5
C5
330
BF
100
AcDbEntity
  8
寸法線
  6
Continuous
 62
     0
 48
3.0
100
AcDbMText
 10
2170.953850818784
 20
1405.751878390281
 30
0.0
 40
30.0
 41
0.0
 71
     5
 72
     1
  1
390
 11
0.0000000000000001
 21
1.0
 31
0.0
 73
     1
 44
1.0
1001
ACAD
1000
MTEXTBEGIN
1070
    73
1070
     1
1070
    44
1040
1.0
1070
    74
1070
     0
1000
MTEXTEND
  0
POINT
  5
C6
330
BF
100
AcDbEntity
  8
Defpoints
  6
Continuous
 62
     0
 48
3.0
100
AcDbPoint
 10
2098.072929310907
 20
1600.751879390281
 30
0.0
  0
POINT
  5
C7
330
BF
100
AcDbEntity
  8
Defpoints
  6
Continuous
 62
     0
 48
3.0
100
AcDbPoint
 10
2098.072929310907
 20
1210.751877390281
 30
0.0
  0
POINT
  5
C8
330
BF
100
AcDbEntity
  8
Defpoints
  6
Continuous
 62
     0
 48
3.0
100
AcDbPoint
 10
2190.953850818784
 20
1210.751877390281
 30
0.0
  0
ENDBLK
  5
CA
330
BF
100
AcDbEntity
  8
0
 48
3.0
100
AcDbBlockEnd
  0
BLOCK
  5
E0
330
D6
100
AcDbEntity
  8
0
 48
3.0
100
AcDbBlockBegin
  2
*D6
 70
     1
 10
0.0
 20
0.0
 30
0.0
  3
*D6
  1

  0
LINE
  5
D7
330
D6
100
AcDbEntity
  8
寸法線
  6
Continuous
 62
     0
 48
3.0
370
    -2
100
AcDbLine
 10
536.2624618105737
 20
597.3613396332453
 30
0.0
 11
536.2624618105737
 21
450.4814186254857
 31
0.0
  0
LINE
  5
D8
330
D6
100
AcDbEntity
  8
寸法線
  6
Continuous
 62
     0
 48
3.0
370
    -2
100
AcDbLine
 10
1526.262461810573
 20
597.3613396332453
 30
0.0
 11
1526.262461810573
 21
450.4814186254857
 31
0.0
  0
LINE
  5
D9
330
D6
100
AcDbEntity
  8
寸法線
  6
Continuous
 62
     0
 48
3.0
370
    -2
100
AcDbLine
 10
551.2624618105737
 20
465.4814186254857
 30
0.0
 11
1511.262461810574
 21
465.4814186254857
 31
0.0
  0
INSERT
  5
DA
330
D6
100
AcDbEntity
  8
寸法線
  6
Continuous
 62
     0
 48
3.0
370
    -2
100
AcDbBlockReference
  2
_Open30
 10
536.2624618105737
 20
465.4814186254857
 30
0.0
 41
15.0
 42
15.0
 43
15.0
 50
180.0
  0
INSERT
  5
DB
330
D6
100
AcDbEntity
  8
寸法線
  6
Continuous
 62
     0
 48
3.0
370
    -2
100
AcDbBlockReference
  2
_Open30
 10
1526.262461810573
 20
465.4814186254857
 30
0.0
 41
15.0
 42
15.0
 43
15.0
  0
MTEXT
  5
DC
330
D6
100
AcDbEntity
  8
寸法線
  6
Continuous
 62
     0
 48
3.0
100
AcDbMText
 10
1031.262461810574
 20
485.4814186254857
 30
0.0
 40
30.0
 41
0.0
 71
     5
 72
     1
  1
990
 73
     1
 44
1.0
1001
ACAD
1000
MTEXTBEGIN
1070
    73
1070
     1
1070
    44
1040
1.0
1070
    74
1070
     0
1000
MTEXTEND
  0
POINT
  5
DD
330
D6
100
AcDbEntity
  8
Defpoints
  6
Continuous
 62
     0
 48
3.0
100
AcDbPoint
 10
536.2624618105737
 20
617.3613396332452
 30
0.0
  0
POINT
  5
DE
330
D6
100
AcDbEntity
  8
Defpoints
  6
Continuous
 62
     0
 48
3.0
100
AcDbPoint
 10
1526.262461810573
 20
617.3613396332452
 30
0.0
  0
POINT
  5
DF
330
D6
100
AcDbEntity
  8
Defpoints
  6
Continuous
 62
     0
 48
3.0
100
AcDbPoint
 10
1526.262461810573
 20
465.4814186254857
 30
0.0
  0
ENDBLK
  5
E1
330
D6
100
AcDbEntity
  8
0
 48
3.0
100
AcDbBlockEnd
  0
BLOCK
  5
533
330
529
100
AcDbEntity
  8
0
 48
3.0
100
AcDbBlockBegin
  2
*D7
 70
     1
 10
0.0
 20
0.0
 30
0.0
  3
*D7
  1

  0
LINE
  5
29CF
330
529
100
AcDbEntity
  8
寸法線
  6
Continuous
 62
     0
370
    -2
100
AcDbLine
 10
1528.762461810574
 20
729.3613396332452
 30
0.0
 11
1528.762461810574
 21
875.0720177519001
 31
0.0
  0
LINE
  5
29D0
330
529
100
AcDbEntity
  8
寸法線
  6
Continuous
 62
     0
370
    -2
100
AcDbLine
 10
533.7624618105738
 20
729.3613396332452
 30
0.0
 11
533.7624618105738
 21
875.0720177519001
 31
0.0
  0
LINE
  5
29D1
330
529
100
AcDbEntity
  8
寸法線
  6
Continuous
 62
     0
370
    -2
100
AcDbLine
 10
1513.762461810574
 20
860.0720177519001
 30
0.0
 11
548.7624618105737
 21
860.0720177519001
 31
0.0
  0
INSERT
  5
29D2
330
529
100
AcDbEntity
  8
寸法線
  6
Continuous
 62
     0
370
    -2
100
AcDbBlockReference
  2
_Open30
 10
1528.762461810574
 20
860.0720177519001
 30
0.0
 41
15.0
 42
15.0
 43
15.0
  0
INSERT
  5
29D3
330
529
100
AcDbEntity
  8
寸法線
  6
Continuous
 62
     0
370
    -2
100
AcDbBlockReference
  2
_Open30
 10
533.7624618105738
 20
860.0720177519001
 30
0.0
 41
15.0
 42
15.0
 43
15.0
 50
180.0
  0
MTEXT
  5
29D4
330
529
100
AcDbEntity
  8
寸法線
  6
Continuous
 62
     0
100
AcDbMText
 10
1031.262461810574
 20
880.0720177519002
 30
0.0
 40
30.0
 41
0.0
 71
     5
 72
     1
  1
995
 73
     1
 44
1.0
1001
ACAD
1000
MTEXTBEGIN
1070
    73
1070
     1
1070
    44
1040
1.0
1070
    74
1070
     0
1000
MTEXTEND
  0
POINT
  5
29D5
330
529
100
AcDbEntity
  8
Defpoints
  6
Continuous
 62
     0
100
AcDbPoint
 10
1528.762461810574
 20
709.3613396332452
 30
0.0
  0
POINT
  5
29D6
330
529
100
AcDbEntity
  8
Defpoints
  6
Continuous
 62
     0
100
AcDbPoint
 10
533.7624618105738
 20
709.3613396332452
 30
0.0
  0
POINT
  5
29D7
330
529
100
AcDbEntity
  8
Defpoints
  6
Continuous
 62
     0
100
AcDbPoint
 10
533.7624618105738
 20
860.0720177519001
 30
0.0
  0
ENDBLK
  5
534
330
529
100
AcDbEntity
  8
0
 48
3.0
100
AcDbBlockEnd
  0
BLOCK
  5
54D
330
541
100
AcDbEntity
  8
0
 48
3.0
100
AcDbBlockBegin
  2
*D8
 70
     1
 10
0.0
 20
0.0
 30
0.0
  3
*D8
  1

  0
LINE
  5
542
330
541
100
AcDbEntity
  8
寸法線
  6
Continuous
 62
     0
 48
3.0
370
    -2
100
AcDbLine
 10
1548.762461810573
 20
677.3613396332453
 30
0.0
 11
1640.527085734337
 21
677.3613396332453
 31
0.0
  0
LINE
  5
543
330
541
100
AcDbEntity
  8
寸法線
  6
Continuous
 62
     0
 48
3.0
370
    -2
100
AcDbLine
 10
1548.762461810573
 20
709.3613396332452
 30
0.0
 11
1640.527085734337
 21
709.3613396332452
 31
0.0
  0
LINE
  5
544
330
541
100
AcDbEntity
  8
寸法線
  6
Continuous
 62
     0
 48
3.0
370
    -2
100
AcDbLine
 10
1625.527085734337
 20
662.3613396332452
 30
0.0
 11
1625.527085734337
 21
647.3613396332453
 31
0.0
  0
LINE
  5
545
330
541
100
AcDbEntity
  8
寸法線
  6
Continuous
 62
     0
 48
3.0
370
    -2
100
AcDbLine
 10
1625.527085734337
 20
724.3613396332452
 30
0.0
 11
1625.527085734337
 21
784.5390046078644
 31
0.0
  0
LINE
  5
546
330
541
100
AcDbEntity
  8
寸法線
  6
Continuous
 62
     0
 48
3.0
370
    -2
100
AcDbLine
 10
1625.527085734337
 20
677.3613396332453
 30
0.0
 11
1625.527085734337
 21
709.3613396332452
 31
0.0
  0
INSERT
  5
547
330
541
100
AcDbEntity
  8
寸法線
  6
Continuous
 62
     0
 48
3.0
370
    -2
100
AcDbBlockReference
  2
_Open30
 10
1625.527085734337
 20
677.3613396332453
 30
0.0
 41
15.0
 42
15.0
 43
15.0
 50
90.0
  0
INSERT
  5
548
330
541
100
AcDbEntity
  8
寸法線
  6
Continuous
 62
     0
 48
3.0
370
    -2
100
AcDbBlockReference
  2
_Open30
 10
1625.527085734337
 20
709.3613396332452
 30
0.0
 41
15.0
 42
15.0
 43
15.0
 50
270.0
  0
MTEXT
  5
549
330
541
100
AcDbEntity
  8
寸法線
  6
Continuous
 62
     0
 48
3.0
100
AcDbMText
 10
1605.527085734337
 20
761.9501721205551
 30
0.0
 40
30.0
 41
0.0
 71
     5
 72
     1
  1
32
 11
0.0000000000000001
 21
1.0
 31
0.0
 73
     1
 44
1.0
1001
ACAD
1000
MTEXTBEGIN
1070
    73
1070
     1
1070
    44
1040
1.0
1070
    74
1070
     0
1000
MTEXTEND
  0
POINT
  5
54A
330
541
100
AcDbEntity
  8
Defpoints
  6
Continuous
 62
     0
 48
3.0
100
AcDbPoint
 10
1528.762461810574
 20
677.3613396332453
 30
0.0
  0
POINT
  5
54B
330
541
100
AcDbEntity
  8
Defpoints
  6
Continuous
 62
     0
 48
3.0
100
AcDbPoint
 10
1528.762461810574
 20
709.3613396332452
 30
0.0
  0
POINT
  5
54C
330
541
100
AcDbEntity
  8
Defpoints
  6
Continuous
 62
     0
 48
3.0
100
AcDbPoint
 10
1625.527085734337
 20
709.3613396332452
 30
0.0
  0
ENDBLK
  5
54E
330
541
100
AcDbEntity
  8
0
 48
3.0
100
AcDbBlockEnd
  0
BLOCK
  5
55A
330
550
100
AcDbEntity
  8
0
 48
3.0
100
AcDbBlockBegin
  2
*D9
 70
     1
 10
0.0
 20
0.0
 30
0.0
  3
*D9
  1

  0
LINE
  5
551
330
550
100
AcDbEntity
  8
寸法線
  6
Continuous
 62
     0
 48
3.0
370
    -2
100
AcDbLine
 10
1546.262461810574
 20
617.3613396332452
 30
0.0
 11
1721.941940471122
 21
617.3613396332452
 31
0.0
  0
LINE
  5
552
330
550
100
AcDbEntity
  8
寸法線
  6
Continuous
 62
     0
 48
3.0
370
    -2
100
AcDbLine
 10
1545.762461810574
 20
709.3613396332452
 30
0.0
 11
1721.941940471122
 21
709.3613396332452
 31
0.0
  0
LINE
  5
553
330
550
100
AcDbEntity
  8
寸法線
  6
Continuous
 62
     0
 48
3.0
370
    -2
100
AcDbLine
 10
1706.941940471122
 20
632.3613396332453
 30
0.0
 11
1706.941940471122
 21
694.3613396332453
 31
0.0
  0
INSERT
  5
554
330
550
100
AcDbEntity
  8
寸法線
  6
Continuous
 62
     0
 48
3.0
370
    -2
100
AcDbBlockReference
  2
_Open30
 10
1706.941940471122
 20
617.3613396332452
 30
0.0
 41
15.0
 42
15.0
 43
15.0
 50
270.0
  0
INSERT
  5
555
330
550
100
AcDbEntity
  8
寸法線
  6
Continuous
 62
     0
 48
3.0
370
    -2
100
AcDbBlockReference
  2
_Open30
 10
1706.941940471122
 20
709.3613396332452
 30
0.0
 41
15.0
 42
15.0
 43
15.0
 50
90.0
  0
MTEXT
  5
556
330
550
100
AcDbEntity
  8
寸法線
  6
Continuous
 62
     0
 48
3.0
100
AcDbMText
 10
1686.941940471122
 20
663.3613396332455
 30
0.0
 40
30.0
 41
0.0
 71
     5
 72
     1
  1
92
 11
0.0000000000000001
 21
1.0
 31
0.0
 73
     1
 44
1.0
1001
ACAD
1000
MTEXTBEGIN
1070
    73
1070
     1
1070
    44
1040
1.0
1070
    74
1070
     0
1000
MTEXTEND
  0
POINT
  5
557
330
550
100
AcDbEntity
  8
Defpoints
  6
Continuous
 62
     0
 48
3.0
100
AcDbPoint
 10
1526.262461810573
 20
617.3613396332452
 30
0.0
  0
POINT
  5
558
330
550
100
AcDbEntity
  8
Defpoints
  6
Continuous
 62
     0
 48
3.0
100
AcDbPoint
 10
1525.762461810574
 20
709.3613396332452
 30
0.0
  0
POINT
  5
559
330
550
100
AcDbEntity
  8
Defpoints
  6
Continuous
 62
     0
 48
3.0
100
AcDbPoint
 10
1706.941940471122
 20
709.3613396332452
 30
0.0
  0
ENDBLK
  5
55B
330
550
100
AcDbEntity
  8
0
 48
3.0
100
AcDbBlockEnd
  0
BLOCK
  5
220A
330
2200
100
AcDbEntity
  8
0
 48
3.0
100
AcDbBlockBegin
  2
*D10
 70
     1
 10
0.0
 20
0.0
 30
0.0
  3
*D10
  1

  0
LINE
  5
2201
330
2200
100
AcDbEntity
  8
寸法線
 62
     0
 48
3.0
370
    -2
100
AcDbLine
 10
1546.262461810574
 20
617.3613396332452
 30
0.0
 11
1640.527085734337
 21
617.3613396332452
 31
0.0
  0
LINE
  5
2202
330
2200
100
AcDbEntity
  8
寸法線
 62
     0
 48
3.0
370
    -2
100
AcDbLine
 10
1548.762461810573
 20
677.3613396332453
 30
0.0
 11
1640.527085734337
 21
677.3613396332453
 31
0.0
  0
LINE
  5
2203
330
2200
100
AcDbEntity
  8
寸法線
 62
     0
 48
3.0
370
    -2
100
AcDbLine
 10
1625.527085734337
 20
632.3613396332453
 30
0.0
 11
1625.527085734337
 21
662.3613396332452
 31
0.0
  0
INSERT
  5
2204
330
2200
100
AcDbEntity
  8
寸法線
 62
     0
 48
3.0
370
    -2
100
AcDbBlockReference
  2
_Open30
 10
1625.527085734337
 20
617.3613396332452
 30
0.0
 41
15.0
 42
15.0
 43
15.0
 50
270.0
  0
INSERT
  5
2205
330
2200
100
AcDbEntity
  8
寸法線
 62
     0
 48
3.0
370
    -2
100
AcDbBlockReference
  2
_Open30
 10
1625.527085734337
 20
677.3613396332453
 30
0.0
 41
15.0
 42
15.0
 43
15.0
 50
90.0
  0
MTEXT
  5
2206
330
2200
100
AcDbEntity
  8
寸法線
 62
     0
 48
3.0
100
AcDbMText
 10
1605.527085734337
 20
647.3613396332455
 30
0.0
 40
30.0
 41
0.0
 71
     5
 72
     1
  1
60
 11
0.0000000000000001
 21
1.0
 31
0.0
 73
     1
 44
1.0
1001
ACAD
1000
MTEXTBEGIN
1070
    73
1070
     1
1070
    44
1040
1.0
1070
    74
1070
     0
1000
MTEXTEND
  0
POINT
  5
2207
330
2200
100
AcDbEntity
  8
Defpoints
 62
     0
 48
3.0
100
AcDbPoint
 10
1526.262461810573
 20
617.3613396332452
 30
0.0
  0
POINT
  5
2208
330
2200
100
AcDbEntity
  8
Defpoints
 62
     0
 48
3.0
100
AcDbPoint
 10
1528.762461810574
 20
677.3613396332453
 30
0.0
  0
POINT
  5
2209
330
2200
100
AcDbEntity
  8
Defpoints
 62
     0
 48
3.0
100
AcDbPoint
 10
1625.527085734337
 20
677.3613396332453
 30
0.0
  0
ENDBLK
  5
220B
330
2200
100
AcDbEntity
  8
0
 48
3.0
100
AcDbBlockEnd
  0
BLOCK
  5
25D6
330
25CC
100
AcDbEntity
  8
0
 48
3.0
100
AcDbBlockBegin
  2
P-H60
 70
     0
 10
0.0
 20
0.0
 30
0.0
  3
P-H60
  1

  0
LINE
  5
25CD
330
25CC
100
AcDbEntity
  8
0
100
AcDbLine
 10
2.999997
 20
0.000001
 30
0.0
 11
56.999997
 21
0.000001
 31
0.0
  0
LINE
  5
25CE
330
25CC
100
AcDbEntity
  8
0
100
AcDbLine
 10
-0.000003
 20
-2.999999
 30
0.0
 11
-0.000003
 21
-36.999999
 31
0.0
  0
LINE
  5
25CF
330
25CC
100
AcDbEntity
  8
0
100
AcDbLine
 10
2.999997
 20
-39.999999
 30
0.0
 11
56.999997
 21
-39.999999
 31
0.0
  0
ARC
  5
25D0
330
25CC
100
AcDbEntity
  8
0
100
AcDbCircle
 10
2.999997
 20
-36.999999
 30
0.0
 40
3.0
100
AcDbArc
 50
180.0
 51
270.0
  0
ARC
  5
25D1
330
25CC
100
AcDbEntity
  8
0
100
AcDbCircle
 10
2.999997
 20
-2.999999
 30
0.0
 40
3.0
100
AcDbArc
 50
90.0
 51
180.0
  0
LINE
  5
25D2
330
25CC
100
AcDbEntity
  8
0
100
AcDbLine
 10
59.999997
 20
-36.999999
 30
0.0
 11
59.999997
 21
-2.999999
 31
0.0
  0
ARC
  5
25D3
330
25CC
100
AcDbEntity
  8
0
100
AcDbCircle
 10
56.999997
 20
-2.999999
 30
0.0
 40
3.0
100
AcDbArc
 50
0.0
 51
90.0
  0
ARC
  5
25D4
330
25CC
100
AcDbEntity
  8
0
100
AcDbCircle
 10
56.999997
 20
-36.999999
 30
0.0
 40
3.0
100
AcDbArc
 50
270.0
 51
0.0
  0
LWPOLYLINE
  5
25D5
330
25CC
100
AcDbEntity
  8
0
  6
Continuous
100
AcDbPolyline
 90
        4
 70
     1
 43
0.0
 10
2.299996999999999
 20
-37.69999900000001
 10
57.699997
 20
-37.69999900000001
 10
57.699997
 20
-2.299998999999999
 10
2.299996999999999
 20
-2.299998999999999
  0
ENDBLK
  5
25D7
330
25CC
100
AcDbEntity
  8
0
 48
3.0
100
AcDbBlockEnd
  0
BLOCK
  5
26E2
330
26DD
100
AcDbEntity
  8
0
 48
3.0
100
AcDbBlockBegin
  2
鎌下
 70
     0
 10
0.0
 20
0.0
 30
0.0
  3
鎌下
  1

  0
MTEXT
  5
26DE
330
26DD
100
AcDbEntity
  8
外枠
  6
Continuous
100
AcDbMText
 10
40.55333581259037
 20
-88.14888116777728
 30
0.0
 40
28.17460800000001
 41
43.8527
 71
     1
 72
     5
  1
{\fHGSeikaishotaiPRO|b0|i0|c128|p65;下}
 73
     1
 44
1.0
1001
ACAD
1000
MTEXTBEGIN
1070
    73
1070
     1
1070
    44
1040
1.0
1070
    74
1070
     0
1000
MTEXTEND
  0
MTEXT
  5
26DF
330
26DD
100
AcDbEntity
  8
外枠
  6
Continuous
100
AcDbMText
 10
40.55333581259037
 20
-45.61885629864991
 30
0.0
 40
28.17460800000001
 41
43.8527
 71
     1
 72
     5
  1
{\fHGSeikaishotaiPRO|b0|i0|c128|p65;鎌}
 73
     1
 44
1.0
1001
ACAD
1000
MTEXTBEGIN
1070
    73
1070
     1
1070
    44
1040
1.0
1070
    74
1070
     0
1000
MTEXTEND
  0
ELLIPSE
  5
26E0
330
26DD
100
AcDbEntity
  8
外枠
  6
Continuous
100
AcDbEllipse
 10
61.68068686355036
 20
-84.59863033186412
 30
0.0
 11
0.0
 21
-47.8594442149426
 31
0.0
210
0.0
220
0.0
230
1.0
 40
0.7999999999999857
 41
0.0
 42
6.283185307179586
  0
ENDBLK
  5
26E3
330
26DD
100
AcDbEntity
  8
0
 48
3.0
100
AcDbBlockEnd
  0
BLOCK
  5
278C
330
2780
100
AcDbEntity
  8
0
 48
3.0
100
AcDbBlockBegin
  2
GFB新
 70
     0
 10
0.0
 20
0.0
 30
0.0
  3
GFB新
  1

  0
LINE
  5
2781
330
2780
100
AcDbEntity
  8
エンボス
370
     0
100
AcDbLine
 10
-207.7431163161555
 20
217.548054223251
 30
0.0
 11
-207.7431163161555
 21
37.54805422325097
 31
0.0
  0
LINE
  5
2782
330
2780
100
AcDbEntity
  8
エンボス
370
     0
100
AcDbLine
 10
-177.5031163161557
 20
217.548054223251
 30
0.0
 11
-177.5031163161557
 21
37.54805422325097
 31
0.0
  0
LWPOLYLINE
  5
2783
330
2780
100
AcDbEntity
  8
エンボス
  6
Continuous
100
AcDbPolyline
 90
        4
 70
     1
 43
0.0
 10
-354.3157130905711
 20
306.2431911820901
 10
-20.00000000000046
 20
306.2431911820901
 10
-20.00000000000046
 20
20.0
 10
-354.3157130905711
 20
20.0
  0
HATCH
  5
2784
330
2780
100
AcDbEntity
  8
エンボス
 48
3.0
100
AcDbHatch
 10
0.0
 20
0.0
 30
0.0
210
0.0
220
0.0
230
1.0
  2
ANSI31
 70
     0
 71
     0
 91
        2
 92
        7
 72
     0
 73
     1
 93
        4
 10
-177.5031163161557
 20
190.178232740995
 10
-207.7431163161555
 20
190.178232740995
 10
-207.7431163161555
 20
150.178232740995
 10
-177.5031163161557
 20
150.178232740995
 97
        0
 92
        7
 72
     0
 73
     1
 93
        4
 10
-177.5031163161552
 20
110.178232740995
 10
-207.7431163161555
 20
110.178232740995
 10
-207.7431163161555
 20
70.17823274099504
 10
-177.5031163161557
 20
70.17823274099504
 97
        0
 75
     0
 76
     1
 52
0.0
 41
1.0
 77
     0
 78
     1
 53
45.0
 43
-2606.130945379155
 44
61.80481481577524
 45
-2.245064030267287
 46
2.245064030267288
 79
     0
 47
0.6338635763914874
 98
        2
 10
-190.2538551621915
 20
172.4840090799864
 10
-186.4493471399023
 20
100.8574248738171
  0
LINE
  5
2785
330
2780
100
AcDbEntity
  8
エンボス
  6
Continuous
100
AcDbLine
 10
-207.7431163161555
 20
190.178232740995
 30
0.0
 11
-177.5031163161552
 21
190.178232740995
 31
0.0
  0
LINE
  5
2786
330
2780
100
AcDbEntity
  8
エンボス
  6
Continuous
100
AcDbLine
 10
-207.7431163161555
 20
150.178232740995
 30
0.0
 11
-177.5031163161552
 21
150.178232740995
 31
0.0
  0
LINE
  5
2787
330
2780
100
AcDbEntity
  8
エンボス
  6
Continuous
100
AcDbLine
 10
-207.7431163161555
 20
110.178232740995
 30
0.0
 11
-177.5031163161552
 21
110.178232740995
 31
0.0
  0
LINE
  5
2788
330
2780
100
AcDbEntity
  8
エンボス
  6
Continuous
100
AcDbLine
 10
-207.7431163161555
 20
70.17823274099504
 30
0.0
 11
-177.5031163161552
 21
70.17823274099504
 31
0.0
  0
TEXT
  5
2789
330
2780
100
AcDbEntity
  8
エンボス
  6
Continuous
100
AcDbText
 10
-314.1412150274577
 20
260.5024615214613
 30
0.0
 40
30.0
  1
GFB形状詳細
100
AcDbText
1001
ACAD
1000
MTEXTBEGIN
1070
    73
1070
     1
1070
    44
1040
1.0
1070
    74
1070
     0
1000
MTEXTEND
1000
MTEXTBEGIN
1070
    73
1070
     1
1070
    44
1040
1.0
1070
    74
1070
     0
1000
MTEXTEND
1000
MTEXTBEGIN
1070
    73
1070
     1
1070
    44
1040
1.0
1070
    74
1070
     0
1000
MTEXTEND
1000
MTEXTBEGIN
1070
    73
1070
     1
1070
    44
1040
1.0
1070
    74
1070
     0
1000
MTEXTEND
  0
MTEXT
  5
278A
330
2780
100
AcDbEntity
  8
エンボス
  6
Continuous
100
AcDbMText
 10
-283.7566471803206
 20
246.2734505767348
 30
0.0
 40
15.0
 41
256.2474
 71
     1
 72
     5
  1
※塗りつぶし部分突起
 73
     1
 44
1.0
1001
ACAD
1000
MTEXTBEGIN
1070
    73
1070
     1
1070
    44
1040
1.0
1070
    74
1070
     0
1000
MTEXTEND
  0
ENDBLK
  5
278D
330
2780
100
AcDbEntity
  8
0
 48
3.0
100
AcDbBlockEnd
  0
BLOCK
  5
2797
330
2796
100
AcDbEntity
  8
0
 48
3.0
100
AcDbBlockBegin
  2
*U25
 70
     1
 10
0.0
 20
0.0
 30
0.0
  3
*U25
  1

  0
LINE
  5
279D
330
2796
100
AcDbEntity
  8
本体
  6
Continuous
100
AcDbLine
 10
-12.55999999999994
 20
0.0
 30
0.0
 11
-3.003038000000287
 21
0.0
 31
0.0
  0
LINE
  5
279E
330
2796
100
AcDbEntity
  8
本体
  6
Continuous
100
AcDbLine
 10
-12.55999999999994
 20
-6.0
 30
0.0
 11
-3.003038000000287
 21
-6.0
 31
0.0
  0
LWPOLYLINE
  5
279F
330
2796
100
AcDbEntity
  8
本体
  6
Continuous
100
AcDbPolyline
 90
        4
 70
     1
 43
0.0
 10
-3.003038000000287
 20
0.0
 10
-0.0030380000002879
 20
0.0
 10
-0.0030380000002879
 20
-32.0
 10
-3.003038000000287
 20
-32.0
  0
LINE
  5
27A0
330
2796
100
AcDbEntity
  8
本体
  6
Continuous
100
AcDbLine
 10
-12.55999999999994
 20
-6.0
 30
0.0
 11
-3.003038000000287
 21
0.0
 31
0.0
  0
LINE
  5
27A1
330
2796
100
AcDbEntity
  8
本体
  6
Continuous
100
AcDbLine
 10
-12.55999999999994
 20
-25.0
 30
0.0
 11
-3.003038000000287
 21
-25.0
 31
0.0
  0
ENDBLK
  5
2798
330
2796
100
AcDbEntity
  8
0
 48
3.0
100
AcDbBlockEnd
  0
BLOCK
  5
279A
330
2799
100
AcDbEntity
  8
0
 48
3.0
100
AcDbBlockBegin
  2
*U26
 70
     1
 10
0.0
 20
0.0
 30
0.0
  3
*U26
  1

  0
INSERT
  5
27B0
330
2799
100
AcDbEntity
  8
本体
  6
ByBlock
 62
     0
370
    -2
380
     1
100
AcDbBlockReference
  2
*U25
 10
0.0
 20
0.0
 30
0.0
  0
INSERT
  5
27B1
330
2799
100
AcDbEntity
  8
本体
  6
ByBlock
 62
     0
370
    -2
380
     1
100
AcDbBlockReference
  2
*U25
 10
12.55692257142858
 20
0.0
 30
0.0
  0
INSERT
  5
27B2
330
2799
100
AcDbEntity
  8
本体
  6
ByBlock
 62
     0
370
    -2
380
     1
100
AcDbBlockReference
  2
*U25
 10
25.11384514285716
 20
0.0
 30
0.0
  0
INSERT
  5
27B3
330
2799
100
AcDbEntity
  8
本体
  6
ByBlock
 62
     0
370
    -2
380
     1
100
AcDbBlockReference
  2
*U25
 10
37.67076771428573
 20
0.0
 30
0.0
  0
INSERT
  5
27B4
330
2799
100
AcDbEntity
  8
本体
  6
ByBlock
 62
     0
370
    -2
380
     1
100
AcDbBlockReference
  2
*U25
 10
50.22769028571431
 20
0.0
 30
0.0
  0
INSERT
  5
27B5
330
2799
100
AcDbEntity
  8
本体
  6
ByBlock
 62
     0
370
    -2
380
     1
100
AcDbBlockReference
  2
*U25
 10
62.78461285714289
 20
0.0
 30
0.0
  0
INSERT
  5
27B6
330
2799
100
AcDbEntity
  8
本体
  6
ByBlock
 62
     0
370
    -2
380
     1
100
AcDbBlockReference
  2
*U25
 10
75.34153542857146
 20
0.0
 30
0.0
  0
INSERT
  5
27B7
330
2799
100
AcDbEntity
  8
本体
  6
ByBlock
 62
     0
370
    -2
380
     1
100
AcDbBlockReference
  2
*U25
 10
87.89845800000005
 20
0.0
 30
0.0
  0
INSERT
  5
27B8
330
2799
100
AcDbEntity
  8
本体
  6
ByBlock
 62
     0
370
    -2
380
     1
100
AcDbBlockReference
  2
*U25
 10
100.4553805714286
 20
0.0
 30
0.0
  0
INSERT
  5
27B9
330
2799
100
AcDbEntity
  8
本体
  6
ByBlock
 62
     0
370
    -2
380
     1
100
AcDbBlockReference
  2
*U25
 10
113.0123031428572
 20
0.0
 30
0.0
  0
INSERT
  5
27BA
330
2799
100
AcDbEntity
  8
本体
  6
ByBlock
 62
     0
370
    -2
380
     1
100
AcDbBlockReference
  2
*U25
 10
125.5692257142857
 20
0.0
 30
0.0
  0
INSERT
  5
27BB
330
2799
100
AcDbEntity
  8
本体
  6
ByBlock
 62
     0
370
    -2
380
     1
100
AcDbBlockReference
  2
*U25
 10
138.1261482857143
 20
0.0
 30
0.0
  0
INSERT
  5
27BC
330
2799
100
AcDbEntity
  8
本体
  6
ByBlock
 62
     0
370
    -2
380
     1
100
AcDbBlockReference
  2
*U25
 10
150.6830708571429
 20
0.0
 30
0.0
  0
INSERT
  5
27BD
330
2799
100
AcDbEntity
  8
本体
  6
ByBlock
 62
     0
370
    -2
380
     1
100
AcDbBlockReference
  2
*U25
 10
163.2399934285715
 20
0.0
 30
0.0
  0
INSERT
  5
27BE
330
2799
100
AcDbEntity
  8
本体
  6
ByBlock
 62
     0
370
    -2
380
     1
100
AcDbBlockReference
  2
*U25
 10
175.7969160000001
 20
0.0
 30
0.0
  0
INSERT
  5
27BF
330
2799
100
AcDbEntity
  8
本体
  6
ByBlock
 62
     0
370
    -2
380
     1
100
AcDbBlockReference
  2
*U25
 10
188.3538385714286
 20
0.0
 30
0.0
  0
INSERT
  5
27C0
330
2799
100
AcDbEntity
  8
本体
  6
ByBlock
 62
     0
370
    -2
380
     1
100
AcDbBlockReference
  2
*U25
 10
200.9107611428572
 20
0.0
 30
0.0
  0
INSERT
  5
27C1
330
2799
100
AcDbEntity
  8
本体
  6
ByBlock
 62
     0
370
    -2
380
     1
100
AcDbBlockReference
  2
*U25
 10
213.4676837142858
 20
0.0
 30
0.0
  0
INSERT
  5
27C2
330
2799
100
AcDbEntity
  8
本体
  6
ByBlock
 62
     0
370
    -2
380
     1
100
AcDbBlockReference
  2
*U25
 10
226.0246062857144
 20
0.0
 30
0.0
  0
INSERT
  5
27C3
330
2799
100
AcDbEntity
  8
本体
  6
ByBlock
 62
     0
370
    -2
380
     1
100
AcDbBlockReference
  2
*U25
 10
238.581528857143
 20
0.0
 30
0.0
  0
INSERT
  5
27C4
330
2799
100
AcDbEntity
  8
本体
  6
ByBlock
 62
     0
370
    -2
380
     1
100
AcDbBlockReference
  2
*U25
 10
251.1384514285715
 20
0.0
 30
0.0
  0
INSERT
  5
27C5
330
2799
100
AcDbEntity
  8
本体
  6
ByBlock
 62
     0
370
    -2
380
     1
100
AcDbBlockReference
  2
*U25
 10
263.6953740000001
 20
0.0
 30
0.0
  0
INSERT
  5
27C6
330
2799
100
AcDbEntity
  8
本体
  6
ByBlock
 62
     0
370
    -2
380
     1
100
AcDbBlockReference
  2
*U25
 10
276.2522965714287
 20
0.0
 30
0.0
  0
INSERT
  5
27C7
330
2799
100
AcDbEntity
  8
本体
  6
ByBlock
 62
     0
370
    -2
380
     1
100
AcDbBlockReference
  2
*U25
 10
288.8092191428573
 20
0.0
 30
0.0
  0
INSERT
  5
27C8
330
2799
100
AcDbEntity
  8
本体
  6
ByBlock
 62
     0
370
    -2
380
     1
100
AcDbBlockReference
  2
*U25
 10
301.3661417142858
 20
0.0
 30
0.0
  0
INSERT
  5
27C9
330
2799
100
AcDbEntity
  8
本体
  6
ByBlock
 62
     0
370
    -2
380
     1
100
AcDbBlockReference
  2
*U25
 10
313.9230642857144
 20
0.0
 30
0.0
  0
INSERT
  5
27CA
330
2799
100
AcDbEntity
  8
本体
  6
ByBlock
 62
     0
370
    -2
380
     1
100
AcDbBlockReference
  2
*U25
 10
326.479986857143
 20
0.0
 30
0.0
  0
INSERT
  5
27CB
330
2799
100
AcDbEntity
  8
本体
  6
ByBlock
 62
     0
370
    -2
380
     1
100
AcDbBlockReference
  2
*U25
 10
339.0369094285716
 20
0.0
 30
0.0
  0
INSERT
  5
27CC
330
2799
100
AcDbEntity
  8
本体
  6
ByBlock
 62
     0
370
    -2
380
     1
100
AcDbBlockReference
  2
*U25
 10
351.5938320000002
 20
0.0
 30
0.0
  0
INSERT
  5
27CD
330
2799
100
AcDbEntity
  8
本体
  6
ByBlock
 62
     0
370
    -2
380
     1
100
AcDbBlockReference
  2
*U25
 10
364.1507545714288
 20
0.0
 30
0.0
  0
INSERT
  5
27CE
330
2799
100
AcDbEntity
  8
本体
  6
ByBlock
 62
     0
370
    -2
380
     1
100
AcDbBlockReference
  2
*U25
 10
376.7076771428573
 20
0.0
 30
0.0
  0
INSERT
  5
27CF
330
2799
100
AcDbEntity
  8
本体
  6
ByBlock
 62
     0
370
    -2
380
     1
100
AcDbBlockReference
  2
*U25
 10
389.2645997142859
 20
0.0
 30
0.0
  0
INSERT
  5
27D0
330
2799
100
AcDbEntity
  8
本体
  6
ByBlock
 62
     0
370
    -2
380
     1
100
AcDbBlockReference
  2
*U25
 10
401.8215222857144
 20
0.0
 30
0.0
  0
INSERT
  5
27D1
330
2799
100
AcDbEntity
  8
本体
  6
ByBlock
 62
     0
370
    -2
380
     1
100
AcDbBlockReference
  2
*U25
 10
414.378444857143
 20
0.0
 30
0.0
  0
INSERT
  5
27D2
330
2799
100
AcDbEntity
  8
本体
  6
ByBlock
 62
     0
370
    -2
380
     1
100
AcDbBlockReference
  2
*U25
 10
426.9353674285716
 20
0.0
 30
0.0
  0
INSERT
  5
27D3
330
2799
100
AcDbEntity
  8
本体
  6
ByBlock
 62
     0
370
    -2
380
     1
100
AcDbBlockReference
  2
*U25
 10
439.4922900000001
 20
0.0
 30
0.0
  0
INSERT
  5
27D4
330
2799
100
AcDbEntity
  8
本体
  6
ByBlock
 62
     0
370
    -2
380
     1
100
AcDbBlockReference
  2
*U25
 10
452.0492125714287
 20
0.0
 30
0.0
  0
INSERT
  5
27D5
330
2799
100
AcDbEntity
  8
本体
  6
ByBlock
 62
     0
370
    -2
380
     1
100
AcDbBlockReference
  2
*U25
 10
464.6061351428573
 20
0.0
 30
0.0
  0
INSERT
  5
27D6
330
2799
100
AcDbEntity
  8
本体
  6
ByBlock
 62
     0
370
    -2
380
     1
100
AcDbBlockReference
  2
*U25
 10
477.1630577142859
 20
0.0
 30
0.0
  0
INSERT
  5
27D7
330
2799
100
AcDbEntity
  8
本体
  6
ByBlock
 62
     0
370
    -2
380
     1
100
AcDbBlockReference
  2
*U25
 10
489.7199802857145
 20
0.0
 30
0.0
  0
INSERT
  5
27D8
330
2799
100
AcDbEntity
  8
本体
  6
ByBlock
 62
     0
370
    -2
380
     1
100
AcDbBlockReference
  2
*U25
 10
502.276902857143
 20
0.0
 30
0.0
  0
INSERT
  5
27D9
330
2799
100
AcDbEntity
  8
本体
  6
ByBlock
 62
     0
370
    -2
380
     1
100
AcDbBlockReference
  2
*U25
 10
514.8338254285716
 20
0.0
 30
0.0
  0
INSERT
  5
27DA
330
2799
100
AcDbEntity
  8
本体
  6
ByBlock
 62
     0
370
    -2
380
     1
100
AcDbBlockReference
  2
*U25
 10
527.3907480000002
 20
0.0
 30
0.0
  0
INSERT
  5
27DB
330
2799
100
AcDbEntity
  8
本体
  6
ByBlock
 62
     0
370
    -2
380
     1
100
AcDbBlockReference
  2
*U25
 10
539.9476705714288
 20
0.0
 30
0.0
  0
INSERT
  5
27DC
330
2799
100
AcDbEntity
  8
本体
  6
ByBlock
 62
     0
370
    -2
380
     1
100
AcDbBlockReference
  2
*U25
 10
552.5045931428573
 20
0.0
 30
0.0
  0
INSERT
  5
27DD
330
2799
100
AcDbEntity
  8
本体
  6
ByBlock
 62
     0
370
    -2
380
     1
100
AcDbBlockReference
  2
*U25
 10
565.0615157142859
 20
0.0
 30
0.0
  0
INSERT
  5
27DE
330
2799
100
AcDbEntity
  8
本体
  6
ByBlock
 62
     0
370
    -2
380
     1
100
AcDbBlockReference
  2
*U25
 10
577.6184382857145
 20
0.0
 30
0.0
  0
INSERT
  5
27DF
330
2799
100
AcDbEntity
  8
本体
  6
ByBlock
 62
     0
370
    -2
380
     1
100
AcDbBlockReference
  2
*U25
 10
590.1753608571431
 20
0.0
 30
0.0
  0
INSERT
  5
27E0
330
2799
100
AcDbEntity
  8
本体
  6
ByBlock
 62
     0
370
    -2
380
     1
100
AcDbBlockReference
  2
*U25
 10
602.7322834285716
 20
0.0
 30
0.0
  0
INSERT
  5
27E1
330
2799
100
AcDbEntity
  8
本体
  6
ByBlock
 62
     0
370
    -2
380
     1
100
AcDbBlockReference
  2
*U25
 10
615.2892060000002
 20
0.0
 30
0.0
  0
INSERT
  5
27E2
330
2799
100
AcDbEntity
  8
本体
  6
ByBlock
 62
     0
370
    -2
380
     1
100
AcDbBlockReference
  2
*U25
 10
627.8461285714288
 20
0.0
 30
0.0
  0
INSERT
  5
27E3
330
2799
100
AcDbEntity
  8
本体
  6
ByBlock
 62
     0
370
    -2
380
     1
100
AcDbBlockReference
  2
*U25
 10
640.4030511428573
 20
0.0
 30
0.0
  0
INSERT
  5
27E4
330
2799
100
AcDbEntity
  8
本体
  6
ByBlock
 62
     0
370
    -2
380
     1
100
AcDbBlockReference
  2
*U25
 10
652.9599737142859
 20
0.0
 30
0.0
  0
INSERT
  5
27E5
330
2799
100
AcDbEntity
  8
本体
  6
ByBlock
 62
     0
370
    -2
380
     1
100
AcDbBlockReference
  2
*U25
 10
665.5168962857145
 20
0.0
 30
0.0
  0
INSERT
  5
27E6
330
2799
100
AcDbEntity
  8
本体
  6
ByBlock
 62
     0
370
    -2
380
     1
100
AcDbBlockReference
  2
*U25
 10
678.0738188571432
 20
0.0
 30
0.0
  0
INSERT
  5
27E7
330
2799
100
AcDbEntity
  8
本体
  6
ByBlock
 62
     0
370
    -2
380
     1
100
AcDbBlockReference
  2
*U25
 10
690.6307414285718
 20
0.0
 30
0.0
  0
INSERT
  5
27E8
330
2799
100
AcDbEntity
  8
本体
  6
ByBlock
 62
     0
370
    -2
380
     1
100
AcDbBlockReference
  2
*U25
 10
703.1876640000003
 20
0.0
 30
0.0
  0
INSERT
  5
27E9
330
2799
100
AcDbEntity
  8
本体
  6
ByBlock
 62
     0
370
    -2
380
     1
100
AcDbBlockReference
  2
*U25
 10
715.7445865714289
 20
0.0
 30
0.0
  0
INSERT
  5
27EA
330
2799
100
AcDbEntity
  8
本体
  6
ByBlock
 62
     0
370
    -2
380
     1
100
AcDbBlockReference
  2
*U25
 10
728.3015091428575
 20
0.0
 30
0.0
  0
INSERT
  5
27EB
330
2799
100
AcDbEntity
  8
本体
  6
ByBlock
 62
     0
370
    -2
380
     1
100
AcDbBlockReference
  2
*U25
 10
740.858431714286
 20
0.0
 30
0.0
  0
INSERT
  5
27EC
330
2799
100
AcDbEntity
  8
本体
  6
ByBlock
 62
     0
370
    -2
380
     1
100
AcDbBlockReference
  2
*U25
 10
753.4153542857146
 20
0.0
 30
0.0
  0
INSERT
  5
27ED
330
2799
100
AcDbEntity
  8
本体
  6
ByBlock
 62
     0
370
    -2
380
     1
100
AcDbBlockReference
  2
*U25
 10
765.9722768571432
 20
0.0
 30
0.0
  0
INSERT
  5
27EE
330
2799
100
AcDbEntity
  8
本体
  6
ByBlock
 62
     0
370
    -2
380
     1
100
AcDbBlockReference
  2
*U25
 10
778.5291994285718
 20
0.0
 30
0.0
  0
INSERT
  5
27EF
330
2799
100
AcDbEntity
  8
本体
  6
ByBlock
 62
     0
370
    -2
380
     1
100
AcDbBlockReference
  2
*U25
 10
791.0861220000003
 20
0.0
 30
0.0
  0
INSERT
  5
27F0
330
2799
100
AcDbEntity
  8
本体
  6
ByBlock
 62
     0
370
    -2
380
     1
100
AcDbBlockReference
  2
*U25
 10
803.6430445714289
 20
0.0
 30
0.0
  0
INSERT
  5
27F1
330
2799
100
AcDbEntity
  8
本体
  6
ByBlock
 62
     0
370
    -2
380
     1
100
AcDbBlockReference
  2
*U25
 10
816.1999671428574
 20
0.0
 30
0.0
  0
INSERT
  5
27F2
330
2799
100
AcDbEntity
  8
本体
  6
ByBlock
 62
     0
370
    -2
380
     1
100
AcDbBlockReference
  2
*U25
 10
828.7568897142861
 20
0.0
 30
0.0
  0
INSERT
  5
27F3
330
2799
100
AcDbEntity
  8
本体
  6
ByBlock
 62
     0
370
    -2
380
     1
100
AcDbBlockReference
  2
*U25
 10
841.3138122857146
 20
0.0
 30
0.0
  0
INSERT
  5
27F4
330
2799
100
AcDbEntity
  8
本体
  6
ByBlock
 62
     0
370
    -2
380
     1
100
AcDbBlockReference
  2
*U25
 10
853.8707348571433
 20
0.0
 30
0.0
  0
INSERT
  5
27F5
330
2799
100
AcDbEntity
  8
本体
  6
ByBlock
 62
     0
370
    -2
380
     1
100
AcDbBlockReference
  2
*U25
 10
866.4276574285718
 20
0.0
 30
0.0
  0
INSERT
  5
27F6
330
2799
100
AcDbEntity
  8
本体
  6
ByBlock
 62
     0
370
    -2
380
     1
100
AcDbBlockReference
  2
*U25
 10
878.9845800000003
 20
0.0
 30
0.0
  0
INSERT
  5
27F7
330
2799
100
AcDbEntity
  8
本体
  6
ByBlock
 62
     0
370
    -2
380
     1
100
AcDbBlockReference
  2
*U25
 10
891.541502571429
 20
0.0
 30
0.0
  0
INSERT
  5
27F8
330
2799
100
AcDbEntity
  8
本体
  6
ByBlock
 62
     0
370
    -2
380
     1
100
AcDbBlockReference
  2
*U25
 10
904.0984251428575
 20
0.0
 30
0.0
  0
INSERT
  5
27F9
330
2799
100
AcDbEntity
  8
本体
  6
ByBlock
 62
     0
370
    -2
380
     1
100
AcDbBlockReference
  2
*U25
 10
916.655347714286
 20
0.0
 30
0.0
  0
INSERT
  5
27FA
330
2799
100
AcDbEntity
  8
本体
  6
ByBlock
 62
     0
370
    -2
380
     1
100
AcDbBlockReference
  2
*U25
 10
929.2122702857147
 20
0.0
 30
0.0
  0
INSERT
  5
27FB
330
2799
100
AcDbEntity
  8
本体
  6
ByBlock
 62
     0
370
    -2
380
     1
100
AcDbBlockReference
  2
*U25
 10
941.7691928571434
 20
0.0
 30
0.0
  0
INSERT
  5
27FC
330
2799
100
AcDbEntity
  8
本体
  6
ByBlock
 62
     0
370
    -2
380
     1
100
AcDbBlockReference
  2
*U25
 10
954.3261154285719
 20
0.0
 30
0.0
  0
INSERT
  5
27FD
330
2799
100
AcDbEntity
  8
本体
  6
ByBlock
 62
     0
370
    -2
380
     1
100
AcDbBlockReference
  2
*U25
 10
966.8830380000004
 20
0.0
 30
0.0
  0
ENDBLK
  5
279B
330
2799
100
AcDbEntity
  8
0
 48
3.0
100
AcDbBlockEnd
  0
BLOCK
  5
28D6
330
28D5
100
AcDbEntity
  8
0
 48
3.0
100
AcDbBlockBegin
  2
*U28
 70
     1
 10
0.0
 20
0.0
 30
0.0
  3
*U28
  1

  0
LINE
  5
28DC
330
28D5
100
AcDbEntity
  8
本体
  6
Continuous
100
AcDbLine
 10
7.778480400000034
 20
200.5
 30
0.0
 11
7.778480400000034
 21
152.5
 31
0.0
  0
LINE
  5
28DD
330
28D5
100
AcDbEntity
  8
本体
  6
Continuous
100
AcDbLine
 10
4.778480400000034
 20
200.5
 30
0.0
 11
4.778480400000034
 21
152.5
 31
0.0
  0
LINE
  5
28DE
330
28D5
100
AcDbEntity
  8
本体
  6
Continuous
100
AcDbLine
 10
7.778480400000034
 20
147.5
 30
0.0
 11
7.778480400000034
 21
52.5
 31
0.0
  0
LINE
  5
28DF
330
28D5
100
AcDbEntity
  8
本体
  6
Continuous
100
AcDbLine
 10
4.778480400000034
 20
147.5
 30
0.0
 11
4.778480400000034
 21
52.5
 31
0.0
  0
LINE
  5
28E0
330
28D5
100
AcDbEntity
  8
本体
  6
Continuous
100
AcDbLine
 10
4.778480400000034
 20
47.5
 30
0.0
 11
4.778480400000034
 21
-47.5
 31
0.0
  0
LINE
  5
28E1
330
28D5
100
AcDbEntity
  8
本体
  6
Continuous
100
AcDbLine
 10
7.778480400000034
 20
47.5
 30
0.0
 11
7.778480400000034
 21
-47.5
 31
0.0
  0
LINE
  5
28E2
330
28D5
100
AcDbEntity
  8
本体
  6
Continuous
100
AcDbLine
 10
7.778480400000034
 20
-52.5
 30
0.0
 11
7.778480400000034
 21
-147.5
 31
0.0
  0
LINE
  5
28E3
330
28D5
100
AcDbEntity
  8
本体
  6
Continuous
100
AcDbLine
 10
4.778480400000034
 20
-52.5
 30
0.0
 11
4.778480400000034
 21
-147.5
 31
0.0
  0
LINE
  5
28E4
330
28D5
100
AcDbEntity
  8
本体
  6
Continuous
100
AcDbLine
 10
7.778480400000034
 20
-200.5
 30
0.0
 11
7.778480400000034
 21
-152.5
 31
0.0
  0
LINE
  5
28E5
330
28D5
100
AcDbEntity
  8
本体
  6
Continuous
100
AcDbLine
 10
4.778480400000034
 20
-200.5
 30
0.0
 11
4.778480400000034
 21
-152.5
 31
0.0
  0
LINE
  5
28E6
330
28D5
100
AcDbEntity
  8
本体
  6
Continuous
100
AcDbLine
 10
-7.778481600000077
 20
147.5
 30
0.0
 11
4.778480400000034
 21
152.5
 31
0.0
  0
LINE
  5
28E7
330
28D5
100
AcDbEntity
  8
本体
  6
Continuous
100
AcDbLine
 10
-7.778481600000077
 20
47.5
 30
0.0
 11
4.778480400000034
 21
52.5
 31
0.0
  0
LINE
  5
28E8
330
28D5
100
AcDbEntity
  8
本体
  6
Continuous
100
AcDbLine
 10
-7.778481600000077
 20
-52.5
 30
0.0
 11
4.778480400000034
 21
-47.5
 31
0.0
  0
LINE
  5
28E9
330
28D5
100
AcDbEntity
  8
本体
  6
Continuous
100
AcDbLine
 10
-7.778481600000077
 20
-152.5
 30
0.0
 11
4.778480400000034
 21
-147.5
 31
0.0
  0
LINE
  5
28EA
330
28D5
100
AcDbEntity
  8
エンボス
  6
Continuous
100
AcDbLine
 10
7.778481600000077
 20
-193.5933597304056
 30
0.0
 11
4.778481600000077
 21
-192.3933597304055
 31
0.0
  0
LINE
  5
28EB
330
28D5
100
AcDbEntity
  8
エンボス
  6
Continuous
100
AcDbLine
 10
4.778481600000077
 20
-197.7933597304056
 30
0.0
 11
7.778481600000077
 21
-198.9933597304057
 31
0.0
  0
LINE
  5
28EC
330
28D5
100
AcDbEntity
  8
エンボス
  6
Continuous
100
AcDbLine
 10
4.778481600000077
 20
-190.5933597304056
 30
0.0
 11
7.778481600000077
 21
-189.3933597304055
 31
0.0
  0
LINE
  5
28ED
330
28D5
100
AcDbEntity
  8
エンボス
  6
Continuous
100
AcDbLine
 10
4.778481600000077
 20
-180.9933597304057
 30
0.0
 11
7.778481600000077
 21
-182.1933597304055
 31
0.0
  0
LINE
  5
28EE
330
28D5
100
AcDbEntity
  8
エンボス
  6
Continuous
100
AcDbLine
 10
7.778481600000077
 20
-183.9933597304057
 30
0.0
 11
4.778481600000077
 21
-185.1933597304055
 31
0.0
  0
LINE
  5
28EF
330
28D5
100
AcDbEntity
  8
エンボス
  6
Continuous
100
AcDbLine
 10
4.778481600000077
 20
-173.7933597304056
 30
0.0
 11
7.778481600000077
 21
-172.5933597304056
 31
0.0
  0
LINE
  5
28F0
330
28D5
100
AcDbEntity
  8
エンボス
  6
Continuous
100
AcDbLine
 10
7.778481600000077
 20
-176.7933597304056
 30
0.0
 11
4.778481600000077
 21
-175.5933597304056
 31
0.0
  0
LINE
  5
28F1
330
28D5
100
AcDbEntity
  8
エンボス
  6
Continuous
100
AcDbLine
 10
7.778481600000077
 20
-167.1933597304055
 30
0.0
 11
4.778481600000077
 21
-168.3933597304055
 31
0.0
  0
LINE
  5
28F2
330
28D5
100
AcDbEntity
  8
エンボス
  6
Continuous
100
AcDbLine
 10
4.778481600000077
 20
-164.1933597304055
 30
0.0
 11
7.778481600000077
 21
-165.3933597304055
 31
0.0
  0
LINE
  5
28F3
330
28D5
100
AcDbEntity
  8
エンボス
  6
Continuous
100
AcDbLine
 10
4.778481600000077
 20
-156.9933597304057
 30
0.0
 11
7.778481600000077
 21
-155.7933597304056
 31
0.0
  0
LINE
  5
28F4
330
28D5
100
AcDbEntity
  8
エンボス
  6
Continuous
100
AcDbLine
 10
7.778481600000077
 20
-159.9933597304057
 30
0.0
 11
4.778481600000077
 21
-158.7933597304056
 31
0.0
  0
LINE
  5
28F5
330
28D5
100
AcDbEntity
  8
エンボス
  6
Continuous
100
AcDbLine
 10
4.778481600000077
 20
-124.8183637528909
 30
0.0
 11
7.778481600000077
 21
-123.6183637528909
 31
0.0
  0
LINE
  5
28F6
330
28D5
100
AcDbEntity
  8
エンボス
  6
Continuous
100
AcDbLine
 10
7.778481600000077
 20
-118.218363752891
 30
0.0
 11
4.778481600000077
 21
-119.4183637528908
 31
0.0
  0
LINE
  5
28F7
330
28D5
100
AcDbEntity
  8
エンボス
  6
Continuous
100
AcDbLine
 10
4.778481600000077
 20
-115.218363752891
 30
0.0
 11
7.778481600000077
 21
-116.4183637528908
 31
0.0
  0
LINE
  5
28F8
330
28D5
100
AcDbEntity
  8
エンボス
  6
Continuous
100
AcDbLine
 10
4.778481600000077
 20
-132.018363752891
 30
0.0
 11
7.778481600000077
 21
-133.218363752891
 31
0.0
  0
LINE
  5
28F9
330
28D5
100
AcDbEntity
  8
エンボス
  6
Continuous
100
AcDbLine
 10
7.778481600000077
 20
-135.018363752891
 30
0.0
 11
4.778481600000077
 21
-136.218363752891
 31
0.0
  0
LINE
  5
28FA
330
28D5
100
AcDbEntity
  8
エンボス
  6
Continuous
100
AcDbLine
 10
7.778481600000077
 20
-144.6183637528909
 30
0.0
 11
4.778481600000077
 21
-143.4183637528908
 31
0.0
  0
LINE
  5
28FB
330
28D5
100
AcDbEntity
  8
エンボス
  6
Continuous
100
AcDbLine
 10
4.778481600000077
 20
-141.6183637528909
 30
0.0
 11
7.778481600000077
 21
-140.4183637528908
 31
0.0
  0
LINE
  5
28FC
330
28D5
100
AcDbEntity
  8
エンボス
  6
Continuous
100
AcDbLine
 10
7.778481600000077
 20
-127.8183637528909
 30
0.0
 11
4.778481600000077
 21
-126.6183637528909
 31
0.0
  0
LINE
  5
28FD
330
28D5
100
AcDbEntity
  8
エンボス
  6
Continuous
100
AcDbLine
 10
7.778481600000077
 20
-76.79335973040565
 30
0.0
 11
4.778481600000077
 21
-75.5933597304056
 31
0.0
  0
LINE
  5
28FE
330
28D5
100
AcDbEntity
  8
エンボス
  6
Continuous
100
AcDbLine
 10
4.778481600000077
 20
-80.9933597304057
 30
0.0
 11
7.778481600000077
 21
-82.19335973040552
 31
0.0
  0
LINE
  5
28FF
330
28D5
100
AcDbEntity
  8
エンボス
  6
Continuous
100
AcDbLine
 10
7.778481600000077
 20
-83.99335973040569
 30
0.0
 11
4.778481600000077
 21
-85.19335973040552
 31
0.0
  0
LINE
  5
2900
330
28D5
100
AcDbEntity
  8
エンボス
  6
Continuous
100
AcDbLine
 10
7.778481600000077
 20
-93.59335973040561
 30
0.0
 11
4.778481600000077
 21
-92.39335973040557
 31
0.0
  0
LINE
  5
2901
330
28D5
100
AcDbEntity
  8
エンボス
  6
Continuous
100
AcDbLine
 10
4.778481600000077
 20
-107.3933597304055
 30
0.0
 11
7.778481600000077
 21
-106.1933597304055
 31
0.0
  0
LINE
  5
2902
330
28D5
100
AcDbEntity
  8
エンボス
  6
Continuous
100
AcDbLine
 10
7.778481600000077
 20
-110.3933597304055
 30
0.0
 11
4.778481600000077
 21
-109.1933597304055
 31
0.0
  0
LINE
  5
2903
330
28D5
100
AcDbEntity
  8
エンボス
  6
Continuous
100
AcDbLine
 10
7.778481600000077
 20
-100.7933597304056
 30
0.0
 11
4.778481600000077
 21
-101.9933597304057
 31
0.0
  0
LINE
  5
2904
330
28D5
100
AcDbEntity
  8
エンボス
  6
Continuous
100
AcDbLine
 10
4.778481600000077
 20
-97.79335973040566
 30
0.0
 11
7.778481600000077
 21
-98.99335973040571
 31
0.0
  0
LINE
  5
2905
330
28D5
100
AcDbEntity
  8
エンボス
  6
Continuous
100
AcDbLine
 10
4.778481600000077
 20
-90.5933597304056
 30
0.0
 11
7.778481600000077
 21
-89.39335973040556
 31
0.0
  0
LINE
  5
2906
330
28D5
100
AcDbEntity
  8
エンボス
  6
Continuous
100
AcDbLine
 10
4.778481600000077
 20
-73.79335973040565
 30
0.0
 11
7.778481600000077
 21
-72.59335973040561
 31
0.0
  0
LINE
  5
2907
330
28D5
100
AcDbEntity
  8
エンボス
  6
Continuous
100
AcDbLine
 10
7.778481600000077
 20
-67.19335973040552
 30
0.0
 11
4.778481600000077
 21
-68.39335973040556
 31
0.0
  0
LINE
  5
2908
330
28D5
100
AcDbEntity
  8
エンボス
  6
Continuous
100
AcDbLine
 10
4.778481600000077
 20
-64.19335973040552
 30
0.0
 11
7.778481600000077
 21
-65.39335973040556
 31
0.0
  0
LINE
  5
2909
330
28D5
100
AcDbEntity
  8
エンボス
  6
Continuous
100
AcDbLine
 10
4.778481600000077
 20
-56.9933597304057
 30
0.0
 11
7.778481600000077
 21
-55.79335973040565
 31
0.0
  0
LINE
  5
290A
330
28D5
100
AcDbEntity
  8
エンボス
  6
Continuous
100
AcDbLine
 10
7.778481600000077
 20
-59.9933597304057
 30
0.0
 11
4.778481600000077
 21
-58.79335973040565
 31
0.0
  0
LINE
  5
290B
330
28D5
100
AcDbEntity
  8
エンボス
  6
Continuous
100
AcDbLine
 10
7.778481600000077
 20
-44.6183637528909
 30
0.0
 11
4.778481600000077
 21
-43.41836375289085
 31
0.0
  0
LINE
  5
290C
330
28D5
100
AcDbEntity
  8
エンボス
  6
Continuous
100
AcDbLine
 10
4.778481600000077
 20
-41.6183637528909
 30
0.0
 11
7.778481600000077
 21
-40.41836375289086
 31
0.0
  0
LINE
  5
290D
330
28D5
100
AcDbEntity
  8
エンボス
  6
Continuous
100
AcDbLine
 10
4.778481600000077
 20
35.80664026959448
 30
0.0
 11
7.778481600000077
 21
34.60664026959444
 31
0.0
  0
LINE
  5
290E
330
28D5
100
AcDbEntity
  8
エンボス
  6
Continuous
100
AcDbLine
 10
7.778481600000077
 20
-0.7933597304056548
 30
0.0
 11
4.778481600000077
 21
-1.9933597304057
 31
0.0
  0
LINE
  5
290F
330
28D5
100
AcDbEntity
  8
エンボス
  6
Continuous
100
AcDbLine
 10
4.778481600000077
 20
-24.81836375289095
 30
0.0
 11
7.778481600000077
 21
-23.6183637528909
 31
0.0
  0
LINE
  5
2910
330
28D5
100
AcDbEntity
  8
エンボス
  6
Continuous
100
AcDbLine
 10
7.778481600000077
 20
-18.21836375289104
 30
0.0
 11
4.778481600000077
 21
-19.41836375289085
 31
0.0
  0
LINE
  5
2911
330
28D5
100
AcDbEntity
  8
エンボス
  6
Continuous
100
AcDbLine
 10
4.778481600000077
 20
-15.21836375289104
 30
0.0
 11
7.778481600000077
 21
-16.41836375289085
 31
0.0
  0
LINE
  5
2912
330
28D5
100
AcDbEntity
  8
エンボス
  6
Continuous
100
AcDbLine
 10
4.778481600000077
 20
-7.393359730405563
 30
0.0
 11
7.778481600000077
 21
-6.193359730405518
 31
0.0
  0
LINE
  5
2913
330
28D5
100
AcDbEntity
  8
エンボス
  6
Continuous
100
AcDbLine
 10
7.778481600000077
 20
-10.39335973040556
 30
0.0
 11
4.778481600000077
 21
-9.193359730405518
 31
0.0
  0
LINE
  5
2914
330
28D5
100
AcDbEntity
  8
エンボス
  6
Continuous
100
AcDbLine
 10
4.778481600000077
 20
-32.01836375289099
 30
0.0
 11
7.778481600000077
 21
-33.21836375289104
 31
0.0
  0
LINE
  5
2915
330
28D5
100
AcDbEntity
  8
エンボス
  6
Continuous
100
AcDbLine
 10
7.778481600000077
 20
-35.01836375289099
 30
0.0
 11
4.778481600000077
 21
-36.21836375289104
 31
0.0
  0
LINE
  5
2916
330
28D5
100
AcDbEntity
  8
エンボス
  6
Continuous
100
AcDbLine
 10
7.778481600000077
 20
-27.81836375289095
 30
0.0
 11
4.778481600000077
 21
-26.6183637528909
 31
0.0
  0
LINE
  5
2917
330
28D5
100
AcDbEntity
  8
エンボス
  6
Continuous
100
AcDbLine
 10
4.778481600000077
 20
19.0066402695943
 30
0.0
 11
7.778481600000077
 21
17.80664026959448
 31
0.0
  0
LINE
  5
2918
330
28D5
100
AcDbEntity
  8
エンボス
  6
Continuous
100
AcDbLine
 10
7.778481600000077
 20
16.0066402695943
 30
0.0
 11
4.778481600000077
 21
14.80664026959448
 31
0.0
  0
LINE
  5
2919
330
28D5
100
AcDbEntity
  8
エンボス
  6
Continuous
100
AcDbLine
 10
4.778481600000077
 20
26.20664026959435
 30
0.0
 11
7.778481600000077
 21
27.40664026959439
 31
0.0
  0
LINE
  5
291A
330
28D5
100
AcDbEntity
  8
エンボス
  6
Continuous
100
AcDbLine
 10
7.778481600000077
 20
23.20664026959434
 30
0.0
 11
4.778481600000077
 21
24.40664026959439
 31
0.0
  0
LINE
  5
291B
330
28D5
100
AcDbEntity
  8
エンボス
  6
Continuous
100
AcDbLine
 10
7.778481600000077
 20
32.80664026959448
 30
0.0
 11
4.778481600000077
 21
31.60664026959444
 31
0.0
  0
LINE
  5
291C
330
28D5
100
AcDbEntity
  8
エンボス
  6
Continuous
100
AcDbLine
 10
7.778481600000077
 20
6.40664026959439
 30
0.0
 11
4.778481600000077
 21
7.606640269594436
 31
0.0
  0
LINE
  5
291D
330
28D5
100
AcDbEntity
  8
エンボス
  6
Continuous
100
AcDbLine
 10
4.778481600000077
 20
2.206640269594345
 30
0.0
 11
7.778481600000077
 21
1.006640269594299
 31
0.0
  0
LINE
  5
291E
330
28D5
100
AcDbEntity
  8
エンボス
  6
Continuous
100
AcDbLine
 10
4.778481600000077
 20
9.40664026959439
 30
0.0
 11
7.778481600000077
 21
10.60664026959443
 31
0.0
  0
LINE
  5
291F
330
28D5
100
AcDbEntity
  8
エンボス
  6
Continuous
100
AcDbLine
 10
4.778481600000077
 20
43.0066402695943
 30
0.0
 11
7.778481600000077
 21
44.20664026959435
 31
0.0
  0
LINE
  5
2920
330
28D5
100
AcDbEntity
  8
エンボス
  6
Continuous
100
AcDbLine
 10
7.778481600000077
 20
40.00664026959429
 30
0.0
 11
4.778481600000077
 21
41.20664026959434
 31
0.0
  0
LINE
  5
2921
330
28D5
100
AcDbEntity
  8
エンボス
  6
Continuous
100
AcDbLine
 10
4.778481600000077
 20
109.4066402695944
 30
0.0
 11
7.778481600000077
 21
110.6066402695944
 31
0.0
  0
LINE
  5
2922
330
28D5
100
AcDbEntity
  8
エンボス
  6
Continuous
100
AcDbLine
 10
7.778481600000077
 20
72.18163624710905
 30
0.0
 11
4.778481600000077
 21
73.3816362471091
 31
0.0
  0
LINE
  5
2923
330
28D5
100
AcDbEntity
  8
エンボス
  6
Continuous
100
AcDbLine
 10
4.778481600000077
 20
58.3816362471091
 30
0.0
 11
7.778481600000077
 21
59.58163624710914
 31
0.0
  0
LINE
  5
2924
330
28D5
100
AcDbEntity
  8
エンボス
  6
Continuous
100
AcDbLine
 10
7.778481600000077
 20
55.3816362471091
 30
0.0
 11
4.778481600000077
 21
56.58163624710915
 31
0.0
  0
LINE
  5
2925
330
28D5
100
AcDbEntity
  8
エンボス
  6
Continuous
100
AcDbLine
 10
7.778481600000077
 20
64.98163624710901
 30
0.0
 11
4.778481600000077
 21
63.78163624710897
 31
0.0
  0
LINE
  5
2926
330
28D5
100
AcDbEntity
  8
エンボス
  6
Continuous
100
AcDbLine
 10
4.778481600000077
 20
67.98163624710901
 30
0.0
 11
7.778481600000077
 21
66.78163624710896
 31
0.0
  0
LINE
  5
2927
330
28D5
100
AcDbEntity
  8
エンボス
  6
Continuous
100
AcDbLine
 10
4.778481600000077
 20
102.2066402695943
 30
0.0
 11
7.778481600000077
 21
101.0066402695943
 31
0.0
  0
LINE
  5
2928
330
28D5
100
AcDbEntity
  8
エンボス
  6
Continuous
100
AcDbLine
 10
7.778481600000077
 20
99.20664026959435
 30
0.0
 11
4.778481600000077
 21
98.00664026959431
 31
0.0
  0
LINE
  5
2929
330
28D5
100
AcDbEntity
  8
エンボス
  6
Continuous
100
AcDbLine
 10
7.778481600000077
 20
89.60664026959443
 30
0.0
 11
4.778481600000077
 21
90.80664026959448
 31
0.0
  0
LINE
  5
292A
330
28D5
100
AcDbEntity
  8
エンボス
  6
Continuous
100
AcDbLine
 10
4.778481600000077
 20
92.60664026959444
 30
0.0
 11
7.778481600000077
 21
93.80664026959449
 31
0.0
  0
LINE
  5
292B
330
28D5
100
AcDbEntity
  8
エンボス
  6
Continuous
100
AcDbLine
 10
4.778481600000077
 20
84.78163624710896
 30
0.0
 11
7.778481600000077
 21
83.58163624710915
 31
0.0
  0
LINE
  5
292C
330
28D5
100
AcDbEntity
  8
エンボス
  6
Continuous
100
AcDbLine
 10
7.778481600000077
 20
81.78163624710895
 30
0.0
 11
4.778481600000077
 21
80.58163624710914
 31
0.0
  0
LINE
  5
292D
330
28D5
100
AcDbEntity
  8
エンボス
  6
Continuous
100
AcDbLine
 10
4.778481600000077
 20
75.18163624710905
 30
0.0
 11
7.778481600000077
 21
76.3816362471091
 31
0.0
  0
LINE
  5
292E
330
28D5
100
AcDbEntity
  8
エンボス
  6
Continuous
100
AcDbLine
 10
7.778481600000077
 20
106.4066402695944
 30
0.0
 11
4.778481600000077
 21
107.6066402695944
 31
0.0
  0
LINE
  5
292F
330
28D5
100
AcDbEntity
  8
エンボス
  6
Continuous
100
AcDbLine
 10
7.778481600000077
 20
140.0066402695943
 30
0.0
 11
4.778481600000077
 21
141.2066402695943
 31
0.0
  0
LINE
  5
2930
330
28D5
100
AcDbEntity
  8
エンボス
  6
Continuous
100
AcDbLine
 10
4.778481600000077
 20
143.0066402695943
 30
0.0
 11
7.778481600000077
 21
144.2066402695943
 31
0.0
  0
LINE
  5
2931
330
28D5
100
AcDbEntity
  8
エンボス
  6
Continuous
100
AcDbLine
 10
4.778481600000077
 20
135.8066402695945
 30
0.0
 11
7.778481600000077
 21
134.6066402695944
 31
0.0
  0
LINE
  5
2932
330
28D5
100
AcDbEntity
  8
エンボス
  6
Continuous
100
AcDbLine
 10
7.778481600000077
 20
132.8066402695945
 30
0.0
 11
4.778481600000077
 21
131.6066402695944
 31
0.0
  0
LINE
  5
2933
330
28D5
100
AcDbEntity
  8
エンボス
  6
Continuous
100
AcDbLine
 10
7.778481600000077
 20
123.2066402695943
 30
0.0
 11
4.778481600000077
 21
124.4066402695944
 31
0.0
  0
LINE
  5
2934
330
28D5
100
AcDbEntity
  8
エンボス
  6
Continuous
100
AcDbLine
 10
4.778481600000077
 20
126.2066402695943
 30
0.0
 11
7.778481600000077
 21
127.4066402695944
 31
0.0
  0
LINE
  5
2935
330
28D5
100
AcDbEntity
  8
エンボス
  6
Continuous
100
AcDbLine
 10
7.778481600000077
 20
116.0066402695943
 30
0.0
 11
4.778481600000077
 21
114.8066402695945
 31
0.0
  0
LINE
  5
2936
330
28D5
100
AcDbEntity
  8
エンボス
  6
Continuous
100
AcDbLine
 10
4.778481600000077
 20
119.0066402695943
 30
0.0
 11
7.778481600000077
 21
117.8066402695945
 31
0.0
  0
LINE
  5
2937
330
28D5
100
AcDbEntity
  8
エンボス
  6
Continuous
100
AcDbLine
 10
4.778481600000077
 20
184.7816362471089
 30
0.0
 11
7.778481600000077
 21
183.5816362471091
 31
0.0
  0
LINE
  5
2938
330
28D5
100
AcDbEntity
  8
エンボス
  6
Continuous
100
AcDbLine
 10
4.778481600000077
 20
175.181636247109
 30
0.0
 11
7.778481600000077
 21
176.3816362471091
 31
0.0
  0
LINE
  5
2939
330
28D5
100
AcDbEntity
  8
エンボス
  6
Continuous
100
AcDbLine
 10
7.778481600000077
 20
181.7816362471089
 30
0.0
 11
4.778481600000077
 21
180.5816362471091
 31
0.0
  0
LINE
  5
293A
330
28D5
100
AcDbEntity
  8
エンボス
  6
Continuous
100
AcDbLine
 10
4.778481600000077
 20
167.981636247109
 30
0.0
 11
7.778481600000077
 21
166.7816362471089
 31
0.0
  0
LINE
  5
293B
330
28D5
100
AcDbEntity
  8
エンボス
  6
Continuous
100
AcDbLine
 10
7.778481600000077
 20
164.981636247109
 30
0.0
 11
4.778481600000077
 21
163.7816362471089
 31
0.0
  0
LINE
  5
293C
330
28D5
100
AcDbEntity
  8
エンボス
  6
Continuous
100
AcDbLine
 10
7.778481600000077
 20
155.3816362471091
 30
0.0
 11
4.778481600000077
 21
156.5816362471091
 31
0.0
  0
LINE
  5
293D
330
28D5
100
AcDbEntity
  8
エンボス
  6
Continuous
100
AcDbLine
 10
4.778481600000077
 20
158.3816362471091
 30
0.0
 11
7.778481600000077
 21
159.5816362471091
 31
0.0
  0
LINE
  5
293E
330
28D5
100
AcDbEntity
  8
エンボス
  6
Continuous
100
AcDbLine
 10
7.778481600000077
 20
172.181636247109
 30
0.0
 11
4.778481600000077
 21
173.3816362471091
 31
0.0
  0
LINE
  5
293F
330
28D5
100
AcDbEntity
  8
エンボス
  6
Continuous
100
AcDbLine
 10
4.778481600000077
 20
192.6066402695944
 30
0.0
 11
7.778481600000077
 21
193.8066402695945
 31
0.0
  0
LINE
  5
2940
330
28D5
100
AcDbEntity
  8
エンボス
  6
Continuous
100
AcDbLine
 10
7.778481600000077
 20
189.6066402695944
 30
0.0
 11
4.778481600000077
 21
190.8066402695945
 31
0.0
  0
LINE
  5
2941
330
28D5
100
AcDbEntity
  8
エンボス
  6
Continuous
100
AcDbLine
 10
7.778481600000077
 20
199.2066402695943
 30
0.0
 11
4.778481600000077
 21
198.0066402695943
 31
0.0
  0
ENDBLK
  5
28D7
330
28D5
100
AcDbEntity
  8
0
 48
3.0
100
AcDbBlockEnd
  0
BLOCK
  5
28D9
330
28D8
100
AcDbEntity
  8
0
 48
3.0
100
AcDbBlockBegin
  2
*U29
 70
     1
 10
0.0
 20
0.0
 30
0.0
  3
*U29
  1

  0
INSERT
  5
294C
330
28D8
100
AcDbEntity
  8
本体
  6
ByBlock
 62
     0
370
    -2
380
     1
100
AcDbBlockReference
  2
*U28
 10
0.0
 20
0.0
 30
0.0
  0
INSERT
  5
294D
330
28D8
100
AcDbEntity
  8
本体
  6
ByBlock
 62
     0
370
    -2
380
     1
100
AcDbBlockReference
  2
*U28
 10
12.5569
 20
0.0
 30
0.0
  0
INSERT
  5
294E
330
28D8
100
AcDbEntity
  8
本体
  6
ByBlock
 62
     0
370
    -2
380
     1
100
AcDbBlockReference
  2
*U28
 10
25.1138
 20
0.0
 30
0.0
  0
INSERT
  5
294F
330
28D8
100
AcDbEntity
  8
本体
  6
ByBlock
 62
     0
370
    -2
380
     1
100
AcDbBlockReference
  2
*U28
 10
37.6707
 20
0.0
 30
0.0
  0
INSERT
  5
2950
330
28D8
100
AcDbEntity
  8
本体
  6
ByBlock
 62
     0
370
    -2
380
     1
100
AcDbBlockReference
  2
*U28
 10
50.2276
 20
0.0
 30
0.0
  0
INSERT
  5
2951
330
28D8
100
AcDbEntity
  8
本体
  6
ByBlock
 62
     0
370
    -2
380
     1
100
AcDbBlockReference
  2
*U28
 10
62.7845
 20
0.0
 30
0.0
  0
INSERT
  5
2952
330
28D8
100
AcDbEntity
  8
本体
  6
ByBlock
 62
     0
370
    -2
380
     1
100
AcDbBlockReference
  2
*U28
 10
75.3414
 20
0.0
 30
0.0
  0
INSERT
  5
2953
330
28D8
100
AcDbEntity
  8
本体
  6
ByBlock
 62
     0
370
    -2
380
     1
100
AcDbBlockReference
  2
*U28
 10
87.8983
 20
0.0
 30
0.0
  0
INSERT
  5
2954
330
28D8
100
AcDbEntity
  8
本体
  6
ByBlock
 62
     0
370
    -2
380
     1
100
AcDbBlockReference
  2
*U28
 10
100.4552
 20
0.0
 30
0.0
  0
INSERT
  5
2955
330
28D8
100
AcDbEntity
  8
本体
  6
ByBlock
 62
     0
370
    -2
380
     1
100
AcDbBlockReference
  2
*U28
 10
113.0121
 20
0.0
 30
0.0
  0
INSERT
  5
2956
330
28D8
100
AcDbEntity
  8
本体
  6
ByBlock
 62
     0
370
    -2
380
     1
100
AcDbBlockReference
  2
*U28
 10
125.569
 20
0.0
 30
0.0
  0
INSERT
  5
2957
330
28D8
100
AcDbEntity
  8
本体
  6
ByBlock
 62
     0
370
    -2
380
     1
100
AcDbBlockReference
  2
*U28
 10
138.1259
 20
0.0
 30
0.0
  0
INSERT
  5
2958
330
28D8
100
AcDbEntity
  8
本体
  6
ByBlock
 62
     0
370
    -2
380
     1
100
AcDbBlockReference
  2
*U28
 10
150.6828
 20
0.0
 30
0.0
  0
INSERT
  5
2959
330
28D8
100
AcDbEntity
  8
本体
  6
ByBlock
 62
     0
370
    -2
380
     1
100
AcDbBlockReference
  2
*U28
 10
163.2397
 20
0.0
 30
0.0
  0
INSERT
  5
295A
330
28D8
100
AcDbEntity
  8
本体
  6
ByBlock
 62
     0
370
    -2
380
     1
100
AcDbBlockReference
  2
*U28
 10
175.7966
 20
0.0
 30
0.0
  0
INSERT
  5
295B
330
28D8
100
AcDbEntity
  8
本体
  6
ByBlock
 62
     0
370
    -2
380
     1
100
AcDbBlockReference
  2
*U28
 10
188.3535
 20
0.0
 30
0.0
  0
INSERT
  5
295C
330
28D8
100
AcDbEntity
  8
本体
  6
ByBlock
 62
     0
370
    -2
380
     1
100
AcDbBlockReference
  2
*U28
 10
200.9104
 20
0.0
 30
0.0
  0
INSERT
  5
295D
330
28D8
100
AcDbEntity
  8
本体
  6
ByBlock
 62
     0
370
    -2
380
     1
100
AcDbBlockReference
  2
*U28
 10
213.4673
 20
0.0
 30
0.0
  0
INSERT
  5
295E
330
28D8
100
AcDbEntity
  8
本体
  6
ByBlock
 62
     0
370
    -2
380
     1
100
AcDbBlockReference
  2
*U28
 10
226.0242
 20
0.0
 30
0.0
  0
INSERT
  5
295F
330
28D8
100
AcDbEntity
  8
本体
  6
ByBlock
 62
     0
370
    -2
380
     1
100
AcDbBlockReference
  2
*U28
 10
238.5811
 20
0.0
 30
0.0
  0
INSERT
  5
2960
330
28D8
100
AcDbEntity
  8
本体
  6
ByBlock
 62
     0
370
    -2
380
     1
100
AcDbBlockReference
  2
*U28
 10
251.138
 20
0.0
 30
0.0
  0
INSERT
  5
2961
330
28D8
100
AcDbEntity
  8
本体
  6
ByBlock
 62
     0
370
    -2
380
     1
100
AcDbBlockReference
  2
*U28
 10
263.6949
 20
0.0
 30
0.0
  0
INSERT
  5
2962
330
28D8
100
AcDbEntity
  8
本体
  6
ByBlock
 62
     0
370
    -2
380
     1
100
AcDbBlockReference
  2
*U28
 10
276.2518
 20
0.0
 30
0.0
  0
INSERT
  5
2963
330
28D8
100
AcDbEntity
  8
本体
  6
ByBlock
 62
     0
370
    -2
380
     1
100
AcDbBlockReference
  2
*U28
 10
288.8087
 20
0.0
 30
0.0
  0
INSERT
  5
2964
330
28D8
100
AcDbEntity
  8
本体
  6
ByBlock
 62
     0
370
    -2
380
     1
100
AcDbBlockReference
  2
*U28
 10
301.3656000000001
 20
0.0
 30
0.0
  0
INSERT
  5
2965
330
28D8
100
AcDbEntity
  8
本体
  6
ByBlock
 62
     0
370
    -2
380
     1
100
AcDbBlockReference
  2
*U28
 10
313.9225
 20
0.0
 30
0.0
  0
INSERT
  5
2966
330
28D8
100
AcDbEntity
  8
本体
  6
ByBlock
 62
     0
370
    -2
380
     1
100
AcDbBlockReference
  2
*U28
 10
326.4794
 20
0.0
 30
0.0
  0
INSERT
  5
2967
330
28D8
100
AcDbEntity
  8
本体
  6
ByBlock
 62
     0
370
    -2
380
     1
100
AcDbBlockReference
  2
*U28
 10
339.0363000000001
 20
0.0
 30
0.0
  0
INSERT
  5
2968
330
28D8
100
AcDbEntity
  8
本体
  6
ByBlock
 62
     0
370
    -2
380
     1
100
AcDbBlockReference
  2
*U28
 10
351.5932
 20
0.0
 30
0.0
  0
INSERT
  5
2969
330
28D8
100
AcDbEntity
  8
本体
  6
ByBlock
 62
     0
370
    -2
380
     1
100
AcDbBlockReference
  2
*U28
 10
364.1501
 20
0.0
 30
0.0
  0
INSERT
  5
296A
330
28D8
100
AcDbEntity
  8
本体
  6
ByBlock
 62
     0
370
    -2
380
     1
100
AcDbBlockReference
  2
*U28
 10
376.707
 20
0.0
 30
0.0
  0
INSERT
  5
296B
330
28D8
100
AcDbEntity
  8
本体
  6
ByBlock
 62
     0
370
    -2
380
     1
100
AcDbBlockReference
  2
*U28
 10
389.2639
 20
0.0
 30
0.0
  0
INSERT
  5
296C
330
28D8
100
AcDbEntity
  8
本体
  6
ByBlock
 62
     0
370
    -2
380
     1
100
AcDbBlockReference
  2
*U28
 10
401.8208
 20
0.0
 30
0.0
  0
INSERT
  5
296D
330
28D8
100
AcDbEntity
  8
本体
  6
ByBlock
 62
     0
370
    -2
380
     1
100
AcDbBlockReference
  2
*U28
 10
414.3777
 20
0.0
 30
0.0
  0
INSERT
  5
296E
330
28D8
100
AcDbEntity
  8
本体
  6
ByBlock
 62
     0
370
    -2
380
     1
100
AcDbBlockReference
  2
*U28
 10
426.9346
 20
0.0
 30
0.0
  0
INSERT
  5
296F
330
28D8
100
AcDbEntity
  8
本体
  6
ByBlock
 62
     0
370
    -2
380
     1
100
AcDbBlockReference
  2
*U28
 10
439.4915
 20
0.0
 30
0.0
  0
INSERT
  5
2970
330
28D8
100
AcDbEntity
  8
本体
  6
ByBlock
 62
     0
370
    -2
380
     1
100
AcDbBlockReference
  2
*U28
 10
452.0484
 20
0.0
 30
0.0
  0
INSERT
  5
2971
330
28D8
100
AcDbEntity
  8
本体
  6
ByBlock
 62
     0
370
    -2
380
     1
100
AcDbBlockReference
  2
*U28
 10
464.6053
 20
0.0
 30
0.0
  0
INSERT
  5
2972
330
28D8
100
AcDbEntity
  8
本体
  6
ByBlock
 62
     0
370
    -2
380
     1
100
AcDbBlockReference
  2
*U28
 10
477.1622
 20
0.0
 30
0.0
  0
INSERT
  5
2973
330
28D8
100
AcDbEntity
  8
本体
  6
ByBlock
 62
     0
370
    -2
380
     1
100
AcDbBlockReference
  2
*U28
 10
489.7191
 20
0.0
 30
0.0
  0
INSERT
  5
2974
330
28D8
100
AcDbEntity
  8
本体
  6
ByBlock
 62
     0
370
    -2
380
     1
100
AcDbBlockReference
  2
*U28
 10
502.2759999999999
 20
0.0
 30
0.0
  0
INSERT
  5
2975
330
28D8
100
AcDbEntity
  8
本体
  6
ByBlock
 62
     0
370
    -2
380
     1
100
AcDbBlockReference
  2
*U28
 10
514.8329
 20
0.0
 30
0.0
  0
INSERT
  5
2976
330
28D8
100
AcDbEntity
  8
本体
  6
ByBlock
 62
     0
370
    -2
380
     1
100
AcDbBlockReference
  2
*U28
 10
527.3898
 20
0.0
 30
0.0
  0
INSERT
  5
2977
330
28D8
100
AcDbEntity
  8
本体
  6
ByBlock
 62
     0
370
    -2
380
     1
100
AcDbBlockReference
  2
*U28
 10
539.9467
 20
0.0
 30
0.0
  0
INSERT
  5
2978
330
28D8
100
AcDbEntity
  8
本体
  6
ByBlock
 62
     0
370
    -2
380
     1
100
AcDbBlockReference
  2
*U28
 10
552.5036
 20
0.0
 30
0.0
  0
INSERT
  5
2979
330
28D8
100
AcDbEntity
  8
本体
  6
ByBlock
 62
     0
370
    -2
380
     1
100
AcDbBlockReference
  2
*U28
 10
565.0605
 20
0.0
 30
0.0
  0
INSERT
  5
297A
330
28D8
100
AcDbEntity
  8
本体
  6
ByBlock
 62
     0
370
    -2
380
     1
100
AcDbBlockReference
  2
*U28
 10
577.6174
 20
0.0
 30
0.0
  0
INSERT
  5
297B
330
28D8
100
AcDbEntity
  8
本体
  6
ByBlock
 62
     0
370
    -2
380
     1
100
AcDbBlockReference
  2
*U28
 10
590.1743
 20
0.0
 30
0.0
  0
INSERT
  5
297C
330
28D8
100
AcDbEntity
  8
本体
  6
ByBlock
 62
     0
370
    -2
380
     1
100
AcDbBlockReference
  2
*U28
 10
602.7312000000001
 20
0.0
 30
0.0
  0
INSERT
  5
297D
330
28D8
100
AcDbEntity
  8
本体
  6
ByBlock
 62
     0
370
    -2
380
     1
100
AcDbBlockReference
  2
*U28
 10
615.2880999999999
 20
0.0
 30
0.0
  0
INSERT
  5
297E
330
28D8
100
AcDbEntity
  8
本体
  6
ByBlock
 62
     0
370
    -2
380
     1
100
AcDbBlockReference
  2
*U28
 10
627.845
 20
0.0
 30
0.0
  0
INSERT
  5
297F
330
28D8
100
AcDbEntity
  8
本体
  6
ByBlock
 62
     0
370
    -2
380
     1
100
AcDbBlockReference
  2
*U28
 10
640.4019
 20
0.0
 30
0.0
  0
INSERT
  5
2980
330
28D8
100
AcDbEntity
  8
本体
  6
ByBlock
 62
     0
370
    -2
380
     1
100
AcDbBlockReference
  2
*U28
 10
652.9588
 20
0.0
 30
0.0
  0
INSERT
  5
2981
330
28D8
100
AcDbEntity
  8
本体
  6
ByBlock
 62
     0
370
    -2
380
     1
100
AcDbBlockReference
  2
*U28
 10
665.5157
 20
0.0
 30
0.0
  0
INSERT
  5
2982
330
28D8
100
AcDbEntity
  8
本体
  6
ByBlock
 62
     0
370
    -2
380
     1
100
AcDbBlockReference
  2
*U28
 10
678.0726000000001
 20
0.0
 30
0.0
  0
INSERT
  5
2983
330
28D8
100
AcDbEntity
  8
本体
  6
ByBlock
 62
     0
370
    -2
380
     1
100
AcDbBlockReference
  2
*U28
 10
690.6295
 20
0.0
 30
0.0
  0
INSERT
  5
2984
330
28D8
100
AcDbEntity
  8
本体
  6
ByBlock
 62
     0
370
    -2
380
     1
100
AcDbBlockReference
  2
*U28
 10
703.1864
 20
0.0
 30
0.0
  0
INSERT
  5
2985
330
28D8
100
AcDbEntity
  8
本体
  6
ByBlock
 62
     0
370
    -2
380
     1
100
AcDbBlockReference
  2
*U28
 10
715.7433000000001
 20
0.0
 30
0.0
  0
INSERT
  5
2986
330
28D8
100
AcDbEntity
  8
本体
  6
ByBlock
 62
     0
370
    -2
380
     1
100
AcDbBlockReference
  2
*U28
 10
728.3002
 20
0.0
 30
0.0
  0
INSERT
  5
2987
330
28D8
100
AcDbEntity
  8
本体
  6
ByBlock
 62
     0
370
    -2
380
     1
100
AcDbBlockReference
  2
*U28
 10
740.8571000000001
 20
0.0
 30
0.0
  0
INSERT
  5
2988
330
28D8
100
AcDbEntity
  8
本体
  6
ByBlock
 62
     0
370
    -2
380
     1
100
AcDbBlockReference
  2
*U28
 10
753.4139999999999
 20
0.0
 30
0.0
  0
INSERT
  5
2989
330
28D8
100
AcDbEntity
  8
本体
  6
ByBlock
 62
     0
370
    -2
380
     1
100
AcDbBlockReference
  2
*U28
 10
765.9709
 20
0.0
 30
0.0
  0
INSERT
  5
298A
330
28D8
100
AcDbEntity
  8
本体
  6
ByBlock
 62
     0
370
    -2
380
     1
100
AcDbBlockReference
  2
*U28
 10
778.5278
 20
0.0
 30
0.0
  0
INSERT
  5
298B
330
28D8
100
AcDbEntity
  8
本体
  6
ByBlock
 62
     0
370
    -2
380
     1
100
AcDbBlockReference
  2
*U28
 10
791.0847
 20
0.0
 30
0.0
  0
INSERT
  5
298C
330
28D8
100
AcDbEntity
  8
本体
  6
ByBlock
 62
     0
370
    -2
380
     1
100
AcDbBlockReference
  2
*U28
 10
803.6416
 20
0.0
 30
0.0
  0
INSERT
  5
298D
330
28D8
100
AcDbEntity
  8
本体
  6
ByBlock
 62
     0
370
    -2
380
     1
100
AcDbBlockReference
  2
*U28
 10
816.1985000000001
 20
0.0
 30
0.0
  0
INSERT
  5
298E
330
28D8
100
AcDbEntity
  8
本体
  6
ByBlock
 62
     0
370
    -2
380
     1
100
AcDbBlockReference
  2
*U28
 10
828.7554
 20
0.0
 30
0.0
  0
INSERT
  5
298F
330
28D8
100
AcDbEntity
  8
本体
  6
ByBlock
 62
     0
370
    -2
380
     1
100
AcDbBlockReference
  2
*U28
 10
841.3123
 20
0.0
 30
0.0
  0
INSERT
  5
2990
330
28D8
100
AcDbEntity
  8
本体
  6
ByBlock
 62
     0
370
    -2
380
     1
100
AcDbBlockReference
  2
*U28
 10
853.8692000000001
 20
0.0
 30
0.0
  0
INSERT
  5
2991
330
28D8
100
AcDbEntity
  8
本体
  6
ByBlock
 62
     0
370
    -2
380
     1
100
AcDbBlockReference
  2
*U28
 10
866.4260999999999
 20
0.0
 30
0.0
  0
INSERT
  5
2992
330
28D8
100
AcDbEntity
  8
本体
  6
ByBlock
 62
     0
370
    -2
380
     1
100
AcDbBlockReference
  2
*U28
 10
878.983
 20
0.0
 30
0.0
  0
INSERT
  5
2993
330
28D8
100
AcDbEntity
  8
本体
  6
ByBlock
 62
     0
370
    -2
380
     1
100
AcDbBlockReference
  2
*U28
 10
891.5399
 20
0.0
 30
0.0
  0
INSERT
  5
2994
330
28D8
100
AcDbEntity
  8
本体
  6
ByBlock
 62
     0
370
    -2
380
     1
100
AcDbBlockReference
  2
*U28
 10
904.0968000000001
 20
0.0
 30
0.0
  0
INSERT
  5
2995
330
28D8
100
AcDbEntity
  8
本体
  6
ByBlock
 62
     0
370
    -2
380
     1
100
AcDbBlockReference
  2
*U28
 10
916.6537000000001
 20
0.0
 30
0.0
  0
INSERT
  5
2996
330
28D8
100
AcDbEntity
  8
本体
  6
ByBlock
 62
     0
370
    -2
380
     1
100
AcDbBlockReference
  2
*U28
 10
929.2106
 20
0.0
 30
0.0
  0
INSERT
  5
2997
330
28D8
100
AcDbEntity
  8
本体
  6
ByBlock
 62
     0
370
    -2
380
     1
100
AcDbBlockReference
  2
*U28
 10
941.7675
 20
0.0
 30
0.0
  0
INSERT
  5
2998
330
28D8
100
AcDbEntity
  8
本体
  6
ByBlock
 62
     0
370
    -2
380
     1
100
AcDbBlockReference
  2
*U28
 10
954.3244000000001
 20
0.0
 30
0.0
  0
INSERT
  5
2999
330
28D8
100
AcDbEntity
  8
本体
  6
ByBlock
 62
     0
370
    -2
380
     1
100
AcDbBlockReference
  2
*U28
 10
966.8813
 20
0.0
 30
0.0
  0
ENDBLK
  5
28DA
330
28D8
100
AcDbEntity
  8
0
 48
3.0
100
AcDbBlockEnd
  0
BLOCK
  5
29A1
330
29A0
100
AcDbEntity
  8
0
 48
3.0
100
AcDbBlockBegin
  2
*D30
 70
     1
 10
0.0
 20
0.0
 30
0.0
  3
*D30
  1

  0
LINE
  5
29C4
330
29A0
100
AcDbEntity
  8
寸法線
 62
     0
 48
3.0
370
    -2
100
AcDbLine
 10
1301.237143810574
 20
743.3613396332453
 30
0.0
 11
1301.237143810574
 21
795.0720177519001
 31
0.0
  0
LINE
  5
29C5
330
29A0
100
AcDbEntity
  8
寸法線
 62
     0
 48
3.0
370
    -2
100
AcDbLine
 10
1313.737143810574
 20
743.3613396332453
 30
0.0
 11
1313.737143810574
 21
795.0720177519001
 31
0.0
  0
LINE
  5
29C6
330
29A0
100
AcDbEntity
  8
寸法線
 62
     0
 48
3.0
370
    -2
100
AcDbLine
 10
1286.237143810574
 20
780.0720177519001
 30
0.0
 11
1271.237143810574
 21
780.0720177519001
 31
0.0
  0
LINE
  5
29C7
330
29A0
100
AcDbEntity
  8
寸法線
 62
     0
 48
3.0
370
    -2
100
AcDbLine
 10
1328.737143810574
 20
780.0720177519001
 30
0.0
 11
1425.615316399406
 21
780.0720177519001
 31
0.0
  0
LINE
  5
29C8
330
29A0
100
AcDbEntity
  8
寸法線
 62
     0
 48
3.0
370
    -2
100
AcDbLine
 10
1301.237143810574
 20
780.0720177519001
 30
0.0
 11
1313.737143810574
 21
780.0720177519001
 31
0.0
  0
INSERT
  5
29C9
330
29A0
100
AcDbEntity
  8
寸法線
 62
     0
 48
3.0
370
    -2
100
AcDbBlockReference
  2
_Open30
 10
1301.237143810574
 20
780.0720177519001
 30
0.0
 41
15.0
 42
15.0
 43
15.0
  0
INSERT
  5
29CA
330
29A0
100
AcDbEntity
  8
寸法線
 62
     0
 48
3.0
370
    -2
100
AcDbBlockReference
  2
_Open30
 10
1313.737143810574
 20
780.0720177519001
 30
0.0
 41
15.0
 42
15.0
 43
15.0
 50
180.0
  0
MTEXT
  5
29CB
330
29A0
100
AcDbEntity
  8
寸法線
 62
     0
 48
3.0
100
AcDbMText
 10
1384.67623010499
 20
800.0720177519001
 30
0.0
 40
30.0
 41
0.0
 71
     5
 72
     1
  1
12.5
 73
     1
 44
1.0
1001
ACAD
1000
MTEXTBEGIN
1070
    73
1070
     1
1070
    44
1040
1.0
1070
    74
1070
     0
1000
MTEXTEND
  0
POINT
  5
29CC
330
29A0
100
AcDbEntity
  8
Defpoints
 62
     0
 48
3.0
100
AcDbPoint
 10
1301.237143810574
 20
723.3613396332453
 30
0.0
  0
POINT
  5
29CD
330
29A0
100
AcDbEntity
  8
Defpoints
 62
     0
 48
3.0
100
AcDbPoint
 10
1313.737143810574
 20
723.3613396332453
 30
0.0
  0
POINT
  5
29CE
330
29A0
100
AcDbEntity
  8
Defpoints
 62
     0
 48
3.0
100
AcDbPoint
 10
1313.737143810574
 20
780.0720177519001
 30
0.0
  0
ENDBLK
  5
29A2
330
29A0
100
AcDbEntity
  8
0
 48
3.0
100
AcDbBlockEnd
  0
ENDSEC
  0
SECTION
  2
ENTITIES
  0
LINE
  5
12
330
2
100
AcDbEntity
  8
外枠
 48
80.0
370
     9
100
AcDbLine
 10
0.0
 20
0.0
 30
0.0
 11
2789.511161023067
 21
0.0
 31
0.0
  0
LINE
  5
13
330
2
100
AcDbEntity
  8
外枠
 48
80.0
370
     9
100
AcDbLine
 10
2789.511161023071
 20
1973.26911249564
 30
0.0
 11
0.0
 21
1973.26911249564
 31
0.0
  0
LINE
  5
14
330
2
100
AcDbEntity
  8
外枠
 48
100.0
370
     9
100
AcDbLine
 10
10.0
 20
10.0
 30
0.0
 11
2780.119625023061
 21
10.0
 31
0.0
  0
LINE
  5
17
330
2
100
AcDbEntity
  8
外枠
  6
Continuous
 48
100.0
370
     9
100
AcDbLine
 10
9.999999999996362
 20
155.3992728208031
 30
0.0
 11
2780.119625023061
 21
155.3992728207995
 31
0.0
  0
LINE
  5
18
330
2
100
AcDbEntity
  8
外枠
  6
Continuous
 48
100.0
370
     9
100
AcDbLine
 10
9.999999999996362
 20
160.0950408208045
 30
0.0
 11
2780.119625023061
 21
160.0950408207973
 31
0.0
  0
LINE
  5
19
330
2
100
AcDbEntity
  8
外枠
 48
100.0
370
     9
100
AcDbLine
 10
10.0
 20
1963.877576495633
 30
0.0
 11
2780.119625023053
 21
1963.877576495637
 31
0.0
  0
LINE
  5
1A
330
2
100
AcDbEntity
  8
外枠
 48
80.0
370
     9
100
AcDbLine
 10
0.0
 20
0.0
 30
0.0
 11
0.0
 21
1973.26911249564
 31
0.0
  0
LINE
  5
1B
330
2
100
AcDbEntity
  8
外枠
 48
100.0
370
     9
100
AcDbLine
 10
10.0
 20
1963.877576495633
 30
0.0
 11
10.0
 21
10.0
 31
0.0
  0
LINE
  5
1C
330
2
100
AcDbEntity
  8
外枠
  6
Continuous
 48
100.0
370
     9
100
AcDbLine
 10
10.0
 20
82.69963641040158
 30
0.0
 11
1153.530108552004
 21
82.69963641039794
 31
0.0
  0
MTEXT
  5
1D
330
2
100
AcDbEntity
  8
外枠
  6
Continuous
 48
100.0
370
     9
100
AcDbMText
 10
555.6000408682721
 20
136.1535564242149
 30
0.0
 40
29.0
 41
664.6118999999999
 71
     1
 72
     5
  1
細目JIS道路側溝用グレーチング
 73
     1
 44
1.0
1001
ACAD
1000
MTEXTBEGIN
1070
    73
1070
     1
1070
    44
1040
1.0
1070
    74
1070
     0
1000
MTEXTEND
  0
MTEXT
  5
1E
330
2
100
AcDbEntity
  8
外枠
  6
Continuous
 48
100.0
370
     9
100
AcDbMText
 10
246.8574963386418
 20
64.81814764649607
 30
0.0
 40
35.0
 41
532.9183
 71
     1
 72
     5
  1
410\U+00D7995\U+00D732/92
 73
     1
 44
1.0
1001
ACAD
1000
MTEXTBEGIN
1070
    73
1070
     1
1070
    44
1040
1.0
1070
    74
1070
     0
1000
MTEXTEND
  0
MTEXT
  5
1F
330
2
100
AcDbEntity
  8
外枠
  6
Continuous
 48
100.0
370
     9
100
AcDbMText
 10
63.87242611591682
 20
137.3760680266387
 30
0.0
 40
30.0
 41
126.3036
 71
     1
 72
     5
  1
T-14
 73
     1
 44
1.0
1001
ACAD
1000
MTEXTBEGIN
1070
    73
1070
     1
1070
    44
1040
1.0
1070
    74
1070
     0
1000
MTEXTEND
  0
MTEXT
  5
20
330
2
100
AcDbEntity
  8
外枠
  6
Continuous
 48
100.0
370
     9
100
AcDbMText
 10
68.92783543177666
 20
59.95966632915224
 30
0.0
 40
35.0
 41
88.86979999999999
 71
     1
 72
     5
  1
EJH
 73
     1
 44
1.0
1001
ACAD
1000
MTEXTBEGIN
1070
    73
1070
     1
1070
    44
1040
1.0
1070
    74
1070
     0
1000
MTEXTEND
  0
LINE
  5
21
330
2
100
AcDbEntity
  8
外枠
 48
100.0
370
     9
100
AcDbLine
 10
45.0
 20
155.3992728208031
 30
0.0
 11
45.0
 21
10.0
 31
0.0
  0
MTEXT
  5
22
330
2
100
AcDbEntity
  8
外枠
  6
Continuous
 48
100.0
370
     9
100
AcDbMText
 10
15.05670849094895
 20
75.82038473524153
 30
0.0
 40
20.0
 41
23.52947333656417
 71
     1
 72
     5
  1
品\P番
 73
     1
 44
1.0
1001
ACAD
1000
MTEXTBEGIN
1070
    73
1070
     1
1070
    44
1040
1.0
1070
    74
1070
     0
1000
MTEXTEND
  0
MTEXT
  5
23
330
2
100
AcDbEntity
  8
外枠
  6
Continuous
 48
100.0
370
     9
100
AcDbMText
 10
14.92010060012399
 20
149.3317229429121
 30
0.0
 40
20.0
 41
30.07989939987533
 71
     1
 72
     5
  1
荷\P重
 73
     1
 44
1.0
1001
ACAD
1000
MTEXTBEGIN
1070
    73
1070
     1
1070
    44
1040
1.0
1070
    74
1070
     0
1000
MTEXTEND
  0
LINE
  5
24
330
2
100
AcDbEntity
  8
外枠
 48
100.0
370
     9
100
AcDbLine
 10
179.1040495562847
 20
155.3992728208031
 30
0.0
 11
179.1040495562847
 21
10.0
 31
0.0
  0
MTEXT
  5
25
330
2
100
AcDbEntity
  8
外枠
  6
Continuous
 48
100.0
370
     9
100
AcDbMText
 10
271.7517807368968
 20
133.8572910967996
 30
0.0
 40
30.0
 41
271.6208
 71
     1
 72
     5
  1
300用
 73
     1
 44
1.0
1001
ACAD
1000
MTEXTBEGIN
1070
    73
1070
     1
1070
    44
1040
1.0
1070
    74
1070
     0
1000
MTEXTEND
  0
MTEXT
  5
26
330
2
100
AcDbEntity
  8
外枠
  6
Continuous
 48
100.0
370
     9
100
AcDbMText
 10
184.4346535744698
 20
149.3074501239389
 30
0.0
 40
20.0
 41
29.6694
 71
     1
 72
     5
  1
溝幅
 73
     1
 44
1.0
1001
ACAD
1000
MTEXTBEGIN
1070
    73
1070
     1
1070
    44
1040
1.0
1070
    74
1070
     0
1000
MTEXTEND
  0
LINE
  5
27
330
2
100
AcDbEntity
  8
外枠
 48
100.0
370
     9
100
AcDbLine
 10
214.1040495562847
 20
155.3992728208031
 30
0.0
 11
214.1040495562847
 21
82.69963641040158
 31
0.0
  0
MTEXT
  5
28
330
2
100
AcDbEntity
  8
外枠
  6
Continuous
 48
100.0
370
     9
100
AcDbMText
 10
477.8955451146976
 20
149.3074501239389
 30
0.0
 40
20.0
 41
29.6694
 71
     1
 72
     5
  1
品名
 73
     1
 44
1.0
1001
ACAD
1000
MTEXTBEGIN
1070
    73
1070
     1
1070
    44
1040
1.0
1070
    74
1070
     0
1000
MTEXTEND
  0
LINE
  5
29
330
2
100
AcDbEntity
  8
外枠
 48
100.0
370
     9
100
AcDbLine
 10
472.5649410965124
 20
155.3992728208031
 30
0.0
 11
472.5649410965124
 21
82.69963641040158
 31
0.0
  0
LINE
  5
2A
330
2
100
AcDbEntity
  8
外枠
 48
100.0
370
     9
100
AcDbLine
 10
507.5649410965125
 20
155.3992728208031
 30
0.0
 11
507.5649410965125
 21
82.69963641040158
 31
0.0
  0
MTEXT
  5
2B
330
2
100
AcDbEntity
  8
外枠
  6
Continuous
 48
100.0
370
     9
100
AcDbMText
 10
728.477887653953
 20
76.92551173516403
 30
0.0
 40
20.0
 41
664.6118999999999
 71
     1
 72
     5
  1
摘\P要
 73
     1
 44
1.0
1001
ACAD
1000
MTEXTBEGIN
1070
    73
1070
     1
1070
    44
1040
1.0
1070
    74
1070
     0
1000
MTEXTEND
  0
LINE
  5
2C
330
2
100
AcDbEntity
  8
外枠
 48
100.0
370
     9
100
AcDbLine
 10
723.8282373115871
 20
82.6996364103943
 30
0.0
 11
723.8282373115871
 21
9.999999999992724
 31
0.0
  0
LINE
  5
2F
330
2
100
AcDbEntity
  8
外枠
 48
100.0
370
     9
100
AcDbLine
 10
758.8282373115871
 20
82.6996364103943
 30
0.0
 11
758.8282373115871
 21
9.999999999992724
 31
0.0
  0
LINE
  5
31
330
2
100
AcDbEntity
  8
外枠
 48
100.0
370
     9
100
AcDbLine
 10
974.9513069700951
 20
82.6996364103943
 30
0.0
 11
974.9513069700951
 21
9.999999999992724
 31
0.0
  0
MTEXT
  5
32
330
2
100
AcDbEntity
  8
外枠
  6
Continuous
 48
100.0
370
     9
100
AcDbMText
 10
979.7329598959768
 20
74.84825461820583
 30
0.0
 40
20.0
 41
31.38947761565365
 71
     1
 72
     5
  1
材\P質
 73
     1
 44
1.0
1001
ACAD
1000
MTEXTBEGIN
1070
    73
1070
     1
1070
    44
1040
1.0
1070
    74
1070
     0
1000
MTEXTEND
  0
LINE
  5
33
330
2
100
AcDbEntity
  8
外枠
 48
100.0
370
     9
100
AcDbLine
 10
1009.951306970095
 20
82.6996364103943
 30
0.0
 11
1009.951306970095
 21
9.999999999992724
 31
0.0
  0
LINE
  5
37
330
2
100
AcDbEntity
  8
外枠
 48
80.0
370
     9
100
AcDbLine
 10
2789.511161023067
 20
0.0
 30
0.0
 11
2789.511161023071
 21
1973.26911249564
 31
0.0
  0
LINE
  5
38
330
2
100
AcDbEntity
  8
外枠
 48
100.0
370
     9
100
AcDbLine
 10
2780.119625023053
 20
1963.877576495637
 30
0.0
 11
2780.119625023061
 21
10.0
 31
0.0
  0
LINE
  5
3A
330
2
100
AcDbEntity
  8
外枠
 48
3.0
100
AcDbLine
 10
1607.072254912545
 20
61.67068719952067
 30
0.0
 11
2262.173600934632
 21
61.67068719952067
 31
0.0
  0
MTEXT
  5
3B
330
2
100
AcDbEntity
  8
外枠
  6
Continuous
 48
100.0
370
     9
100
AcDbMText
 10
1683.622173868318
 20
50.71504764095289
 30
0.0
 40
30.00024
 41
539.4827578564582
 71
     1
 72
     5
  1
T A K A R A   G R A T I N G
 73
     1
 44
1.0
1001
ACAD
1000
MTEXTBEGIN
1070
    73
1070
     1
1070
    44
1040
1.0
1070
    74
1070
     0
1000
MTEXTEND
  0
MTEXT
  5
3C
330
2
100
AcDbEntity
  8
外枠
  6
Continuous
 48
100.0
370
     9
100
AcDbMText
 10
1728.02061463669
 20
127.1672938476838
 30
0.0
 40
30.0
 41
282.8297
 71
     1
 72
     5
  1
株 式 会 社
 73
     1
 44
1.0
1001
ACAD
1000
MTEXTBEGIN
1070
    73
1070
     1
1070
    44
1040
1.0
1070
    74
1070
     0
1000
MTEXTEND
  0
LINE
  5
3D
330
2
100
AcDbEntity
  8
外枠
  6
Continuous
 48
100.0
370
     9
100
AcDbLine
 10
1508.680137877982
 20
155.3992728208068
 30
0.0
 11
1508.680137877982
 21
10.00000000000364
 31
0.0
  0
LINE
  5
3E
330
2
100
AcDbEntity
  8
外枠
  6
Continuous
 48
100.0
370
     9
100
AcDbLine
 10
1593.95141853916
 20
155.3992728207995
 30
0.0
 11
1593.95141853916
 21
9.999999999996362
 31
0.0
  0
LINE
  5
3F
330
2
100
AcDbEntity
  8
外枠
  6
Continuous
 48
100.0
370
     9
100
AcDbLine
 10
1616.777813337499
 20
106.634063069062
 30
0.0
 11
1612.463999974505
 21
110.08511375945
 31
0.0
  0
LINE
  5
40
330
2
100
AcDbEntity
  8
外枠
  6
Continuous
 48
100.0
370
     9
100
AcDbLine
 10
1616.777813337499
 20
106.634063069062
 30
0.0
 11
1612.463999974505
 21
103.183012378663
 31
0.0
  0
LINE
  5
41
330
2
100
AcDbEntity
  8
外枠
  6
Continuous
 48
100.0
370
     9
100
AcDbLine
 10
1616.777813337505
 20
113.5361644498489
 30
0.0
 11
1612.463999974505
 21
110.08511375945
 31
0.0
  0
LINE
  5
42
330
2
100
AcDbEntity
  8
外枠
  6
Continuous
 48
100.0
370
     9
100
AcDbLine
 10
1616.777813337499
 20
99.73196168827508
 30
0.0
 11
1612.463999974505
 21
103.183012378663
 31
0.0
  0
MTEXT
  5
43
330
2
100
AcDbEntity
  8
外枠
  6
Continuous
 48
100.0
370
     9
100
AcDbMText
 10
1520.476936402745
 20
137.4995509975779
 30
0.0
 40
20.0
 41
1015.1375
 71
     1
 72
     5
  1
35.3
 73
     1
 44
1.0
1001
ACAD
1000
MTEXTBEGIN
1070
    73
1070
     1
1070
    44
1040
1.0
1070
    74
1070
     0
1000
MTEXTEND
  0
MTEXT
  5
44
330
2
100
AcDbEntity
  8
外枠
  6
Continuous
 48
100.0
370
     9
100
AcDbMText
 10
1568.464698185987
 20
108.4136993179927
 30
0.0
 40
18.0
 41
25.456
 71
     1
 72
     5
  1
kg
 73
     1
 44
1.0
1001
ACAD
1000
MTEXTBEGIN
1070
    73
1070
     1
1070
    44
1040
1.0
1070
    74
1070
     0
1000
MTEXTEND
  0
LINE
  5
45
330
2
100
AcDbEntity
  8
外枠
  6
Continuous
 48
100.0
370
     9
100
AcDbLine
 10
1649.122643507042
 20
139.4120285854742
 30
0.0
 11
1653.436456870031
 21
135.9609778950862
 31
0.0
  0
LINE
  5
46
330
2
100
AcDbEntity
  8
外枠
  6
Continuous
 48
100.0
370
     9
100
AcDbLine
 10
1666.377896959009
 20
139.4120285854742
 30
0.0
 11
1662.06408359602
 21
135.9609778950862
 31
0.0
  0
MTEXT
  5
47
330
2
100
AcDbEntity
  8
外枠
  6
Continuous
 48
100.0
370
     9
100
AcDbMText
 10
1642.840555134189
 20
120.8184913847756
 30
0.0
 40
23.95393639053264
 41
23.85059431815661
 71
     1
 72
     5
  1
{\fＭＳ ゴシック|b0|i0|c128|p49;宝}
 73
     1
 44
1.0
1001
ACAD
1000
MTEXTBEGIN
1070
    73
1070
     1
1070
    44
1040
1.0
1070
    74
1070
     0
1000
MTEXTEND
  0
LINE
  5
48
330
2
100
AcDbEntity
  8
外枠
  6
Continuous
 48
100.0
370
     9
100
AcDbLine
 10
1662.06408359602
 20
135.9609778950862
 30
0.0
 11
1694.408913765557
 21
110.08511375945
 31
0.0
  0
LINE
  5
49
330
2
100
AcDbEntity
  8
外枠
  6
Continuous
 48
100.0
370
     9
100
AcDbLine
 10
1657.750270233026
 20
132.5099272046927
 30
0.0
 11
1690.095100402563
 21
106.634063069062
 31
0.0
  0
LINE
  5
4A
330
2
100
AcDbEntity
  8
外枠
  6
Continuous
 48
100.0
370
     9
100
AcDbLine
 10
1690.095100402563
 20
106.634063069062
 30
0.0
 11
1657.750270233026
 21
80.75819893343123
 31
0.0
  0
LINE
  5
4B
330
2
100
AcDbEntity
  8
外枠
  6
Continuous
 48
100.0
370
     9
100
AcDbLine
 10
1694.408913765557
 20
103.183012378663
 30
0.0
 11
1662.06408359602
 21
77.30714824303777
 31
0.0
  0
LINE
  5
4C
330
2
100
AcDbEntity
  8
外枠
  6
Continuous
 48
100.0
370
     9
100
AcDbLine
 10
1657.750270233026
 20
80.75819893342577
 30
0.0
 11
1625.405440063488
 21
106.634063069062
 31
0.0
  0
LINE
  5
4D
330
2
100
AcDbEntity
  8
外枠
  6
Continuous
 48
100.0
370
     9
100
AcDbLine
 10
1653.436456870031
 20
77.30714824303777
 30
0.0
 11
1621.0916267005
 21
103.183012378663
 31
0.0
  0
LINE
  5
4E
330
2
100
AcDbEntity
  8
外枠
  6
Continuous
 48
100.0
370
     9
100
AcDbLine
 10
1621.0916267005
 20
103.183012378663
 30
0.0
 11
1616.777813337505
 21
99.73196168827508
 31
0.0
  0
LINE
  5
4F
330
2
100
AcDbEntity
  8
外枠
  6
Continuous
 48
100.0
370
     9
100
AcDbLine
 10
1653.436456870031
 20
77.30714824303777
 30
0.0
 11
1649.122643507042
 21
73.85609755263885
 31
0.0
  0
LINE
  5
50
330
2
100
AcDbEntity
  8
外枠
  6
Continuous
 48
100.0
370
     9
100
AcDbLine
 10
1653.436456870031
 20
70.4050468622454
 30
0.0
 11
1649.122643507042
 21
73.85609755263885
 31
0.0
  0
LINE
  5
51
330
2
100
AcDbEntity
  8
外枠
  6
Continuous
 48
100.0
370
     9
100
AcDbLine
 10
1657.750270233026
 20
73.85609755263885
 30
0.0
 11
1653.436456870031
 21
70.4050468622454
 31
0.0
  0
LINE
  5
52
330
2
100
AcDbEntity
  8
外枠
  6
Continuous
 48
100.0
370
     9
100
AcDbLine
 10
1666.377896959009
 20
73.85609755263885
 30
0.0
 11
1662.06408359602
 21
70.4050468622454
 31
0.0
  0
LINE
  5
53
330
2
100
AcDbEntity
  8
外枠
  6
Continuous
 48
100.0
370
     9
100
AcDbLine
 10
1662.06408359602
 20
70.4050468622454
 30
0.0
 11
1657.750270233026
 21
73.85609755263885
 31
0.0
  0
LINE
  5
54
330
2
100
AcDbEntity
  8
外枠
  6
Continuous
 48
100.0
370
     9
100
AcDbLine
 10
1666.377896959009
 20
73.85609755263885
 30
0.0
 11
1662.06408359602
 21
77.30714824303777
 31
0.0
  0
LINE
  5
55
330
2
100
AcDbEntity
  8
外枠
  6
Continuous
 48
100.0
370
     9
100
AcDbLine
 10
1657.750270233026
 20
132.5099272046927
 30
0.0
 11
1625.405440063483
 21
106.634063069062
 31
0.0
  0
LINE
  5
56
330
2
100
AcDbEntity
  8
外枠
  6
Continuous
 48
100.0
370
     9
100
AcDbLine
 10
1653.436456870031
 20
135.9609778950862
 30
0.0
 11
1621.0916267005
 21
110.08511375945
 31
0.0
  0
LINE
  5
57
330
2
100
AcDbEntity
  8
外枠
  6
Continuous
 48
100.0
370
     9
100
AcDbLine
 10
1621.0916267005
 20
110.08511375945
 30
0.0
 11
1616.777813337505
 21
113.5361644498489
 31
0.0
  0
LINE
  5
58
330
2
100
AcDbEntity
  8
外枠
  6
Continuous
 48
100.0
370
     9
100
AcDbLine
 10
1694.408913765557
 20
103.183012378663
 30
0.0
 11
1698.722727128541
 21
99.73196168827508
 31
0.0
  0
LINE
  5
59
330
2
100
AcDbEntity
  8
外枠
  6
Continuous
 48
100.0
370
     9
100
AcDbLine
 10
1703.036540491541
 20
103.183012378663
 30
0.0
 11
1698.722727128541
 21
99.73196168827508
 31
0.0
  0
LINE
  5
5A
330
2
100
AcDbEntity
  8
外枠
  6
Continuous
 48
100.0
370
     9
100
AcDbLine
 10
1698.722727128541
 20
113.5361644498489
 30
0.0
 11
1694.408913765557
 21
110.08511375945
 31
0.0
  0
LINE
  5
5B
330
2
100
AcDbEntity
  8
外枠
  6
Continuous
 48
100.0
370
     9
100
AcDbLine
 10
1698.722727128541
 20
106.634063069062
 30
0.0
 11
1703.036540491541
 21
103.183012378663
 31
0.0
  0
LINE
  5
5C
330
2
100
AcDbEntity
  8
外枠
  6
Continuous
 48
100.0
370
     9
100
AcDbLine
 10
1698.722727128541
 20
113.5361644498489
 30
0.0
 11
1703.036540491541
 21
110.08511375945
 31
0.0
  0
LINE
  5
5D
330
2
100
AcDbEntity
  8
外枠
  6
Continuous
 48
100.0
370
     9
100
AcDbLine
 10
1703.036540491541
 20
110.08511375945
 30
0.0
 11
1698.722727128541
 21
106.634063069062
 31
0.0
  0
LINE
  5
5E
330
2
100
AcDbEntity
  8
外枠
  6
Continuous
 48
100.0
370
     9
100
AcDbLine
 10
1653.436456870031
 20
142.8630792758676
 30
0.0
 11
1649.122643507042
 21
139.4120285854742
 31
0.0
  0
LINE
  5
5F
330
2
100
AcDbEntity
  8
外枠
  6
Continuous
 48
100.0
370
     9
100
AcDbLine
 10
1662.06408359602
 20
142.8630792758676
 30
0.0
 11
1666.377896959009
 21
139.4120285854742
 31
0.0
  0
LINE
  5
60
330
2
100
AcDbEntity
  8
外枠
  6
Continuous
 48
100.0
370
     9
100
AcDbLine
 10
1653.436456870031
 20
142.8630792758676
 30
0.0
 11
1657.750270233026
 21
139.4120285854742
 31
0.0
  0
LINE
  5
61
330
2
100
AcDbEntity
  8
外枠
  6
Continuous
 48
100.0
370
     9
100
AcDbLine
 10
1662.06408359602
 20
142.8630792758676
 30
0.0
 11
1657.750270233026
 21
139.4120285854742
 31
0.0
  0
MTEXT
  5
62
330
2
100
AcDbEntity
  8
外枠
  6
Continuous
 48
100.0
370
     9
100
AcDbMText
 10
1982.246612759803
 20
141.5312822365363
 30
0.0
 40
50.0
 41
269.1378
 71
     1
 72
     5
  1
宝 機 材
 73
     1
 44
1.0
1001
ACAD
1000
MTEXTBEGIN
1070
    73
1070
     1
1070
    44
1040
1.0
1070
    74
1070
     0
1000
MTEXTEND
  0
LINE
  5
63
330
2
100
AcDbEntity
  8
外枠
  6
Continuous
 48
100.0
370
     9
100
AcDbLine
 10
2694.775480668144
 20
78.59726492113622
 30
0.0
 11
2729.639779322774
 21
43.73296626650699
 31
0.0
  0
LINE
  5
64
330
2
100
AcDbEntity
  8
外枠
  6
Continuous
 48
100.0
370
     9
100
AcDbLine
 10
2729.639779322774
 20
113.4615635757691
 30
0.0
 11
2694.775480668144
 21
78.59726492113622
 31
0.0
  0
LINE
  5
66
330
2
100
AcDbEntity
  8
外枠
  6
Continuous
 48
100.0
370
     9
100
AcDbLine
 10
2271.730765417811
 20
155.3992728207995
 30
0.0
 11
2271.730765417811
 21
10.0
 31
0.0
  0
LINE
  5
67
330
2
100
AcDbEntity
  8
外枠
  6
Continuous
 48
100.0
370
     9
100
AcDbLine
 10
2387.385592047314
 20
155.3992728207995
 30
0.0
 11
2387.385592047314
 21
9.999999999996362
 31
0.0
  0
MTEXT
  5
68
330
2
100
AcDbEntity
  8
外枠
  6
Continuous
 48
100.0
370
     9
100
AcDbMText
 10
2518.897970034654
 20
80.52451510381798
 30
0.0
 40
16.435188
 41
274.138099993296
 71
     1
 72
     5
  1
縮尺（A4用紙)
 73
     1
 44
1.0
1001
ACAD
1000
MTEXTBEGIN
1070
    73
1070
     1
1070
    44
1040
1.0
1070
    74
1070
     0
1000
MTEXTEND
  0
LINE
  5
69
330
2
100
AcDbEntity
  8
外枠
  6
Continuous
 48
100.0
370
     9
100
AcDbLine
 10
2503.04041867681
 20
155.3992728207995
 30
0.0
 11
2503.04041867681
 21
9.999999999996362
 31
0.0
  0
LINE
  5
6A
330
2
100
AcDbEntity
  8
外枠
  6
Continuous
 48
100.0
370
     9
100
AcDbLine
 10
2676.662359028593
 20
155.3992728207995
 30
0.0
 11
2676.662359028593
 21
10.0
 31
0.0
  0
MTEXT
  5
6B
330
2
100
AcDbEntity
  8
外枠
  6
Continuous
 48
100.0
370
     9
100
AcDbMText
 10
2557.587330290393
 20
42.24161905183791
 30
0.0
 40
23.47884
 41
274.138099993296
 71
     1
 72
     5
  1
1：10
 73
     1
 44
1.0
1001
ACAD
1000
MTEXTBEGIN
1070
    73
1070
     1
1070
    44
1040
1.0
1070
    74
1070
     0
1000
MTEXTEND
  0
MTEXT
  5
6C
330
2
100
AcDbEntity
  8
外枠
  6
Continuous
 48
100.0
370
     9
100
AcDbMText
 10
2280.290404386422
 20
149.5129012429788
 30
0.0
 40
18.783072
 41
274.13809060176
 71
     1
 72
     5
  1
Check
 73
     1
 44
1.0
1001
ACAD
1000
MTEXTBEGIN
1070
    73
1070
     1
1070
    44
1040
1.0
1070
    74
1070
     0
1000
MTEXTEND
  0
MTEXT
  5
6D
330
2
100
AcDbEntity
  8
外枠
  6
Continuous
 48
100.0
370
     9
100
AcDbMText
 10
2398.03460165154
 20
149.5129012429788
 30
0.0
 40
18.783072
 41
274.13809060176
 71
     1
 72
     5
  1
Draw
 73
     1
 44
1.0
1001
ACAD
1000
MTEXTBEGIN
1070
    73
1070
     1
1070
    44
1040
1.0
1070
    74
1070
     0
1000
MTEXTEND
  0
LINE
  5
6F
330
2
100
AcDbEntity
  8
外枠
  6
Continuous
 48
100.0
370
     9
100
AcDbLine
 10
2676.662359028593
 20
85.04752041039683
 30
0.0
 11
2503.04041867681
 21
85.04752041039683
 31
0.0
  0
MTEXT
  5
70
330
2
100
AcDbEntity
  8
外枠
  6
Continuous
 48
100.0
370
     9
100
AcDbMText
 10
2518.897970034654
 20
153.7304166203976
 30
0.0
 40
16.435188
 41
274.138099993296
 71
     1
 72
     5
  1
図面作成日
 73
     1
 44
1.0
1001
ACAD
1000
MTEXTBEGIN
1070
    73
1070
     1
1070
    44
1040
1.0
1070
    74
1070
     0
1000
MTEXTEND
  0
LINE
  5
72
330
2
100
AcDbEntity
  8
外枠
  6
Continuous
 48
100.0
370
     9
100
AcDbLine
 10
2729.639779322774
 20
43.73296626650699
 30
0.0
 11
2764.504077977396
 21
78.59726492113622
 31
0.0
  0
LINE
  5
73
330
2
100
AcDbEntity
  8
外枠
  6
Continuous
 48
100.0
370
     9
100
AcDbLine
 10
2764.504077977396
 20
78.59726492113622
 30
0.0
 11
2729.639779322774
 21
113.4615635757691
 31
0.0
  0
LINE
  5
7F
330
2
100
AcDbEntity
  8
本体
  6
Continuous
100
AcDbLine
 10
533.7624618105738
 20
1610.751878390281
 30
0.0
 11
1528.762461810574
 21
1610.751878390281
 31
0.0
  0
LINE
  5
81
330
2
100
AcDbEntity
  8
本体
  6
Continuous
100
AcDbLine
 10
533.7624618105738
 20
1606.251878390281
 30
0.0
 11
1528.762461810574
 21
1606.251878390281
 31
0.0
  0
LINE
  5
82
330
2
100
AcDbEntity
  8
本体
  6
Continuous
100
AcDbLine
 10
533.7624618105738
 20
1558.251878390281
 30
0.0
 11
1528.762461810574
 21
1558.251878390281
 31
0.0
  0
LINE
  5
83
330
2
100
AcDbEntity
  8
本体
  6
Continuous
100
AcDbLine
 10
533.7624618105738
 20
1553.251878390281
 30
0.0
 11
1528.762461810574
 21
1553.251878390281
 31
0.0
  0
LINE
  5
84
330
2
100
AcDbEntity
  8
本体
  6
Continuous
100
AcDbLine
 10
533.7624618105738
 20
1458.251878390281
 30
0.0
 11
1528.762461810574
 21
1458.251878390281
 31
0.0
  0
LINE
  5
85
330
2
100
AcDbEntity
  8
本体
  6
Continuous
100
AcDbLine
 10
533.7624618105738
 20
1453.251878390281
 30
0.0
 11
1528.762461810574
 21
1453.251878390281
 31
0.0
  0
LINE
  5
8E
330
2
100
AcDbEntity
  8
本体
  6
Continuous
100
AcDbLine
 10
2009.072932310907
 20
1610.751878390281
 30
0.0
 11
2009.072932310907
 21
1606.251878390281
 31
0.0
  0
LINE
  5
8F
330
2
100
AcDbEntity
  8
本体
  6
Continuous
100
AcDbLine
 10
2009.072932310907
 20
1606.251878390281
 30
0.0
 11
2041.072932310907
 21
1606.251878390281
 31
0.0
  0
LINE
  5
90
330
2
100
AcDbEntity
  8
本体
  6
Continuous
100
AcDbLine
 10
2034.072932310907
 20
1606.251878390281
 30
0.0
 11
2034.072932310907
 21
1610.751878390281
 31
0.0
  0
LINE
  5
91
330
2
100
AcDbEntity
  8
本体
  6
Continuous
100
AcDbLine
 10
2034.072932310907
 20
1610.751878390281
 30
0.0
 11
2009.072932310907
 21
1610.751878390281
 31
0.0
  0
LINE
  5
92
330
2
100
AcDbEntity
  8
本体
  6
Continuous
100
AcDbLine
 10
2009.072932310907
 20
1205.251878390281
 30
0.0
 11
2041.072932310907
 21
1205.251878390281
 31
0.0
  0
LINE
  5
93
330
2
100
AcDbEntity
  8
本体
  6
Continuous
100
AcDbLine
 10
2034.072932310907
 20
1200.751878390281
 30
0.0
 11
2009.072932310907
 21
1200.751878390281
 31
0.0
  0
LINE
  5
94
330
2
100
AcDbEntity
  8
本体
  6
Continuous
100
AcDbLine
 10
2009.072932310907
 20
1200.751878390281
 30
0.0
 11
2009.072932310907
 21
1205.251878390281
 31
0.0
  0
LINE
  5
95
330
2
100
AcDbEntity
  8
本体
  6
Continuous
100
AcDbLine
 10
2034.072932310907
 20
1205.251878390281
 30
0.0
 11
2034.072932310907
 21
1200.751878390281
 31
0.0
  0
LINE
  5
96
330
2
100
AcDbEntity
  8
本体
  6
Continuous
100
AcDbLine
 10
2009.072932310907
 20
1606.251878390281
 30
0.0
 11
2009.072932310907
 21
1205.251878390281
 31
0.0
  0
LINE
  5
97
330
2
100
AcDbEntity
  8
本体
  6
Continuous
100
AcDbLine
 10
2041.072932310907
 20
1606.251878390281
 30
0.0
 11
2041.072932310907
 21
1205.251878390281
 31
0.0
  0
DIMENSION
  5
A3
330
2
100
AcDbEntity
  8
寸法線
  6
Continuous
100
AcDbDimension
  2
*D3
 10
1909.129262262274
 20
1455.751878390281
 30
0.0
 11
1889.129262262274
 21
1505.751878390281
 31
0.0
 70
    32
 71
     5
 42
-1.0
  3
ISO-25
100
AcDbAlignedDimension
 13
2009.072932310907
 23
1555.751878390281
 33
0.0
 14
2009.072932310907
 24
1455.751878390281
 34
0.0
 50
90.0
100
AcDbRotatedDimension
  0
DIMENSION
  5
B1
330
2
100
AcDbEntity
  8
寸法線
  6
Continuous
100
AcDbDimension
  2
*D4
 10
1809.085510378927
 20
1200.751878390281
 30
0.0
 11
1789.085510378927
 21
1405.751878390281
 31
0.0
 70
    32
 71
     5
 42
-1.0
  3
ISO-25
100
AcDbAlignedDimension
 13
2009.072932310907
 23
1610.751878390281
 33
0.0
 14
2009.072932310907
 24
1200.751878390281
 34
0.0
 50
90.0
100
AcDbRotatedDimension
  0
DIMENSION
  5
BE
330
2
100
AcDbEntity
  8
寸法線
  6
Continuous
100
AcDbDimension
  2
*D5
 10
2190.953850818784
 20
1210.751877390281
 30
0.0
 11
2170.953850818784
 21
1405.751878390281
 31
0.0
 70
    32
 71
     5
 42
-1.0
  3
ISO-25
100
AcDbAlignedDimension
 13
2098.072929310907
 23
1600.751879390281
 33
0.0
 14
2098.072929310907
 24
1210.751877390281
 34
0.0
 50
90.0
100
AcDbRotatedDimension
  0
LEADER
  5
CB
330
2
100
AcDbEntity
  8
寸法線
  6
Continuous
100
AcDbLeader
  3
ISO-25
 73
     0
 74
     0
 75
     1
 40
30.0
 41
171.1675126903553
 76
     3
 10
1527.431119015506
 20
1610.751878390281
 30
0.0
 10
1583.141797134161
 20
1681.462556508936
 30
0.0
 10
1598.141797134161
 20
1681.462556508936
 30
0.0
340
CC
1001
ACAD
1000
DSTYLE
1002
{
1070
     5
1000
OPEN30
1070
    77
1070
     1
1070
   147
1040
0.5
1070
   342
1005
99
1002
}
  0
MTEXT
  5
CC
102
{ACAD_REACTORS
330
CB
102
}
330
2
100
AcDbEntity
  8
寸法線
  6
Continuous
100
AcDbMText
 10
1603.141797134162
 20
1686.462556508936
 30
0.0
 40
30.0
 41
0.0
 71
     7
 72
     1
  1
FB4.5\U+00D725
 73
     1
 44
1.0
1001
ACAD
1000
MTEXTBEGIN
1070
    73
1070
     1
1070
    44
1040
1.0
1070
    74
1070
     0
1000
MTEXTEND
  0
LEADER
  5
CD
330
2
100
AcDbEntity
  8
寸法線
  6
Continuous
100
AcDbLeader
  3
ISO-25
 73
     0
 74
     0
 75
     1
 40
30.0
 41
230.2538071065989
 76
     3
 10
2063.572929310907
 20
1600.751879390281
 30
0.0
 10
2138.283606429562
 20
1681.462556508936
 30
0.0
 10
2153.283606429562
 20
1681.462556508936
 30
0.0
340
CE
1001
ACAD
1000
DSTYLE
1002
{
1070
     5
1000
OPEN30
1070
    77
1070
     1
1070
   147
1040
0.5
1070
   342
1005
99
1002
}
  0
MTEXT
  5
CE
102
{ACAD_REACTORS
330
CD
102
}
330
2
100
AcDbEntity
  8
寸法線
  6
Continuous
100
AcDbMText
 10
2158.283606429562
 20
1686.462556508936
 30
0.0
 40
30.0
 41
0.0
 71
     7
 72
     1
  1
P2.3\U+00D760\U+00D740
 73
     1
 44
1.0
1001
ACAD
1000
MTEXTBEGIN
1070
    73
1070
     1
1070
    44
1040
1.0
1070
    74
1070
     0
1000
MTEXTEND
  0
LINE
  5
CF
330
2
100
AcDbEntity
  8
嵩上断面
  6
Continuous
100
AcDbLine
 10
536.2624618105737
 20
677.3613396332453
 30
0.0
 11
536.2624618105737
 21
617.3613396332451
 31
0.0
  0
LINE
  5
D0
330
2
100
AcDbEntity
  8
嵩上断面
  6
Continuous
100
AcDbLine
 10
1526.262461810573
 20
677.3613396332453
 30
0.0
 11
1526.262461810574
 21
617.3613396332451
 31
0.0
  0
LINE
  5
D1
330
2
100
AcDbEntity
  8
嵩上断面
  6
Continuous
100
AcDbLine
 10
1526.262461810573
 20
677.3613396332453
 30
0.0
 11
536.2624618105737
 21
677.3613396332453
 31
0.0
  0
LINE
  5
D2
330
2
100
AcDbEntity
  8
嵩上断面
  6
HIDDEN
 48
2.0
100
AcDbLine
 10
1526.262461810573
 20
675.0613396332452
 30
0.0
 11
536.2624618105737
 21
675.0613396332452
 31
0.0
  0
LINE
  5
D4
330
2
100
AcDbEntity
  8
嵩上断面
  6
HIDDEN
 48
2.0
100
AcDbLine
 10
1526.262461810573
 20
619.6613396332453
 30
0.0
 11
536.2624618105737
 21
619.6613396332453
 31
0.0
  0
DIMENSION
  5
D5
330
2
100
AcDbEntity
  8
寸法線
  6
Continuous
100
AcDbDimension
  2
*D6
 10
1526.262461810573
 20
465.4814186254857
 30
0.0
 11
1031.262461810574
 21
485.4814186254857
 31
0.0
 70
    32
 71
     5
 42
-1.0
  3
ISO-25
100
AcDbAlignedDimension
 13
536.2624618105737
 23
617.3613396332452
 33
0.0
 14
1526.262461810573
 24
617.3613396332452
 34
0.0
100
AcDbRotatedDimension
  0
LINE
  5
E2
330
2
100
AcDbEntity
  8
中心線
  6
Continuous
100
AcDbLine
 10
1301.237143810574
 20
723.3613396332453
 30
0.0
 11
1301.237143810574
 21
669.3613396332453
 31
0.0
  0
LINE
  5
E3
330
2
100
AcDbEntity
  8
中心線
  6
Continuous
100
AcDbLine
 10
1313.794105810573
 20
723.3613396332453
 30
0.0
 11
1313.794105810573
 21
669.3613396332453
 31
0.0
  0
INSERT
  5
E7
330
2
100
AcDbEntity
  8
本体
  6
Continuous
100
AcDbBlockReference
  2
TB6
 10
2009.072932310907
 20
1555.751878390281
 30
0.0
  0
INSERT
  5
F0
330
2
100
AcDbEntity
  8
本体
  6
Continuous
100
AcDbBlockReference
  2
TB6
 10
2009.072932310907
 20
1455.751878390281
 30
0.0
  0
INSERT
  5
F1
330
2
100
AcDbEntity
  8
本体
  6
Continuous
100
AcDbBlockReference
  2
TB6
 10
2009.072932310907
 20
1255.751878390281
 30
0.0
  0
LINE
  5
113
330
2
100
AcDbEntity
  8
本体
  6
Continuous
100
AcDbLine
 10
533.7624618105738
 20
1353.251878390281
 30
0.0
 11
1528.762461810574
 21
1353.251878390281
 31
0.0
  0
LINE
  5
114
330
2
100
AcDbEntity
  8
本体
  6
Continuous
100
AcDbLine
 10
533.7624618105738
 20
1358.251878390281
 30
0.0
 11
1528.762461810574
 21
1358.251878390281
 31
0.0
  0
LINE
  5
119
330
2
100
AcDbEntity
  8
本体
  6
Continuous
100
AcDbLine
 10
533.7624618105738
 20
1205.251878390281
 30
0.0
 11
1528.762461810574
 21
1205.251878390281
 31
0.0
  0
LINE
  5
11A
330
2
100
AcDbEntity
  8
本体
  6
Continuous
100
AcDbLine
 10
533.7624618105738
 20
1200.751878390281
 30
0.0
 11
1528.762461810574
 21
1200.751878390281
 31
0.0
  0
LWPOLYLINE
  5
127
330
2
100
AcDbEntity
  8
本体
  6
Continuous
100
AcDbPolyline
 90
        4
 70
     1
 43
0.0
 10
533.7624618105738
 20
709.3613396332452
 10
536.7624618105737
 20
709.3613396332452
 10
536.7624618105737
 20
677.3613396332453
 10
533.7624618105738
 20
677.3613396332453
  0
LWPOLYLINE
  5
128
330
2
100
AcDbEntity
  8
本体
  6
Continuous
100
AcDbPolyline
 90
        4
 70
     1
 43
0.0
 10
1525.762461810574
 20
709.3613396332452
 10
1528.762461810574
 20
709.3613396332452
 10
1528.762461810574
 20
677.3613396332453
 10
1525.762461810574
 20
677.3613396332453
  0
LINE
  5
129
330
2
100
AcDbEntity
  8
本体
  6
Continuous
100
AcDbLine
 10
533.7624618105738
 20
1258.251878390281
 30
0.0
 11
1528.762461810574
 21
1258.251878390281
 31
0.0
  0
LINE
  5
12A
330
2
100
AcDbEntity
  8
本体
  6
Continuous
100
AcDbLine
 10
533.7624618105738
 20
1253.251878390281
 30
0.0
 11
1528.762461810574
 21
1253.251878390281
 31
0.0
  0
INSERT
  5
131
330
2
100
AcDbEntity
  8
本体
  6
Continuous
100
AcDbBlockReference
  2
TB6
 10
2009.072932310907
 20
1355.751878390281
 30
0.0
  0
LINE
  5
526
330
2
100
AcDbEntity
  8
本体
  6
Continuous
100
AcDbLine
 10
1516.205499810574
 20
709.3613396332452
 30
0.0
 11
1525.762461810574
 21
709.3613396332452
 31
0.0
  0
LINE
  5
527
330
2
100
AcDbEntity
  8
本体
  6
Continuous
100
AcDbLine
 10
1516.205499810574
 20
703.3613396332452
 30
0.0
 11
1525.762461810574
 21
703.3613396332452
 31
0.0
  0
DIMENSION
  5
528
330
2
100
AcDbEntity
  8
寸法線
  6
Continuous
100
AcDbDimension
  2
*D7
 10
533.7624618105738
 20
860.0720177519001
 30
0.0
 11
1031.262461810574
 21
860.0720177519001
 31
0.0
 70
   160
 71
     5
 42
995.0
  3
ISO-25
100
AcDbAlignedDimension
 13
1528.762461810574
 23
709.3613396332452
 33
0.0
 14
533.7624618105738
 24
709.3613396332452
 34
0.0
100
AcDbRotatedDimension
1001
ACAD
1000
DSTYLE
1002
{
1070
   279
1070
     0
1002
}
  0
LINE
  5
53E
330
2
100
AcDbEntity
  8
嵩上断面
  6
Continuous
100
AcDbLine
 10
536.2624618105737
 20
617.3613396332452
 30
0.0
 11
1526.262461810573
 21
617.3613396332452
 31
0.0
  0
DIMENSION
  5
540
330
2
100
AcDbEntity
  8
寸法線
  6
Continuous
100
AcDbDimension
  2
*D8
 10
1625.527085734337
 20
709.3613396332452
 30
0.0
 11
1605.527085734337
 21
761.9501721205551
 31
0.0
 70
    32
 71
     5
 42
-1.0
  3
ISO-25
100
AcDbAlignedDimension
 13
1528.762461810574
 23
677.3613396332453
 33
0.0
 14
1528.762461810574
 24
709.3613396332452
 34
0.0
 50
90.0
100
AcDbRotatedDimension
  0
DIMENSION
  5
54F
330
2
100
AcDbEntity
  8
寸法線
  6
Continuous
100
AcDbDimension
  2
*D9
 10
1706.941940471122
 20
709.3613396332452
 30
0.0
 11
1686.941940471122
 21
663.3613396332455
 31
0.0
 70
    32
 71
     5
 42
-1.0
  3
ISO-25
100
AcDbAlignedDimension
 13
1526.262461810573
 23
617.3613396332452
 33
0.0
 14
1525.762461810574
 24
709.3613396332452
 34
0.0
 50
90.0
100
AcDbRotatedDimension
  0
LINE
  5
67D
330
2
100
AcDbEntity
  8
本体
  6
Continuous
100
AcDbLine
 10
1516.205497810573
 20
703.3613396332452
 30
0.0
 11
1525.762459810573
 21
709.3613396332452
 31
0.0
  0
DIMENSION
  5
21FF
330
2
100
AcDbEntity
  8
寸法線
 48
3.0
100
AcDbDimension
  2
*D10
 10
1625.527085734337
 20
677.3613396332453
 30
0.0
 11
1605.527085734337
 21
647.3613396332455
 31
0.0
 70
    32
 71
     5
 42
-1.0
  3
ISO-25
100
AcDbAlignedDimension
 13
1526.262461810573
 23
617.3613396332452
 33
0.0
 14
1528.762461810574
 24
677.3613396332453
 34
0.0
 50
90.0
100
AcDbRotatedDimension
  0
LINE
  5
226D
330
2
100
AcDbEntity
  8
嵩上平面
  6
HIDDEN
 48
3.0
370
     9
100
AcDbLine
 10
536.2624618105737
 20
1600.751879390281
 30
0.0
 11
1526.262461810573
 21
1600.751879390281
 31
0.0
  0
LINE
  5
226E
330
2
100
AcDbEntity
  8
嵩上平面
  6
HIDDEN
 48
3.0
370
     9
100
AcDbLine
 10
536.2624618105737
 20
1560.751879390281
 30
0.0
 11
1526.262461810573
 21
1560.751879390281
 31
0.0
  0
LINE
  5
226F
330
2
100
AcDbEntity
  8
嵩上平面
  6
HIDDEN
 48
3.0
370
     9
100
AcDbLine
 10
536.2624618105737
 20
1250.751877390281
 30
0.0
 11
1526.262461810573
 21
1250.751877390281
 31
0.0
  0
LINE
  5
2270
330
2
100
AcDbEntity
  8
嵩上平面
  6
HIDDEN
 48
3.0
370
     9
100
AcDbLine
 10
536.2624618105737
 20
1210.751877390281
 30
0.0
 11
1526.262461810573
 21
1210.751877390281
 31
0.0
  0
LINE
  5
2271
330
2
100
AcDbEntity
  8
嵩上平面
  6
HIDDEN
 48
3.0
370
     9
100
AcDbLine
 10
1526.262461810573
 20
1210.751877390281
 30
0.0
 11
1526.262461810573
 21
1250.751877390281
 31
0.0
  0
LINE
  5
2272
330
2
100
AcDbEntity
  8
嵩上平面
  6
HIDDEN
 48
3.0
370
     9
100
AcDbLine
 10
536.2624618105737
 20
1210.751877390281
 30
0.0
 11
536.2624618105737
 21
1250.751877390281
 31
0.0
  0
LINE
  5
2273
330
2
100
AcDbEntity
  8
嵩上平面
  6
HIDDEN
 48
3.0
370
     9
100
AcDbLine
 10
536.2624618105737
 20
1560.751879390281
 30
0.0
 11
536.2624618105737
 21
1600.751879390281
 31
0.0
  0
LINE
  5
2274
330
2
100
AcDbEntity
  8
嵩上平面
  6
HIDDEN
 48
3.0
370
     9
100
AcDbLine
 10
1526.262461810573
 20
1560.751879390281
 30
0.0
 11
1526.262461810573
 21
1600.751879390281
 31
0.0
  0
MTEXT
  5
23F8
330
2
100
AcDbEntity
  8
外枠
  6
Continuous
 48
100.0
370
     9
100
AcDbMText
 10
1022.193186254242
 20
77.61017986570005
 30
0.0
 40
18.0
 41
122.0406
 71
     1
 72
     5
  1
【主部材】
 73
     1
 44
1.0
1001
ACAD
1000
MTEXTBEGIN
1070
    73
1070
     1
1070
    44
1040
1.0
1070
    74
1070
     0
1000
MTEXTEND
  0
MTEXT
  5
23F9
330
2
100
AcDbEntity
  8
外枠
  6
Continuous
 48
100.0
370
     9
100
AcDbMText
 10
1038.975343934131
 20
43.7816999552906
 30
0.0
 40
25.0
 41
122.0406
 71
     1
 72
     5
  1
SS400
 73
     1
 44
1.0
1001
ACAD
1000
MTEXTBEGIN
1070
    73
1070
     1
1070
    44
1040
1.0
1070
    74
1070
     0
1000
MTEXTEND
  0
MTEXT
  5
23FA
330
2
100
AcDbEntity
  8
外枠
  6
Continuous
 48
100.0
370
     9
100
AcDbMText
 10
1202.677957061338
 20
120.1377642323778
 30
0.0
 40
25.0
 41
1015.1375
 71
     1
 72
     5
  1
溶融亜鉛めっき仕上
 73
     1
 44
1.0
1001
ACAD
1000
MTEXTBEGIN
1070
    73
1070
     1
1070
    44
1040
1.0
1070
    74
1070
     0
1000
MTEXTEND
  0
MTEXT
  5
23FB
330
2
100
AcDbEntity
  8
外枠
  6
Continuous
 48
100.0
370
     9
100
AcDbMText
 10
1199.761738767627
 20
151.0819879350613
 30
0.0
 40
18.0
 41
301.8661
 71
     1
 72
     5
  1
【グレーチング】JIS　H8641
 73
     1
 44
1.0
1001
ACAD
1000
MTEXTBEGIN
1070
    73
1070
     1
1070
    44
1040
1.0
1070
    74
1070
     0
1000
MTEXTEND
  0
MTEXT
  5
23FC
330
2
100
AcDbEntity
  8
外枠
  6
Continuous
 48
100.0
370
     9
100
AcDbMText
 10
1159.385398923399
 20
148.6111115828462
 30
0.0
 40
20.0
 41
1015.1375
 71
     1
 72
     5
  1
表\P面\P処\P理
 73
     1
 44
1.0
1001
ACAD
1000
MTEXTBEGIN
1070
    73
1070
     1
1070
    44
1040
1.0
1070
    74
1070
     0
1000
MTEXTEND
  0
LINE
  5
23FD
330
2
100
AcDbEntity
  8
外枠
  6
Continuous
 48
100.0
370
     9
100
AcDbLine
 10
1188.531791166651
 20
155.3992728207959
 30
0.0
 11
1188.531791166651
 21
9.999999999992724
 31
0.0
  0
LINE
  5
23FE
330
2
100
AcDbEntity
  8
外枠
  6
Continuous
 48
100.0
370
     9
100
AcDbLine
 10
1153.531306970095
 20
155.3992728207959
 30
0.0
 11
1153.531306970095
 21
9.999999999992724
 31
0.0
  0
LINE
  5
23FF
330
2
100
AcDbEntity
  8
外枠
 48
3.0
100
AcDbLine
 10
1188.531791166651
 20
82.6996364103943
 30
0.0
 11
1593.951336296073
 21
82.6996364103943
 31
0.0
  0
LINE
  5
2455
330
2
100
AcDbEntity
  8
本体
  6
Continuous
100
AcDbLine
 10
1516.205499810574
 20
684.3613396332452
 30
0.0
 11
1525.762461810574
 21
684.3613396332452
 31
0.0
  0
MTEXT
  5
2504
330
2
100
AcDbEntity
  8
外枠
  6
Continuous
 48
100.0
370
     9
100
AcDbMText
 10
2509.985545378613
 20
121.2206105686568
 30
0.0
 40
23.47884
 41
274.1381
 71
     1
 72
     5
  1
'14・09・01
 73
     1
 44
1.0
1001
ACAD
1000
MTEXTBEGIN
1070
    73
1070
     1
1070
    44
1040
1.0
1070
    74
1070
     0
1000
MTEXTEND
  0
INSERT
  5
25DA
330
2
100
AcDbEntity
  8
嵩上断面
 48
3.0
100
AcDbBlockReference
  2
P-H60
 10
2041.072932310907
 20
1600.751879390281
 30
0.0
  0
INSERT
  5
25DB
330
2
100
AcDbEntity
  8
嵩上断面
 48
3.0
100
AcDbBlockReference
  2
P-H60
 10
2041.072932310907
 20
1210.751877390281
 30
0.0
 41
-1.0
 50
180.0
  0
MTEXT
  5
2612
330
2
100
AcDbEntity
  8
外枠
  6
Continuous
100
AcDbMText
 10
2427.938927859905
 20
67.25039165302274
 30
0.0
 40
28.17460800000001
 41
43.8527
 71
     1
 72
     5
  1
{\fHG正楷書体-PRO|b0|i0|c128|p65;水}
 73
     1
 44
1.0
1001
ACAD
1000
MTEXTBEGIN
1070
    73
1070
     1
1070
    44
1040
1.0
1070
    74
1070
     0
1000
MTEXTEND
  0
MTEXT
  5
2613
330
2
100
AcDbEntity
  8
外枠
  6
Continuous
100
AcDbMText
 10
2427.938927859905
 20
109.7804165221501
 30
0.0
 40
28.17460800000001
 41
43.8527
 71
     1
 72
     5
  1
{\fHG正楷書体-PRO|b0|i0|c128|p65;清}
 73
     1
 44
1.0
1001
ACAD
1000
MTEXTBEGIN
1070
    73
1070
     1
1070
    44
1040
1.0
1070
    74
1070
     0
1000
MTEXTEND
  0
ELLIPSE
  5
2614
330
2
100
AcDbEntity
  8
外枠
  6
Continuous
100
AcDbEllipse
 10
2449.066278910865
 20
70.80064248893592
 30
0.0
 11
0.0
 21
-47.8594442149426
 31
0.0
210
0.0
220
0.0
230
1.0
 40
0.7999999999999857
 41
0.0
 42
6.283185307179586
  0
INSERT
  5
26E4
330
2
100
AcDbEntity
  8
本体
 48
3.0
100
AcDbBlockReference
  2
鎌下
 10
2271.730765417811
 20
155.3992728207995
 30
0.0
  0
INSERT
  5
278E
330
2
100
AcDbEntity
  8
本体
 48
3.0
100
AcDbBlockReference
  2
GFB新
 10
2780.119625023061
 20
160.0950408207973
 30
0.0
  0
INSERT
  5
279C
102
{ACAD_REACTORS
330
27AD
102
}
330
2
100
AcDbEntity
  8
本体
100
AcDbBlockReference
  2
*U26
 10
549.3224618105736
 20
709.3613396332452
 30
0.0
  0
LINE
  5
280A
330
2
100
AcDbEntity
  8
本体
  6
Continuous
100
AcDbLine
 10
1528.762461810574
 20
1606.251878390281
 30
0.0
 11
1528.762461810574
 21
1558.251878390281
 31
0.0
  0
LINE
  5
280B
330
2
100
AcDbEntity
  8
本体
  6
Continuous
100
AcDbLine
 10
1525.762461810574
 20
1606.251878390281
 30
0.0
 11
1525.762461810574
 21
1558.251878390281
 31
0.0
  0
LINE
  5
280C
330
2
100
AcDbEntity
  8
本体
  6
Continuous
100
AcDbLine
 10
1528.762461810574
 20
1553.251878390281
 30
0.0
 11
1528.762461810574
 21
1458.251878390281
 31
0.0
  0
LINE
  5
280D
330
2
100
AcDbEntity
  8
本体
  6
Continuous
100
AcDbLine
 10
1525.762461810574
 20
1553.251878390281
 30
0.0
 11
1525.762461810574
 21
1458.251878390281
 31
0.0
  0
LINE
  5
280E
330
2
100
AcDbEntity
  8
本体
  6
Continuous
100
AcDbLine
 10
1525.762461810574
 20
1453.251878390281
 30
0.0
 11
1525.762461810574
 21
1358.251878390281
 31
0.0
  0
LINE
  5
280F
330
2
100
AcDbEntity
  8
本体
  6
Continuous
100
AcDbLine
 10
1528.762461810574
 20
1453.251878390281
 30
0.0
 11
1528.762461810574
 21
1358.251878390281
 31
0.0
  0
LINE
  5
2810
330
2
100
AcDbEntity
  8
本体
  6
Continuous
100
AcDbLine
 10
1528.762461810574
 20
1353.251878390281
 30
0.0
 11
1528.762461810574
 21
1258.251878390281
 31
0.0
  0
LINE
  5
2811
330
2
100
AcDbEntity
  8
本体
  6
Continuous
100
AcDbLine
 10
1525.762461810574
 20
1353.251878390281
 30
0.0
 11
1525.762461810574
 21
1258.251878390281
 31
0.0
  0
LINE
  5
2812
330
2
100
AcDbEntity
  8
本体
  6
Continuous
100
AcDbLine
 10
1528.762461810574
 20
1205.251878390281
 30
0.0
 11
1528.762461810574
 21
1253.251878390281
 31
0.0
  0
LINE
  5
2813
330
2
100
AcDbEntity
  8
本体
  6
Continuous
100
AcDbLine
 10
1525.762461810574
 20
1205.251878390281
 30
0.0
 11
1525.762461810574
 21
1253.251878390281
 31
0.0
  0
LINE
  5
2814
330
2
100
AcDbEntity
  8
本体
  6
Continuous
100
AcDbLine
 10
1513.205499810573
 20
1553.251878390281
 30
0.0
 11
1525.762461810574
 21
1558.251878390281
 31
0.0
  0
LINE
  5
2815
330
2
100
AcDbEntity
  8
本体
  6
Continuous
100
AcDbLine
 10
1513.205499810573
 20
1453.251878390281
 30
0.0
 11
1525.762461810574
 21
1458.251878390281
 31
0.0
  0
LINE
  5
2816
330
2
100
AcDbEntity
  8
本体
  6
Continuous
100
AcDbLine
 10
1513.205499810573
 20
1353.251878390281
 30
0.0
 11
1525.762461810574
 21
1358.251878390281
 31
0.0
  0
LINE
  5
2817
330
2
100
AcDbEntity
  8
本体
  6
Continuous
100
AcDbLine
 10
1513.205499810573
 20
1253.251878390281
 30
0.0
 11
1525.762461810574
 21
1258.251878390281
 31
0.0
  0
LINE
  5
2818
330
2
100
AcDbEntity
  8
エンボス
  6
Continuous
100
AcDbLine
 10
1528.762463010574
 20
1212.158518659875
 30
0.0
 11
1525.762463010574
 21
1213.358518659875
 31
0.0
  0
LINE
  5
2819
330
2
100
AcDbEntity
  8
エンボス
  6
Continuous
100
AcDbLine
 10
1525.762463010574
 20
1207.958518659875
 30
0.0
 11
1528.762463010574
 21
1206.758518659875
 31
0.0
  0
LINE
  5
281A
330
2
100
AcDbEntity
  8
エンボス
  6
Continuous
100
AcDbLine
 10
1525.762463010574
 20
1215.158518659875
 30
0.0
 11
1528.762463010574
 21
1216.358518659875
 31
0.0
  0
LINE
  5
281B
330
2
100
AcDbEntity
  8
エンボス
  6
Continuous
100
AcDbLine
 10
1525.762463010574
 20
1224.758518659875
 30
0.0
 11
1528.762463010574
 21
1223.558518659875
 31
0.0
  0
LINE
  5
281C
330
2
100
AcDbEntity
  8
エンボス
  6
Continuous
100
AcDbLine
 10
1528.762463010574
 20
1221.758518659875
 30
0.0
 11
1525.762463010574
 21
1220.558518659875
 31
0.0
  0
LINE
  5
281D
330
2
100
AcDbEntity
  8
エンボス
  6
Continuous
100
AcDbLine
 10
1525.762463010574
 20
1231.958518659875
 30
0.0
 11
1528.762463010574
 21
1233.158518659875
 31
0.0
  0
LINE
  5
281E
330
2
100
AcDbEntity
  8
エンボス
  6
Continuous
100
AcDbLine
 10
1528.762463010574
 20
1228.958518659875
 30
0.0
 11
1525.762463010574
 21
1230.158518659875
 31
0.0
  0
LINE
  5
281F
330
2
100
AcDbEntity
  8
エンボス
  6
Continuous
100
AcDbLine
 10
1528.762463010574
 20
1238.558518659875
 30
0.0
 11
1525.762463010574
 21
1237.358518659875
 31
0.0
  0
LINE
  5
2820
330
2
100
AcDbEntity
  8
エンボス
  6
Continuous
100
AcDbLine
 10
1525.762463010574
 20
1241.558518659875
 30
0.0
 11
1528.762463010574
 21
1240.358518659875
 31
0.0
  0
LINE
  5
2821
330
2
100
AcDbEntity
  8
エンボス
  6
Continuous
100
AcDbLine
 10
1525.762463010574
 20
1248.758518659875
 30
0.0
 11
1528.762463010574
 21
1249.958518659875
 31
0.0
  0
LINE
  5
2822
330
2
100
AcDbEntity
  8
エンボス
  6
Continuous
100
AcDbLine
 10
1528.762463010574
 20
1245.758518659875
 30
0.0
 11
1525.762463010574
 21
1246.958518659875
 31
0.0
  0
LINE
  5
2823
330
2
100
AcDbEntity
  8
エンボス
  6
Continuous
100
AcDbLine
 10
1525.762463010574
 20
1280.93351463739
 30
0.0
 11
1528.762463010574
 21
1282.13351463739
 31
0.0
  0
LINE
  5
2824
330
2
100
AcDbEntity
  8
エンボス
  6
Continuous
100
AcDbLine
 10
1528.762463010574
 20
1287.53351463739
 30
0.0
 11
1525.762463010574
 21
1286.33351463739
 31
0.0
  0
LINE
  5
2825
330
2
100
AcDbEntity
  8
エンボス
  6
Continuous
100
AcDbLine
 10
1525.762463010574
 20
1290.53351463739
 30
0.0
 11
1528.762463010574
 21
1289.33351463739
 31
0.0
  0
LINE
  5
2826
330
2
100
AcDbEntity
  8
エンボス
  6
Continuous
100
AcDbLine
 10
1525.762463010574
 20
1273.73351463739
 30
0.0
 11
1528.762463010574
 21
1272.53351463739
 31
0.0
  0
LINE
  5
2827
330
2
100
AcDbEntity
  8
エンボス
  6
Continuous
100
AcDbLine
 10
1528.762463010574
 20
1270.73351463739
 30
0.0
 11
1525.762463010574
 21
1269.53351463739
 31
0.0
  0
LINE
  5
2828
330
2
100
AcDbEntity
  8
エンボス
  6
Continuous
100
AcDbLine
 10
1528.762463010574
 20
1261.13351463739
 30
0.0
 11
1525.762463010574
 21
1262.33351463739
 31
0.0
  0
LINE
  5
2829
330
2
100
AcDbEntity
  8
エンボス
  6
Continuous
100
AcDbLine
 10
1525.762463010574
 20
1264.13351463739
 30
0.0
 11
1528.762463010574
 21
1265.33351463739
 31
0.0
  0
LINE
  5
282A
330
2
100
AcDbEntity
  8
エンボス
  6
Continuous
100
AcDbLine
 10
1528.762463010574
 20
1277.93351463739
 30
0.0
 11
1525.762463010574
 21
1279.13351463739
 31
0.0
  0
LINE
  5
282B
330
2
100
AcDbEntity
  8
エンボス
  6
Continuous
100
AcDbLine
 10
1528.762463010574
 20
1328.958518659875
 30
0.0
 11
1525.762463010574
 21
1330.158518659875
 31
0.0
  0
LINE
  5
282C
330
2
100
AcDbEntity
  8
エンボス
  6
Continuous
100
AcDbLine
 10
1525.762463010574
 20
1324.758518659875
 30
0.0
 11
1528.762463010574
 21
1323.558518659875
 31
0.0
  0
LINE
  5
282D
330
2
100
AcDbEntity
  8
エンボス
  6
Continuous
100
AcDbLine
 10
1528.762463010574
 20
1321.758518659875
 30
0.0
 11
1525.762463010574
 21
1320.558518659875
 31
0.0
  0
LINE
  5
282E
330
2
100
AcDbEntity
  8
エンボス
  6
Continuous
100
AcDbLine
 10
1528.762463010574
 20
1312.158518659875
 30
0.0
 11
1525.762463010574
 21
1313.358518659875
 31
0.0
  0
LINE
  5
282F
330
2
100
AcDbEntity
  8
エンボス
  6
Continuous
100
AcDbLine
 10
1525.762463010574
 20
1298.358518659875
 30
0.0
 11
1528.762463010574
 21
1299.558518659875
 31
0.0
  0
LINE
  5
2830
330
2
100
AcDbEntity
  8
エンボス
  6
Continuous
100
AcDbLine
 10
1528.762463010574
 20
1295.358518659875
 30
0.0
 11
1525.762463010574
 21
1296.558518659875
 31
0.0
  0
LINE
  5
2831
330
2
100
AcDbEntity
  8
エンボス
  6
Continuous
100
AcDbLine
 10
1528.762463010574
 20
1304.958518659875
 30
0.0
 11
1525.762463010574
 21
1303.758518659875
 31
0.0
  0
LINE
  5
2832
330
2
100
AcDbEntity
  8
エンボス
  6
Continuous
100
AcDbLine
 10
1525.762463010574
 20
1307.958518659875
 30
0.0
 11
1528.762463010574
 21
1306.758518659875
 31
0.0
  0
LINE
  5
2833
330
2
100
AcDbEntity
  8
エンボス
  6
Continuous
100
AcDbLine
 10
1525.762463010574
 20
1315.158518659875
 30
0.0
 11
1528.762463010574
 21
1316.358518659875
 31
0.0
  0
LINE
  5
2834
330
2
100
AcDbEntity
  8
エンボス
  6
Continuous
100
AcDbLine
 10
1525.762463010574
 20
1331.958518659875
 30
0.0
 11
1528.762463010574
 21
1333.158518659875
 31
0.0
  0
LINE
  5
2835
330
2
100
AcDbEntity
  8
エンボス
  6
Continuous
100
AcDbLine
 10
1528.762463010574
 20
1338.558518659875
 30
0.0
 11
1525.762463010574
 21
1337.358518659875
 31
0.0
  0
LINE
  5
2836
330
2
100
AcDbEntity
  8
エンボス
  6
Continuous
100
AcDbLine
 10
1525.762463010574
 20
1341.558518659875
 30
0.0
 11
1528.762463010574
 21
1340.358518659875
 31
0.0
  0
LINE
  5
2837
330
2
100
AcDbEntity
  8
エンボス
  6
Continuous
100
AcDbLine
 10
1525.762463010574
 20
1348.758518659875
 30
0.0
 11
1528.762463010574
 21
1349.958518659875
 31
0.0
  0
LINE
  5
2838
330
2
100
AcDbEntity
  8
エンボス
  6
Continuous
100
AcDbLine
 10
1528.762463010574
 20
1345.758518659875
 30
0.0
 11
1525.762463010574
 21
1346.958518659875
 31
0.0
  0
LINE
  5
2839
330
2
100
AcDbEntity
  8
エンボス
  6
Continuous
100
AcDbLine
 10
1528.762463010574
 20
1361.13351463739
 30
0.0
 11
1525.762463010574
 21
1362.33351463739
 31
0.0
  0
LINE
  5
283A
330
2
100
AcDbEntity
  8
エンボス
  6
Continuous
100
AcDbLine
 10
1525.762463010574
 20
1364.13351463739
 30
0.0
 11
1528.762463010574
 21
1365.33351463739
 31
0.0
  0
LINE
  5
283B
330
2
100
AcDbEntity
  8
エンボス
  6
Continuous
100
AcDbLine
 10
1525.762463010574
 20
1441.558518659875
 30
0.0
 11
1528.762463010574
 21
1440.358518659875
 31
0.0
  0
LINE
  5
283C
330
2
100
AcDbEntity
  8
エンボス
  6
Continuous
100
AcDbLine
 10
1528.762463010574
 20
1404.958518659875
 30
0.0
 11
1525.762463010574
 21
1403.758518659875
 31
0.0
  0
LINE
  5
283D
330
2
100
AcDbEntity
  8
エンボス
  6
Continuous
100
AcDbLine
 10
1525.762463010574
 20
1380.93351463739
 30
0.0
 11
1528.762463010574
 21
1382.13351463739
 31
0.0
  0
LINE
  5
283E
330
2
100
AcDbEntity
  8
エンボス
  6
Continuous
100
AcDbLine
 10
1528.762463010574
 20
1387.53351463739
 30
0.0
 11
1525.762463010574
 21
1386.33351463739
 31
0.0
  0
LINE
  5
283F
330
2
100
AcDbEntity
  8
エンボス
  6
Continuous
100
AcDbLine
 10
1525.762463010574
 20
1390.53351463739
 30
0.0
 11
1528.762463010574
 21
1389.33351463739
 31
0.0
  0
LINE
  5
2840
330
2
100
AcDbEntity
  8
エンボス
  6
Continuous
100
AcDbLine
 10
1525.762463010574
 20
1398.358518659875
 30
0.0
 11
1528.762463010574
 21
1399.558518659876
 31
0.0
  0
LINE
  5
2841
330
2
100
AcDbEntity
  8
エンボス
  6
Continuous
100
AcDbLine
 10
1528.762463010574
 20
1395.358518659875
 30
0.0
 11
1525.762463010574
 21
1396.558518659875
 31
0.0
  0
LINE
  5
2842
330
2
100
AcDbEntity
  8
エンボス
  6
Continuous
100
AcDbLine
 10
1525.762463010574
 20
1373.73351463739
 30
0.0
 11
1528.762463010574
 21
1372.53351463739
 31
0.0
  0
LINE
  5
2843
330
2
100
AcDbEntity
  8
エンボス
  6
Continuous
100
AcDbLine
 10
1528.762463010574
 20
1370.73351463739
 30
0.0
 11
1525.762463010574
 21
1369.53351463739
 31
0.0
  0
LINE
  5
2844
330
2
100
AcDbEntity
  8
エンボス
  6
Continuous
100
AcDbLine
 10
1528.762463010574
 20
1377.93351463739
 30
0.0
 11
1525.762463010574
 21
1379.13351463739
 31
0.0
  0
LINE
  5
2845
330
2
100
AcDbEntity
  8
エンボス
  6
Continuous
100
AcDbLine
 10
1525.762463010574
 20
1424.758518659875
 30
0.0
 11
1528.762463010574
 21
1423.558518659875
 31
0.0
  0
LINE
  5
2846
330
2
100
AcDbEntity
  8
エンボス
  6
Continuous
100
AcDbLine
 10
1528.762463010574
 20
1421.758518659875
 30
0.0
 11
1525.762463010574
 21
1420.558518659875
 31
0.0
  0
LINE
  5
2847
330
2
100
AcDbEntity
  8
エンボス
  6
Continuous
100
AcDbLine
 10
1525.762463010574
 20
1431.958518659875
 30
0.0
 11
1528.762463010574
 21
1433.158518659875
 31
0.0
  0
LINE
  5
2848
330
2
100
AcDbEntity
  8
エンボス
  6
Continuous
100
AcDbLine
 10
1528.762463010574
 20
1428.958518659875
 30
0.0
 11
1525.762463010574
 21
1430.158518659875
 31
0.0
  0
LINE
  5
2849
330
2
100
AcDbEntity
  8
エンボス
  6
Continuous
100
AcDbLine
 10
1528.762463010574
 20
1438.558518659875
 30
0.0
 11
1525.762463010574
 21
1437.358518659875
 31
0.0
  0
LINE
  5
284A
330
2
100
AcDbEntity
  8
エンボス
  6
Continuous
100
AcDbLine
 10
1528.762463010574
 20
1412.158518659875
 30
0.0
 11
1525.762463010574
 21
1413.358518659875
 31
0.0
  0
LINE
  5
284B
330
2
100
AcDbEntity
  8
エンボス
  6
Continuous
100
AcDbLine
 10
1525.762463010574
 20
1407.958518659875
 30
0.0
 11
1528.762463010574
 21
1406.758518659875
 31
0.0
  0
LINE
  5
284C
330
2
100
AcDbEntity
  8
エンボス
  6
Continuous
100
AcDbLine
 10
1525.762463010574
 20
1415.158518659875
 30
0.0
 11
1528.762463010574
 21
1416.358518659875
 31
0.0
  0
LINE
  5
284D
330
2
100
AcDbEntity
  8
エンボス
  6
Continuous
100
AcDbLine
 10
1525.762463010574
 20
1448.758518659875
 30
0.0
 11
1528.762463010574
 21
1449.958518659875
 31
0.0
  0
LINE
  5
284E
330
2
100
AcDbEntity
  8
エンボス
  6
Continuous
100
AcDbLine
 10
1528.762463010574
 20
1445.758518659875
 30
0.0
 11
1525.762463010574
 21
1446.958518659875
 31
0.0
  0
LINE
  5
284F
330
2
100
AcDbEntity
  8
エンボス
  6
Continuous
100
AcDbLine
 10
1525.762463010574
 20
1515.158518659875
 30
0.0
 11
1528.762463010574
 21
1516.358518659875
 31
0.0
  0
LINE
  5
2850
330
2
100
AcDbEntity
  8
エンボス
  6
Continuous
100
AcDbLine
 10
1528.762463010574
 20
1477.93351463739
 30
0.0
 11
1525.762463010574
 21
1479.13351463739
 31
0.0
  0
LINE
  5
2851
330
2
100
AcDbEntity
  8
エンボス
  6
Continuous
100
AcDbLine
 10
1525.762463010574
 20
1464.13351463739
 30
0.0
 11
1528.762463010574
 21
1465.33351463739
 31
0.0
  0
LINE
  5
2852
330
2
100
AcDbEntity
  8
エンボス
  6
Continuous
100
AcDbLine
 10
1528.762463010574
 20
1461.13351463739
 30
0.0
 11
1525.762463010574
 21
1462.33351463739
 31
0.0
  0
LINE
  5
2853
330
2
100
AcDbEntity
  8
エンボス
  6
Continuous
100
AcDbLine
 10
1528.762463010574
 20
1470.73351463739
 30
0.0
 11
1525.762463010574
 21
1469.53351463739
 31
0.0
  0
LINE
  5
2854
330
2
100
AcDbEntity
  8
エンボス
  6
Continuous
100
AcDbLine
 10
1525.762463010574
 20
1473.73351463739
 30
0.0
 11
1528.762463010574
 21
1472.53351463739
 31
0.0
  0
LINE
  5
2855
330
2
100
AcDbEntity
  8
エンボス
  6
Continuous
100
AcDbLine
 10
1525.762463010574
 20
1507.958518659875
 30
0.0
 11
1528.762463010574
 21
1506.758518659875
 31
0.0
  0
LINE
  5
2856
330
2
100
AcDbEntity
  8
エンボス
  6
Continuous
100
AcDbLine
 10
1528.762463010574
 20
1504.958518659875
 30
0.0
 11
1525.762463010574
 21
1503.758518659875
 31
0.0
  0
LINE
  5
2857
330
2
100
AcDbEntity
  8
エンボス
  6
Continuous
100
AcDbLine
 10
1528.762463010574
 20
1495.358518659875
 30
0.0
 11
1525.762463010574
 21
1496.558518659875
 31
0.0
  0
LINE
  5
2858
330
2
100
AcDbEntity
  8
エンボス
  6
Continuous
100
AcDbLine
 10
1525.762463010574
 20
1498.358518659875
 30
0.0
 11
1528.762463010574
 21
1499.558518659875
 31
0.0
  0
LINE
  5
2859
330
2
100
AcDbEntity
  8
エンボス
  6
Continuous
100
AcDbLine
 10
1525.762463010574
 20
1490.53351463739
 30
0.0
 11
1528.762463010574
 21
1489.33351463739
 31
0.0
  0
LINE
  5
285A
330
2
100
AcDbEntity
  8
エンボス
  6
Continuous
100
AcDbLine
 10
1528.762463010574
 20
1487.53351463739
 30
0.0
 11
1525.762463010574
 21
1486.33351463739
 31
0.0
  0
LINE
  5
285B
330
2
100
AcDbEntity
  8
エンボス
  6
Continuous
100
AcDbLine
 10
1525.762463010574
 20
1480.93351463739
 30
0.0
 11
1528.762463010574
 21
1482.13351463739
 31
0.0
  0
LINE
  5
285C
330
2
100
AcDbEntity
  8
エンボス
  6
Continuous
100
AcDbLine
 10
1528.762463010574
 20
1512.158518659875
 30
0.0
 11
1525.762463010574
 21
1513.358518659875
 31
0.0
  0
LINE
  5
285D
330
2
100
AcDbEntity
  8
エンボス
  6
Continuous
100
AcDbLine
 10
1528.762463010574
 20
1545.758518659875
 30
0.0
 11
1525.762463010574
 21
1546.958518659875
 31
0.0
  0
LINE
  5
285E
330
2
100
AcDbEntity
  8
エンボス
  6
Continuous
100
AcDbLine
 10
1525.762463010574
 20
1548.758518659875
 30
0.0
 11
1528.762463010574
 21
1549.958518659875
 31
0.0
  0
LINE
  5
285F
330
2
100
AcDbEntity
  8
エンボス
  6
Continuous
100
AcDbLine
 10
1525.762463010574
 20
1541.558518659875
 30
0.0
 11
1528.762463010574
 21
1540.358518659875
 31
0.0
  0
LINE
  5
2860
330
2
100
AcDbEntity
  8
エンボス
  6
Continuous
100
AcDbLine
 10
1528.762463010574
 20
1538.558518659875
 30
0.0
 11
1525.762463010574
 21
1537.358518659875
 31
0.0
  0
LINE
  5
2861
330
2
100
AcDbEntity
  8
エンボス
  6
Continuous
100
AcDbLine
 10
1528.762463010574
 20
1528.958518659875
 30
0.0
 11
1525.762463010574
 21
1530.158518659875
 31
0.0
  0
LINE
  5
2862
330
2
100
AcDbEntity
  8
エンボス
  6
Continuous
100
AcDbLine
 10
1525.762463010574
 20
1531.958518659875
 30
0.0
 11
1528.762463010574
 21
1533.158518659875
 31
0.0
  0
LINE
  5
2863
330
2
100
AcDbEntity
  8
エンボス
  6
Continuous
100
AcDbLine
 10
1528.762463010574
 20
1521.758518659875
 30
0.0
 11
1525.762463010574
 21
1520.558518659875
 31
0.0
  0
LINE
  5
2864
330
2
100
AcDbEntity
  8
エンボス
  6
Continuous
100
AcDbLine
 10
1525.762463010574
 20
1524.758518659875
 30
0.0
 11
1528.762463010574
 21
1523.558518659875
 31
0.0
  0
LINE
  5
2865
330
2
100
AcDbEntity
  8
エンボス
  6
Continuous
100
AcDbLine
 10
1525.762463010574
 20
1590.53351463739
 30
0.0
 11
1528.762463010574
 21
1589.33351463739
 31
0.0
  0
LINE
  5
2866
330
2
100
AcDbEntity
  8
エンボス
  6
Continuous
100
AcDbLine
 10
1525.762463010574
 20
1580.93351463739
 30
0.0
 11
1528.762463010574
 21
1582.13351463739
 31
0.0
  0
LINE
  5
2867
330
2
100
AcDbEntity
  8
エンボス
  6
Continuous
100
AcDbLine
 10
1528.762463010574
 20
1587.53351463739
 30
0.0
 11
1525.762463010574
 21
1586.33351463739
 31
0.0
  0
LINE
  5
2868
330
2
100
AcDbEntity
  8
エンボス
  6
Continuous
100
AcDbLine
 10
1525.762463010574
 20
1573.73351463739
 30
0.0
 11
1528.762463010574
 21
1572.53351463739
 31
0.0
  0
LINE
  5
2869
330
2
100
AcDbEntity
  8
エンボス
  6
Continuous
100
AcDbLine
 10
1528.762463010574
 20
1570.73351463739
 30
0.0
 11
1525.762463010574
 21
1569.53351463739
 31
0.0
  0
LINE
  5
286A
330
2
100
AcDbEntity
  8
エンボス
  6
Continuous
100
AcDbLine
 10
1528.762463010574
 20
1561.13351463739
 30
0.0
 11
1525.762463010574
 21
1562.33351463739
 31
0.0
  0
LINE
  5
286B
330
2
100
AcDbEntity
  8
エンボス
  6
Continuous
100
AcDbLine
 10
1525.762463010574
 20
1564.13351463739
 30
0.0
 11
1528.762463010574
 21
1565.33351463739
 31
0.0
  0
LINE
  5
286C
330
2
100
AcDbEntity
  8
エンボス
  6
Continuous
100
AcDbLine
 10
1528.762463010574
 20
1577.93351463739
 30
0.0
 11
1525.762463010574
 21
1579.13351463739
 31
0.0
  0
LINE
  5
286D
330
2
100
AcDbEntity
  8
エンボス
  6
Continuous
100
AcDbLine
 10
1525.762463010574
 20
1598.358518659875
 30
0.0
 11
1528.762463010574
 21
1599.558518659875
 31
0.0
  0
LINE
  5
286E
330
2
100
AcDbEntity
  8
エンボス
  6
Continuous
100
AcDbLine
 10
1528.762463010574
 20
1595.358518659875
 30
0.0
 11
1525.762463010574
 21
1596.558518659875
 31
0.0
  0
LINE
  5
286F
330
2
100
AcDbEntity
  8
エンボス
  6
Continuous
100
AcDbLine
 10
1528.762463010574
 20
1604.958518659875
 30
0.0
 11
1525.762463010574
 21
1603.758518659875
 31
0.0
  0
LINE
  5
2870
330
2
100
AcDbEntity
  8
本体
  6
Continuous
100
AcDbLine
 10
536.7624618105737
 20
1606.251878390281
 30
0.0
 11
536.7624618105737
 21
1558.251878390281
 31
0.0
  0
LINE
  5
2871
330
2
100
AcDbEntity
  8
本体
  6
Continuous
100
AcDbLine
 10
533.7624618105738
 20
1606.251878390281
 30
0.0
 11
533.7624618105738
 21
1558.251878390281
 31
0.0
  0
LINE
  5
2872
330
2
100
AcDbEntity
  8
本体
  6
Continuous
100
AcDbLine
 10
536.7624618105737
 20
1553.251878390281
 30
0.0
 11
536.7624618105737
 21
1458.251878390281
 31
0.0
  0
LINE
  5
2873
330
2
100
AcDbEntity
  8
本体
  6
Continuous
100
AcDbLine
 10
533.7624618105738
 20
1553.251878390281
 30
0.0
 11
533.7624618105738
 21
1458.251878390281
 31
0.0
  0
LINE
  5
2874
330
2
100
AcDbEntity
  8
本体
  6
Continuous
100
AcDbLine
 10
533.7624618105738
 20
1453.251878390281
 30
0.0
 11
533.7624618105738
 21
1358.251878390281
 31
0.0
  0
LINE
  5
2875
330
2
100
AcDbEntity
  8
本体
  6
Continuous
100
AcDbLine
 10
536.7624618105737
 20
1453.251878390281
 30
0.0
 11
536.7624618105737
 21
1358.251878390281
 31
0.0
  0
LINE
  5
2876
330
2
100
AcDbEntity
  8
本体
  6
Continuous
100
AcDbLine
 10
536.7624618105737
 20
1353.251878390281
 30
0.0
 11
536.7624618105737
 21
1258.251878390281
 31
0.0
  0
LINE
  5
2877
330
2
100
AcDbEntity
  8
本体
  6
Continuous
100
AcDbLine
 10
533.7624618105738
 20
1353.251878390281
 30
0.0
 11
533.7624618105738
 21
1258.251878390281
 31
0.0
  0
LINE
  5
2878
330
2
100
AcDbEntity
  8
本体
  6
Continuous
100
AcDbLine
 10
536.7624618105737
 20
1205.251878390281
 30
0.0
 11
536.7624618105737
 21
1253.251878390281
 31
0.0
  0
LINE
  5
2879
330
2
100
AcDbEntity
  8
本体
  6
Continuous
100
AcDbLine
 10
533.7624618105738
 20
1205.251878390281
 30
0.0
 11
533.7624618105738
 21
1253.251878390281
 31
0.0
  0
LINE
  5
287A
330
2
100
AcDbEntity
  8
エンボス
  6
Continuous
100
AcDbLine
 10
536.7624630105738
 20
1212.158518659875
 30
0.0
 11
533.7624630105738
 21
1213.358518659875
 31
0.0
  0
LINE
  5
287B
330
2
100
AcDbEntity
  8
エンボス
  6
Continuous
100
AcDbLine
 10
533.7624630105738
 20
1207.958518659875
 30
0.0
 11
536.7624630105738
 21
1206.758518659875
 31
0.0
  0
LINE
  5
287C
330
2
100
AcDbEntity
  8
エンボス
  6
Continuous
100
AcDbLine
 10
533.7624630105738
 20
1215.158518659875
 30
0.0
 11
536.7624630105738
 21
1216.358518659875
 31
0.0
  0
LINE
  5
287D
330
2
100
AcDbEntity
  8
エンボス
  6
Continuous
100
AcDbLine
 10
533.7624630105738
 20
1224.758518659875
 30
0.0
 11
536.7624630105738
 21
1223.558518659875
 31
0.0
  0
LINE
  5
287E
330
2
100
AcDbEntity
  8
エンボス
  6
Continuous
100
AcDbLine
 10
536.7624630105738
 20
1221.758518659875
 30
0.0
 11
533.7624630105738
 21
1220.558518659875
 31
0.0
  0
LINE
  5
287F
330
2
100
AcDbEntity
  8
エンボス
  6
Continuous
100
AcDbLine
 10
533.7624630105738
 20
1231.958518659875
 30
0.0
 11
536.7624630105738
 21
1233.158518659875
 31
0.0
  0
LINE
  5
2880
330
2
100
AcDbEntity
  8
エンボス
  6
Continuous
100
AcDbLine
 10
536.7624630105738
 20
1228.958518659875
 30
0.0
 11
533.7624630105738
 21
1230.158518659875
 31
0.0
  0
LINE
  5
2881
330
2
100
AcDbEntity
  8
エンボス
  6
Continuous
100
AcDbLine
 10
536.7624630105738
 20
1238.558518659875
 30
0.0
 11
533.7624630105738
 21
1237.358518659875
 31
0.0
  0
LINE
  5
2882
330
2
100
AcDbEntity
  8
エンボス
  6
Continuous
100
AcDbLine
 10
533.7624630105738
 20
1241.558518659875
 30
0.0
 11
536.7624630105738
 21
1240.358518659875
 31
0.0
  0
LINE
  5
2883
330
2
100
AcDbEntity
  8
エンボス
  6
Continuous
100
AcDbLine
 10
533.7624630105738
 20
1248.758518659875
 30
0.0
 11
536.7624630105738
 21
1249.958518659875
 31
0.0
  0
LINE
  5
2884
330
2
100
AcDbEntity
  8
エンボス
  6
Continuous
100
AcDbLine
 10
536.7624630105738
 20
1245.758518659875
 30
0.0
 11
533.7624630105738
 21
1246.958518659875
 31
0.0
  0
LINE
  5
2885
330
2
100
AcDbEntity
  8
エンボス
  6
Continuous
100
AcDbLine
 10
533.7624630105738
 20
1280.93351463739
 30
0.0
 11
536.7624630105738
 21
1282.13351463739
 31
0.0
  0
LINE
  5
2886
330
2
100
AcDbEntity
  8
エンボス
  6
Continuous
100
AcDbLine
 10
536.7624630105738
 20
1287.53351463739
 30
0.0
 11
533.7624630105738
 21
1286.33351463739
 31
0.0
  0
LINE
  5
2887
330
2
100
AcDbEntity
  8
エンボス
  6
Continuous
100
AcDbLine
 10
533.7624630105738
 20
1290.53351463739
 30
0.0
 11
536.7624630105738
 21
1289.33351463739
 31
0.0
  0
LINE
  5
2888
330
2
100
AcDbEntity
  8
エンボス
  6
Continuous
100
AcDbLine
 10
533.7624630105738
 20
1273.73351463739
 30
0.0
 11
536.7624630105738
 21
1272.53351463739
 31
0.0
  0
LINE
  5
2889
330
2
100
AcDbEntity
  8
エンボス
  6
Continuous
100
AcDbLine
 10
536.7624630105738
 20
1270.73351463739
 30
0.0
 11
533.7624630105738
 21
1269.53351463739
 31
0.0
  0
LINE
  5
288A
330
2
100
AcDbEntity
  8
エンボス
  6
Continuous
100
AcDbLine
 10
536.7624630105738
 20
1261.13351463739
 30
0.0
 11
533.7624630105738
 21
1262.33351463739
 31
0.0
  0
LINE
  5
288B
330
2
100
AcDbEntity
  8
エンボス
  6
Continuous
100
AcDbLine
 10
533.7624630105738
 20
1264.13351463739
 30
0.0
 11
536.7624630105738
 21
1265.33351463739
 31
0.0
  0
LINE
  5
288C
330
2
100
AcDbEntity
  8
エンボス
  6
Continuous
100
AcDbLine
 10
536.7624630105738
 20
1277.93351463739
 30
0.0
 11
533.7624630105738
 21
1279.13351463739
 31
0.0
  0
LINE
  5
288D
330
2
100
AcDbEntity
  8
エンボス
  6
Continuous
100
AcDbLine
 10
536.7624630105738
 20
1328.958518659875
 30
0.0
 11
533.7624630105738
 21
1330.158518659875
 31
0.0
  0
LINE
  5
288E
330
2
100
AcDbEntity
  8
エンボス
  6
Continuous
100
AcDbLine
 10
533.7624630105738
 20
1324.758518659875
 30
0.0
 11
536.7624630105738
 21
1323.558518659875
 31
0.0
  0
LINE
  5
288F
330
2
100
AcDbEntity
  8
エンボス
  6
Continuous
100
AcDbLine
 10
536.7624630105738
 20
1321.758518659875
 30
0.0
 11
533.7624630105738
 21
1320.558518659875
 31
0.0
  0
LINE
  5
2890
330
2
100
AcDbEntity
  8
エンボス
  6
Continuous
100
AcDbLine
 10
536.7624630105738
 20
1312.158518659875
 30
0.0
 11
533.7624630105738
 21
1313.358518659875
 31
0.0
  0
LINE
  5
2891
330
2
100
AcDbEntity
  8
エンボス
  6
Continuous
100
AcDbLine
 10
533.7624630105738
 20
1298.358518659875
 30
0.0
 11
536.7624630105738
 21
1299.558518659875
 31
0.0
  0
LINE
  5
2892
330
2
100
AcDbEntity
  8
エンボス
  6
Continuous
100
AcDbLine
 10
536.7624630105738
 20
1295.358518659875
 30
0.0
 11
533.7624630105738
 21
1296.558518659875
 31
0.0
  0
LINE
  5
2893
330
2
100
AcDbEntity
  8
エンボス
  6
Continuous
100
AcDbLine
 10
536.7624630105738
 20
1304.958518659875
 30
0.0
 11
533.7624630105738
 21
1303.758518659875
 31
0.0
  0
LINE
  5
2894
330
2
100
AcDbEntity
  8
エンボス
  6
Continuous
100
AcDbLine
 10
533.7624630105738
 20
1307.958518659875
 30
0.0
 11
536.7624630105738
 21
1306.758518659875
 31
0.0
  0
LINE
  5
2895
330
2
100
AcDbEntity
  8
エンボス
  6
Continuous
100
AcDbLine
 10
533.7624630105738
 20
1315.158518659875
 30
0.0
 11
536.7624630105738
 21
1316.358518659875
 31
0.0
  0
LINE
  5
2896
330
2
100
AcDbEntity
  8
エンボス
  6
Continuous
100
AcDbLine
 10
533.7624630105738
 20
1331.958518659875
 30
0.0
 11
536.7624630105738
 21
1333.158518659875
 31
0.0
  0
LINE
  5
2897
330
2
100
AcDbEntity
  8
エンボス
  6
Continuous
100
AcDbLine
 10
536.7624630105738
 20
1338.558518659875
 30
0.0
 11
533.7624630105738
 21
1337.358518659875
 31
0.0
  0
LINE
  5
2898
330
2
100
AcDbEntity
  8
エンボス
  6
Continuous
100
AcDbLine
 10
533.7624630105738
 20
1341.558518659875
 30
0.0
 11
536.7624630105738
 21
1340.358518659875
 31
0.0
  0
LINE
  5
2899
330
2
100
AcDbEntity
  8
エンボス
  6
Continuous
100
AcDbLine
 10
533.7624630105738
 20
1348.758518659875
 30
0.0
 11
536.7624630105738
 21
1349.958518659875
 31
0.0
  0
LINE
  5
289A
330
2
100
AcDbEntity
  8
エンボス
  6
Continuous
100
AcDbLine
 10
536.7624630105738
 20
1345.758518659875
 30
0.0
 11
533.7624630105738
 21
1346.958518659875
 31
0.0
  0
LINE
  5
289B
330
2
100
AcDbEntity
  8
エンボス
  6
Continuous
100
AcDbLine
 10
536.7624630105738
 20
1361.13351463739
 30
0.0
 11
533.7624630105738
 21
1362.33351463739
 31
0.0
  0
LINE
  5
289C
330
2
100
AcDbEntity
  8
エンボス
  6
Continuous
100
AcDbLine
 10
533.7624630105738
 20
1364.13351463739
 30
0.0
 11
536.7624630105738
 21
1365.33351463739
 31
0.0
  0
LINE
  5
289D
330
2
100
AcDbEntity
  8
エンボス
  6
Continuous
100
AcDbLine
 10
533.7624630105738
 20
1441.558518659875
 30
0.0
 11
536.7624630105738
 21
1440.358518659875
 31
0.0
  0
LINE
  5
289E
330
2
100
AcDbEntity
  8
エンボス
  6
Continuous
100
AcDbLine
 10
536.7624630105738
 20
1404.958518659875
 30
0.0
 11
533.7624630105738
 21
1403.758518659875
 31
0.0
  0
LINE
  5
289F
330
2
100
AcDbEntity
  8
エンボス
  6
Continuous
100
AcDbLine
 10
533.7624630105738
 20
1380.93351463739
 30
0.0
 11
536.7624630105738
 21
1382.13351463739
 31
0.0
  0
LINE
  5
28A0
330
2
100
AcDbEntity
  8
エンボス
  6
Continuous
100
AcDbLine
 10
536.7624630105738
 20
1387.53351463739
 30
0.0
 11
533.7624630105738
 21
1386.33351463739
 31
0.0
  0
LINE
  5
28A1
330
2
100
AcDbEntity
  8
エンボス
  6
Continuous
100
AcDbLine
 10
533.7624630105738
 20
1390.53351463739
 30
0.0
 11
536.7624630105738
 21
1389.33351463739
 31
0.0
  0
LINE
  5
28A2
330
2
100
AcDbEntity
  8
エンボス
  6
Continuous
100
AcDbLine
 10
533.7624630105738
 20
1398.358518659875
 30
0.0
 11
536.7624630105738
 21
1399.558518659876
 31
0.0
  0
LINE
  5
28A3
330
2
100
AcDbEntity
  8
エンボス
  6
Continuous
100
AcDbLine
 10
536.7624630105738
 20
1395.358518659875
 30
0.0
 11
533.7624630105738
 21
1396.558518659875
 31
0.0
  0
LINE
  5
28A4
330
2
100
AcDbEntity
  8
エンボス
  6
Continuous
100
AcDbLine
 10
533.7624630105738
 20
1373.73351463739
 30
0.0
 11
536.7624630105738
 21
1372.53351463739
 31
0.0
  0
LINE
  5
28A5
330
2
100
AcDbEntity
  8
エンボス
  6
Continuous
100
AcDbLine
 10
536.7624630105738
 20
1370.73351463739
 30
0.0
 11
533.7624630105738
 21
1369.53351463739
 31
0.0
  0
LINE
  5
28A6
330
2
100
AcDbEntity
  8
エンボス
  6
Continuous
100
AcDbLine
 10
536.7624630105738
 20
1377.93351463739
 30
0.0
 11
533.7624630105738
 21
1379.13351463739
 31
0.0
  0
LINE
  5
28A7
330
2
100
AcDbEntity
  8
エンボス
  6
Continuous
100
AcDbLine
 10
533.7624630105738
 20
1424.758518659875
 30
0.0
 11
536.7624630105738
 21
1423.558518659875
 31
0.0
  0
LINE
  5
28A8
330
2
100
AcDbEntity
  8
エンボス
  6
Continuous
100
AcDbLine
 10
536.7624630105738
 20
1421.758518659875
 30
0.0
 11
533.7624630105738
 21
1420.558518659875
 31
0.0
  0
LINE
  5
28A9
330
2
100
AcDbEntity
  8
エンボス
  6
Continuous
100
AcDbLine
 10
533.7624630105738
 20
1431.958518659875
 30
0.0
 11
536.7624630105738
 21
1433.158518659875
 31
0.0
  0
LINE
  5
28AA
330
2
100
AcDbEntity
  8
エンボス
  6
Continuous
100
AcDbLine
 10
536.7624630105738
 20
1428.958518659875
 30
0.0
 11
533.7624630105738
 21
1430.158518659875
 31
0.0
  0
LINE
  5
28AB
330
2
100
AcDbEntity
  8
エンボス
  6
Continuous
100
AcDbLine
 10
536.7624630105738
 20
1438.558518659875
 30
0.0
 11
533.7624630105738
 21
1437.358518659875
 31
0.0
  0
LINE
  5
28AC
330
2
100
AcDbEntity
  8
エンボス
  6
Continuous
100
AcDbLine
 10
536.7624630105738
 20
1412.158518659875
 30
0.0
 11
533.7624630105738
 21
1413.358518659875
 31
0.0
  0
LINE
  5
28AD
330
2
100
AcDbEntity
  8
エンボス
  6
Continuous
100
AcDbLine
 10
533.7624630105738
 20
1407.958518659875
 30
0.0
 11
536.7624630105738
 21
1406.758518659875
 31
0.0
  0
LINE
  5
28AE
330
2
100
AcDbEntity
  8
エンボス
  6
Continuous
100
AcDbLine
 10
533.7624630105738
 20
1415.158518659875
 30
0.0
 11
536.7624630105738
 21
1416.358518659875
 31
0.0
  0
LINE
  5
28AF
330
2
100
AcDbEntity
  8
エンボス
  6
Continuous
100
AcDbLine
 10
533.7624630105738
 20
1448.758518659875
 30
0.0
 11
536.7624630105738
 21
1449.958518659875
 31
0.0
  0
LINE
  5
28B0
330
2
100
AcDbEntity
  8
エンボス
  6
Continuous
100
AcDbLine
 10
536.7624630105738
 20
1445.758518659875
 30
0.0
 11
533.7624630105738
 21
1446.958518659875
 31
0.0
  0
LINE
  5
28B1
330
2
100
AcDbEntity
  8
エンボス
  6
Continuous
100
AcDbLine
 10
533.7624630105738
 20
1515.158518659875
 30
0.0
 11
536.7624630105738
 21
1516.358518659875
 31
0.0
  0
LINE
  5
28B2
330
2
100
AcDbEntity
  8
エンボス
  6
Continuous
100
AcDbLine
 10
536.7624630105738
 20
1477.93351463739
 30
0.0
 11
533.7624630105738
 21
1479.13351463739
 31
0.0
  0
LINE
  5
28B3
330
2
100
AcDbEntity
  8
エンボス
  6
Continuous
100
AcDbLine
 10
533.7624630105738
 20
1464.13351463739
 30
0.0
 11
536.7624630105738
 21
1465.33351463739
 31
0.0
  0
LINE
  5
28B4
330
2
100
AcDbEntity
  8
エンボス
  6
Continuous
100
AcDbLine
 10
536.7624630105738
 20
1461.13351463739
 30
0.0
 11
533.7624630105738
 21
1462.33351463739
 31
0.0
  0
LINE
  5
28B5
330
2
100
AcDbEntity
  8
エンボス
  6
Continuous
100
AcDbLine
 10
536.7624630105738
 20
1470.73351463739
 30
0.0
 11
533.7624630105738
 21
1469.53351463739
 31
0.0
  0
LINE
  5
28B6
330
2
100
AcDbEntity
  8
エンボス
  6
Continuous
100
AcDbLine
 10
533.7624630105738
 20
1473.73351463739
 30
0.0
 11
536.7624630105738
 21
1472.53351463739
 31
0.0
  0
LINE
  5
28B7
330
2
100
AcDbEntity
  8
エンボス
  6
Continuous
100
AcDbLine
 10
533.7624630105738
 20
1507.958518659875
 30
0.0
 11
536.7624630105738
 21
1506.758518659875
 31
0.0
  0
LINE
  5
28B8
330
2
100
AcDbEntity
  8
エンボス
  6
Continuous
100
AcDbLine
 10
536.7624630105738
 20
1504.958518659875
 30
0.0
 11
533.7624630105738
 21
1503.758518659875
 31
0.0
  0
LINE
  5
28B9
330
2
100
AcDbEntity
  8
エンボス
  6
Continuous
100
AcDbLine
 10
536.7624630105738
 20
1495.358518659875
 30
0.0
 11
533.7624630105738
 21
1496.558518659875
 31
0.0
  0
LINE
  5
28BA
330
2
100
AcDbEntity
  8
エンボス
  6
Continuous
100
AcDbLine
 10
533.7624630105738
 20
1498.358518659875
 30
0.0
 11
536.7624630105738
 21
1499.558518659875
 31
0.0
  0
LINE
  5
28BB
330
2
100
AcDbEntity
  8
エンボス
  6
Continuous
100
AcDbLine
 10
533.7624630105738
 20
1490.53351463739
 30
0.0
 11
536.7624630105738
 21
1489.33351463739
 31
0.0
  0
LINE
  5
28BC
330
2
100
AcDbEntity
  8
エンボス
  6
Continuous
100
AcDbLine
 10
536.7624630105738
 20
1487.53351463739
 30
0.0
 11
533.7624630105738
 21
1486.33351463739
 31
0.0
  0
LINE
  5
28BD
330
2
100
AcDbEntity
  8
エンボス
  6
Continuous
100
AcDbLine
 10
533.7624630105738
 20
1480.93351463739
 30
0.0
 11
536.7624630105738
 21
1482.13351463739
 31
0.0
  0
LINE
  5
28BE
330
2
100
AcDbEntity
  8
エンボス
  6
Continuous
100
AcDbLine
 10
536.7624630105738
 20
1512.158518659875
 30
0.0
 11
533.7624630105738
 21
1513.358518659875
 31
0.0
  0
LINE
  5
28BF
330
2
100
AcDbEntity
  8
エンボス
  6
Continuous
100
AcDbLine
 10
536.7624630105738
 20
1545.758518659875
 30
0.0
 11
533.7624630105738
 21
1546.958518659875
 31
0.0
  0
LINE
  5
28C0
330
2
100
AcDbEntity
  8
エンボス
  6
Continuous
100
AcDbLine
 10
533.7624630105738
 20
1548.758518659875
 30
0.0
 11
536.7624630105738
 21
1549.958518659875
 31
0.0
  0
LINE
  5
28C1
330
2
100
AcDbEntity
  8
エンボス
  6
Continuous
100
AcDbLine
 10
533.7624630105738
 20
1541.558518659875
 30
0.0
 11
536.7624630105738
 21
1540.358518659875
 31
0.0
  0
LINE
  5
28C2
330
2
100
AcDbEntity
  8
エンボス
  6
Continuous
100
AcDbLine
 10
536.7624630105738
 20
1538.558518659875
 30
0.0
 11
533.7624630105738
 21
1537.358518659875
 31
0.0
  0
LINE
  5
28C3
330
2
100
AcDbEntity
  8
エンボス
  6
Continuous
100
AcDbLine
 10
536.7624630105738
 20
1528.958518659875
 30
0.0
 11
533.7624630105738
 21
1530.158518659875
 31
0.0
  0
LINE
  5
28C4
330
2
100
AcDbEntity
  8
エンボス
  6
Continuous
100
AcDbLine
 10
533.7624630105738
 20
1531.958518659875
 30
0.0
 11
536.7624630105738
 21
1533.158518659875
 31
0.0
  0
LINE
  5
28C5
330
2
100
AcDbEntity
  8
エンボス
  6
Continuous
100
AcDbLine
 10
536.7624630105738
 20
1521.758518659875
 30
0.0
 11
533.7624630105738
 21
1520.558518659875
 31
0.0
  0
LINE
  5
28C6
330
2
100
AcDbEntity
  8
エンボス
  6
Continuous
100
AcDbLine
 10
533.7624630105738
 20
1524.758518659875
 30
0.0
 11
536.7624630105738
 21
1523.558518659875
 31
0.0
  0
LINE
  5
28C7
330
2
100
AcDbEntity
  8
エンボス
  6
Continuous
100
AcDbLine
 10
533.7624630105738
 20
1590.53351463739
 30
0.0
 11
536.7624630105738
 21
1589.33351463739
 31
0.0
  0
LINE
  5
28C8
330
2
100
AcDbEntity
  8
エンボス
  6
Continuous
100
AcDbLine
 10
533.7624630105738
 20
1580.93351463739
 30
0.0
 11
536.7624630105738
 21
1582.13351463739
 31
0.0
  0
LINE
  5
28C9
330
2
100
AcDbEntity
  8
エンボス
  6
Continuous
100
AcDbLine
 10
536.7624630105738
 20
1587.53351463739
 30
0.0
 11
533.7624630105738
 21
1586.33351463739
 31
0.0
  0
LINE
  5
28CA
330
2
100
AcDbEntity
  8
エンボス
  6
Continuous
100
AcDbLine
 10
533.7624630105738
 20
1573.73351463739
 30
0.0
 11
536.7624630105738
 21
1572.53351463739
 31
0.0
  0
LINE
  5
28CB
330
2
100
AcDbEntity
  8
エンボス
  6
Continuous
100
AcDbLine
 10
536.7624630105738
 20
1570.73351463739
 30
0.0
 11
533.7624630105738
 21
1569.53351463739
 31
0.0
  0
LINE
  5
28CC
330
2
100
AcDbEntity
  8
エンボス
  6
Continuous
100
AcDbLine
 10
536.7624630105738
 20
1561.13351463739
 30
0.0
 11
533.7624630105738
 21
1562.33351463739
 31
0.0
  0
LINE
  5
28CD
330
2
100
AcDbEntity
  8
エンボス
  6
Continuous
100
AcDbLine
 10
533.7624630105738
 20
1564.13351463739
 30
0.0
 11
536.7624630105738
 21
1565.33351463739
 31
0.0
  0
LINE
  5
28CE
330
2
100
AcDbEntity
  8
エンボス
  6
Continuous
100
AcDbLine
 10
536.7624630105738
 20
1577.93351463739
 30
0.0
 11
533.7624630105738
 21
1579.13351463739
 31
0.0
  0
LINE
  5
28CF
330
2
100
AcDbEntity
  8
エンボス
  6
Continuous
100
AcDbLine
 10
533.7624630105738
 20
1598.358518659875
 30
0.0
 11
536.7624630105738
 21
1599.558518659875
 31
0.0
  0
LINE
  5
28D0
330
2
100
AcDbEntity
  8
エンボス
  6
Continuous
100
AcDbLine
 10
536.7624630105738
 20
1595.358518659875
 30
0.0
 11
533.7624630105738
 21
1596.558518659875
 31
0.0
  0
LINE
  5
28D1
330
2
100
AcDbEntity
  8
エンボス
  6
Continuous
100
AcDbLine
 10
536.7624630105738
 20
1604.958518659875
 30
0.0
 11
533.7624630105738
 21
1603.758518659875
 31
0.0
  0
LINE
  5
28D2
330
2
100
AcDbEntity
  8
本体
 48
3.0
100
AcDbLine
 10
533.7624618105738
 20
1610.751878390281
 30
0.0
 11
533.7624618105738
 21
1200.751878390281
 31
0.0
  0
LINE
  5
28D3
330
2
100
AcDbEntity
  8
本体
 48
3.0
100
AcDbLine
 10
1528.762461810574
 20
1610.751878390281
 30
0.0
 11
1528.762461810574
 21
1200.751878390281
 31
0.0
  0
INSERT
  5
28DB
102
{ACAD_REACTORS
330
2949
102
}
330
2
100
AcDbEntity
  8
本体
100
AcDbBlockReference
  2
*U29
 10
541.5409434105738
 20
1405.751878390281
 30
0.0
  0
LEADER
  5
299A
330
2
100
AcDbEntity
  8
寸法線
  6
Continuous
100
AcDbLeader
  3
ISO-25
 73
     0
 74
     0
 75
     1
 40
30.0
 41
152.2842639593908
 76
     3
 10
1527.431119015506
 20
1491.088256342163
 30
0.0
 10
1583.141797134161
 20
1561.798934460818
 30
0.0
 10
1598.141797134161
 20
1561.798934460818
 30
0.0
340
299B
1001
ACAD
1000
DSTYLE
1002
{
1070
     5
1000
OPEN30
1070
    77
1070
     1
1070
   147
1040
0.5
1070
   342
1005
99
1002
}
  0
MTEXT
  5
299B
102
{ACAD_REACTORS
330
299A
102
}
330
2
100
AcDbEntity
  8
寸法線
  6
Continuous
100
AcDbMText
 10
1603.141797134162
 20
1566.798934460818
 30
0.0
 40
30.0
 41
0.0
 71
     7
 72
     1
  1
GFB3\U+00D732
 73
     1
 44
1.0
1001
ACAD
1000
MTEXTBEGIN
1070
    73
1070
     1
1070
    44
1040
1.0
1070
    74
1070
     0
1000
MTEXTEND
  0
LEADER
  5
299C
330
2
100
AcDbEntity
  8
寸法線
  6
Continuous
100
AcDbLeader
  3
ISO-25
 73
     0
 74
     0
 75
     1
 40
30.0
 41
35.78680203045685
 76
     3
 10
1527.431119015506
 20
1354.157766389475
 30
0.0
 10
1583.141797134161
 20
1424.86844450813
 30
0.0
 10
1598.141797134161
 20
1424.86844450813
 30
0.0
340
299D
1001
ACAD
1000
DSTYLE
1002
{
1070
     5
1000
OPEN30
1070
    77
1070
     1
1070
   147
1040
0.5
1070
   342
1005
99
1002
}
  0
MTEXT
  5
299D
102
{ACAD_REACTORS
330
299C
102
}
330
2
100
AcDbEntity
  8
寸法線
  6
Continuous
100
AcDbMText
 10
1603.141797134162
 20
1429.86844450813
 30
0.0
 40
30.0
 41
0.0
 71
     7
 72
     1
  1
TB
 73
     1
 44
1.0
1001
ACAD
1000
MTEXTBEGIN
1070
    73
1070
     1
1070
    44
1040
1.0
1070
    74
1070
     0
1000
MTEXTEND
  0
DIMENSION
  5
299F
330
2
100
AcDbEntity
  8
寸法線
 48
3.0
100
AcDbDimension
  2
*D30
 10
1313.737143810574
 20
780.0720177519001
 30
0.0
 11
1384.67623010499
 21
800.0720177519001
 31
0.0
 70
    32
 71
     5
 42
12.5
  3
ISO-25
100
AcDbAlignedDimension
 13
1301.237143810574
 23
723.3613396332453
 33
0.0
 14
1313.737143810574
 24
723.3613396332453
 34
0.0
100
AcDbRotatedDimension
1001
ACAD
1000
DSTYLE
1002
{
1070
   279
1070
     0
1002
}
  0
ENDSEC
  0
SECTION
  2
OBJECTS
  0
DICTIONARY
  5
7
330
0
100
AcDbDictionary
281
     1
  3
ACAD_ASSOCNETWORK
350
27A5
  3
ACAD_CIP_PREVIOUS_PRODUCT_INFO
350
266B
  3
ACAD_COLOR
350
2649
  3
ACAD_DETAILVIEWSTYLE
350
2662
  3
ACAD_GROUP
350
222B
  3
ACAD_LAYOUT
350
2211
  3
ACAD_MATERIAL
350
2617
  3
ACAD_MLEADERSTYLE
350
265E
  3
ACAD_MLINESTYLE
350
222C
  3
ACAD_PLOTSETTINGS
350
222D
  3
ACAD_PLOTSTYLENAME
350
6
  3
ACAD_SCALELIST
350
264C
  3
ACAD_SECTIONVIEWSTYLE
350
2660
  3
ACAD_TABLESTYLE
350
264A
  3
ACAD_VISUALSTYLE
350
2630
  3
ACDB_RECOMPOSE_DATA
350
2A2E
  3
AcDbVariableDictionary
350
26CA
  3
DWGPROPS
350
2A2F
  0
DICTIONARY
  5
268D
330
2226
100
AcDbDictionary
280
     1
281
     1
  0
DICTIONARY
  5
278F
330
221E
100
AcDbDictionary
280
     1
281
     1
  3
ACAD_LAYERSTATES
360
2790
  0
DICTIONARY
  5
266C
330
76
100
AcDbDictionary
280
     1
281
     1
  3
ADSK_XREC_LAYER_RECONCILED
360
266D
  0
DICTIONARY
  5
266E
330
80
100
AcDbDictionary
280
     1
281
     1
  3
ADSK_XREC_LAYER_RECONCILED
360
266F
  0
DICTIONARY
  5
2670
330
4
100
AcDbDictionary
280
     1
281
     1
  3
ADSK_XREC_LAYER_RECONCILED
360
2671
  0
DICTIONARY
  5
2674
330
67F
100
AcDbDictionary
280
     1
281
     1
  3
ADSK_XREC_LAYER_RECONCILED
360
2675
  0
DICTIONARY
  5
2676
330
11
100
AcDbDictionary
280
     1
281
     1
  3
ADSK_XREC_LAYER_RECONCILED
360
2677
  0
DICTIONARY
  5
267C
330
25FC
100
AcDbDictionary
280
     1
281
     1
  3
ADSK_XREC_LAYER_RECONCILED
360
267D
  0
DICTIONARY
  5
267E
330
2601
100
AcDbDictionary
280
     1
281
     1
  3
ADSK_XREC_LAYER_RECONCILED
360
267F
  0
DICTIONARY
  5
2680
330
2606
100
AcDbDictionary
280
     1
281
     1
  3
ADSK_XREC_LAYER_RECONCILED
360
2681
  0
DICTIONARY
  5
220C
330
2
100
AcDbDictionary
280
     1
281
     1
  3
ACAD_ASSOCNETWORK
360
27A3
  3
ACAD_LAYOUTSELFREF
360
258A
  0
DICTIONARY
  5
2213
330
2212
100
AcDbDictionary
280
     1
281
     1
  3
ACAD_LAYOUTSELFREF
360
2597
  0
DICTIONARY
  5
2219
330
2218
100
AcDbDictionary
280
     1
281
     1
  3
ACAD_LAYOUTSELFREF
360
2598
  0
DICTIONARY
  5
26E1
330
26DD
100
AcDbDictionary
280
     1
281
     1
  0
DICTIONARY
  5
278B
330
2780
100
AcDbDictionary
280
     1
281
     1
  0
DICTIONARY
  5
2A70
330
2799
100
AcDbDictionary
280
     1
281
     1
  3
AcDbBlockTableRecordData
360
2A71
  0
DICTIONARY
  5
2A73
330
28D8
100
AcDbDictionary
280
     1
281
     1
  3
AcDbBlockTableRecordData
360
2A74
  0
DICTIONARY
  5
27A5
102
{ACAD_REACTORS
330
7
102
}
330
7
100
AcDbDictionary
281
     1
  3
ACAD_ASSOCNETWORK
350
27A6
  0
XRECORD
  5
266B
102
{ACAD_REACTORS
330
7
102
}
330
7
100
AcDbXrecord
280
     1
300
ACDLT
300
2014
300
ACDLT_F_S
  0
DICTIONARY
  5
2649
102
{ACAD_REACTORS
330
7
102
}
330
7
100
AcDbDictionary
281
     1
  0
DICTIONARY
  5
2662
102
{ACAD_REACTORS
330
7
102
}
330
7
100
AcDbDictionary
281
     1
  3
Metric50
350
2663
  0
DICTIONARY
  5
222B
102
{ACAD_REACTORS
330
7
102
}
330
7
100
AcDbDictionary
281
     1
  0
DICTIONARY
  5
2211
102
{ACAD_REACTORS
330
7
102
}
330
7
100
AcDbDictionary
281
     1
  3
Layout1
350
2217
  3
Layout2
350
221D
  3
Model
350
2210
  0
DICTIONARY
  5
2617
102
{ACAD_REACTORS
330
7
102
}
330
7
100
AcDbDictionary
281
     1
  3
ByBlock
350
2620
  3
ByLayer
350
2618
  3
Global
350
2628
  0
DICTIONARY
  5
265E
102
{ACAD_REACTORS
330
7
102
}
330
7
100
AcDbDictionary
281
     1
  3
Standard
350
265F
  0
DICTIONARY
  5
222C
102
{ACAD_REACTORS
330
7
102
}
330
7
100
AcDbDictionary
281
     1
  3
Standard
350
222E
  0
DICTIONARY
  5
222D
102
{ACAD_REACTORS
330
7
102
}
330
7
100
AcDbDictionary
281
     1
  0
ACDBDICTIONARYWDFLT
  5
6
102
{ACAD_REACTORS
330
7
102
}
330
7
100
AcDbDictionary
281
     1
  3
Normal
350
5
100
AcDbDictionaryWithDefault
340
5
  0
DICTIONARY
  5
264C
102
{ACAD_REACTORS
330
7
102
}
330
7
100
AcDbDictionary
281
     1
  3
A0
350
264D
  3
A1
350
264E
  3
A2
350
264F
  3
A3
350
2650
  3
A4
350
2651
  3
A5
350
2652
  3
A6
350
2653
  3
A7
350
2654
  3
A8
350
2655
  3
A9
350
2656
  3
B0
350
2657
  3
B1
350
2658
  3
B2
350
2659
  3
B3
350
265A
  3
B4
350
265B
  3
B5
350
265C
  3
B6
350
265D
  0
DICTIONARY
  5
2660
102
{ACAD_REACTORS
330
7
102
}
330
7
100
AcDbDictionary
281
     1
  3
Metric50
350
2661
  0
DICTIONARY
  5
264A
102
{ACAD_REACTORS
330
7
102
}
330
7
100
AcDbDictionary
281
     1
  3
Standard
350
264B
  0
DICTIONARY
  5
2630
102
{ACAD_REACTORS
330
7
102
}
330
7
100
AcDbDictionary
281
     1
  3
2dWireframe
350
2636
  3
Basic
350
2635
  3
Brighten
350
263C
  3
ColorChange
350
2640
  3
Conceptual
350
2639
  3
Dim
350
263B
  3
EdgeColorOff
350
2648
  3
Facepattern
350
263F
  3
Flat
350
2631
  3
FlatWithEdges
350
2632
  3
Gouraud
350
2633
  3
GouraudWithEdges
350
2634
  3
Hidden
350
2638
  3
JitterOff
350
2646
  3
Linepattern
350
263E
  3
OverhangOff
350
2647
  3
Realistic
350
263A
  3
Shaded
350
2645
  3
Shaded with edges
350
2644
  3
Shades of Gray
350
2641
  3
Sketchy
350
2642
  3
Thicken
350
263D
  3
Wireframe
350
2637
  3
X-Ray
350
2643
  0
XRECORD
  5
2A2E
102
{ACAD_REACTORS
330
7
102
}
330
7
100
AcDbXrecord
280
     1
 90
        1
330
264B
  0
DICTIONARY
  5
26CA
102
{ACAD_REACTORS
330
7
102
}
330
7
100
AcDbDictionary
281
     1
  3
CANNOSCALE
350
26CF
  3
CMLEADERSTYLE
350
26CC
  3
CTABLESTYLE
350
26CB
  3
CVIEWDETAILSTYLE
350
26CD
  3
CVIEWSECTIONSTYLE
350
26CE
  3
DIMASSOC
350
26D2
  3
INDEXCTL
350
26D1
  3
SORTENTS
350
26D0
  3
XCLIPFRAME
350
2A2C
  0
XRECORD
  5
2A2F
102
{ACAD_REACTORS
330
7
102
}
330
7
100
AcDbXrecord
280
     1
  1
DWGPROPS COOKIE
  2

  3

  4

  6

  7

  8
takara
  9

300
=
301
=
302
=
303
=
304
=
305
=
306
=
307
=
308
=
309
=
 40
0.0361740856481482
 41
2453510.558637211
 42
2457560.572798403
  1

 90
        0
  0
DICTIONARY
  5
2790
102
{ACAD_REACTORS
330
278F
102
}
330
278F
100
AcDbDictionary
281
     1
  3
_LAYISO_STATE
350
2807
1001
AcLayerTools
1000
2210
1000
0
  0
XRECORD
  5
266D
102
{ACAD_REACTORS
330
266C
102
}
330
266C
100
AcDbXrecord
280
     1
290
     1
  0
XRECORD
  5
266F
102
{ACAD_REACTORS
330
266E
102
}
330
266E
100
AcDbXrecord
280
     1
290
     1
  0
XRECORD
  5
2671
102
{ACAD_REACTORS
330
2670
102
}
330
2670
100
AcDbXrecord
280
     1
290
     1
  0
XRECORD
  5
2675
102
{ACAD_REACTORS
330
2674
102
}
330
2674
100
AcDbXrecord
280
     1
290
     1
  0
XRECORD
  5
2677
102
{ACAD_REACTORS
330
2676
102
}
330
2676
100
AcDbXrecord
280
     1
290
     1
  0
XRECORD
  5
267D
102
{ACAD_REACTORS
330
267C
102
}
330
267C
100
AcDbXrecord
280
     1
290
     1
  0
XRECORD
  5
267F
102
{ACAD_REACTORS
330
267E
102
}
330
267E
100
AcDbXrecord
280
     1
290
     1
  0
XRECORD
  5
2681
102
{ACAD_REACTORS
330
2680
102
}
330
2680
100
AcDbXrecord
280
     1
290
     1
  0
DICTIONARY
  5
27A3
102
{ACAD_REACTORS
330
220C
102
}
330
220C
100
AcDbDictionary
281
     1
  3
ACAD_ASSOCNETWORK
350
27A4
  0
XRECORD
  5
258A
102
{ACAD_REACTORS
330
220C
102
}
330
220C
100
AcDbXrecord
280
     1
340
2
  0
XRECORD
  5
2597
102
{ACAD_REACTORS
330
2213
102
}
330
2213
100
AcDbXrecord
280
     1
340
2212
  0
XRECORD
  5
2598
102
{ACAD_REACTORS
330
2219
102
}
330
2219
100
AcDbXrecord
280
     1
340
2218
  0
DICTIONARY
  5
2A71
102
{ACAD_REACTORS
330
2A70
102
}
330
2A70
100
AcDbDictionary
280
     1
281
     1
  3
Edit
360
2A72
  0
DICTIONARY
  5
2A74
102
{ACAD_REACTORS
330
2A73
102
}
330
2A73
100
AcDbDictionary
280
     1
281
     1
  3
Edit
360
2A75
  0
ACDBASSOCNETWORK
  5
27A6
102
{ACAD_REACTORS
330
27A5
102
}
330
27A5
100
AcDbAssocAction
 90
        1
 90
        1
330
0
360
0
 90
        0
 90
        0
 90
        0
100
AcDbAssocNetwork
 90
        0
 90
        1
 90
        1
330
27A4
 90
        1
330
27A4
  0
ACDBDETAILVIEWSTYLE
  5
2663
102
{ACAD_XDICTIONARY
360
2A6E
102
}
102
{ACAD_REACTORS
330
2662
102
}
330
2662
100
AcDbModelDocViewStyle
 70
     0
  3
Metric50
290
     0
100
AcDbDetailViewStyle
 70
     0
 71
     0
 90
        3
 71
     1
340
9
 40
5.0
340
0
 40
5.0
300

 40
0.0
280
     1
 71
     2
340
8
 90
       25
 71
     3
340
9
 40
5.0
 90
        0
 40
15.0
 90
        1
300
%<\AcVar ViewDetailId>% (%<\AcVar ViewScale \f "%sn">%)
 71
     4
340
8
 90
       25
340
8
 90
       25
280
     0
  0
LAYOUT
  5
2217
102
{ACAD_XDICTIONARY
360
2A32
102
}
102
{ACAD_REACTORS
330
2211
102
}
330
2211
100
AcDbPlotSettings
  1

  2
None
  4

  6

 40
0.0
 41
0.0
 42
0.0
 43
0.0
 44
0.0
 45
0.0
 46
0.0
 47
0.0
 48
0.0
 49
0.0
140
0.0
141
0.0
142
1.0
143
1.0
 70
   688
 72
     0
 73
     0
 74
     5
  7
monochrome.ctb
 75
    16
147
1.0
148
0.0
149
0.0
100
AcDbLayout
  1
Layout1
 70
     1
 71
     1
 10
0.0
 20
0.0
 11
12.0
 21
9.0
 12
0.0
 22
0.0
 32
0.0
 14
0.0
 24
0.0
 34
0.0
 15
0.0
 25
0.0
 35
0.0
146
0.0
 13
0.0
 23
0.0
 33
0.0
 16
1.0
 26
0.0
 36
0.0
 17
0.0
 27
1.0
 37
0.0
 76
     0
330
2212
  0
LAYOUT
  5
221D
102
{ACAD_XDICTIONARY
360
2A34
102
}
102
{ACAD_REACTORS
330
2211
102
}
330
2211
100
AcDbPlotSettings
  1

  2
None
  4

  6

 40
0.0
 41
0.0
 42
0.0
 43
0.0
 44
0.0
 45
0.0
 46
0.0
 47
0.0
 48
0.0
 49
0.0
140
0.0
141
0.0
142
1.0
143
1.0
 70
   688
 72
     0
 73
     0
 74
     5
  7
monochrome.ctb
 75
    16
147
1.0
148
0.0
149
0.0
100
AcDbLayout
  1
Layout2
 70
     1
 71
     2
 10
0.0
 20
0.0
 11
12.0
 21
9.0
 12
0.0
 22
0.0
 32
0.0
 14
0.0
 24
0.0
 34
0.0
 15
0.0
 25
0.0
 35
0.0
146
0.0
 13
0.0
 23
0.0
 33
0.0
 16
1.0
 26
0.0
 36
0.0
 17
0.0
 27
1.0
 37
0.0
 76
     0
330
2218
  0
LAYOUT
  5
2210
102
{ACAD_XDICTIONARY
360
2A30
102
}
102
{ACAD_REACTORS
330
2211
102
}
330
2211
100
AcDbPlotSettings
  1

  2
EPSON LP-9400
  4
A4
  6

 40
5.873749732971191
 41
5.873747825622558
 42
5.873748779296875
 43
5.873748779296875
 44
209.9733276367187
 45
297.0106506347656
 46
2.339999999999999
 47
0.0
 48
0.0
 49
0.0
140
0.0
141
0.0
142
1.0
143
9.816891609963194
 70
 11956
 72
     1
 73
     1
 74
     1
  7
monochrome.ctb
 75
     0
147
0.1018652379725877
148
1264.94917075748
149
959.6633564695521
100
AcDbLayout
  1
Model
 70
     1
 71
     0
 10
0.0
 20
0.0
 11
12.0
 21
9.0
 12
0.0
 22
0.0
 32
0.0
 14
0.0
 24
0.0
 34
0.0
 15
0.0
 25
0.0
 35
0.0
146
0.0
 13
0.0
 23
0.0
 33
0.0
 16
1.0
 26
0.0
 36
0.0
 17
0.0
 27
1.0
 37
0.0
 76
     0
330
2
331
2615
  0
MATERIAL
  5
2620
102
{ACAD_XDICTIONARY
360
2621
102
}
102
{ACAD_REACTORS
330
2617
102
}
330
2617
100
AcDbMaterial
  1
ByBlock
 72
     0
 43
0.0008202099737533
 43
0.0
 43
0.0
 43
0.0
 43
0.0
 43
0.0008202099737533
 43
0.0
 43
0.0
 43
0.0
 43
0.0
 43
1.0
 43
0.0
 43
0.0
 43
0.0
 43
0.0
 43
1.0
 77
     0
 47
0.0008202099737533
 47
0.0
 47
0.0
 47
0.0
 47
0.0
 47
0.0008202099737533
 47
0.0
 47
0.0
 47
0.0
 47
0.0
 47
1.0
 47
0.0
 47
0.0
 47
0.0
 47
0.0
 47
1.0
171
     0
 49
0.0008202099737533
 49
0.0
 49
0.0
 49
0.0
 49
0.0
 49
0.0008202099737533
 49
0.0
 49
0.0
 49
0.0
 49
0.0
 49
1.0
 49
0.0
 49
0.0
 49
0.0
 49
0.0
 49
1.0
175
     0
142
0.0008202099737533
142
0.0
142
0.0
142
0.0
142
0.0
142
0.0008202099737533
142
0.0
142
0.0
142
0.0
142
0.0
142
1.0
142
0.0
142
0.0
142
0.0
142
0.0
142
1.0
179
     0
144
0.0008202099737533
144
0.0
144
0.0
144
0.0
144
0.0
144
0.0008202099737533
144
0.0
144
0.0
144
0.0
144
0.0
144
1.0
144
0.0
144
0.0
144
0.0
144
0.0
144
1.0
147
0.0008202099737533
147
0.0
147
0.0
147
0.0
147
0.0
147
0.0008202099737533
147
0.0
147
0.0
147
0.0
147
0.0
147
1.0
147
0.0
147
0.0
147
0.0
147
0.0
147
1.0
  0
MATERIAL
  5
2618
102
{ACAD_XDICTIONARY
360
2619
102
}
102
{ACAD_REACTORS
330
2617
102
}
330
2617
100
AcDbMaterial
  1
ByLayer
 72
     0
 43
0.0008202099737533
 43
0.0
 43
0.0
 43
0.0
 43
0.0
 43
0.0008202099737533
 43
0.0
 43
0.0
 43
0.0
 43
0.0
 43
1.0
 43
0.0
 43
0.0
 43
0.0
 43
0.0
 43
1.0
 77
     0
 47
0.0008202099737533
 47
0.0
 47
0.0
 47
0.0
 47
0.0
 47
0.0008202099737533
 47
0.0
 47
0.0
 47
0.0
 47
0.0
 47
1.0
 47
0.0
 47
0.0
 47
0.0
 47
0.0
 47
1.0
171
     0
 49
0.0008202099737533
 49
0.0
 49
0.0
 49
0.0
 49
0.0
 49
0.0008202099737533
 49
0.0
 49
0.0
 49
0.0
 49
0.0
 49
1.0
 49
0.0
 49
0.0
 49
0.0
 49
0.0
 49
1.0
175
     0
142
0.0008202099737533
142
0.0
142
0.0
142
0.0
142
0.0
142
0.0008202099737533
142
0.0
142
0.0
142
0.0
142
0.0
142
1.0
142
0.0
142
0.0
142
0.0
142
0.0
142
1.0
179
     0
144
0.0008202099737533
144
0.0
144
0.0
144
0.0
144
0.0
144
0.0008202099737533
144
0.0
144
0.0
144
0.0
144
0.0
144
1.0
144
0.0
144
0.0
144
0.0
144
0.0
144
1.0
147
0.0008202099737533
147
0.0
147
0.0
147
0.0
147
0.0
147
0.0008202099737533
147
0.0
147
0.0
147
0.0
147
0.0
147
1.0
147
0.0
147
0.0
147
0.0
147
0.0
147
1.0
  0
MATERIAL
  5
2628
102
{ACAD_XDICTIONARY
360
2629
102
}
102
{ACAD_REACTORS
330
2617
102
}
330
2617
100
AcDbMaterial
  1
Global
 72
     0
 43
0.0008202099737533
 43
0.0
 43
0.0
 43
0.0
 43
0.0
 43
0.0008202099737533
 43
0.0
 43
0.0
 43
0.0
 43
0.0
 43
1.0
 43
0.0
 43
0.0
 43
0.0
 43
0.0
 43
1.0
 77
     0
 47
0.0008202099737533
 47
0.0
 47
0.0
 47
0.0
 47
0.0
 47
0.0008202099737533
 47
0.0
 47
0.0
 47
0.0
 47
0.0
 47
1.0
 47
0.0
 47
0.0
 47
0.0
 47
0.0
 47
1.0
171
     0
 49
0.0008202099737533
 49
0.0
 49
0.0
 49
0.0
 49
0.0
 49
0.0008202099737533
 49
0.0
 49
0.0
 49
0.0
 49
0.0
 49
1.0
 49
0.0
 49
0.0
 49
0.0
 49
0.0
 49
1.0
175
     0
142
0.0008202099737533
142
0.0
142
0.0
142
0.0
142
0.0
142
0.0008202099737533
142
0.0
142
0.0
142
0.0
142
0.0
142
1.0
142
0.0
142
0.0
142
0.0
142
0.0
142
1.0
179
     0
144
0.0008202099737533
144
0.0
144
0.0
144
0.0
144
0.0
144
0.0008202099737533
144
0.0
144
0.0
144
0.0
144
0.0
144
1.0
144
0.0
144
0.0
144
0.0
144
0.0
144
1.0
147
0.0008202099737533
147
0.0
147
0.0
147
0.0
147
0.0
147
0.0008202099737533
147
0.0
147
0.0
147
0.0
147
0.0
147
1.0
147
0.0
147
0.0
147
0.0
147
0.0
147
1.0
  0
MLEADERSTYLE
  5
265F
102
{ACAD_XDICTIONARY
360
2A6A
102
}
102
{ACAD_REACTORS
330
265E
102
}
330
265E
100
AcDbMLeaderStyle
170
     2
171
     1
172
     0
 90
        2
 40
0.0
 41
0.0
173
     1
 91
-1056964608
340
2222
 92
       -2
290
     1
 42
2.0
291
     1
 43
0.36
  3
Standard
 44
4.0
300

342
9
174
     1
178
     6
175
     1
176
     0
 93
-1056964608
 45
4.0
292
     0
297
     0
 46
4.0
 94
-1056964608
 47
1.0
 49
1.0
140
1.0
293
     1
141
0.0
294
     1
177
     0
142
1.0
295
     0
296
     0
143
0.125
1001
ACAD_MLEADERVER
1070
     2
  0
MLINESTYLE
  5
222E
102
{ACAD_REACTORS
330
222C
102
}
330
222C
100
AcDbMlineStyle
  2
STANDARD
 70
     0
  3

 62
   256
 51
90.0
 52
90.0
 71
     2
 49
0.5
 62
   256
  6
BYLAYER
 49
-0.5
 62
   256
  6
BYLAYER
  0
ACDBPLACEHOLDER
  5
5
102
{ACAD_REACTORS
330
6
102
}
330
6
  0
SCALE
  5
264D
102
{ACAD_REACTORS
330
264C
102
}
330
264C
100
AcDbScale
 70
     0
300
1:1
140
1.0
141
1.0
290
     1
  0
SCALE
  5
264E
102
{ACAD_REACTORS
330
264C
102
}
330
264C
100
AcDbScale
 70
     0
300
1:2
140
1.0
141
2.0
290
     0
  0
SCALE
  5
264F
102
{ACAD_REACTORS
330
264C
102
}
330
264C
100
AcDbScale
 70
     0
300
1:4
140
1.0
141
4.0
290
     0
  0
SCALE
  5
2650
102
{ACAD_REACTORS
330
264C
102
}
330
264C
100
AcDbScale
 70
     0
300
1:5
140
1.0
141
5.0
290
     0
  0
SCALE
  5
2651
102
{ACAD_REACTORS
330
264C
102
}
330
264C
100
AcDbScale
 70
     0
300
1:8
140
1.0
141
8.0
290
     0
  0
SCALE
  5
2652
102
{ACAD_REACTORS
330
264C
102
}
330
264C
100
AcDbScale
 70
     0
300
1:10
140
1.0
141
10.0
290
     0
  0
SCALE
  5
2653
102
{ACAD_REACTORS
330
264C
102
}
330
264C
100
AcDbScale
 70
     0
300
1:16
140
1.0
141
16.0
290
     0
  0
SCALE
  5
2654
102
{ACAD_REACTORS
330
264C
102
}
330
264C
100
AcDbScale
 70
     0
300
1:20
140
1.0
141
20.0
290
     0
  0
SCALE
  5
2655
102
{ACAD_REACTORS
330
264C
102
}
330
264C
100
AcDbScale
 70
     0
300
1:30
140
1.0
141
30.0
290
     0
  0
SCALE
  5
2656
102
{ACAD_REACTORS
330
264C
102
}
330
264C
100
AcDbScale
 70
     0
300
1:40
140
1.0
141
40.0
290
     0
  0
SCALE
  5
2657
102
{ACAD_REACTORS
330
264C
102
}
330
264C
100
AcDbScale
 70
     0
300
1:50
140
1.0
141
50.0
290
     0
  0
SCALE
  5
2658
102
{ACAD_REACTORS
330
264C
102
}
330
264C
100
AcDbScale
 70
     0
300
1:100
140
1.0
141
100.0
290
     0
  0
SCALE
  5
2659
102
{ACAD_REACTORS
330
264C
102
}
330
264C
100
AcDbScale
 70
     0
300
2:1
140
2.0
141
1.0
290
     0
  0
SCALE
  5
265A
102
{ACAD_REACTORS
330
264C
102
}
330
264C
100
AcDbScale
 70
     0
300
4:1
140
4.0
141
1.0
290
     0
  0
SCALE
  5
265B
102
{ACAD_REACTORS
330
264C
102
}
330
264C
100
AcDbScale
 70
     0
300
8:1
140
8.0
141
1.0
290
     0
  0
SCALE
  5
265C
102
{ACAD_REACTORS
330
264C
102
}
330
264C
100
AcDbScale
 70
     0
300
10:1
140
10.0
141
1.0
290
     0
  0
SCALE
  5
265D
102
{ACAD_REACTORS
330
264C
102
}
330
264C
100
AcDbScale
 70
     0
300
100:1
140
100.0
141
1.0
290
     0
  0
ACDBSECTIONVIEWSTYLE
  5
2661
102
{ACAD_XDICTIONARY
360
2A6C
102
}
102
{ACAD_REACTORS
330
2660
102
}
330
2660
100
AcDbModelDocViewStyle
 70
     0
  3
Metric50
290
     0
100
AcDbSectionViewStyle
 70
     0
 71
     0
 90
      102
 71
     1
340
9
 40
5.0
340
0
340
0
 40
5.0
300
I, O, Q, S, X, Z
 40
10.0
 90
        0
 40
2.5
 90
        0
 71
     2
340
8
 90
       25
340
8
 90
       50
 40
5.0
 40
2.5
 40
5.0
 71
     3
340
9
 40
5.0
 90
        0
 40
15.0
 90
        1
300
%<\AcVar ViewSectionStartId>%-%<\AcVar ViewSectionEndId>% (%<\AcVar ViewScale \f "%sn">%)
 71
     4
300
ANSI31
 40
1.0
 90
        0
290
     0
290
     0
 90
        6
 40
0.0
 40
1.570796326794896
 40
0.2617993877991494
 40
1.308996938995747
 40
-0.2617993877991494
 40
1.832595714594046
  0
TABLESTYLE
  5
264B
102
{ACAD_XDICTIONARY
360
2683
102
}
102
{ACAD_REACTORS
330
264A
102
}
330
264A
100
AcDbTableStyle
  3
Standard
 70
     0
 71
     0
 40
1.5
 41
1.5
280
     0
281
     0
  7
Standard
140
4.5
170
     2
 62
     0
 63
     7
283
     0
274
    -2
284
     1
 64
     0
275
    -2
285
     1
 65
     0
276
    -2
286
     1
 66
     0
277
    -2
287
     1
 67
     0
278
    -2
288
     1
 68
     0
279
    -2
289
     1
 69
     0
  7
Standard
140
6.0
170
     5
 62
     0
 63
     7
283
     0
274
    -2
284
     1
 64
     0
275
    -2
285
     1
 65
     0
276
    -2
286
     1
 66
     0
277
    -2
287
     1
 67
     0
278
    -2
288
     1
 68
     0
279
    -2
289
     1
 69
     0
  7
Standard
140
4.5
170
     5
 62
     0
 63
     7
283
     0
274
    -2
284
     1
 64
     0
275
    -2
285
     1
 65
     0
276
    -2
286
     1
 66
     0
277
    -2
287
     1
 67
     0
278
    -2
288
     1
 68
     0
279
    -2
289
     1
 69
     0
  0
VISUALSTYLE
  5
2636
102
{ACAD_XDICTIONARY
360
2A43
102
}
102
{ACAD_REACTORS
330
2630
102
}
330
2630
100
AcDbVisualStyle
  2
2dWireframe
 70
     4
 71
     0
 72
     2
 73
     0
 90
        0
 40
-0.6
 41
-30.0
 62
     5
 63
     7
 74
     1
 91
        4
 64
     7
 65
   257
 75
     1
175
     1
 42
1.0
 92
        0
 66
   257
 43
1.0
 76
     1
 77
     6
 78
     2
 67
     7
 79
     5
170
     0
171
     0
290
     0
174
     0
 93
        1
 44
0.0
173
     0
291
     0
 45
0.0
1001
ACAD
1000
AcDbSavedByObjectVersion
1070
     0
  0
VISUALSTYLE
  5
2635
102
{ACAD_XDICTIONARY
360
2A41
102
}
102
{ACAD_REACTORS
330
2630
102
}
330
2630
100
AcDbVisualStyle
  2
Basic
 70
     7
 71
     1
 72
     0
 73
     1
 90
        0
 40
-0.6
 41
-30.0
 62
     5
 63
     7
 74
     0
 91
        4
 64
     7
 65
   257
 75
     1
175
     1
 42
1.0
 92
        8
 66
     7
 43
1.0
 76
     1
 77
     6
 78
     2
 67
     7
 79
     5
170
     0
171
     0
290
     0
174
     0
 93
        1
 44
0.0
173
     0
291
     1
 45
0.0
1001
ACAD
1000
AcDbSavedByObjectVersion
1070
     0
  0
VISUALSTYLE
  5
263C
102
{ACAD_XDICTIONARY
360
2A4F
102
}
102
{ACAD_REACTORS
330
2630
102
}
330
2630
100
AcDbVisualStyle
  2
Brighten
 70
    12
 71
     2
 72
     2
 73
     0
 90
        0
 40
-0.6
 41
-30.0
 62
     5
 63
     7
 74
     1
 91
        4
 64
     7
 65
   257
 75
     1
175
     1
 42
1.0
 92
        8
 66
     7
 43
1.0
 76
     1
 77
     6
 78
     2
 67
     7
 79
     5
170
     0
171
     0
290
     0
174
     0
 93
        1
 44
50.0
173
     0
291
     1
 45
0.0
1001
ACAD
1000
AcDbSavedByObjectVersion
1070
     0
  0
VISUALSTYLE
  5
2640
102
{ACAD_XDICTIONARY
360
2A57
102
}
102
{ACAD_REACTORS
330
2630
102
}
330
2630
100
AcDbVisualStyle
  2
ColorChange
 70
    16
 71
     2
 72
     2
 73
     3
 90
        0
 40
-0.6
 41
-30.0
 62
     5
 63
     8
 74
     1
 91
        4
 64
     7
 65
   257
 75
     1
175
     1
 42
1.0
 92
        8
 66
     8
 43
1.0
 76
     1
 77
     6
 78
     2
 67
     7
 79
     5
170
     0
171
     0
290
     0
174
     0
 93
        1
 44
0.0
173
     0
291
     1
 45
0.0
1001
ACAD
1000
AcDbSavedByObjectVersion
1070
     0
  0
VISUALSTYLE
  5
2639
102
{ACAD_XDICTIONARY
360
2A49
102
}
102
{ACAD_REACTORS
330
2630
102
}
330
2630
100
AcDbVisualStyle
  2
Conceptual
 70
     9
 71
     3
 72
     2
 73
     0
 90
        0
 40
-0.6
 41
-30.0
 62
     5
 63
     7
 74
     2
 91
        2
 64
     7
 65
   257
 75
     1
175
     1
 42
179.0
 92
        8
 66
     7
 43
1.0
 76
     1
 77
     6
 78
     2
 67
     7
 79
     3
170
     0
171
     0
290
     0
174
     0
 93
        1
 44
0.0
173
     0
291
     0
 45
0.0
1001
ACAD
1000
AcDbSavedByObjectVersion
1070
     0
  0
VISUALSTYLE
  5
263B
102
{ACAD_XDICTIONARY
360
2A4D
102
}
102
{ACAD_REACTORS
330
2630
102
}
330
2630
100
AcDbVisualStyle
  2
Dim
 70
    11
 71
     2
 72
     2
 73
     0
 90
        0
 40
-0.6
 41
-30.0
 62
     5
 63
     7
 74
     1
 91
        4
 64
     7
 65
   257
 75
     1
175
     1
 42
1.0
 92
        8
 66
     7
 43
1.0
 76
     1
 77
     6
 78
     2
 67
     7
 79
     5
170
     0
171
     0
290
     0
174
     0
 93
        1
 44
-50.0
173
     0
291
     1
 45
0.0
1001
ACAD
1000
AcDbSavedByObjectVersion
1070
     0
  0
VISUALSTYLE
  5
2648
102
{ACAD_XDICTIONARY
360
2A67
102
}
102
{ACAD_REACTORS
330
2630
102
}
330
2630
100
AcDbVisualStyle
  2
EdgeColorOff
 70
    22
 71
     2
 72
     2
 73
     0
 90
        0
 40
-0.6
 41
-30.0
 62
     5
 63
     7
 74
     1
 91
        4
 64
     7
 65
   257
 75
     1
175
     1
 42
1.0
 92
        8
 66
     7
 43
1.0
 76
     1
 77
     6
 78
     2
 67
     7
 79
     5
170
     0
171
     0
290
     0
174
     0
 93
        1
 44
0.0
173
     0
291
     1
 45
0.0
1001
ACAD
1000
AcDbSavedByObjectVersion
1070
     0
  0
VISUALSTYLE
  5
263F
102
{ACAD_XDICTIONARY
360
2A55
102
}
102
{ACAD_REACTORS
330
2630
102
}
330
2630
100
AcDbVisualStyle
  2
Facepattern
 70
    15
 71
     2
 72
     2
 73
     0
 90
        0
 40
-0.6
 41
-30.0
 62
     5
 63
     7
 74
     1
 91
        4
 64
     7
 65
   257
 75
     1
175
     1
 42
1.0
 92
        8
 66
     7
 43
1.0
 76
     1
 77
     6
 78
     2
 67
     7
 79
     5
170
     0
171
     0
290
     0
174
     0
 93
        1
 44
0.0
173
     0
291
     1
 45
0.0
1001
ACAD
1000
AcDbSavedByObjectVersion
1070
     0
  0
VISUALSTYLE
  5
2631
102
{ACAD_XDICTIONARY
360
2A39
102
}
102
{ACAD_REACTORS
330
2630
102
}
330
2630
100
AcDbVisualStyle
  2
Flat
 70
     0
 71
     2
 72
     1
 73
     1
 90
        2
 40
-0.6
 41
30.0
 62
     5
 63
     7
 74
     0
 91
        0
 64
     7
 65
   257
 75
     1
175
     1
 42
1.0
 92
        8
 66
     7
 43
1.0
 76
     1
 77
     6
 78
     2
 67
     7
 79
     5
170
     0
171
     0
290
     0
174
     0
 93
       13
 44
0.0
173
     0
291
     1
 45
0.0
1001
ACAD
1000
AcDbSavedByObjectVersion
1070
     0
  0
VISUALSTYLE
  5
2632
102
{ACAD_XDICTIONARY
360
2A3B
102
}
102
{ACAD_REACTORS
330
2630
102
}
330
2630
100
AcDbVisualStyle
  2
FlatWithEdges
 70
     1
 71
     2
 72
     1
 73
     1
 90
        2
 40
-0.6
 41
30.0
 62
     5
 63
     7
 74
     1
 91
        0
 64
     7
 65
   257
 75
     1
175
     1
 42
1.0
 92
        0
 66
   257
 43
1.0
 76
     1
 77
     6
 78
     2
 67
     7
 79
     5
170
     0
171
     0
290
     0
174
     0
 93
       13
 44
0.0
173
     0
291
     1
 45
0.0
1001
ACAD
1000
AcDbSavedByObjectVersion
1070
     0
  0
VISUALSTYLE
  5
2633
102
{ACAD_XDICTIONARY
360
2A3D
102
}
102
{ACAD_REACTORS
330
2630
102
}
330
2630
100
AcDbVisualStyle
  2
Gouraud
 70
     2
 71
     2
 72
     2
 73
     1
 90
        2
 40
-0.6
 41
30.0
 62
     5
 63
     7
 74
     0
 91
        0
 64
     7
 65
   257
 75
     1
175
     1
 42
1.0
 92
        0
 66
     7
 43
1.0
 76
     1
 77
     6
 78
     2
 67
     7
 79
     5
170
     0
171
     0
290
     0
174
     0
 93
       13
 44
0.0
173
     0
291
     1
 45
0.0
1001
ACAD
1000
AcDbSavedByObjectVersion
1070
     0
  0
VISUALSTYLE
  5
2634
102
{ACAD_XDICTIONARY
360
2A3F
102
}
102
{ACAD_REACTORS
330
2630
102
}
330
2630
100
AcDbVisualStyle
  2
GouraudWithEdges
 70
     3
 71
     2
 72
     2
 73
     1
 90
        2
 40
-0.6
 41
30.0
 62
     5
 63
     7
 74
     1
 91
        0
 64
     7
 65
   257
 75
     1
175
     1
 42
1.0
 92
        0
 66
   257
 43
1.0
 76
     1
 77
     6
 78
     2
 67
     7
 79
     5
170
     0
171
     0
290
     0
174
     0
 93
       13
 44
0.0
173
     0
291
     1
 45
0.0
1001
ACAD
1000
AcDbSavedByObjectVersion
1070
     0
  0
VISUALSTYLE
  5
2638
102
{ACAD_XDICTIONARY
360
2A47
102
}
102
{ACAD_REACTORS
330
2630
102
}
330
2630
100
AcDbVisualStyle
  2
Hidden
 70
     6
 71
     1
 72
     2
 73
     2
 90
        0
 40
-0.6
 41
-30.0
 62
     5
 63
     7
 74
     2
 91
        2
 64
     7
 65
   257
 75
     2
175
     1
 42
40.0
 92
        0
 66
   257
 43
1.0
 76
     1
 77
     6
 78
     2
 67
     7
 79
     3
170
     0
171
     0
290
     0
174
     0
 93
        1
 44
0.0
173
     0
291
     0
 45
0.0
1001
ACAD
1000
AcDbSavedByObjectVersion
1070
     0
  0
VISUALSTYLE
  5
2646
102
{ACAD_XDICTIONARY
360
2A63
102
}
102
{ACAD_REACTORS
330
2630
102
}
330
2630
100
AcDbVisualStyle
  2
JitterOff
 70
    20
 71
     2
 72
     2
 73
     0
 90
        0
 40
-0.6
 41
-30.0
 62
     5
 63
     7
 74
     1
 91
        4
 64
     7
 65
   257
 75
     1
175
     1
 42
1.0
 92
       10
 66
     7
 43
1.0
 76
     1
 77
     6
 78
     2
 67
     7
 79
     5
170
     0
171
     0
290
     0
174
     0
 93
        1
 44
0.0
173
     0
291
     1
 45
0.0
1001
ACAD
1000
AcDbSavedByObjectVersion
1070
     0
  0
VISUALSTYLE
  5
263E
102
{ACAD_XDICTIONARY
360
2A53
102
}
102
{ACAD_REACTORS
330
2630
102
}
330
2630
100
AcDbVisualStyle
  2
Linepattern
 70
    14
 71
     2
 72
     2
 73
     0
 90
        0
 40
-0.6
 41
-30.0
 62
     5
 63
     7
 74
     1
 91
        4
 64
     7
 65
   257
 75
     7
175
     7
 42
1.0
 92
        8
 66
     7
 43
1.0
 76
     1
 77
     6
 78
     2
 67
     7
 79
     5
170
     0
171
     0
290
     0
174
     0
 93
        1
 44
0.0
173
     0
291
     1
 45
0.0
1001
ACAD
1000
AcDbSavedByObjectVersion
1070
     0
  0
VISUALSTYLE
  5
2647
102
{ACAD_XDICTIONARY
360
2A65
102
}
102
{ACAD_REACTORS
330
2630
102
}
330
2630
100
AcDbVisualStyle
  2
OverhangOff
 70
    21
 71
     2
 72
     2
 73
     0
 90
        0
 40
-0.6
 41
-30.0
 62
     5
 63
     7
 74
     1
 91
        4
 64
     7
 65
   257
 75
     1
175
     1
 42
1.0
 92
        9
 66
     7
 43
1.0
 76
     1
 77
     6
 78
     2
 67
     7
 79
     5
170
     0
171
     0
290
     0
174
     0
 93
        1
 44
0.0
173
     0
291
     1
 45
0.0
1001
ACAD
1000
AcDbSavedByObjectVersion
1070
     0
  0
VISUALSTYLE
  5
263A
102
{ACAD_XDICTIONARY
360
2A4B
102
}
102
{ACAD_REACTORS
330
2630
102
}
330
2630
100
AcDbVisualStyle
  2
Realistic
 70
     8
 71
     2
 72
     2
 73
     0
 90
        2
 40
-0.6
 41
30.0
 62
     5
 63
     7
 74
     0
 91
        0
 64
     7
 65
   257
 75
     1
175
     1
 42
1.0
 92
        8
 66
   257
 43
1.0
 76
     1
 77
     6
 78
     2
 67
     7
 79
     3
170
     0
171
     0
290
     0
174
     0
 93
       13
 44
0.0
173
     0
291
     0
 45
0.0
1001
ACAD
1000
AcDbSavedByObjectVersion
1070
     0
  0
VISUALSTYLE
  5
2645
102
{ACAD_XDICTIONARY
360
2A61
102
}
102
{ACAD_REACTORS
330
2630
102
}
330
2630
100
AcDbVisualStyle
  2
Shaded
 70
    27
 71
     2
 72
     2
 73
     1
 90
        2
 40
-0.6
 41
30.0
 62
     5
 63
     7
 74
     0
 91
        4
 64
     7
 65
   257
 75
     1
175
     1
 42
1.0
 92
        8
 66
   257
 43
1.0
 76
     1
 77
     6
 78
     2
 67
     8
 79
     3
170
     0
171
     0
290
     0
174
     0
 93
        5
 44
0.0
173
     0
291
     0
 45
0.0
1001
ACAD
1000
AcDbSavedByObjectVersion
1070
     0
  0
VISUALSTYLE
  5
2644
102
{ACAD_XDICTIONARY
360
2A5F
102
}
102
{ACAD_REACTORS
330
2630
102
}
330
2630
100
AcDbVisualStyle
  2
Shaded with edges
 70
    26
 71
     2
 72
     2
 73
     1
 90
        2
 40
-0.6
 41
30.0
 62
     5
 63
     7
 74
     1
 91
       10
 64
     7
 65
   257
 75
     2
175
     1
 42
1.0
 92
        8
 66
   257
 43
1.0
 76
     1
 77
     6
 78
     2
 67
     7
 79
     3
170
     0
171
     0
290
     0
174
     0
 93
        5
 44
0.0
173
     0
291
     0
 45
0.0
1001
ACAD
1000
AcDbSavedByObjectVersion
1070
     0
  0
VISUALSTYLE
  5
2641
102
{ACAD_XDICTIONARY
360
2A59
102
}
102
{ACAD_REACTORS
330
2630
102
}
330
2630
100
AcDbVisualStyle
  2
Shades of Gray
 70
    23
 71
     2
 72
     2
 73
     3
 90
        0
 40
-0.6
 41
-30.0
 62
     5
 63
     7
 74
     2
 91
        2
 64
     7
 65
     7
 75
     1
175
     1
 42
40.0
 92
        8
 66
     7
 43
1.0
 76
     1
 77
     6
 78
     2
 67
     7
 79
     3
170
     0
171
     0
290
     0
174
     0
 93
        1
 44
0.0
173
     0
291
     0
 45
0.0
1001
ACAD
1000
AcDbSavedByObjectVersion
1070
     0
  0
VISUALSTYLE
  5
2642
102
{ACAD_XDICTIONARY
360
2A5B
102
}
102
{ACAD_REACTORS
330
2630
102
}
330
2630
100
AcDbVisualStyle
  2
Sketchy
 70
    24
 71
     1
 72
     2
 73
     2
 90
        0
 40
-0.6
 41
-30.0
 62
     5
 63
     7
 74
     2
 91
        2
 64
     7
 65
     7
 75
     1
175
     1
 42
40.0
 92
       11
 66
     7
 43
1.0
 76
     1
 77
     6
 78
     2
 67
     7
 79
     6
170
     0
171
     0
290
     0
174
     0
 93
        1
 44
0.0
173
     0
291
     0
 45
0.0
1001
ACAD
1000
AcDbSavedByObjectVersion
1070
     0
  0
VISUALSTYLE
  5
263D
102
{ACAD_XDICTIONARY
360
2A51
102
}
102
{ACAD_REACTORS
330
2630
102
}
330
2630
100
AcDbVisualStyle
  2
Thicken
 70
    13
 71
     2
 72
     2
 73
     0
 90
        0
 40
-0.6
 41
-30.0
 62
     5
 63
     7
 74
     1
 91
        4
 64
     7
 65
   257
 75
     1
175
     1
 42
1.0
 92
       12
 66
     7
 43
1.0
 76
     1
 77
     6
 78
     2
 67
     7
 79
     5
170
     0
171
     0
290
     0
174
     0
 93
        1
 44
0.0
173
     0
291
     1
 45
0.0
1001
ACAD
1000
AcDbSavedByObjectVersion
1070
     0
  0
VISUALSTYLE
  5
2637
102
{ACAD_XDICTIONARY
360
2A45
102
}
102
{ACAD_REACTORS
330
2630
102
}
330
2630
100
AcDbVisualStyle
  2
Wireframe
 70
     5
 71
     0
 72
     2
 73
     0
 90
        0
 40
-0.6
 41
-30.0
 62
     5
 63
     7
 74
     1
 91
        4
 64
     7
 65
   257
 75
     1
175
     1
 42
1.0
 92
        0
 66
   257
 43
1.0
 76
     1
 77
     6
 78
     2
 67
     7
 79
     3
170
     0
171
     0
290
     0
174
     0
 93
        1
 44
0.0
173
     0
291
     0
 45
0.0
1001
ACAD
1000
AcDbSavedByObjectVersion
1070
     0
  0
VISUALSTYLE
  5
2643
102
{ACAD_XDICTIONARY
360
2A5D
102
}
102
{ACAD_REACTORS
330
2630
102
}
330
2630
100
AcDbVisualStyle
  2
X-Ray
 70
    25
 71
     2
 72
     2
 73
     1
 90
        1
 40
0.5
 41
-30.0
 62
     5
 63
     7
 74
     1
 91
        0
 64
     7
 65
   257
 75
     1
175
     1
 42
1.0
 92
        8
 66
     7
 43
1.0
 76
     1
 77
     6
 78
     2
 67
     7
 79
     3
170
     0
171
     0
290
     0
174
     0
 93
       13
 44
0.0
173
     0
291
     0
 45
0.0
1001
ACAD
1000
AcDbSavedByObjectVersion
1070
     0
  0
DICTIONARYVAR
  5
26CF
102
{ACAD_REACTORS
330
26CA
102
}
330
26CA
100
DictionaryVariables
280
     0
  1
1:1
  0
DICTIONARYVAR
  5
26CC
102
{ACAD_REACTORS
330
26CA
102
}
330
26CA
100
DictionaryVariables
280
     0
  1
STANDARD
  0
DICTIONARYVAR
  5
26CB
102
{ACAD_REACTORS
330
26CA
102
}
330
26CA
100
DictionaryVariables
280
     0
  1
STANDARD
  0
DICTIONARYVAR
  5
26CD
102
{ACAD_REACTORS
330
26CA
102
}
330
26CA
100
DictionaryVariables
280
     0
  1
Metric50
  0
DICTIONARYVAR
  5
26CE
102
{ACAD_REACTORS
330
26CA
102
}
330
26CA
100
DictionaryVariables
280
     0
  1
Metric50
  0
DICTIONARYVAR
  5
26D2
102
{ACAD_REACTORS
330
26CA
102
}
330
26CA
100
DictionaryVariables
280
     0
  1
1
  0
DICTIONARYVAR
  5
26D1
102
{ACAD_REACTORS
330
26CA
102
}
330
26CA
100
DictionaryVariables
280
     0
  1
0
  0
DICTIONARYVAR
  5
26D0
102
{ACAD_REACTORS
330
26CA
102
}
330
26CA
100
DictionaryVariables
280
     0
  1
127
  0
DICTIONARYVAR
  5
2A2C
102
{ACAD_REACTORS
330
26CA
102
}
330
26CA
100
DictionaryVariables
280
     0
  1
2
  0
XRECORD
  5
2807
102
{ACAD_XDICTIONARY
360
2808
102
}
102
{ACAD_REACTORS
330
2790
102
}
330
2790
100
AcDbXrecord
280
     1
 91
      535
301

290
     0
302
本体
330
2606
 90
        8
 62
     1
370
     5
331
EB
  1
色_1
440
        0
330
2601
 90
        8
 62
   112
370
    13
331
D3
  1
色_112
440
        0
330
25FC
 90
        8
 62
   112
370
    13
331
8
  1
色_112
440
        0
330
25F7
 90
        8
 62
    51
370
    13
331
8
  1
色_51
440
        0
330
2342
 90
        8
 62
     3
370
     9
331
8
  1
色_3
440
        0
330
AC
 90
        0
 62
     7
370
    -3
331
8
  1
色_7
440
        0
330
11
 90
        8
 62
     7
370
    -3
331
8
  1
色_7
440
        0
330
67F
 90
        8
 62
     4
370
     5
331
8
  1
色_4
440
        0
330
2E
 90
        8
 62
    31
370
     9
331
8
  1
色_31
440
        0
330
4
 90
        8
 62
     2
370
     9
331
8
  1
色_2
440
        0
330
80
 90
        8
 62
     7
370
    13
331
8
  1
色_7
440
        0
330
76
 90
        8
 62
     7
370
    -3
331
8
  1
色_7
440
        0
  0
ACDBASSOCNETWORK
  5
27A4
102
{ACAD_REACTORS
330
27A3
102
}
330
27A3
100
AcDbAssocAction
 90
        1
 90
        1
330
27A6
360
0
 90
        1
 90
        0
 90
        0
100
AcDbAssocNetwork
 90
        0
 90
        2
 90
        2
360
27A7
360
2943
 90
        2
330
27A7
330
2943
  0
XRECORD
  5
2A72
102
{ACAD_REACTORS
330
2A71
102
}
330
2A71
100
AcDbXrecord
280
     1
1070
     0
1070
     1
1070
     1
  0
XRECORD
  5
2A75
102
{ACAD_REACTORS
330
2A74
102
}
330
2A74
100
AcDbXrecord
280
     1
1070
     0
1070
     1
1070
     1
  0
DICTIONARY
  5
2A6E
330
2663
100
AcDbDictionary
280
     1
281
     1
  3
ACAD_XREC_ROUNDTRIP
360
2A6F
  0
DICTIONARY
  5
2A32
330
2217
100
AcDbDictionary
280
     1
281
     1
  3
ACAD_XREC_ROUNDTRIP
360
2A33
  0
DICTIONARY
  5
2A34
330
221D
100
AcDbDictionary
280
     1
281
     1
  3
ACAD_XREC_ROUNDTRIP
360
2A35
  0
DICTIONARY
  5
2A30
330
2210
100
AcDbDictionary
280
     1
281
     1
  3
ACAD_XREC_ROUNDTRIP
360
2A31
  0
DICTIONARY
  5
2621
330
2620
100
AcDbDictionary
280
     1
281
     1
  3
ACAD_XREC_ROUNDTRIP
360
2A37
  3
BUMPTILE
360
2623
  3
DIFFUSETILE
360
2622
  3
OPACITYTILE
360
2626
  3
REFLECTIONTILE
360
2625
  3
REFRACTIONTILE
360
2627
  3
SPECULARTILE
360
2624
  0
DICTIONARY
  5
2619
330
2618
100
AcDbDictionary
280
     1
281
     1
  3
ACAD_XREC_ROUNDTRIP
360
2A36
  3
BUMPTILE
360
261B
  3
DIFFUSETILE
360
261A
  3
OPACITYTILE
360
261E
  3
REFLECTIONTILE
360
261D
  3
REFRACTIONTILE
360
261F
  3
SPECULARTILE
360
261C
  0
DICTIONARY
  5
2629
330
2628
100
AcDbDictionary
280
     1
281
     1
  3
ACAD_XREC_ROUNDTRIP
360
2A38
  3
BUMPTILE
360
262B
  3
DIFFUSETILE
360
262A
  3
OPACITYTILE
360
262E
  3
REFLECTIONTILE
360
262D
  3
REFRACTIONTILE
360
262F
  3
SPECULARTILE
360
262C
  0
DICTIONARY
  5
2A6A
330
265F
100
AcDbDictionary
280
     1
281
     1
  3
ACAD_XREC_ROUNDTRIP
360
2A6B
  0
DICTIONARY
  5
2A6C
330
2661
100
AcDbDictionary
280
     1
281
     1
  3
ACAD_XREC_ROUNDTRIP
360
2A6D
  0
DICTIONARY
  5
2683
330
264B
100
AcDbDictionary
280
     1
281
     1
  3
ACAD_ROUNDTRIP_2008_TABLESTYLE_CELLSTYLEMAP
360
2A2D
  3
ACAD_XREC_ROUNDTRIP
360
2A69
  0
DICTIONARY
  5
2A43
330
2636
100
AcDbDictionary
280
     1
281
     1
  3
ACAD_XREC_ROUNDTRIP
360
2A44
  0
DICTIONARY
  5
2A41
330
2635
100
AcDbDictionary
280
     1
281
     1
  3
ACAD_XREC_ROUNDTRIP
360
2A42
  0
DICTIONARY
  5
2A4F
330
263C
100
AcDbDictionary
280
     1
281
     1
  3
ACAD_XREC_ROUNDTRIP
360
2A50
  0
DICTIONARY
  5
2A57
330
2640
100
AcDbDictionary
280
     1
281
     1
  3
ACAD_XREC_ROUNDTRIP
360
2A58
  0
DICTIONARY
  5
2A49
330
2639
100
AcDbDictionary
280
     1
281
     1
  3
ACAD_XREC_ROUNDTRIP
360
2A4A
  0
DICTIONARY
  5
2A4D
330
263B
100
AcDbDictionary
280
     1
281
     1
  3
ACAD_XREC_ROUNDTRIP
360
2A4E
  0
DICTIONARY
  5
2A67
330
2648
100
AcDbDictionary
280
     1
281
     1
  3
ACAD_XREC_ROUNDTRIP
360
2A68
  0
DICTIONARY
  5
2A55
330
263F
100
AcDbDictionary
280
     1
281
     1
  3
ACAD_XREC_ROUNDTRIP
360
2A56
  0
DICTIONARY
  5
2A39
330
2631
100
AcDbDictionary
280
     1
281
     1
  3
ACAD_XREC_ROUNDTRIP
360
2A3A
  0
DICTIONARY
  5
2A3B
330
2632
100
AcDbDictionary
280
     1
281
     1
  3
ACAD_XREC_ROUNDTRIP
360
2A3C
  0
DICTIONARY
  5
2A3D
330
2633
100
AcDbDictionary
280
     1
281
     1
  3
ACAD_XREC_ROUNDTRIP
360
2A3E
  0
DICTIONARY
  5
2A3F
330
2634
100
AcDbDictionary
280
     1
281
     1
  3
ACAD_XREC_ROUNDTRIP
360
2A40
  0
DICTIONARY
  5
2A47
330
2638
100
AcDbDictionary
280
     1
281
     1
  3
ACAD_XREC_ROUNDTRIP
360
2A48
  0
DICTIONARY
  5
2A63
330
2646
100
AcDbDictionary
280
     1
281
     1
  3
ACAD_XREC_ROUNDTRIP
360
2A64
  0
DICTIONARY
  5
2A53
330
263E
100
AcDbDictionary
280
     1
281
     1
  3
ACAD_XREC_ROUNDTRIP
360
2A54
  0
DICTIONARY
  5
2A65
330
2647
100
AcDbDictionary
280
     1
281
     1
  3
ACAD_XREC_ROUNDTRIP
360
2A66
  0
DICTIONARY
  5
2A4B
330
263A
100
AcDbDictionary
280
     1
281
     1
  3
ACAD_XREC_ROUNDTRIP
360
2A4C
  0
DICTIONARY
  5
2A61
330
2645
100
AcDbDictionary
280
     1
281
     1
  3
ACAD_XREC_ROUNDTRIP
360
2A62
  0
DICTIONARY
  5
2A5F
330
2644
100
AcDbDictionary
280
     1
281
     1
  3
ACAD_XREC_ROUNDTRIP
360
2A60
  0
DICTIONARY
  5
2A59
330
2641
100
AcDbDictionary
280
     1
281
     1
  3
ACAD_XREC_ROUNDTRIP
360
2A5A
  0
DICTIONARY
  5
2A5B
330
2642
100
AcDbDictionary
280
     1
281
     1
  3
ACAD_XREC_ROUNDTRIP
360
2A5C
  0
DICTIONARY
  5
2A51
330
263D
100
AcDbDictionary
280
     1
281
     1
  3
ACAD_XREC_ROUNDTRIP
360
2A52
  0
DICTIONARY
  5
2A45
330
2637
100
AcDbDictionary
280
     1
281
     1
  3
ACAD_XREC_ROUNDTRIP
360
2A46
  0
DICTIONARY
  5
2A5D
330
2643
100
AcDbDictionary
280
     1
281
     1
  3
ACAD_XREC_ROUNDTRIP
360
2A5E
  0
DICTIONARY
  5
2808
330
2807
100
AcDbDictionary
280
     1
281
     1
  3
AcadLayerStateAnnoScale
360
2809
  0
ACDBASSOCACTION
  5
27A7
330
27A4
100
AcDbAssocAction
 90
        1
 90
        1
330
27A4
360
27A8
 90
        1
 90
        3
 90
        3
360
27AB
360
27AC
360
27AD
  0
ACDBASSOCACTION
  5
2943
330
27A4
100
AcDbAssocAction
 90
        1
 90
        1
330
27A4
360
2944
 90
        2
 90
        3
 90
        3
360
2947
360
2948
360
2949
  0
XRECORD
  5
2A6F
102
{ACAD_REACTORS
330
2A6E
102
}
330
2A6E
100
AcDbXrecord
280
     1
102
DISPLAYNAME
  1
Metric50
102
FLAGS
 90
        0
  0
XRECORD
  5
2A33
102
{ACAD_REACTORS
330
2A32
102
}
330
2A32
100
AcDbXrecord
280
     1
102
SHADEPLOT
 70
     0
102
SHADEPLOTRESLEVEL
 70
     2
102
SHADEPLOTCUSTOMDPI
 70
   300
  0
XRECORD
  5
2A35
102
{ACAD_REACTORS
330
2A34
102
}
330
2A34
100
AcDbXrecord
280
     1
102
SHADEPLOT
 70
     0
102
SHADEPLOTRESLEVEL
 70
     2
102
SHADEPLOTCUSTOMDPI
 70
   300
  0
XRECORD
  5
2A31
102
{ACAD_REACTORS
330
2A30
102
}
330
2A30
100
AcDbXrecord
280
     1
102
SHADEPLOT
 70
     0
102
SHADEPLOTRESLEVEL
 70
     2
102
SHADEPLOTCUSTOMDPI
 70
   300
  0
XRECORD
  5
2A37
102
{ACAD_REACTORS
330
2621
102
}
330
2621
100
AcDbXrecord
280
     1
102
MATERIAL
148
0.0
149
0.0
149
0.0
 93
        0
 94
      127
282
     0
 72
     0
 77
     0
171
     0
175
     0
179
     0
273
     0
  0
XRECORD
  5
2623
102
{ACAD_REACTORS
330
2621
102
}
330
2621
100
AcDbXrecord
280
     1
270
     1
271
     1
  0
XRECORD
  5
2622
102
{ACAD_REACTORS
330
2621
102
}
330
2621
100
AcDbXrecord
280
     1
270
     1
271
     1
  0
XRECORD
  5
2626
102
{ACAD_REACTORS
330
2621
102
}
330
2621
100
AcDbXrecord
280
     1
270
     1
271
     1
  0
XRECORD
  5
2625
102
{ACAD_REACTORS
330
2621
102
}
330
2621
100
AcDbXrecord
280
     1
270
     1
271
     1
  0
XRECORD
  5
2627
102
{ACAD_REACTORS
330
2621
102
}
330
2621
100
AcDbXrecord
280
     1
270
     1
271
     1
  0
XRECORD
  5
2624
102
{ACAD_REACTORS
330
2621
102
}
330
2621
100
AcDbXrecord
280
     1
270
     1
271
     1
  0
XRECORD
  5
2A36
102
{ACAD_REACTORS
330
2619
102
}
330
2619
100
AcDbXrecord
280
     1
102
MATERIAL
148
0.0
149
0.0
149
0.0
 93
        0
 94
      127
282
     0
 72
     0
 77
     0
171
     0
175
     0
179
     0
273
     0
  0
XRECORD
  5
261B
102
{ACAD_REACTORS
330
2619
102
}
330
2619
100
AcDbXrecord
280
     1
270
     1
271
     1
  0
XRECORD
  5
261A
102
{ACAD_REACTORS
330
2619
102
}
330
2619
100
AcDbXrecord
280
     1
270
     1
271
     1
  0
XRECORD
  5
261E
102
{ACAD_REACTORS
330
2619
102
}
330
2619
100
AcDbXrecord
280
     1
270
     1
271
     1
  0
XRECORD
  5
261D
102
{ACAD_REACTORS
330
2619
102
}
330
2619
100
AcDbXrecord
280
     1
270
     1
271
     1
  0
XRECORD
  5
261F
102
{ACAD_REACTORS
330
2619
102
}
330
2619
100
AcDbXrecord
280
     1
270
     1
271
     1
  0
XRECORD
  5
261C
102
{ACAD_REACTORS
330
2619
102
}
330
2619
100
AcDbXrecord
280
     1
270
     1
271
     1
  0
XRECORD
  5
2A38
102
{ACAD_REACTORS
330
2629
102
}
330
2629
100
AcDbXrecord
280
     1
102
MATERIAL
148
0.0
149
0.0
149
0.0
 93
        0
 94
      127
282
     0
 72
     0
 77
     0
171
     0
175
     0
179
     0
273
     0
  0
XRECORD
  5
262B
102
{ACAD_REACTORS
330
2629
102
}
330
2629
100
AcDbXrecord
280
     1
270
     1
271
     1
  0
XRECORD
  5
262A
102
{ACAD_REACTORS
330
2629
102
}
330
2629
100
AcDbXrecord
280
     1
270
     1
271
     1
  0
XRECORD
  5
262E
102
{ACAD_REACTORS
330
2629
102
}
330
2629
100
AcDbXrecord
280
     1
270
     1
271
     1
  0
XRECORD
  5
262D
102
{ACAD_REACTORS
330
2629
102
}
330
2629
100
AcDbXrecord
280
     1
270
     1
271
     1
  0
XRECORD
  5
262F
102
{ACAD_REACTORS
330
2629
102
}
330
2629
100
AcDbXrecord
280
     1
270
     1
271
     1
  0
XRECORD
  5
262C
102
{ACAD_REACTORS
330
2629
102
}
330
2629
100
AcDbXrecord
280
     1
270
     1
271
     1
  0
XRECORD
  5
2A6B
102
{ACAD_REACTORS
330
2A6A
102
}
330
2A6A
100
AcDbXrecord
280
     1
102
ACAD_ROUNDTRIP_2012_MLEADER_STYLE
298
     1
  0
XRECORD
  5
2A6D
102
{ACAD_REACTORS
330
2A6C
102
}
330
2A6C
100
AcDbXrecord
280
     1
102
DISPLAYNAME
  1
Metric50
102
FLAGS
 90
        0
  0
CELLSTYLEMAP
  5
2A2D
102
{ACAD_REACTORS
330
2683
102
}
330
2683
100
AcDbCellStyleMap
 90
        3
300
CELLSTYLE
  1
TABLEFORMAT_BEGIN
 90
        5
170
     1
 91
        0
 92
    32768
 62
   257
 93
        1
300
CONTENTFORMAT
  1
CONTENTFORMAT_BEGIN
 90
        0
 91
        0
 92
      512
 93
        0
300

 40
0.0
140
1.0
 94
        5
 62
     0
340
9
144
6.0
309
CONTENTFORMAT_END
171
     1
301
MARGIN
  1
CELLMARGIN_BEGIN
 40
1.5
 40
1.5
 40
1.5
 40
1.5
 40
4.5
 40
4.5
309
CELLMARGIN_END
 94
        6
 95
        1
302
GRIDFORMAT
  1
GRIDFORMAT_BEGIN
 90
        0
 91
        1
 62
     0
 92
       -2
340
0
 93
        0
 40
1.125
309
GRIDFORMAT_END
 95
        2
302
GRIDFORMAT
  1
GRIDFORMAT_BEGIN
 90
        0
 91
        1
 62
     0
 92
       -2
340
0
 93
        0
 40
1.125
309
GRIDFORMAT_END
 95
        4
302
GRIDFORMAT
  1
GRIDFORMAT_BEGIN
 90
        0
 91
        1
 62
     0
 92
       -2
340
0
 93
        0
 40
1.125
309
GRIDFORMAT_END
 95
        8
302
GRIDFORMAT
  1
GRIDFORMAT_BEGIN
 90
        0
 91
        1
 62
     0
 92
       -2
340
0
 93
        0
 40
1.125
309
GRIDFORMAT_END
 95
       16
302
GRIDFORMAT
  1
GRIDFORMAT_BEGIN
 90
        0
 91
        1
 62
     0
 92
       -2
340
0
 93
        0
 40
1.125
309
GRIDFORMAT_END
 95
       32
302
GRIDFORMAT
  1
GRIDFORMAT_BEGIN
 90
        0
 91
        1
 62
     0
 92
       -2
340
0
 93
        0
 40
1.125
309
GRIDFORMAT_END
309
TABLEFORMAT_END
  1
CELLSTYLE_BEGIN
 90
        1
 91
        1
300
_TITLE
309
CELLSTYLE_END
300
CELLSTYLE
  1
TABLEFORMAT_BEGIN
 90
        5
170
     1
 91
        0
 92
        0
 62
   257
 93
        1
300
CONTENTFORMAT
  1
CONTENTFORMAT_BEGIN
 90
        0
 91
        0
 92
      512
 93
        0
300

 40
0.0
140
1.0
 94
        5
 62
     0
340
9
144
4.5
309
CONTENTFORMAT_END
171
     1
301
MARGIN
  1
CELLMARGIN_BEGIN
 40
1.5
 40
1.5
 40
1.5
 40
1.5
 40
4.5
 40
4.5
309
CELLMARGIN_END
 94
        6
 95
        1
302
GRIDFORMAT
  1
GRIDFORMAT_BEGIN
 90
        0
 91
        1
 62
     0
 92
       -2
340
0
 93
        0
 40
1.125
309
GRIDFORMAT_END
 95
        2
302
GRIDFORMAT
  1
GRIDFORMAT_BEGIN
 90
        0
 91
        1
 62
     0
 92
       -2
340
0
 93
        0
 40
1.125
309
GRIDFORMAT_END
 95
        4
302
GRIDFORMAT
  1
GRIDFORMAT_BEGIN
 90
        0
 91
        1
 62
     0
 92
       -2
340
0
 93
        0
 40
1.125
309
GRIDFORMAT_END
 95
        8
302
GRIDFORMAT
  1
GRIDFORMAT_BEGIN
 90
        0
 91
        1
 62
     0
 92
       -2
340
0
 93
        0
 40
1.125
309
GRIDFORMAT_END
 95
       16
302
GRIDFORMAT
  1
GRIDFORMAT_BEGIN
 90
        0
 91
        1
 62
     0
 92
       -2
340
0
 93
        0
 40
1.125
309
GRIDFORMAT_END
 95
       32
302
GRIDFORMAT
  1
GRIDFORMAT_BEGIN
 90
        0
 91
        1
 62
     0
 92
       -2
340
0
 93
        0
 40
1.125
309
GRIDFORMAT_END
309
TABLEFORMAT_END
  1
CELLSTYLE_BEGIN
 90
        2
 91
        1
300
_HEADER
309
CELLSTYLE_END
300
CELLSTYLE
  1
TABLEFORMAT_BEGIN
 90
        5
170
     1
 91
        0
 92
        0
 62
   257
 93
        1
300
CONTENTFORMAT
  1
CONTENTFORMAT_BEGIN
 90
        0
 91
        0
 92
      512
 93
        0
300

 40
0.0
140
1.0
 94
        2
 62
     0
340
9
144
4.5
309
CONTENTFORMAT_END
171
     1
301
MARGIN
  1
CELLMARGIN_BEGIN
 40
1.5
 40
1.5
 40
1.5
 40
1.5
 40
4.5
 40
4.5
309
CELLMARGIN_END
 94
        6
 95
        1
302
GRIDFORMAT
  1
GRIDFORMAT_BEGIN
 90
        0
 91
        1
 62
     0
 92
       -2
340
0
 93
        0
 40
1.125
309
GRIDFORMAT_END
 95
        2
302
GRIDFORMAT
  1
GRIDFORMAT_BEGIN
 90
        0
 91
        1
 62
     0
 92
       -2
340
0
 93
        0
 40
1.125
309
GRIDFORMAT_END
 95
        4
302
GRIDFORMAT
  1
GRIDFORMAT_BEGIN
 90
        0
 91
        1
 62
     0
 92
       -2
340
0
 93
        0
 40
1.125
309
GRIDFORMAT_END
 95
        8
302
GRIDFORMAT
  1
GRIDFORMAT_BEGIN
 90
        0
 91
        1
 62
     0
 92
       -2
340
0
 93
        0
 40
1.125
309
GRIDFORMAT_END
 95
       16
302
GRIDFORMAT
  1
GRIDFORMAT_BEGIN
 90
        0
 91
        1
 62
     0
 92
       -2
340
0
 93
        0
 40
1.125
309
GRIDFORMAT_END
 95
       32
302
GRIDFORMAT
  1
GRIDFORMAT_BEGIN
 90
        0
 91
        1
 62
     0
 92
       -2
340
0
 93
        0
 40
1.125
309
GRIDFORMAT_END
309
TABLEFORMAT_END
  1
CELLSTYLE_BEGIN
 90
        3
 91
        2
300
_DATA
309
CELLSTYLE_END
  0
XRECORD
  5
2A69
102
{ACAD_REACTORS
330
2683
102
}
330
2683
100
AcDbXrecord
280
     1
102
ACAD_ROUNDTRIP_PRE2007_TABLESTYLE
 90
      512
 91
        0
  1

 92
      512
 93
        0
  2

 94
      512
 95
        0
  3

  0
XRECORD
  5
2A44
102
{ACAD_REACTORS
330
2A43
102
}
330
2A43
100
AcDbXrecord
280
     1
102
RTVSPost2010Prop28
280
     1
102
RTVSPost2010PropOp28
 70
     1
102
RTVSPost2010Prop29
280
     1
102
RTVSPost2010PropOp29
 70
     1
102
RTVSPost2010Prop30
280
     0
102
RTVSPost2010PropOp30
 70
     1
102
RTVSPost2010Prop31
280
     0
102
RTVSPost2010PropOp31
 70
     1
102
RTVSPost2010Prop32
280
     0
102
RTVSPost2010PropOp32
 70
     1
102
RTVSPost2010Prop33
280
     0
102
RTVSPost2010PropOp33
 70
     1
102
RTVSPost2010Prop34
280
     0
102
RTVSPost2010PropOp34
 70
     1
102
RTVSPost2010Prop35
280
     0
102
RTVSPost2010PropOp35
 70
     1
102
RTVSPost2010Prop36
280
     0
102
RTVSPost2010PropOp36
 70
     1
102
RTVSPost2010Prop37
 90
       50
102
RTVSPost2010PropOp37
 70
     1
102
RTVSPost2010Prop38
140
0.0
102
RTVSPost2010PropOp38
 70
     1
102
RTVSPost2010Prop39
140
1.0
102
RTVSPost2010PropOp39
 70
     1
102
RTVSPost2010Prop40
 90
        0
102
RTVSPost2010PropOp40
 70
     1
102
RTVSPost2010Prop41ColorIndex
 90
       18
102
RTVSPost2010Prop41ColorRGB
 90
        0
102
RTVSPost2010PropOp41
 70
     1
102
RTVSPost2010Prop42
 90
       50
102
RTVSPost2010PropOp42
 70
     1
102
RTVSPost2010Prop43
 90
        3
102
RTVSPost2010PropOp43
 70
     1
102
RTVSPost2010Prop44ColorIndex
 90
        5
102
RTVSPost2010Prop44ColorRGB
 90
      255
102
RTVSPost2010PropOp44
 70
     1
102
RTVSPost2010Prop45
280
     0
102
RTVSPost2010PropOp45
 70
     1
102
RTVSPost2010Prop46
 90
       50
102
RTVSPost2010PropOp46
 70
     1
102
RTVSPost2010Prop47
 90
       50
102
RTVSPost2010PropOp47
 70
     1
102
RTVSPost2010Prop48
 90
       50
102
RTVSPost2010PropOp48
 70
     1
102
RTVSPost2010Prop49
280
     0
102
RTVSPost2010PropOp49
 70
     1
102
RTVSPost2010Prop50
 90
       50
102
RTVSPost2010PropOp50
 70
     1
102
RTVSPost2010Prop51ColorIndex
 90
      256
102
RTVSPost2010Prop51ColorRGB
 90
-16777216
102
RTVSPost2010PropOp51
 70
     0
102
RTVSPost2010Prop52
140
1.0
102
RTVSPost2010PropOp52
 70
     0
102
RTVSPost2010Prop53
 90
        2
102
RTVSPost2010PropOp53
 70
     1
102
RTVSPost2010Prop54
  1
strokes_ogs.tif
102
RTVSPost2010PropOp54
 70
     1
102
RTVSPost2010Prop55
280
     0
102
RTVSPost2010PropOp55
 70
     1
102
RTVSPost2010Prop56
140
1.0
102
RTVSPost2010PropOp56
 70
     1
102
RTVSPost2010Prop57
140
1.0
102
RTVSPost2010PropOp57
 70
     1
102
RTVSPropertyOp0
 70
     1
102
RTVSPropertyOp1
 70
     1
102
RTVSPropertyOp2
 70
     1
102
RTVSPropertyOp3
 70
     1
102
RTVSPropertyOp4
 70
     1
102
RTVSPropertyOp5
 70
     1
102
RTVSPropertyOp6
 70
     1
102
RTVSPropertyOp7
 70
     1
102
RTVSPropertyOp8
 70
     1
102
RTVSPropertyOp9
 70
     1
102
RTVSPropertyOp10
 70
     1
102
RTVSPropertyOp11
 70
     1
102
RTVSPropertyOp12
 70
     1
102
RTVSPropertyOp13
 70
     1
102
RTVSPropertyOp14
 70
     1
102
RTVSPropertyOp15
 70
     1
102
RTVSPropertyOp16
 70
     1
102
RTVSPropertyOp17
 70
     1
102
RTVSPropertyOp18
 70
     1
102
RTVSPropertyOp19
 70
     1
102
RTVSPropertyOp20
 70
     1
102
RTVSPropertyOp21
 70
     1
102
RTVSPropertyOp22
 70
     1
102
RTVSPropertyOp23
 70
     1
102
RTVSPropertyOp24
 70
     1
102
RTVSPropertyOp25
 70
     1
102
RTVSPropertyOp26
 70
     1
102
RTVSPropertyOp27
 70
     1
102
RTVSPropertyOp28
 70
     1
102
RTVSPropertyOp29
 70
     1
102
RTVSPropertyOp30
 70
     1
102
RTVSPropertyOp31
 70
     1
102
RTVSPropertyOp32
 70
     1
102
RTVSPropertyOp33
 70
     1
102
RTVSPropertyOp34
 70
     1
102
RTVSPropertyOp35
 70
     1
102
RTVSPropertyOp36
 70
     1
102
RTVSPropertyOp37
 70
     1
102
RTVSPropertyOp38
 70
     1
102
RTVSPropertyOp39
 70
     1
102
RTVSPropertyOp40
 70
     1
102
RTVSPropertyOp41
 70
     1
102
RTVSPropertyOp42
 70
     1
102
RTVSPropertyOp43
 70
     1
102
RTVSPropertyOp44
 70
     1
102
RTVSPropertyOp45
 70
     1
102
RTVSPropertyOp46
 70
     1
102
RTVSPropertyOp47
 70
     1
102
RTVSPropertyOp48
 70
     1
102
RTVSPropertyOp49
 70
     1
102
RTVSPropertyOp50
 70
     1
102
RTVSPropertyOp51
 70
     0
102
RTVSPropertyOp52
 70
     0
102
RTVSPropertyOp53
 70
     1
102
RTVSPropertyOp54
 70
     1
102
RTVSPropertyOp55
 70
     1
102
RTVSPropertyOp56
 70
     1
102
RTVSPropertyOp57
 70
     1
102
RTVSPropertyOp58
 70
     1
102
RTVSPropertyOp59
 70
     1
102
RTVSPropertyOp60
 70
     1
102
RTVSPropertyOp61
 70
     1
102
RTVSPropertyOp62
 70
     1
  0
XRECORD
  5
2A42
102
{ACAD_REACTORS
330
2A41
102
}
330
2A41
100
AcDbXrecord
280
     1
102
RTVSPost2010Prop28
280
     0
102
RTVSPost2010PropOp28
 70
     1
102
RTVSPost2010Prop29
280
     1
102
RTVSPost2010PropOp29
 70
     1
102
RTVSPost2010Prop30
280
     1
102
RTVSPost2010PropOp30
 70
     1
102
RTVSPost2010Prop31
280
     0
102
RTVSPost2010PropOp31
 70
     1
102
RTVSPost2010Prop32
280
     0
102
RTVSPost2010PropOp32
 70
     1
102
RTVSPost2010Prop33
280
     0
102
RTVSPost2010PropOp33
 70
     1
102
RTVSPost2010Prop34
280
     0
102
RTVSPost2010PropOp34
 70
     1
102
RTVSPost2010Prop35
280
     0
102
RTVSPost2010PropOp35
 70
     1
102
RTVSPost2010Prop36
280
     0
102
RTVSPost2010PropOp36
 70
     1
102
RTVSPost2010Prop37
 90
       50
102
RTVSPost2010PropOp37
 70
     1
102
RTVSPost2010Prop38
140
0.0
102
RTVSPost2010PropOp38
 70
     1
102
RTVSPost2010Prop39
140
1.0
102
RTVSPost2010PropOp39
 70
     1
102
RTVSPost2010Prop40
 90
        0
102
RTVSPost2010PropOp40
 70
     1
102
RTVSPost2010Prop41ColorIndex
 90
       18
102
RTVSPost2010Prop41ColorRGB
 90
        0
102
RTVSPost2010PropOp41
 70
     1
102
RTVSPost2010Prop42
 90
       50
102
RTVSPost2010PropOp42
 70
     1
102
RTVSPost2010Prop43
 90
        3
102
RTVSPost2010PropOp43
 70
     1
102
RTVSPost2010Prop44ColorIndex
 90
        5
102
RTVSPost2010Prop44ColorRGB
 90
      255
102
RTVSPost2010PropOp44
 70
     1
102
RTVSPost2010Prop45
280
     0
102
RTVSPost2010PropOp45
 70
     1
102
RTVSPost2010Prop46
 90
       50
102
RTVSPost2010PropOp46
 70
     1
102
RTVSPost2010Prop47
 90
       50
102
RTVSPost2010PropOp47
 70
     1
102
RTVSPost2010Prop48
 90
       50
102
RTVSPost2010PropOp48
 70
     1
102
RTVSPost2010Prop49
280
     0
102
RTVSPost2010PropOp49
 70
     1
102
RTVSPost2010Prop50
 90
       50
102
RTVSPost2010PropOp50
 70
     1
102
RTVSPost2010Prop51ColorIndex
 90
      256
102
RTVSPost2010Prop51ColorRGB
 90
-16777216
102
RTVSPost2010PropOp51
 70
     0
102
RTVSPost2010Prop52
140
1.0
102
RTVSPost2010PropOp52
 70
     0
102
RTVSPost2010Prop53
 90
        2
102
RTVSPost2010PropOp53
 70
     1
102
RTVSPost2010Prop54
  1
strokes_ogs.tif
102
RTVSPost2010PropOp54
 70
     1
102
RTVSPost2010Prop55
280
     0
102
RTVSPost2010PropOp55
 70
     1
102
RTVSPost2010Prop56
140
1.0
102
RTVSPost2010PropOp56
 70
     1
102
RTVSPost2010Prop57
140
1.0
102
RTVSPost2010PropOp57
 70
     1
102
RTVSPropertyOp0
 70
     1
102
RTVSPropertyOp1
 70
     1
102
RTVSPropertyOp2
 70
     1
102
RTVSPropertyOp3
 70
     1
102
RTVSPropertyOp4
 70
     1
102
RTVSPropertyOp5
 70
     1
102
RTVSPropertyOp6
 70
     1
102
RTVSPropertyOp7
 70
     1
102
RTVSPropertyOp8
 70
     1
102
RTVSPropertyOp9
 70
     1
102
RTVSPropertyOp10
 70
     1
102
RTVSPropertyOp11
 70
     1
102
RTVSPropertyOp12
 70
     1
102
RTVSPropertyOp13
 70
     1
102
RTVSPropertyOp14
 70
     1
102
RTVSPropertyOp15
 70
     1
102
RTVSPropertyOp16
 70
     1
102
RTVSPropertyOp17
 70
     1
102
RTVSPropertyOp18
 70
     1
102
RTVSPropertyOp19
 70
     1
102
RTVSPropertyOp20
 70
     1
102
RTVSPropertyOp21
 70
     1
102
RTVSPropertyOp22
 70
     1
102
RTVSPropertyOp23
 70
     1
102
RTVSPropertyOp24
 70
     1
102
RTVSPropertyOp25
 70
     1
102
RTVSPropertyOp26
 70
     1
102
RTVSPropertyOp27
 70
     1
102
RTVSPropertyOp28
 70
     1
102
RTVSPropertyOp29
 70
     1
102
RTVSPropertyOp30
 70
     1
102
RTVSPropertyOp31
 70
     1
102
RTVSPropertyOp32
 70
     1
102
RTVSPropertyOp33
 70
     1
102
RTVSPropertyOp34
 70
     1
102
RTVSPropertyOp35
 70
     1
102
RTVSPropertyOp36
 70
     1
102
RTVSPropertyOp37
 70
     1
102
RTVSPropertyOp38
 70
     1
102
RTVSPropertyOp39
 70
     1
102
RTVSPropertyOp40
 70
     1
102
RTVSPropertyOp41
 70
     1
102
RTVSPropertyOp42
 70
     1
102
RTVSPropertyOp43
 70
     1
102
RTVSPropertyOp44
 70
     1
102
RTVSPropertyOp45
 70
     1
102
RTVSPropertyOp46
 70
     1
102
RTVSPropertyOp47
 70
     1
102
RTVSPropertyOp48
 70
     1
102
RTVSPropertyOp49
 70
     1
102
RTVSPropertyOp50
 70
     1
102
RTVSPropertyOp51
 70
     0
102
RTVSPropertyOp52
 70
     0
102
RTVSPropertyOp53
 70
     1
102
RTVSPropertyOp54
 70
     1
102
RTVSPropertyOp55
 70
     1
102
RTVSPropertyOp56
 70
     1
102
RTVSPropertyOp57
 70
     1
102
RTVSPropertyOp58
 70
     1
102
RTVSPropertyOp59
 70
     1
102
RTVSPropertyOp60
 70
     1
102
RTVSPropertyOp61
 70
     1
102
RTVSPropertyOp62
 70
     1
  0
XRECORD
  5
2A50
102
{ACAD_REACTORS
330
2A4F
102
}
330
2A4F
100
AcDbXrecord
280
     1
102
RTVSPost2010Prop28
280
     0
102
RTVSPost2010PropOp28
 70
     1
102
RTVSPost2010Prop29
280
     1
102
RTVSPost2010PropOp29
 70
     1
102
RTVSPost2010Prop30
280
     1
102
RTVSPost2010PropOp30
 70
     1
102
RTVSPost2010Prop31
280
     0
102
RTVSPost2010PropOp31
 70
     1
102
RTVSPost2010Prop32
280
     0
102
RTVSPost2010PropOp32
 70
     1
102
RTVSPost2010Prop33
280
     0
102
RTVSPost2010PropOp33
 70
     1
102
RTVSPost2010Prop34
280
     0
102
RTVSPost2010PropOp34
 70
     1
102
RTVSPost2010Prop35
280
     0
102
RTVSPost2010PropOp35
 70
     1
102
RTVSPost2010Prop36
280
     0
102
RTVSPost2010PropOp36
 70
     1
102
RTVSPost2010Prop37
 90
       50
102
RTVSPost2010PropOp37
 70
     1
102
RTVSPost2010Prop38
140
0.0
102
RTVSPost2010PropOp38
 70
     1
102
RTVSPost2010Prop39
140
1.0
102
RTVSPost2010PropOp39
 70
     1
102
RTVSPost2010Prop40
 90
        0
102
RTVSPost2010PropOp40
 70
     1
102
RTVSPost2010Prop41ColorIndex
 90
       18
102
RTVSPost2010Prop41ColorRGB
 90
        0
102
RTVSPost2010PropOp41
 70
     1
102
RTVSPost2010Prop42
 90
       50
102
RTVSPost2010PropOp42
 70
     1
102
RTVSPost2010Prop43
 90
        3
102
RTVSPost2010PropOp43
 70
     1
102
RTVSPost2010Prop44ColorIndex
 90
        5
102
RTVSPost2010Prop44ColorRGB
 90
      255
102
RTVSPost2010PropOp44
 70
     1
102
RTVSPost2010Prop45
280
     0
102
RTVSPost2010PropOp45
 70
     1
102
RTVSPost2010Prop46
 90
       50
102
RTVSPost2010PropOp46
 70
     1
102
RTVSPost2010Prop47
 90
       50
102
RTVSPost2010PropOp47
 70
     1
102
RTVSPost2010Prop48
 90
       50
102
RTVSPost2010PropOp48
 70
     1
102
RTVSPost2010Prop49
280
     0
102
RTVSPost2010PropOp49
 70
     1
102
RTVSPost2010Prop50
 90
       50
102
RTVSPost2010PropOp50
 70
     1
102
RTVSPost2010Prop51ColorIndex
 90
      256
102
RTVSPost2010Prop51ColorRGB
 90
-16777216
102
RTVSPost2010PropOp51
 70
     0
102
RTVSPost2010Prop52
140
1.0
102
RTVSPost2010PropOp52
 70
     0
102
RTVSPost2010Prop53
 90
        2
102
RTVSPost2010PropOp53
 70
     1
102
RTVSPost2010Prop54
  1
strokes_ogs.tif
102
RTVSPost2010PropOp54
 70
     1
102
RTVSPost2010Prop55
280
     0
102
RTVSPost2010PropOp55
 70
     1
102
RTVSPost2010Prop56
140
1.0
102
RTVSPost2010PropOp56
 70
     1
102
RTVSPost2010Prop57
140
1.0
102
RTVSPost2010PropOp57
 70
     1
102
RTVSPropertyOp0
 70
     1
102
RTVSPropertyOp1
 70
     1
102
RTVSPropertyOp2
 70
     1
102
RTVSPropertyOp3
 70
     1
102
RTVSPropertyOp4
 70
     1
102
RTVSPropertyOp5
 70
     1
102
RTVSPropertyOp6
 70
     1
102
RTVSPropertyOp7
 70
     1
102
RTVSPropertyOp8
 70
     1
102
RTVSPropertyOp9
 70
     1
102
RTVSPropertyOp10
 70
     1
102
RTVSPropertyOp11
 70
     1
102
RTVSPropertyOp12
 70
     1
102
RTVSPropertyOp13
 70
     1
102
RTVSPropertyOp14
 70
     1
102
RTVSPropertyOp15
 70
     1
102
RTVSPropertyOp16
 70
     1
102
RTVSPropertyOp17
 70
     1
102
RTVSPropertyOp18
 70
     1
102
RTVSPropertyOp19
 70
     1
102
RTVSPropertyOp20
 70
     1
102
RTVSPropertyOp21
 70
     1
102
RTVSPropertyOp22
 70
     1
102
RTVSPropertyOp23
 70
     1
102
RTVSPropertyOp24
 70
     1
102
RTVSPropertyOp25
 70
     1
102
RTVSPropertyOp26
 70
     1
102
RTVSPropertyOp27
 70
     1
102
RTVSPropertyOp28
 70
     1
102
RTVSPropertyOp29
 70
     1
102
RTVSPropertyOp30
 70
     1
102
RTVSPropertyOp31
 70
     1
102
RTVSPropertyOp32
 70
     1
102
RTVSPropertyOp33
 70
     1
102
RTVSPropertyOp34
 70
     1
102
RTVSPropertyOp35
 70
     1
102
RTVSPropertyOp36
 70
     1
102
RTVSPropertyOp37
 70
     1
102
RTVSPropertyOp38
 70
     1
102
RTVSPropertyOp39
 70
     1
102
RTVSPropertyOp40
 70
     1
102
RTVSPropertyOp41
 70
     1
102
RTVSPropertyOp42
 70
     1
102
RTVSPropertyOp43
 70
     1
102
RTVSPropertyOp44
 70
     1
102
RTVSPropertyOp45
 70
     1
102
RTVSPropertyOp46
 70
     1
102
RTVSPropertyOp47
 70
     1
102
RTVSPropertyOp48
 70
     1
102
RTVSPropertyOp49
 70
     1
102
RTVSPropertyOp50
 70
     1
102
RTVSPropertyOp51
 70
     0
102
RTVSPropertyOp52
 70
     0
102
RTVSPropertyOp53
 70
     1
102
RTVSPropertyOp54
 70
     1
102
RTVSPropertyOp55
 70
     1
102
RTVSPropertyOp56
 70
     1
102
RTVSPropertyOp57
 70
     1
102
RTVSPropertyOp58
 70
     1
102
RTVSPropertyOp59
 70
     1
102
RTVSPropertyOp60
 70
     1
102
RTVSPropertyOp61
 70
     1
102
RTVSPropertyOp62
 70
     1
  0
XRECORD
  5
2A58
102
{ACAD_REACTORS
330
2A57
102
}
330
2A57
100
AcDbXrecord
280
     1
102
RTVSPost2010Prop28
280
     0
102
RTVSPost2010PropOp28
 70
     1
102
RTVSPost2010Prop29
280
     1
102
RTVSPost2010PropOp29
 70
     1
102
RTVSPost2010Prop30
280
     1
102
RTVSPost2010PropOp30
 70
     1
102
RTVSPost2010Prop31
280
     0
102
RTVSPost2010PropOp31
 70
     1
102
RTVSPost2010Prop32
280
     0
102
RTVSPost2010PropOp32
 70
     1
102
RTVSPost2010Prop33
280
     0
102
RTVSPost2010PropOp33
 70
     1
102
RTVSPost2010Prop34
280
     0
102
RTVSPost2010PropOp34
 70
     1
102
RTVSPost2010Prop35
280
     0
102
RTVSPost2010PropOp35
 70
     1
102
RTVSPost2010Prop36
280
     0
102
RTVSPost2010PropOp36
 70
     1
102
RTVSPost2010Prop37
 90
       50
102
RTVSPost2010PropOp37
 70
     1
102
RTVSPost2010Prop38
140
0.0
102
RTVSPost2010PropOp38
 70
     1
102
RTVSPost2010Prop39
140
1.0
102
RTVSPost2010PropOp39
 70
     1
102
RTVSPost2010Prop40
 90
        0
102
RTVSPost2010PropOp40
 70
     1
102
RTVSPost2010Prop41ColorIndex
 90
       18
102
RTVSPost2010Prop41ColorRGB
 90
        0
102
RTVSPost2010PropOp41
 70
     1
102
RTVSPost2010Prop42
 90
       50
102
RTVSPost2010PropOp42
 70
     1
102
RTVSPost2010Prop43
 90
        3
102
RTVSPost2010PropOp43
 70
     1
102
RTVSPost2010Prop44ColorIndex
 90
        5
102
RTVSPost2010Prop44ColorRGB
 90
      255
102
RTVSPost2010PropOp44
 70
     1
102
RTVSPost2010Prop45
280
     0
102
RTVSPost2010PropOp45
 70
     1
102
RTVSPost2010Prop46
 90
       50
102
RTVSPost2010PropOp46
 70
     1
102
RTVSPost2010Prop47
 90
       50
102
RTVSPost2010PropOp47
 70
     1
102
RTVSPost2010Prop48
 90
       50
102
RTVSPost2010PropOp48
 70
     1
102
RTVSPost2010Prop49
280
     0
102
RTVSPost2010PropOp49
 70
     1
102
RTVSPost2010Prop50
 90
       50
102
RTVSPost2010PropOp50
 70
     1
102
RTVSPost2010Prop51ColorIndex
 90
      256
102
RTVSPost2010Prop51ColorRGB
 90
-16777216
102
RTVSPost2010PropOp51
 70
     0
102
RTVSPost2010Prop52
140
1.0
102
RTVSPost2010PropOp52
 70
     0
102
RTVSPost2010Prop53
 90
        2
102
RTVSPost2010PropOp53
 70
     1
102
RTVSPost2010Prop54
  1
strokes_ogs.tif
102
RTVSPost2010PropOp54
 70
     1
102
RTVSPost2010Prop55
280
     0
102
RTVSPost2010PropOp55
 70
     1
102
RTVSPost2010Prop56
140
1.0
102
RTVSPost2010PropOp56
 70
     1
102
RTVSPost2010Prop57
140
1.0
102
RTVSPost2010PropOp57
 70
     1
102
RTVSPropertyOp0
 70
     1
102
RTVSPropertyOp1
 70
     1
102
RTVSPropertyOp2
 70
     1
102
RTVSPropertyOp3
 70
     1
102
RTVSPropertyOp4
 70
     1
102
RTVSPropertyOp5
 70
     1
102
RTVSPropertyOp6
 70
     1
102
RTVSPropertyOp7
 70
     1
102
RTVSPropertyOp8
 70
     1
102
RTVSPropertyOp9
 70
     1
102
RTVSPropertyOp10
 70
     1
102
RTVSPropertyOp11
 70
     1
102
RTVSPropertyOp12
 70
     1
102
RTVSPropertyOp13
 70
     1
102
RTVSPropertyOp14
 70
     1
102
RTVSPropertyOp15
 70
     1
102
RTVSPropertyOp16
 70
     1
102
RTVSPropertyOp17
 70
     1
102
RTVSPropertyOp18
 70
     1
102
RTVSPropertyOp19
 70
     1
102
RTVSPropertyOp20
 70
     1
102
RTVSPropertyOp21
 70
     1
102
RTVSPropertyOp22
 70
     1
102
RTVSPropertyOp23
 70
     1
102
RTVSPropertyOp24
 70
     1
102
RTVSPropertyOp25
 70
     1
102
RTVSPropertyOp26
 70
     1
102
RTVSPropertyOp27
 70
     1
102
RTVSPropertyOp28
 70
     1
102
RTVSPropertyOp29
 70
     1
102
RTVSPropertyOp30
 70
     1
102
RTVSPropertyOp31
 70
     1
102
RTVSPropertyOp32
 70
     1
102
RTVSPropertyOp33
 70
     1
102
RTVSPropertyOp34
 70
     1
102
RTVSPropertyOp35
 70
     1
102
RTVSPropertyOp36
 70
     1
102
RTVSPropertyOp37
 70
     1
102
RTVSPropertyOp38
 70
     1
102
RTVSPropertyOp39
 70
     1
102
RTVSPropertyOp40
 70
     1
102
RTVSPropertyOp41
 70
     1
102
RTVSPropertyOp42
 70
     1
102
RTVSPropertyOp43
 70
     1
102
RTVSPropertyOp44
 70
     1
102
RTVSPropertyOp45
 70
     1
102
RTVSPropertyOp46
 70
     1
102
RTVSPropertyOp47
 70
     1
102
RTVSPropertyOp48
 70
     1
102
RTVSPropertyOp49
 70
     1
102
RTVSPropertyOp50
 70
     1
102
RTVSPropertyOp51
 70
     0
102
RTVSPropertyOp52
 70
     0
102
RTVSPropertyOp53
 70
     1
102
RTVSPropertyOp54
 70
     1
102
RTVSPropertyOp55
 70
     1
102
RTVSPropertyOp56
 70
     1
102
RTVSPropertyOp57
 70
     1
102
RTVSPropertyOp58
 70
     1
102
RTVSPropertyOp59
 70
     1
102
RTVSPropertyOp60
 70
     1
102
RTVSPropertyOp61
 70
     1
102
RTVSPropertyOp62
 70
     1
  0
XRECORD
  5
2A4A
102
{ACAD_REACTORS
330
2A49
102
}
330
2A49
100
AcDbXrecord
280
     1
102
RTVSPost2010Prop28
280
     0
102
RTVSPost2010PropOp28
 70
     1
102
RTVSPost2010Prop29
280
     1
102
RTVSPost2010PropOp29
 70
     1
102
RTVSPost2010Prop30
280
     1
102
RTVSPost2010PropOp30
 70
     1
102
RTVSPost2010Prop31
280
     0
102
RTVSPost2010PropOp31
 70
     1
102
RTVSPost2010Prop32
280
     0
102
RTVSPost2010PropOp32
 70
     1
102
RTVSPost2010Prop33
280
     0
102
RTVSPost2010PropOp33
 70
     1
102
RTVSPost2010Prop34
280
     0
102
RTVSPost2010PropOp34
 70
     1
102
RTVSPost2010Prop35
280
     0
102
RTVSPost2010PropOp35
 70
     1
102
RTVSPost2010Prop36
280
     0
102
RTVSPost2010PropOp36
 70
     1
102
RTVSPost2010Prop37
 90
       50
102
RTVSPost2010PropOp37
 70
     1
102
RTVSPost2010Prop38
140
0.0
102
RTVSPost2010PropOp38
 70
     1
102
RTVSPost2010Prop39
140
1.0
102
RTVSPost2010PropOp39
 70
     1
102
RTVSPost2010Prop40
 90
        0
102
RTVSPost2010PropOp40
 70
     1
102
RTVSPost2010Prop41ColorIndex
 90
       18
102
RTVSPost2010Prop41ColorRGB
 90
        0
102
RTVSPost2010PropOp41
 70
     1
102
RTVSPost2010Prop42
 90
       50
102
RTVSPost2010PropOp42
 70
     1
102
RTVSPost2010Prop43
 90
        3
102
RTVSPost2010PropOp43
 70
     1
102
RTVSPost2010Prop44ColorIndex
 90
        5
102
RTVSPost2010Prop44ColorRGB
 90
      255
102
RTVSPost2010PropOp44
 70
     1
102
RTVSPost2010Prop45
280
     0
102
RTVSPost2010PropOp45
 70
     1
102
RTVSPost2010Prop46
 90
       50
102
RTVSPost2010PropOp46
 70
     1
102
RTVSPost2010Prop47
 90
       50
102
RTVSPost2010PropOp47
 70
     1
102
RTVSPost2010Prop48
 90
       50
102
RTVSPost2010PropOp48
 70
     1
102
RTVSPost2010Prop49
280
     0
102
RTVSPost2010PropOp49
 70
     1
102
RTVSPost2010Prop50
 90
       50
102
RTVSPost2010PropOp50
 70
     1
102
RTVSPost2010Prop51ColorIndex
 90
      256
102
RTVSPost2010Prop51ColorRGB
 90
-16777216
102
RTVSPost2010PropOp51
 70
     0
102
RTVSPost2010Prop52
140
1.0
102
RTVSPost2010PropOp52
 70
     0
102
RTVSPost2010Prop53
 90
        2
102
RTVSPost2010PropOp53
 70
     1
102
RTVSPost2010Prop54
  1
strokes_ogs.tif
102
RTVSPost2010PropOp54
 70
     1
102
RTVSPost2010Prop55
280
     0
102
RTVSPost2010PropOp55
 70
     1
102
RTVSPost2010Prop56
140
1.0
102
RTVSPost2010PropOp56
 70
     1
102
RTVSPost2010Prop57
140
1.0
102
RTVSPost2010PropOp57
 70
     1
102
RTVSPropertyOp0
 70
     1
102
RTVSPropertyOp1
 70
     1
102
RTVSPropertyOp2
 70
     1
102
RTVSPropertyOp3
 70
     1
102
RTVSPropertyOp4
 70
     1
102
RTVSPropertyOp5
 70
     1
102
RTVSPropertyOp6
 70
     1
102
RTVSPropertyOp7
 70
     1
102
RTVSPropertyOp8
 70
     1
102
RTVSPropertyOp9
 70
     1
102
RTVSPropertyOp10
 70
     1
102
RTVSPropertyOp11
 70
     1
102
RTVSPropertyOp12
 70
     1
102
RTVSPropertyOp13
 70
     1
102
RTVSPropertyOp14
 70
     1
102
RTVSPropertyOp15
 70
     1
102
RTVSPropertyOp16
 70
     1
102
RTVSPropertyOp17
 70
     1
102
RTVSPropertyOp18
 70
     1
102
RTVSPropertyOp19
 70
     1
102
RTVSPropertyOp20
 70
     1
102
RTVSPropertyOp21
 70
     1
102
RTVSPropertyOp22
 70
     1
102
RTVSPropertyOp23
 70
     1
102
RTVSPropertyOp24
 70
     1
102
RTVSPropertyOp25
 70
     1
102
RTVSPropertyOp26
 70
     1
102
RTVSPropertyOp27
 70
     1
102
RTVSPropertyOp28
 70
     1
102
RTVSPropertyOp29
 70
     1
102
RTVSPropertyOp30
 70
     1
102
RTVSPropertyOp31
 70
     1
102
RTVSPropertyOp32
 70
     1
102
RTVSPropertyOp33
 70
     1
102
RTVSPropertyOp34
 70
     1
102
RTVSPropertyOp35
 70
     1
102
RTVSPropertyOp36
 70
     1
102
RTVSPropertyOp37
 70
     1
102
RTVSPropertyOp38
 70
     1
102
RTVSPropertyOp39
 70
     1
102
RTVSPropertyOp40
 70
     1
102
RTVSPropertyOp41
 70
     1
102
RTVSPropertyOp42
 70
     1
102
RTVSPropertyOp43
 70
     1
102
RTVSPropertyOp44
 70
     1
102
RTVSPropertyOp45
 70
     1
102
RTVSPropertyOp46
 70
     1
102
RTVSPropertyOp47
 70
     1
102
RTVSPropertyOp48
 70
     1
102
RTVSPropertyOp49
 70
     1
102
RTVSPropertyOp50
 70
     1
102
RTVSPropertyOp51
 70
     0
102
RTVSPropertyOp52
 70
     0
102
RTVSPropertyOp53
 70
     1
102
RTVSPropertyOp54
 70
     1
102
RTVSPropertyOp55
 70
     1
102
RTVSPropertyOp56
 70
     1
102
RTVSPropertyOp57
 70
     1
102
RTVSPropertyOp58
 70
     1
102
RTVSPropertyOp59
 70
     1
102
RTVSPropertyOp60
 70
     1
102
RTVSPropertyOp61
 70
     1
102
RTVSPropertyOp62
 70
     1
  0
XRECORD
  5
2A4E
102
{ACAD_REACTORS
330
2A4D
102
}
330
2A4D
100
AcDbXrecord
280
     1
102
RTVSPost2010Prop28
280
     0
102
RTVSPost2010PropOp28
 70
     1
102
RTVSPost2010Prop29
280
     1
102
RTVSPost2010PropOp29
 70
     1
102
RTVSPost2010Prop30
280
     1
102
RTVSPost2010PropOp30
 70
     1
102
RTVSPost2010Prop31
280
     0
102
RTVSPost2010PropOp31
 70
     1
102
RTVSPost2010Prop32
280
     0
102
RTVSPost2010PropOp32
 70
     1
102
RTVSPost2010Prop33
280
     0
102
RTVSPost2010PropOp33
 70
     1
102
RTVSPost2010Prop34
280
     0
102
RTVSPost2010PropOp34
 70
     1
102
RTVSPost2010Prop35
280
     0
102
RTVSPost2010PropOp35
 70
     1
102
RTVSPost2010Prop36
280
     0
102
RTVSPost2010PropOp36
 70
     1
102
RTVSPost2010Prop37
 90
       50
102
RTVSPost2010PropOp37
 70
     1
102
RTVSPost2010Prop38
140
0.0
102
RTVSPost2010PropOp38
 70
     1
102
RTVSPost2010Prop39
140
1.0
102
RTVSPost2010PropOp39
 70
     1
102
RTVSPost2010Prop40
 90
        0
102
RTVSPost2010PropOp40
 70
     1
102
RTVSPost2010Prop41ColorIndex
 90
       18
102
RTVSPost2010Prop41ColorRGB
 90
        0
102
RTVSPost2010PropOp41
 70
     1
102
RTVSPost2010Prop42
 90
       50
102
RTVSPost2010PropOp42
 70
     1
102
RTVSPost2010Prop43
 90
        3
102
RTVSPost2010PropOp43
 70
     1
102
RTVSPost2010Prop44ColorIndex
 90
        5
102
RTVSPost2010Prop44ColorRGB
 90
      255
102
RTVSPost2010PropOp44
 70
     1
102
RTVSPost2010Prop45
280
     0
102
RTVSPost2010PropOp45
 70
     1
102
RTVSPost2010Prop46
 90
       50
102
RTVSPost2010PropOp46
 70
     1
102
RTVSPost2010Prop47
 90
       50
102
RTVSPost2010PropOp47
 70
     1
102
RTVSPost2010Prop48
 90
       50
102
RTVSPost2010PropOp48
 70
     1
102
RTVSPost2010Prop49
280
     0
102
RTVSPost2010PropOp49
 70
     1
102
RTVSPost2010Prop50
 90
       50
102
RTVSPost2010PropOp50
 70
     1
102
RTVSPost2010Prop51ColorIndex
 90
      256
102
RTVSPost2010Prop51ColorRGB
 90
-16777216
102
RTVSPost2010PropOp51
 70
     0
102
RTVSPost2010Prop52
140
1.0
102
RTVSPost2010PropOp52
 70
     0
102
RTVSPost2010Prop53
 90
        2
102
RTVSPost2010PropOp53
 70
     1
102
RTVSPost2010Prop54
  1
strokes_ogs.tif
102
RTVSPost2010PropOp54
 70
     1
102
RTVSPost2010Prop55
280
     0
102
RTVSPost2010PropOp55
 70
     1
102
RTVSPost2010Prop56
140
1.0
102
RTVSPost2010PropOp56
 70
     1
102
RTVSPost2010Prop57
140
1.0
102
RTVSPost2010PropOp57
 70
     1
102
RTVSPropertyOp0
 70
     1
102
RTVSPropertyOp1
 70
     1
102
RTVSPropertyOp2
 70
     1
102
RTVSPropertyOp3
 70
     1
102
RTVSPropertyOp4
 70
     1
102
RTVSPropertyOp5
 70
     1
102
RTVSPropertyOp6
 70
     1
102
RTVSPropertyOp7
 70
     1
102
RTVSPropertyOp8
 70
     1
102
RTVSPropertyOp9
 70
     1
102
RTVSPropertyOp10
 70
     1
102
RTVSPropertyOp11
 70
     1
102
RTVSPropertyOp12
 70
     1
102
RTVSPropertyOp13
 70
     1
102
RTVSPropertyOp14
 70
     1
102
RTVSPropertyOp15
 70
     1
102
RTVSPropertyOp16
 70
     1
102
RTVSPropertyOp17
 70
     1
102
RTVSPropertyOp18
 70
     1
102
RTVSPropertyOp19
 70
     1
102
RTVSPropertyOp20
 70
     1
102
RTVSPropertyOp21
 70
     1
102
RTVSPropertyOp22
 70
     1
102
RTVSPropertyOp23
 70
     1
102
RTVSPropertyOp24
 70
     1
102
RTVSPropertyOp25
 70
     1
102
RTVSPropertyOp26
 70
     1
102
RTVSPropertyOp27
 70
     1
102
RTVSPropertyOp28
 70
     1
102
RTVSPropertyOp29
 70
     1
102
RTVSPropertyOp30
 70
     1
102
RTVSPropertyOp31
 70
     1
102
RTVSPropertyOp32
 70
     1
102
RTVSPropertyOp33
 70
     1
102
RTVSPropertyOp34
 70
     1
102
RTVSPropertyOp35
 70
     1
102
RTVSPropertyOp36
 70
     1
102
RTVSPropertyOp37
 70
     1
102
RTVSPropertyOp38
 70
     1
102
RTVSPropertyOp39
 70
     1
102
RTVSPropertyOp40
 70
     1
102
RTVSPropertyOp41
 70
     1
102
RTVSPropertyOp42
 70
     1
102
RTVSPropertyOp43
 70
     1
102
RTVSPropertyOp44
 70
     1
102
RTVSPropertyOp45
 70
     1
102
RTVSPropertyOp46
 70
     1
102
RTVSPropertyOp47
 70
     1
102
RTVSPropertyOp48
 70
     1
102
RTVSPropertyOp49
 70
     1
102
RTVSPropertyOp50
 70
     1
102
RTVSPropertyOp51
 70
     0
102
RTVSPropertyOp52
 70
     0
102
RTVSPropertyOp53
 70
     1
102
RTVSPropertyOp54
 70
     1
102
RTVSPropertyOp55
 70
     1
102
RTVSPropertyOp56
 70
     1
102
RTVSPropertyOp57
 70
     1
102
RTVSPropertyOp58
 70
     1
102
RTVSPropertyOp59
 70
     1
102
RTVSPropertyOp60
 70
     1
102
RTVSPropertyOp61
 70
     1
102
RTVSPropertyOp62
 70
     1
  0
XRECORD
  5
2A68
102
{ACAD_REACTORS
330
2A67
102
}
330
2A67
100
AcDbXrecord
280
     1
102
RTVSPost2010Prop28
280
     0
102
RTVSPost2010PropOp28
 70
     0
102
RTVSPost2010Prop29
280
     1
102
RTVSPost2010PropOp29
 70
     0
102
RTVSPost2010Prop30
280
     1
102
RTVSPost2010PropOp30
 70
     0
102
RTVSPost2010Prop31
280
     0
102
RTVSPost2010PropOp31
 70
     0
102
RTVSPost2010Prop32
280
     0
102
RTVSPost2010PropOp32
 70
     0
102
RTVSPost2010Prop33
280
     0
102
RTVSPost2010PropOp33
 70
     0
102
RTVSPost2010Prop34
280
     0
102
RTVSPost2010PropOp34
 70
     0
102
RTVSPost2010Prop35
280
     0
102
RTVSPost2010PropOp35
 70
     0
102
RTVSPost2010Prop36
280
     0
102
RTVSPost2010PropOp36
 70
     0
102
RTVSPost2010Prop37
 90
       50
102
RTVSPost2010PropOp37
 70
     0
102
RTVSPost2010Prop38
140
0.0
102
RTVSPost2010PropOp38
 70
     0
102
RTVSPost2010Prop39
140
1.0
102
RTVSPost2010PropOp39
 70
     0
102
RTVSPost2010Prop40
 90
        0
102
RTVSPost2010PropOp40
 70
     0
102
RTVSPost2010Prop41ColorIndex
 90
       18
102
RTVSPost2010Prop41ColorRGB
 90
        0
102
RTVSPost2010PropOp41
 70
     0
102
RTVSPost2010Prop42
 90
       50
102
RTVSPost2010PropOp42
 70
     0
102
RTVSPost2010Prop43
 90
        3
102
RTVSPost2010PropOp43
 70
     0
102
RTVSPost2010Prop44ColorIndex
 90
        5
102
RTVSPost2010Prop44ColorRGB
 90
      255
102
RTVSPost2010PropOp44
 70
     0
102
RTVSPost2010Prop45
280
     0
102
RTVSPost2010PropOp45
 70
     0
102
RTVSPost2010Prop46
 90
       50
102
RTVSPost2010PropOp46
 70
     0
102
RTVSPost2010Prop47
 90
       50
102
RTVSPost2010PropOp47
 70
     0
102
RTVSPost2010Prop48
 90
       50
102
RTVSPost2010PropOp48
 70
     0
102
RTVSPost2010Prop49
280
     0
102
RTVSPost2010PropOp49
 70
     0
102
RTVSPost2010Prop50
 90
       50
102
RTVSPost2010PropOp50
 70
     0
102
RTVSPost2010Prop51ColorIndex
 90
      256
102
RTVSPost2010Prop51ColorRGB
 90
-16777216
102
RTVSPost2010PropOp51
 70
     0
102
RTVSPost2010Prop52
140
1.0
102
RTVSPost2010PropOp52
 70
     0
102
RTVSPost2010Prop53
 90
        2
102
RTVSPost2010PropOp53
 70
     0
102
RTVSPost2010Prop54
  1
strokes_ogs.tif
102
RTVSPost2010PropOp54
 70
     0
102
RTVSPost2010Prop55
280
     0
102
RTVSPost2010PropOp55
 70
     0
102
RTVSPost2010Prop56
140
1.0
102
RTVSPost2010PropOp56
 70
     0
102
RTVSPost2010Prop57
140
1.0
102
RTVSPost2010PropOp57
 70
     0
102
RTVSPropertyOp0
 70
     0
102
RTVSPropertyOp1
 70
     0
102
RTVSPropertyOp2
 70
     0
102
RTVSPropertyOp3
 70
     0
102
RTVSPropertyOp4
 70
     0
102
RTVSPropertyOp5
 70
     0
102
RTVSPropertyOp6
 70
     0
102
RTVSPropertyOp7
 70
     0
102
RTVSPropertyOp8
 70
     0
102
RTVSPropertyOp9
 70
     0
102
RTVSPropertyOp10
 70
     0
102
RTVSPropertyOp11
 70
     0
102
RTVSPropertyOp12
 70
     0
102
RTVSPropertyOp13
 70
     0
102
RTVSPropertyOp14
 70
     2
102
RTVSPropertyOp15
 70
     0
102
RTVSPropertyOp16
 70
     0
102
RTVSPropertyOp17
 70
     0
102
RTVSPropertyOp18
 70
     0
102
RTVSPropertyOp19
 70
     0
102
RTVSPropertyOp20
 70
     0
102
RTVSPropertyOp21
 70
     0
102
RTVSPropertyOp22
 70
     0
102
RTVSPropertyOp23
 70
     0
102
RTVSPropertyOp24
 70
     0
102
RTVSPropertyOp25
 70
     0
102
RTVSPropertyOp26
 70
     0
102
RTVSPropertyOp27
 70
     0
102
RTVSPropertyOp28
 70
     0
102
RTVSPropertyOp29
 70
     0
102
RTVSPropertyOp30
 70
     0
102
RTVSPropertyOp31
 70
     0
102
RTVSPropertyOp32
 70
     0
102
RTVSPropertyOp33
 70
     0
102
RTVSPropertyOp34
 70
     0
102
RTVSPropertyOp35
 70
     0
102
RTVSPropertyOp36
 70
     0
102
RTVSPropertyOp37
 70
     0
102
RTVSPropertyOp38
 70
     0
102
RTVSPropertyOp39
 70
     0
102
RTVSPropertyOp40
 70
     0
102
RTVSPropertyOp41
 70
     0
102
RTVSPropertyOp42
 70
     0
102
RTVSPropertyOp43
 70
     0
102
RTVSPropertyOp44
 70
     0
102
RTVSPropertyOp45
 70
     0
102
RTVSPropertyOp46
 70
     0
102
RTVSPropertyOp47
 70
     0
102
RTVSPropertyOp48
 70
     0
102
RTVSPropertyOp49
 70
     0
102
RTVSPropertyOp50
 70
     0
102
RTVSPropertyOp51
 70
     0
102
RTVSPropertyOp52
 70
     0
102
RTVSPropertyOp53
 70
     0
102
RTVSPropertyOp54
 70
     0
102
RTVSPropertyOp55
 70
     0
102
RTVSPropertyOp56
 70
     0
102
RTVSPropertyOp57
 70
     0
102
RTVSPropertyOp58
 70
     0
102
RTVSPropertyOp59
 70
     0
102
RTVSPropertyOp60
 70
     0
102
RTVSPropertyOp61
 70
     0
102
RTVSPropertyOp62
 70
     0
  0
XRECORD
  5
2A56
102
{ACAD_REACTORS
330
2A55
102
}
330
2A55
100
AcDbXrecord
280
     1
102
RTVSPost2010Prop28
280
     0
102
RTVSPost2010PropOp28
 70
     1
102
RTVSPost2010Prop29
280
     1
102
RTVSPost2010PropOp29
 70
     1
102
RTVSPost2010Prop30
280
     1
102
RTVSPost2010PropOp30
 70
     1
102
RTVSPost2010Prop31
280
     0
102
RTVSPost2010PropOp31
 70
     1
102
RTVSPost2010Prop32
280
     0
102
RTVSPost2010PropOp32
 70
     1
102
RTVSPost2010Prop33
280
     0
102
RTVSPost2010PropOp33
 70
     1
102
RTVSPost2010Prop34
280
     0
102
RTVSPost2010PropOp34
 70
     1
102
RTVSPost2010Prop35
280
     0
102
RTVSPost2010PropOp35
 70
     1
102
RTVSPost2010Prop36
280
     0
102
RTVSPost2010PropOp36
 70
     1
102
RTVSPost2010Prop37
 90
       50
102
RTVSPost2010PropOp37
 70
     1
102
RTVSPost2010Prop38
140
0.0
102
RTVSPost2010PropOp38
 70
     1
102
RTVSPost2010Prop39
140
1.0
102
RTVSPost2010PropOp39
 70
     1
102
RTVSPost2010Prop40
 90
        0
102
RTVSPost2010PropOp40
 70
     1
102
RTVSPost2010Prop41ColorIndex
 90
       18
102
RTVSPost2010Prop41ColorRGB
 90
        0
102
RTVSPost2010PropOp41
 70
     1
102
RTVSPost2010Prop42
 90
       50
102
RTVSPost2010PropOp42
 70
     1
102
RTVSPost2010Prop43
 90
        3
102
RTVSPost2010PropOp43
 70
     1
102
RTVSPost2010Prop44ColorIndex
 90
        5
102
RTVSPost2010Prop44ColorRGB
 90
      255
102
RTVSPost2010PropOp44
 70
     1
102
RTVSPost2010Prop45
280
     0
102
RTVSPost2010PropOp45
 70
     1
102
RTVSPost2010Prop46
 90
       50
102
RTVSPost2010PropOp46
 70
     1
102
RTVSPost2010Prop47
 90
       50
102
RTVSPost2010PropOp47
 70
     1
102
RTVSPost2010Prop48
 90
       50
102
RTVSPost2010PropOp48
 70
     1
102
RTVSPost2010Prop49
280
     0
102
RTVSPost2010PropOp49
 70
     1
102
RTVSPost2010Prop50
 90
       50
102
RTVSPost2010PropOp50
 70
     1
102
RTVSPost2010Prop51ColorIndex
 90
      256
102
RTVSPost2010Prop51ColorRGB
 90
-16777216
102
RTVSPost2010PropOp51
 70
     0
102
RTVSPost2010Prop52
140
1.0
102
RTVSPost2010PropOp52
 70
     0
102
RTVSPost2010Prop53
 90
        2
102
RTVSPost2010PropOp53
 70
     1
102
RTVSPost2010Prop54
  1
strokes_ogs.tif
102
RTVSPost2010PropOp54
 70
     1
102
RTVSPost2010Prop55
280
     0
102
RTVSPost2010PropOp55
 70
     1
102
RTVSPost2010Prop56
140
1.0
102
RTVSPost2010PropOp56
 70
     1
102
RTVSPost2010Prop57
140
1.0
102
RTVSPost2010PropOp57
 70
     1
102
RTVSPropertyOp0
 70
     1
102
RTVSPropertyOp1
 70
     1
102
RTVSPropertyOp2
 70
     1
102
RTVSPropertyOp3
 70
     1
102
RTVSPropertyOp4
 70
     1
102
RTVSPropertyOp5
 70
     1
102
RTVSPropertyOp6
 70
     1
102
RTVSPropertyOp7
 70
     1
102
RTVSPropertyOp8
 70
     1
102
RTVSPropertyOp9
 70
     1
102
RTVSPropertyOp10
 70
     1
102
RTVSPropertyOp11
 70
     1
102
RTVSPropertyOp12
 70
     1
102
RTVSPropertyOp13
 70
     1
102
RTVSPropertyOp14
 70
     1
102
RTVSPropertyOp15
 70
     1
102
RTVSPropertyOp16
 70
     1
102
RTVSPropertyOp17
 70
     1
102
RTVSPropertyOp18
 70
     1
102
RTVSPropertyOp19
 70
     1
102
RTVSPropertyOp20
 70
     1
102
RTVSPropertyOp21
 70
     1
102
RTVSPropertyOp22
 70
     1
102
RTVSPropertyOp23
 70
     1
102
RTVSPropertyOp24
 70
     1
102
RTVSPropertyOp25
 70
     1
102
RTVSPropertyOp26
 70
     1
102
RTVSPropertyOp27
 70
     1
102
RTVSPropertyOp28
 70
     1
102
RTVSPropertyOp29
 70
     1
102
RTVSPropertyOp30
 70
     1
102
RTVSPropertyOp31
 70
     1
102
RTVSPropertyOp32
 70
     1
102
RTVSPropertyOp33
 70
     1
102
RTVSPropertyOp34
 70
     1
102
RTVSPropertyOp35
 70
     1
102
RTVSPropertyOp36
 70
     1
102
RTVSPropertyOp37
 70
     1
102
RTVSPropertyOp38
 70
     1
102
RTVSPropertyOp39
 70
     1
102
RTVSPropertyOp40
 70
     1
102
RTVSPropertyOp41
 70
     1
102
RTVSPropertyOp42
 70
     1
102
RTVSPropertyOp43
 70
     1
102
RTVSPropertyOp44
 70
     1
102
RTVSPropertyOp45
 70
     1
102
RTVSPropertyOp46
 70
     1
102
RTVSPropertyOp47
 70
     1
102
RTVSPropertyOp48
 70
     1
102
RTVSPropertyOp49
 70
     1
102
RTVSPropertyOp50
 70
     1
102
RTVSPropertyOp51
 70
     0
102
RTVSPropertyOp52
 70
     0
102
RTVSPropertyOp53
 70
     1
102
RTVSPropertyOp54
 70
     1
102
RTVSPropertyOp55
 70
     1
102
RTVSPropertyOp56
 70
     1
102
RTVSPropertyOp57
 70
     1
102
RTVSPropertyOp58
 70
     1
102
RTVSPropertyOp59
 70
     1
102
RTVSPropertyOp60
 70
     1
102
RTVSPropertyOp61
 70
     1
102
RTVSPropertyOp62
 70
     1
  0
XRECORD
  5
2A3A
102
{ACAD_REACTORS
330
2A39
102
}
330
2A39
100
AcDbXrecord
280
     1
102
RTVSPost2010Prop28
280
     0
102
RTVSPost2010PropOp28
 70
     1
102
RTVSPost2010Prop29
280
     1
102
RTVSPost2010PropOp29
 70
     1
102
RTVSPost2010Prop30
280
     1
102
RTVSPost2010PropOp30
 70
     1
102
RTVSPost2010Prop31
280
     0
102
RTVSPost2010PropOp31
 70
     1
102
RTVSPost2010Prop32
280
     0
102
RTVSPost2010PropOp32
 70
     1
102
RTVSPost2010Prop33
280
     0
102
RTVSPost2010PropOp33
 70
     1
102
RTVSPost2010Prop34
280
     0
102
RTVSPost2010PropOp34
 70
     1
102
RTVSPost2010Prop35
280
     0
102
RTVSPost2010PropOp35
 70
     1
102
RTVSPost2010Prop36
280
     0
102
RTVSPost2010PropOp36
 70
     1
102
RTVSPost2010Prop37
 90
       50
102
RTVSPost2010PropOp37
 70
     1
102
RTVSPost2010Prop38
140
0.0
102
RTVSPost2010PropOp38
 70
     1
102
RTVSPost2010Prop39
140
1.0
102
RTVSPost2010PropOp39
 70
     1
102
RTVSPost2010Prop40
 90
        0
102
RTVSPost2010PropOp40
 70
     1
102
RTVSPost2010Prop41ColorIndex
 90
       18
102
RTVSPost2010Prop41ColorRGB
 90
        0
102
RTVSPost2010PropOp41
 70
     1
102
RTVSPost2010Prop42
 90
       50
102
RTVSPost2010PropOp42
 70
     1
102
RTVSPost2010Prop43
 90
        3
102
RTVSPost2010PropOp43
 70
     1
102
RTVSPost2010Prop44ColorIndex
 90
        5
102
RTVSPost2010Prop44ColorRGB
 90
      255
102
RTVSPost2010PropOp44
 70
     1
102
RTVSPost2010Prop45
280
     0
102
RTVSPost2010PropOp45
 70
     1
102
RTVSPost2010Prop46
 90
       50
102
RTVSPost2010PropOp46
 70
     1
102
RTVSPost2010Prop47
 90
       50
102
RTVSPost2010PropOp47
 70
     1
102
RTVSPost2010Prop48
 90
       50
102
RTVSPost2010PropOp48
 70
     1
102
RTVSPost2010Prop49
280
     0
102
RTVSPost2010PropOp49
 70
     1
102
RTVSPost2010Prop50
 90
       50
102
RTVSPost2010PropOp50
 70
     1
102
RTVSPost2010Prop51ColorIndex
 90
      256
102
RTVSPost2010Prop51ColorRGB
 90
-16777216
102
RTVSPost2010PropOp51
 70
     0
102
RTVSPost2010Prop52
140
1.0
102
RTVSPost2010PropOp52
 70
     0
102
RTVSPost2010Prop53
 90
        2
102
RTVSPost2010PropOp53
 70
     1
102
RTVSPost2010Prop54
  1
strokes_ogs.tif
102
RTVSPost2010PropOp54
 70
     1
102
RTVSPost2010Prop55
280
     0
102
RTVSPost2010PropOp55
 70
     1
102
RTVSPost2010Prop56
140
1.0
102
RTVSPost2010PropOp56
 70
     1
102
RTVSPost2010Prop57
140
1.0
102
RTVSPost2010PropOp57
 70
     1
102
RTVSPropertyOp0
 70
     1
102
RTVSPropertyOp1
 70
     1
102
RTVSPropertyOp2
 70
     1
102
RTVSPropertyOp3
 70
     1
102
RTVSPropertyOp4
 70
     1
102
RTVSPropertyOp5
 70
     1
102
RTVSPropertyOp6
 70
     1
102
RTVSPropertyOp7
 70
     1
102
RTVSPropertyOp8
 70
     1
102
RTVSPropertyOp9
 70
     1
102
RTVSPropertyOp10
 70
     1
102
RTVSPropertyOp11
 70
     1
102
RTVSPropertyOp12
 70
     1
102
RTVSPropertyOp13
 70
     1
102
RTVSPropertyOp14
 70
     1
102
RTVSPropertyOp15
 70
     1
102
RTVSPropertyOp16
 70
     1
102
RTVSPropertyOp17
 70
     1
102
RTVSPropertyOp18
 70
     1
102
RTVSPropertyOp19
 70
     1
102
RTVSPropertyOp20
 70
     1
102
RTVSPropertyOp21
 70
     1
102
RTVSPropertyOp22
 70
     1
102
RTVSPropertyOp23
 70
     1
102
RTVSPropertyOp24
 70
     1
102
RTVSPropertyOp25
 70
     1
102
RTVSPropertyOp26
 70
     1
102
RTVSPropertyOp27
 70
     1
102
RTVSPropertyOp28
 70
     1
102
RTVSPropertyOp29
 70
     1
102
RTVSPropertyOp30
 70
     1
102
RTVSPropertyOp31
 70
     1
102
RTVSPropertyOp32
 70
     1
102
RTVSPropertyOp33
 70
     1
102
RTVSPropertyOp34
 70
     1
102
RTVSPropertyOp35
 70
     1
102
RTVSPropertyOp36
 70
     1
102
RTVSPropertyOp37
 70
     1
102
RTVSPropertyOp38
 70
     1
102
RTVSPropertyOp39
 70
     1
102
RTVSPropertyOp40
 70
     1
102
RTVSPropertyOp41
 70
     1
102
RTVSPropertyOp42
 70
     1
102
RTVSPropertyOp43
 70
     1
102
RTVSPropertyOp44
 70
     1
102
RTVSPropertyOp45
 70
     1
102
RTVSPropertyOp46
 70
     1
102
RTVSPropertyOp47
 70
     1
102
RTVSPropertyOp48
 70
     1
102
RTVSPropertyOp49
 70
     1
102
RTVSPropertyOp50
 70
     1
102
RTVSPropertyOp51
 70
     0
102
RTVSPropertyOp52
 70
     0
102
RTVSPropertyOp53
 70
     1
102
RTVSPropertyOp54
 70
     1
102
RTVSPropertyOp55
 70
     1
102
RTVSPropertyOp56
 70
     1
102
RTVSPropertyOp57
 70
     1
102
RTVSPropertyOp58
 70
     1
102
RTVSPropertyOp59
 70
     1
102
RTVSPropertyOp60
 70
     1
102
RTVSPropertyOp61
 70
     1
102
RTVSPropertyOp62
 70
     1
  0
XRECORD
  5
2A3C
102
{ACAD_REACTORS
330
2A3B
102
}
330
2A3B
100
AcDbXrecord
280
     1
102
RTVSPost2010Prop28
280
     0
102
RTVSPost2010PropOp28
 70
     1
102
RTVSPost2010Prop29
280
     1
102
RTVSPost2010PropOp29
 70
     1
102
RTVSPost2010Prop30
280
     1
102
RTVSPost2010PropOp30
 70
     1
102
RTVSPost2010Prop31
280
     0
102
RTVSPost2010PropOp31
 70
     1
102
RTVSPost2010Prop32
280
     0
102
RTVSPost2010PropOp32
 70
     1
102
RTVSPost2010Prop33
280
     0
102
RTVSPost2010PropOp33
 70
     1
102
RTVSPost2010Prop34
280
     0
102
RTVSPost2010PropOp34
 70
     1
102
RTVSPost2010Prop35
280
     0
102
RTVSPost2010PropOp35
 70
     1
102
RTVSPost2010Prop36
280
     0
102
RTVSPost2010PropOp36
 70
     1
102
RTVSPost2010Prop37
 90
       50
102
RTVSPost2010PropOp37
 70
     1
102
RTVSPost2010Prop38
140
0.0
102
RTVSPost2010PropOp38
 70
     1
102
RTVSPost2010Prop39
140
1.0
102
RTVSPost2010PropOp39
 70
     1
102
RTVSPost2010Prop40
 90
        0
102
RTVSPost2010PropOp40
 70
     1
102
RTVSPost2010Prop41ColorIndex
 90
       18
102
RTVSPost2010Prop41ColorRGB
 90
        0
102
RTVSPost2010PropOp41
 70
     1
102
RTVSPost2010Prop42
 90
       50
102
RTVSPost2010PropOp42
 70
     1
102
RTVSPost2010Prop43
 90
        3
102
RTVSPost2010PropOp43
 70
     1
102
RTVSPost2010Prop44ColorIndex
 90
        5
102
RTVSPost2010Prop44ColorRGB
 90
      255
102
RTVSPost2010PropOp44
 70
     1
102
RTVSPost2010Prop45
280
     0
102
RTVSPost2010PropOp45
 70
     1
102
RTVSPost2010Prop46
 90
       50
102
RTVSPost2010PropOp46
 70
     1
102
RTVSPost2010Prop47
 90
       50
102
RTVSPost2010PropOp47
 70
     1
102
RTVSPost2010Prop48
 90
       50
102
RTVSPost2010PropOp48
 70
     1
102
RTVSPost2010Prop49
280
     0
102
RTVSPost2010PropOp49
 70
     1
102
RTVSPost2010Prop50
 90
       50
102
RTVSPost2010PropOp50
 70
     1
102
RTVSPost2010Prop51ColorIndex
 90
      256
102
RTVSPost2010Prop51ColorRGB
 90
-16777216
102
RTVSPost2010PropOp51
 70
     0
102
RTVSPost2010Prop52
140
1.0
102
RTVSPost2010PropOp52
 70
     0
102
RTVSPost2010Prop53
 90
        2
102
RTVSPost2010PropOp53
 70
     1
102
RTVSPost2010Prop54
  1
strokes_ogs.tif
102
RTVSPost2010PropOp54
 70
     1
102
RTVSPost2010Prop55
280
     0
102
RTVSPost2010PropOp55
 70
     1
102
RTVSPost2010Prop56
140
1.0
102
RTVSPost2010PropOp56
 70
     1
102
RTVSPost2010Prop57
140
1.0
102
RTVSPost2010PropOp57
 70
     1
102
RTVSPropertyOp0
 70
     1
102
RTVSPropertyOp1
 70
     1
102
RTVSPropertyOp2
 70
     1
102
RTVSPropertyOp3
 70
     1
102
RTVSPropertyOp4
 70
     1
102
RTVSPropertyOp5
 70
     1
102
RTVSPropertyOp6
 70
     1
102
RTVSPropertyOp7
 70
     1
102
RTVSPropertyOp8
 70
     1
102
RTVSPropertyOp9
 70
     1
102
RTVSPropertyOp10
 70
     1
102
RTVSPropertyOp11
 70
     1
102
RTVSPropertyOp12
 70
     1
102
RTVSPropertyOp13
 70
     1
102
RTVSPropertyOp14
 70
     1
102
RTVSPropertyOp15
 70
     1
102
RTVSPropertyOp16
 70
     1
102
RTVSPropertyOp17
 70
     1
102
RTVSPropertyOp18
 70
     1
102
RTVSPropertyOp19
 70
     1
102
RTVSPropertyOp20
 70
     1
102
RTVSPropertyOp21
 70
     1
102
RTVSPropertyOp22
 70
     1
102
RTVSPropertyOp23
 70
     1
102
RTVSPropertyOp24
 70
     1
102
RTVSPropertyOp25
 70
     1
102
RTVSPropertyOp26
 70
     1
102
RTVSPropertyOp27
 70
     1
102
RTVSPropertyOp28
 70
     1
102
RTVSPropertyOp29
 70
     1
102
RTVSPropertyOp30
 70
     1
102
RTVSPropertyOp31
 70
     1
102
RTVSPropertyOp32
 70
     1
102
RTVSPropertyOp33
 70
     1
102
RTVSPropertyOp34
 70
     1
102
RTVSPropertyOp35
 70
     1
102
RTVSPropertyOp36
 70
     1
102
RTVSPropertyOp37
 70
     1
102
RTVSPropertyOp38
 70
     1
102
RTVSPropertyOp39
 70
     1
102
RTVSPropertyOp40
 70
     1
102
RTVSPropertyOp41
 70
     1
102
RTVSPropertyOp42
 70
     1
102
RTVSPropertyOp43
 70
     1
102
RTVSPropertyOp44
 70
     1
102
RTVSPropertyOp45
 70
     1
102
RTVSPropertyOp46
 70
     1
102
RTVSPropertyOp47
 70
     1
102
RTVSPropertyOp48
 70
     1
102
RTVSPropertyOp49
 70
     1
102
RTVSPropertyOp50
 70
     1
102
RTVSPropertyOp51
 70
     0
102
RTVSPropertyOp52
 70
     0
102
RTVSPropertyOp53
 70
     1
102
RTVSPropertyOp54
 70
     1
102
RTVSPropertyOp55
 70
     1
102
RTVSPropertyOp56
 70
     1
102
RTVSPropertyOp57
 70
     1
102
RTVSPropertyOp58
 70
     1
102
RTVSPropertyOp59
 70
     1
102
RTVSPropertyOp60
 70
     1
102
RTVSPropertyOp61
 70
     1
102
RTVSPropertyOp62
 70
     1
  0
XRECORD
  5
2A3E
102
{ACAD_REACTORS
330
2A3D
102
}
330
2A3D
100
AcDbXrecord
280
     1
102
RTVSPost2010Prop28
280
     0
102
RTVSPost2010PropOp28
 70
     1
102
RTVSPost2010Prop29
280
     1
102
RTVSPost2010PropOp29
 70
     1
102
RTVSPost2010Prop30
280
     1
102
RTVSPost2010PropOp30
 70
     1
102
RTVSPost2010Prop31
280
     0
102
RTVSPost2010PropOp31
 70
     1
102
RTVSPost2010Prop32
280
     0
102
RTVSPost2010PropOp32
 70
     1
102
RTVSPost2010Prop33
280
     0
102
RTVSPost2010PropOp33
 70
     1
102
RTVSPost2010Prop34
280
     0
102
RTVSPost2010PropOp34
 70
     1
102
RTVSPost2010Prop35
280
     0
102
RTVSPost2010PropOp35
 70
     1
102
RTVSPost2010Prop36
280
     0
102
RTVSPost2010PropOp36
 70
     1
102
RTVSPost2010Prop37
 90
       50
102
RTVSPost2010PropOp37
 70
     1
102
RTVSPost2010Prop38
140
0.0
102
RTVSPost2010PropOp38
 70
     1
102
RTVSPost2010Prop39
140
1.0
102
RTVSPost2010PropOp39
 70
     1
102
RTVSPost2010Prop40
 90
        0
102
RTVSPost2010PropOp40
 70
     1
102
RTVSPost2010Prop41ColorIndex
 90
       18
102
RTVSPost2010Prop41ColorRGB
 90
        0
102
RTVSPost2010PropOp41
 70
     1
102
RTVSPost2010Prop42
 90
       50
102
RTVSPost2010PropOp42
 70
     1
102
RTVSPost2010Prop43
 90
        3
102
RTVSPost2010PropOp43
 70
     1
102
RTVSPost2010Prop44ColorIndex
 90
        5
102
RTVSPost2010Prop44ColorRGB
 90
      255
102
RTVSPost2010PropOp44
 70
     1
102
RTVSPost2010Prop45
280
     0
102
RTVSPost2010PropOp45
 70
     1
102
RTVSPost2010Prop46
 90
       50
102
RTVSPost2010PropOp46
 70
     1
102
RTVSPost2010Prop47
 90
       50
102
RTVSPost2010PropOp47
 70
     1
102
RTVSPost2010Prop48
 90
       50
102
RTVSPost2010PropOp48
 70
     1
102
RTVSPost2010Prop49
280
     0
102
RTVSPost2010PropOp49
 70
     1
102
RTVSPost2010Prop50
 90
       50
102
RTVSPost2010PropOp50
 70
     1
102
RTVSPost2010Prop51ColorIndex
 90
      256
102
RTVSPost2010Prop51ColorRGB
 90
-16777216
102
RTVSPost2010PropOp51
 70
     0
102
RTVSPost2010Prop52
140
1.0
102
RTVSPost2010PropOp52
 70
     0
102
RTVSPost2010Prop53
 90
        2
102
RTVSPost2010PropOp53
 70
     1
102
RTVSPost2010Prop54
  1
strokes_ogs.tif
102
RTVSPost2010PropOp54
 70
     1
102
RTVSPost2010Prop55
280
     0
102
RTVSPost2010PropOp55
 70
     1
102
RTVSPost2010Prop56
140
1.0
102
RTVSPost2010PropOp56
 70
     1
102
RTVSPost2010Prop57
140
1.0
102
RTVSPost2010PropOp57
 70
     1
102
RTVSPropertyOp0
 70
     1
102
RTVSPropertyOp1
 70
     1
102
RTVSPropertyOp2
 70
     1
102
RTVSPropertyOp3
 70
     1
102
RTVSPropertyOp4
 70
     1
102
RTVSPropertyOp5
 70
     1
102
RTVSPropertyOp6
 70
     1
102
RTVSPropertyOp7
 70
     1
102
RTVSPropertyOp8
 70
     1
102
RTVSPropertyOp9
 70
     1
102
RTVSPropertyOp10
 70
     1
102
RTVSPropertyOp11
 70
     1
102
RTVSPropertyOp12
 70
     1
102
RTVSPropertyOp13
 70
     1
102
RTVSPropertyOp14
 70
     1
102
RTVSPropertyOp15
 70
     1
102
RTVSPropertyOp16
 70
     1
102
RTVSPropertyOp17
 70
     1
102
RTVSPropertyOp18
 70
     1
102
RTVSPropertyOp19
 70
     1
102
RTVSPropertyOp20
 70
     1
102
RTVSPropertyOp21
 70
     1
102
RTVSPropertyOp22
 70
     1
102
RTVSPropertyOp23
 70
     1
102
RTVSPropertyOp24
 70
     1
102
RTVSPropertyOp25
 70
     1
102
RTVSPropertyOp26
 70
     1
102
RTVSPropertyOp27
 70
     1
102
RTVSPropertyOp28
 70
     1
102
RTVSPropertyOp29
 70
     1
102
RTVSPropertyOp30
 70
     1
102
RTVSPropertyOp31
 70
     1
102
RTVSPropertyOp32
 70
     1
102
RTVSPropertyOp33
 70
     1
102
RTVSPropertyOp34
 70
     1
102
RTVSPropertyOp35
 70
     1
102
RTVSPropertyOp36
 70
     1
102
RTVSPropertyOp37
 70
     1
102
RTVSPropertyOp38
 70
     1
102
RTVSPropertyOp39
 70
     1
102
RTVSPropertyOp40
 70
     1
102
RTVSPropertyOp41
 70
     1
102
RTVSPropertyOp42
 70
     1
102
RTVSPropertyOp43
 70
     1
102
RTVSPropertyOp44
 70
     1
102
RTVSPropertyOp45
 70
     1
102
RTVSPropertyOp46
 70
     1
102
RTVSPropertyOp47
 70
     1
102
RTVSPropertyOp48
 70
     1
102
RTVSPropertyOp49
 70
     1
102
RTVSPropertyOp50
 70
     1
102
RTVSPropertyOp51
 70
     0
102
RTVSPropertyOp52
 70
     0
102
RTVSPropertyOp53
 70
     1
102
RTVSPropertyOp54
 70
     1
102
RTVSPropertyOp55
 70
     1
102
RTVSPropertyOp56
 70
     1
102
RTVSPropertyOp57
 70
     1
102
RTVSPropertyOp58
 70
     1
102
RTVSPropertyOp59
 70
     1
102
RTVSPropertyOp60
 70
     1
102
RTVSPropertyOp61
 70
     1
102
RTVSPropertyOp62
 70
     1
  0
XRECORD
  5
2A40
102
{ACAD_REACTORS
330
2A3F
102
}
330
2A3F
100
AcDbXrecord
280
     1
102
RTVSPost2010Prop28
280
     0
102
RTVSPost2010PropOp28
 70
     1
102
RTVSPost2010Prop29
280
     1
102
RTVSPost2010PropOp29
 70
     1
102
RTVSPost2010Prop30
280
     1
102
RTVSPost2010PropOp30
 70
     1
102
RTVSPost2010Prop31
280
     0
102
RTVSPost2010PropOp31
 70
     1
102
RTVSPost2010Prop32
280
     0
102
RTVSPost2010PropOp32
 70
     1
102
RTVSPost2010Prop33
280
     0
102
RTVSPost2010PropOp33
 70
     1
102
RTVSPost2010Prop34
280
     0
102
RTVSPost2010PropOp34
 70
     1
102
RTVSPost2010Prop35
280
     0
102
RTVSPost2010PropOp35
 70
     1
102
RTVSPost2010Prop36
280
     0
102
RTVSPost2010PropOp36
 70
     1
102
RTVSPost2010Prop37
 90
       50
102
RTVSPost2010PropOp37
 70
     1
102
RTVSPost2010Prop38
140
0.0
102
RTVSPost2010PropOp38
 70
     1
102
RTVSPost2010Prop39
140
1.0
102
RTVSPost2010PropOp39
 70
     1
102
RTVSPost2010Prop40
 90
        0
102
RTVSPost2010PropOp40
 70
     1
102
RTVSPost2010Prop41ColorIndex
 90
       18
102
RTVSPost2010Prop41ColorRGB
 90
        0
102
RTVSPost2010PropOp41
 70
     1
102
RTVSPost2010Prop42
 90
       50
102
RTVSPost2010PropOp42
 70
     1
102
RTVSPost2010Prop43
 90
        3
102
RTVSPost2010PropOp43
 70
     1
102
RTVSPost2010Prop44ColorIndex
 90
        5
102
RTVSPost2010Prop44ColorRGB
 90
      255
102
RTVSPost2010PropOp44
 70
     1
102
RTVSPost2010Prop45
280
     0
102
RTVSPost2010PropOp45
 70
     1
102
RTVSPost2010Prop46
 90
       50
102
RTVSPost2010PropOp46
 70
     1
102
RTVSPost2010Prop47
 90
       50
102
RTVSPost2010PropOp47
 70
     1
102
RTVSPost2010Prop48
 90
       50
102
RTVSPost2010PropOp48
 70
     1
102
RTVSPost2010Prop49
280
     0
102
RTVSPost2010PropOp49
 70
     1
102
RTVSPost2010Prop50
 90
       50
102
RTVSPost2010PropOp50
 70
     1
102
RTVSPost2010Prop51ColorIndex
 90
      256
102
RTVSPost2010Prop51ColorRGB
 90
-16777216
102
RTVSPost2010PropOp51
 70
     0
102
RTVSPost2010Prop52
140
1.0
102
RTVSPost2010PropOp52
 70
     0
102
RTVSPost2010Prop53
 90
        2
102
RTVSPost2010PropOp53
 70
     1
102
RTVSPost2010Prop54
  1
strokes_ogs.tif
102
RTVSPost2010PropOp54
 70
     1
102
RTVSPost2010Prop55
280
     0
102
RTVSPost2010PropOp55
 70
     1
102
RTVSPost2010Prop56
140
1.0
102
RTVSPost2010PropOp56
 70
     1
102
RTVSPost2010Prop57
140
1.0
102
RTVSPost2010PropOp57
 70
     1
102
RTVSPropertyOp0
 70
     1
102
RTVSPropertyOp1
 70
     1
102
RTVSPropertyOp2
 70
     1
102
RTVSPropertyOp3
 70
     1
102
RTVSPropertyOp4
 70
     1
102
RTVSPropertyOp5
 70
     1
102
RTVSPropertyOp6
 70
     1
102
RTVSPropertyOp7
 70
     1
102
RTVSPropertyOp8
 70
     1
102
RTVSPropertyOp9
 70
     1
102
RTVSPropertyOp10
 70
     1
102
RTVSPropertyOp11
 70
     1
102
RTVSPropertyOp12
 70
     1
102
RTVSPropertyOp13
 70
     1
102
RTVSPropertyOp14
 70
     1
102
RTVSPropertyOp15
 70
     1
102
RTVSPropertyOp16
 70
     1
102
RTVSPropertyOp17
 70
     1
102
RTVSPropertyOp18
 70
     1
102
RTVSPropertyOp19
 70
     1
102
RTVSPropertyOp20
 70
     1
102
RTVSPropertyOp21
 70
     1
102
RTVSPropertyOp22
 70
     1
102
RTVSPropertyOp23
 70
     1
102
RTVSPropertyOp24
 70
     1
102
RTVSPropertyOp25
 70
     1
102
RTVSPropertyOp26
 70
     1
102
RTVSPropertyOp27
 70
     1
102
RTVSPropertyOp28
 70
     1
102
RTVSPropertyOp29
 70
     1
102
RTVSPropertyOp30
 70
     1
102
RTVSPropertyOp31
 70
     1
102
RTVSPropertyOp32
 70
     1
102
RTVSPropertyOp33
 70
     1
102
RTVSPropertyOp34
 70
     1
102
RTVSPropertyOp35
 70
     1
102
RTVSPropertyOp36
 70
     1
102
RTVSPropertyOp37
 70
     1
102
RTVSPropertyOp38
 70
     1
102
RTVSPropertyOp39
 70
     1
102
RTVSPropertyOp40
 70
     1
102
RTVSPropertyOp41
 70
     1
102
RTVSPropertyOp42
 70
     1
102
RTVSPropertyOp43
 70
     1
102
RTVSPropertyOp44
 70
     1
102
RTVSPropertyOp45
 70
     1
102
RTVSPropertyOp46
 70
     1
102
RTVSPropertyOp47
 70
     1
102
RTVSPropertyOp48
 70
     1
102
RTVSPropertyOp49
 70
     1
102
RTVSPropertyOp50
 70
     1
102
RTVSPropertyOp51
 70
     0
102
RTVSPropertyOp52
 70
     0
102
RTVSPropertyOp53
 70
     1
102
RTVSPropertyOp54
 70
     1
102
RTVSPropertyOp55
 70
     1
102
RTVSPropertyOp56
 70
     1
102
RTVSPropertyOp57
 70
     1
102
RTVSPropertyOp58
 70
     1
102
RTVSPropertyOp59
 70
     1
102
RTVSPropertyOp60
 70
     1
102
RTVSPropertyOp61
 70
     1
102
RTVSPropertyOp62
 70
     1
  0
XRECORD
  5
2A48
102
{ACAD_REACTORS
330
2A47
102
}
330
2A47
100
AcDbXrecord
280
     1
102
RTVSPost2010Prop28
280
     0
102
RTVSPost2010PropOp28
 70
     1
102
RTVSPost2010Prop29
280
     1
102
RTVSPost2010PropOp29
 70
     1
102
RTVSPost2010Prop30
280
     1
102
RTVSPost2010PropOp30
 70
     1
102
RTVSPost2010Prop31
280
     0
102
RTVSPost2010PropOp31
 70
     1
102
RTVSPost2010Prop32
280
     0
102
RTVSPost2010PropOp32
 70
     1
102
RTVSPost2010Prop33
280
     0
102
RTVSPost2010PropOp33
 70
     1
102
RTVSPost2010Prop34
280
     0
102
RTVSPost2010PropOp34
 70
     1
102
RTVSPost2010Prop35
280
     0
102
RTVSPost2010PropOp35
 70
     1
102
RTVSPost2010Prop36
280
     0
102
RTVSPost2010PropOp36
 70
     1
102
RTVSPost2010Prop37
 90
       50
102
RTVSPost2010PropOp37
 70
     1
102
RTVSPost2010Prop38
140
0.0
102
RTVSPost2010PropOp38
 70
     1
102
RTVSPost2010Prop39
140
1.0
102
RTVSPost2010PropOp39
 70
     1
102
RTVSPost2010Prop40
 90
        0
102
RTVSPost2010PropOp40
 70
     1
102
RTVSPost2010Prop41ColorIndex
 90
       18
102
RTVSPost2010Prop41ColorRGB
 90
        0
102
RTVSPost2010PropOp41
 70
     1
102
RTVSPost2010Prop42
 90
       50
102
RTVSPost2010PropOp42
 70
     1
102
RTVSPost2010Prop43
 90
        3
102
RTVSPost2010PropOp43
 70
     1
102
RTVSPost2010Prop44ColorIndex
 90
        5
102
RTVSPost2010Prop44ColorRGB
 90
      255
102
RTVSPost2010PropOp44
 70
     1
102
RTVSPost2010Prop45
280
     0
102
RTVSPost2010PropOp45
 70
     1
102
RTVSPost2010Prop46
 90
       50
102
RTVSPost2010PropOp46
 70
     1
102
RTVSPost2010Prop47
 90
       50
102
RTVSPost2010PropOp47
 70
     1
102
RTVSPost2010Prop48
 90
       50
102
RTVSPost2010PropOp48
 70
     1
102
RTVSPost2010Prop49
280
     0
102
RTVSPost2010PropOp49
 70
     1
102
RTVSPost2010Prop50
 90
       50
102
RTVSPost2010PropOp50
 70
     1
102
RTVSPost2010Prop51ColorIndex
 90
      256
102
RTVSPost2010Prop51ColorRGB
 90
-16777216
102
RTVSPost2010PropOp51
 70
     0
102
RTVSPost2010Prop52
140
1.0
102
RTVSPost2010PropOp52
 70
     0
102
RTVSPost2010Prop53
 90
        2
102
RTVSPost2010PropOp53
 70
     1
102
RTVSPost2010Prop54
  1
strokes_ogs.tif
102
RTVSPost2010PropOp54
 70
     1
102
RTVSPost2010Prop55
280
     0
102
RTVSPost2010PropOp55
 70
     1
102
RTVSPost2010Prop56
140
1.0
102
RTVSPost2010PropOp56
 70
     1
102
RTVSPost2010Prop57
140
1.0
102
RTVSPost2010PropOp57
 70
     1
102
RTVSPropertyOp0
 70
     1
102
RTVSPropertyOp1
 70
     1
102
RTVSPropertyOp2
 70
     1
102
RTVSPropertyOp3
 70
     1
102
RTVSPropertyOp4
 70
     1
102
RTVSPropertyOp5
 70
     1
102
RTVSPropertyOp6
 70
     1
102
RTVSPropertyOp7
 70
     1
102
RTVSPropertyOp8
 70
     1
102
RTVSPropertyOp9
 70
     1
102
RTVSPropertyOp10
 70
     1
102
RTVSPropertyOp11
 70
     1
102
RTVSPropertyOp12
 70
     1
102
RTVSPropertyOp13
 70
     1
102
RTVSPropertyOp14
 70
     1
102
RTVSPropertyOp15
 70
     1
102
RTVSPropertyOp16
 70
     1
102
RTVSPropertyOp17
 70
     1
102
RTVSPropertyOp18
 70
     1
102
RTVSPropertyOp19
 70
     1
102
RTVSPropertyOp20
 70
     1
102
RTVSPropertyOp21
 70
     1
102
RTVSPropertyOp22
 70
     1
102
RTVSPropertyOp23
 70
     1
102
RTVSPropertyOp24
 70
     1
102
RTVSPropertyOp25
 70
     1
102
RTVSPropertyOp26
 70
     1
102
RTVSPropertyOp27
 70
     1
102
RTVSPropertyOp28
 70
     1
102
RTVSPropertyOp29
 70
     1
102
RTVSPropertyOp30
 70
     1
102
RTVSPropertyOp31
 70
     1
102
RTVSPropertyOp32
 70
     1
102
RTVSPropertyOp33
 70
     1
102
RTVSPropertyOp34
 70
     1
102
RTVSPropertyOp35
 70
     1
102
RTVSPropertyOp36
 70
     1
102
RTVSPropertyOp37
 70
     1
102
RTVSPropertyOp38
 70
     1
102
RTVSPropertyOp39
 70
     1
102
RTVSPropertyOp40
 70
     1
102
RTVSPropertyOp41
 70
     1
102
RTVSPropertyOp42
 70
     1
102
RTVSPropertyOp43
 70
     1
102
RTVSPropertyOp44
 70
     1
102
RTVSPropertyOp45
 70
     1
102
RTVSPropertyOp46
 70
     1
102
RTVSPropertyOp47
 70
     1
102
RTVSPropertyOp48
 70
     1
102
RTVSPropertyOp49
 70
     1
102
RTVSPropertyOp50
 70
     1
102
RTVSPropertyOp51
 70
     0
102
RTVSPropertyOp52
 70
     0
102
RTVSPropertyOp53
 70
     1
102
RTVSPropertyOp54
 70
     1
102
RTVSPropertyOp55
 70
     1
102
RTVSPropertyOp56
 70
     1
102
RTVSPropertyOp57
 70
     1
102
RTVSPropertyOp58
 70
     1
102
RTVSPropertyOp59
 70
     1
102
RTVSPropertyOp60
 70
     1
102
RTVSPropertyOp61
 70
     1
102
RTVSPropertyOp62
 70
     1
  0
XRECORD
  5
2A64
102
{ACAD_REACTORS
330
2A63
102
}
330
2A63
100
AcDbXrecord
280
     1
102
RTVSPost2010Prop28
280
     0
102
RTVSPost2010PropOp28
 70
     0
102
RTVSPost2010Prop29
280
     1
102
RTVSPost2010PropOp29
 70
     0
102
RTVSPost2010Prop30
280
     1
102
RTVSPost2010PropOp30
 70
     0
102
RTVSPost2010Prop31
280
     0
102
RTVSPost2010PropOp31
 70
     0
102
RTVSPost2010Prop32
280
     0
102
RTVSPost2010PropOp32
 70
     0
102
RTVSPost2010Prop33
280
     0
102
RTVSPost2010PropOp33
 70
     0
102
RTVSPost2010Prop34
280
     0
102
RTVSPost2010PropOp34
 70
     0
102
RTVSPost2010Prop35
280
     0
102
RTVSPost2010PropOp35
 70
     0
102
RTVSPost2010Prop36
280
     0
102
RTVSPost2010PropOp36
 70
     0
102
RTVSPost2010Prop37
 90
       50
102
RTVSPost2010PropOp37
 70
     0
102
RTVSPost2010Prop38
140
0.0
102
RTVSPost2010PropOp38
 70
     0
102
RTVSPost2010Prop39
140
1.0
102
RTVSPost2010PropOp39
 70
     0
102
RTVSPost2010Prop40
 90
        0
102
RTVSPost2010PropOp40
 70
     0
102
RTVSPost2010Prop41ColorIndex
 90
       18
102
RTVSPost2010Prop41ColorRGB
 90
        0
102
RTVSPost2010PropOp41
 70
     0
102
RTVSPost2010Prop42
 90
       50
102
RTVSPost2010PropOp42
 70
     0
102
RTVSPost2010Prop43
 90
        3
102
RTVSPost2010PropOp43
 70
     0
102
RTVSPost2010Prop44ColorIndex
 90
        5
102
RTVSPost2010Prop44ColorRGB
 90
      255
102
RTVSPost2010PropOp44
 70
     0
102
RTVSPost2010Prop45
280
     0
102
RTVSPost2010PropOp45
 70
     0
102
RTVSPost2010Prop46
 90
       50
102
RTVSPost2010PropOp46
 70
     0
102
RTVSPost2010Prop47
 90
       50
102
RTVSPost2010PropOp47
 70
     0
102
RTVSPost2010Prop48
 90
       50
102
RTVSPost2010PropOp48
 70
     0
102
RTVSPost2010Prop49
280
     0
102
RTVSPost2010PropOp49
 70
     0
102
RTVSPost2010Prop50
 90
       50
102
RTVSPost2010PropOp50
 70
     0
102
RTVSPost2010Prop51ColorIndex
 90
      256
102
RTVSPost2010Prop51ColorRGB
 90
-16777216
102
RTVSPost2010PropOp51
 70
     0
102
RTVSPost2010Prop52
140
1.0
102
RTVSPost2010PropOp52
 70
     0
102
RTVSPost2010Prop53
 90
        2
102
RTVSPost2010PropOp53
 70
     0
102
RTVSPost2010Prop54
  1
strokes_ogs.tif
102
RTVSPost2010PropOp54
 70
     0
102
RTVSPost2010Prop55
280
     0
102
RTVSPost2010PropOp55
 70
     0
102
RTVSPost2010Prop56
140
1.0
102
RTVSPost2010PropOp56
 70
     0
102
RTVSPost2010Prop57
140
1.0
102
RTVSPost2010PropOp57
 70
     0
102
RTVSPropertyOp0
 70
     0
102
RTVSPropertyOp1
 70
     0
102
RTVSPropertyOp2
 70
     0
102
RTVSPropertyOp3
 70
     0
102
RTVSPropertyOp4
 70
     0
102
RTVSPropertyOp5
 70
     0
102
RTVSPropertyOp6
 70
     0
102
RTVSPropertyOp7
 70
     0
102
RTVSPropertyOp8
 70
     0
102
RTVSPropertyOp9
 70
     0
102
RTVSPropertyOp10
 70
     0
102
RTVSPropertyOp11
 70
     0
102
RTVSPropertyOp12
 70
     0
102
RTVSPropertyOp13
 70
     0
102
RTVSPropertyOp14
 70
     2
102
RTVSPropertyOp15
 70
     0
102
RTVSPropertyOp16
 70
     0
102
RTVSPropertyOp17
 70
     0
102
RTVSPropertyOp18
 70
     0
102
RTVSPropertyOp19
 70
     0
102
RTVSPropertyOp20
 70
     0
102
RTVSPropertyOp21
 70
     0
102
RTVSPropertyOp22
 70
     0
102
RTVSPropertyOp23
 70
     0
102
RTVSPropertyOp24
 70
     0
102
RTVSPropertyOp25
 70
     0
102
RTVSPropertyOp26
 70
     0
102
RTVSPropertyOp27
 70
     0
102
RTVSPropertyOp28
 70
     0
102
RTVSPropertyOp29
 70
     0
102
RTVSPropertyOp30
 70
     0
102
RTVSPropertyOp31
 70
     0
102
RTVSPropertyOp32
 70
     0
102
RTVSPropertyOp33
 70
     0
102
RTVSPropertyOp34
 70
     0
102
RTVSPropertyOp35
 70
     0
102
RTVSPropertyOp36
 70
     0
102
RTVSPropertyOp37
 70
     0
102
RTVSPropertyOp38
 70
     0
102
RTVSPropertyOp39
 70
     0
102
RTVSPropertyOp40
 70
     0
102
RTVSPropertyOp41
 70
     0
102
RTVSPropertyOp42
 70
     0
102
RTVSPropertyOp43
 70
     0
102
RTVSPropertyOp44
 70
     0
102
RTVSPropertyOp45
 70
     0
102
RTVSPropertyOp46
 70
     0
102
RTVSPropertyOp47
 70
     0
102
RTVSPropertyOp48
 70
     0
102
RTVSPropertyOp49
 70
     0
102
RTVSPropertyOp50
 70
     0
102
RTVSPropertyOp51
 70
     0
102
RTVSPropertyOp52
 70
     0
102
RTVSPropertyOp53
 70
     0
102
RTVSPropertyOp54
 70
     0
102
RTVSPropertyOp55
 70
     0
102
RTVSPropertyOp56
 70
     0
102
RTVSPropertyOp57
 70
     0
102
RTVSPropertyOp58
 70
     0
102
RTVSPropertyOp59
 70
     0
102
RTVSPropertyOp60
 70
     0
102
RTVSPropertyOp61
 70
     0
102
RTVSPropertyOp62
 70
     0
  0
XRECORD
  5
2A54
102
{ACAD_REACTORS
330
2A53
102
}
330
2A53
100
AcDbXrecord
280
     1
102
RTVSPost2010Prop28
280
     0
102
RTVSPost2010PropOp28
 70
     1
102
RTVSPost2010Prop29
280
     1
102
RTVSPost2010PropOp29
 70
     1
102
RTVSPost2010Prop30
280
     1
102
RTVSPost2010PropOp30
 70
     1
102
RTVSPost2010Prop31
280
     0
102
RTVSPost2010PropOp31
 70
     1
102
RTVSPost2010Prop32
280
     0
102
RTVSPost2010PropOp32
 70
     1
102
RTVSPost2010Prop33
280
     0
102
RTVSPost2010PropOp33
 70
     1
102
RTVSPost2010Prop34
280
     0
102
RTVSPost2010PropOp34
 70
     1
102
RTVSPost2010Prop35
280
     0
102
RTVSPost2010PropOp35
 70
     1
102
RTVSPost2010Prop36
280
     0
102
RTVSPost2010PropOp36
 70
     1
102
RTVSPost2010Prop37
 90
       50
102
RTVSPost2010PropOp37
 70
     1
102
RTVSPost2010Prop38
140
0.0
102
RTVSPost2010PropOp38
 70
     1
102
RTVSPost2010Prop39
140
1.0
102
RTVSPost2010PropOp39
 70
     1
102
RTVSPost2010Prop40
 90
        0
102
RTVSPost2010PropOp40
 70
     1
102
RTVSPost2010Prop41ColorIndex
 90
       18
102
RTVSPost2010Prop41ColorRGB
 90
        0
102
RTVSPost2010PropOp41
 70
     1
102
RTVSPost2010Prop42
 90
       50
102
RTVSPost2010PropOp42
 70
     1
102
RTVSPost2010Prop43
 90
        3
102
RTVSPost2010PropOp43
 70
     1
102
RTVSPost2010Prop44ColorIndex
 90
        5
102
RTVSPost2010Prop44ColorRGB
 90
      255
102
RTVSPost2010PropOp44
 70
     1
102
RTVSPost2010Prop45
280
     0
102
RTVSPost2010PropOp45
 70
     1
102
RTVSPost2010Prop46
 90
       50
102
RTVSPost2010PropOp46
 70
     1
102
RTVSPost2010Prop47
 90
       50
102
RTVSPost2010PropOp47
 70
     1
102
RTVSPost2010Prop48
 90
       50
102
RTVSPost2010PropOp48
 70
     1
102
RTVSPost2010Prop49
280
     0
102
RTVSPost2010PropOp49
 70
     1
102
RTVSPost2010Prop50
 90
       50
102
RTVSPost2010PropOp50
 70
     1
102
RTVSPost2010Prop51ColorIndex
 90
      256
102
RTVSPost2010Prop51ColorRGB
 90
-16777216
102
RTVSPost2010PropOp51
 70
     0
102
RTVSPost2010Prop52
140
1.0
102
RTVSPost2010PropOp52
 70
     0
102
RTVSPost2010Prop53
 90
        2
102
RTVSPost2010PropOp53
 70
     1
102
RTVSPost2010Prop54
  1
strokes_ogs.tif
102
RTVSPost2010PropOp54
 70
     1
102
RTVSPost2010Prop55
280
     0
102
RTVSPost2010PropOp55
 70
     1
102
RTVSPost2010Prop56
140
1.0
102
RTVSPost2010PropOp56
 70
     1
102
RTVSPost2010Prop57
140
1.0
102
RTVSPost2010PropOp57
 70
     1
102
RTVSPropertyOp0
 70
     1
102
RTVSPropertyOp1
 70
     1
102
RTVSPropertyOp2
 70
     1
102
RTVSPropertyOp3
 70
     1
102
RTVSPropertyOp4
 70
     1
102
RTVSPropertyOp5
 70
     1
102
RTVSPropertyOp6
 70
     1
102
RTVSPropertyOp7
 70
     1
102
RTVSPropertyOp8
 70
     1
102
RTVSPropertyOp9
 70
     1
102
RTVSPropertyOp10
 70
     1
102
RTVSPropertyOp11
 70
     1
102
RTVSPropertyOp12
 70
     1
102
RTVSPropertyOp13
 70
     1
102
RTVSPropertyOp14
 70
     1
102
RTVSPropertyOp15
 70
     1
102
RTVSPropertyOp16
 70
     1
102
RTVSPropertyOp17
 70
     1
102
RTVSPropertyOp18
 70
     1
102
RTVSPropertyOp19
 70
     1
102
RTVSPropertyOp20
 70
     1
102
RTVSPropertyOp21
 70
     1
102
RTVSPropertyOp22
 70
     1
102
RTVSPropertyOp23
 70
     1
102
RTVSPropertyOp24
 70
     1
102
RTVSPropertyOp25
 70
     1
102
RTVSPropertyOp26
 70
     1
102
RTVSPropertyOp27
 70
     1
102
RTVSPropertyOp28
 70
     1
102
RTVSPropertyOp29
 70
     1
102
RTVSPropertyOp30
 70
     1
102
RTVSPropertyOp31
 70
     1
102
RTVSPropertyOp32
 70
     1
102
RTVSPropertyOp33
 70
     1
102
RTVSPropertyOp34
 70
     1
102
RTVSPropertyOp35
 70
     1
102
RTVSPropertyOp36
 70
     1
102
RTVSPropertyOp37
 70
     1
102
RTVSPropertyOp38
 70
     1
102
RTVSPropertyOp39
 70
     1
102
RTVSPropertyOp40
 70
     1
102
RTVSPropertyOp41
 70
     1
102
RTVSPropertyOp42
 70
     1
102
RTVSPropertyOp43
 70
     1
102
RTVSPropertyOp44
 70
     1
102
RTVSPropertyOp45
 70
     1
102
RTVSPropertyOp46
 70
     1
102
RTVSPropertyOp47
 70
     1
102
RTVSPropertyOp48
 70
     1
102
RTVSPropertyOp49
 70
     1
102
RTVSPropertyOp50
 70
     1
102
RTVSPropertyOp51
 70
     0
102
RTVSPropertyOp52
 70
     0
102
RTVSPropertyOp53
 70
     1
102
RTVSPropertyOp54
 70
     1
102
RTVSPropertyOp55
 70
     1
102
RTVSPropertyOp56
 70
     1
102
RTVSPropertyOp57
 70
     1
102
RTVSPropertyOp58
 70
     1
102
RTVSPropertyOp59
 70
     1
102
RTVSPropertyOp60
 70
     1
102
RTVSPropertyOp61
 70
     1
102
RTVSPropertyOp62
 70
     1
  0
XRECORD
  5
2A66
102
{ACAD_REACTORS
330
2A65
102
}
330
2A65
100
AcDbXrecord
280
     1
102
RTVSPost2010Prop28
280
     0
102
RTVSPost2010PropOp28
 70
     0
102
RTVSPost2010Prop29
280
     1
102
RTVSPost2010PropOp29
 70
     0
102
RTVSPost2010Prop30
280
     1
102
RTVSPost2010PropOp30
 70
     0
102
RTVSPost2010Prop31
280
     0
102
RTVSPost2010PropOp31
 70
     0
102
RTVSPost2010Prop32
280
     0
102
RTVSPost2010PropOp32
 70
     0
102
RTVSPost2010Prop33
280
     0
102
RTVSPost2010PropOp33
 70
     0
102
RTVSPost2010Prop34
280
     0
102
RTVSPost2010PropOp34
 70
     0
102
RTVSPost2010Prop35
280
     0
102
RTVSPost2010PropOp35
 70
     0
102
RTVSPost2010Prop36
280
     0
102
RTVSPost2010PropOp36
 70
     0
102
RTVSPost2010Prop37
 90
       50
102
RTVSPost2010PropOp37
 70
     0
102
RTVSPost2010Prop38
140
0.0
102
RTVSPost2010PropOp38
 70
     0
102
RTVSPost2010Prop39
140
1.0
102
RTVSPost2010PropOp39
 70
     0
102
RTVSPost2010Prop40
 90
        0
102
RTVSPost2010PropOp40
 70
     0
102
RTVSPost2010Prop41ColorIndex
 90
       18
102
RTVSPost2010Prop41ColorRGB
 90
        0
102
RTVSPost2010PropOp41
 70
     0
102
RTVSPost2010Prop42
 90
       50
102
RTVSPost2010PropOp42
 70
     0
102
RTVSPost2010Prop43
 90
        3
102
RTVSPost2010PropOp43
 70
     0
102
RTVSPost2010Prop44ColorIndex
 90
        5
102
RTVSPost2010Prop44ColorRGB
 90
      255
102
RTVSPost2010PropOp44
 70
     0
102
RTVSPost2010Prop45
280
     0
102
RTVSPost2010PropOp45
 70
     0
102
RTVSPost2010Prop46
 90
       50
102
RTVSPost2010PropOp46
 70
     0
102
RTVSPost2010Prop47
 90
       50
102
RTVSPost2010PropOp47
 70
     0
102
RTVSPost2010Prop48
 90
       50
102
RTVSPost2010PropOp48
 70
     0
102
RTVSPost2010Prop49
280
     0
102
RTVSPost2010PropOp49
 70
     0
102
RTVSPost2010Prop50
 90
       50
102
RTVSPost2010PropOp50
 70
     0
102
RTVSPost2010Prop51ColorIndex
 90
      256
102
RTVSPost2010Prop51ColorRGB
 90
-16777216
102
RTVSPost2010PropOp51
 70
     0
102
RTVSPost2010Prop52
140
1.0
102
RTVSPost2010PropOp52
 70
     0
102
RTVSPost2010Prop53
 90
        2
102
RTVSPost2010PropOp53
 70
     0
102
RTVSPost2010Prop54
  1
strokes_ogs.tif
102
RTVSPost2010PropOp54
 70
     0
102
RTVSPost2010Prop55
280
     0
102
RTVSPost2010PropOp55
 70
     0
102
RTVSPost2010Prop56
140
1.0
102
RTVSPost2010PropOp56
 70
     0
102
RTVSPost2010Prop57
140
1.0
102
RTVSPost2010PropOp57
 70
     0
102
RTVSPropertyOp0
 70
     0
102
RTVSPropertyOp1
 70
     0
102
RTVSPropertyOp2
 70
     0
102
RTVSPropertyOp3
 70
     0
102
RTVSPropertyOp4
 70
     0
102
RTVSPropertyOp5
 70
     0
102
RTVSPropertyOp6
 70
     0
102
RTVSPropertyOp7
 70
     0
102
RTVSPropertyOp8
 70
     0
102
RTVSPropertyOp9
 70
     0
102
RTVSPropertyOp10
 70
     0
102
RTVSPropertyOp11
 70
     0
102
RTVSPropertyOp12
 70
     0
102
RTVSPropertyOp13
 70
     0
102
RTVSPropertyOp14
 70
     2
102
RTVSPropertyOp15
 70
     0
102
RTVSPropertyOp16
 70
     0
102
RTVSPropertyOp17
 70
     0
102
RTVSPropertyOp18
 70
     0
102
RTVSPropertyOp19
 70
     0
102
RTVSPropertyOp20
 70
     0
102
RTVSPropertyOp21
 70
     0
102
RTVSPropertyOp22
 70
     0
102
RTVSPropertyOp23
 70
     0
102
RTVSPropertyOp24
 70
     0
102
RTVSPropertyOp25
 70
     0
102
RTVSPropertyOp26
 70
     0
102
RTVSPropertyOp27
 70
     0
102
RTVSPropertyOp28
 70
     0
102
RTVSPropertyOp29
 70
     0
102
RTVSPropertyOp30
 70
     0
102
RTVSPropertyOp31
 70
     0
102
RTVSPropertyOp32
 70
     0
102
RTVSPropertyOp33
 70
     0
102
RTVSPropertyOp34
 70
     0
102
RTVSPropertyOp35
 70
     0
102
RTVSPropertyOp36
 70
     0
102
RTVSPropertyOp37
 70
     0
102
RTVSPropertyOp38
 70
     0
102
RTVSPropertyOp39
 70
     0
102
RTVSPropertyOp40
 70
     0
102
RTVSPropertyOp41
 70
     0
102
RTVSPropertyOp42
 70
     0
102
RTVSPropertyOp43
 70
     0
102
RTVSPropertyOp44
 70
     0
102
RTVSPropertyOp45
 70
     0
102
RTVSPropertyOp46
 70
     0
102
RTVSPropertyOp47
 70
     0
102
RTVSPropertyOp48
 70
     0
102
RTVSPropertyOp49
 70
     0
102
RTVSPropertyOp50
 70
     0
102
RTVSPropertyOp51
 70
     0
102
RTVSPropertyOp52
 70
     0
102
RTVSPropertyOp53
 70
     0
102
RTVSPropertyOp54
 70
     0
102
RTVSPropertyOp55
 70
     0
102
RTVSPropertyOp56
 70
     0
102
RTVSPropertyOp57
 70
     0
102
RTVSPropertyOp58
 70
     0
102
RTVSPropertyOp59
 70
     0
102
RTVSPropertyOp60
 70
     0
102
RTVSPropertyOp61
 70
     0
102
RTVSPropertyOp62
 70
     0
  0
XRECORD
  5
2A4C
102
{ACAD_REACTORS
330
2A4B
102
}
330
2A4B
100
AcDbXrecord
280
     1
102
RTVSPost2010Prop28
280
     0
102
RTVSPost2010PropOp28
 70
     1
102
RTVSPost2010Prop29
280
     1
102
RTVSPost2010PropOp29
 70
     1
102
RTVSPost2010Prop30
280
     1
102
RTVSPost2010PropOp30
 70
     1
102
RTVSPost2010Prop31
280
     0
102
RTVSPost2010PropOp31
 70
     1
102
RTVSPost2010Prop32
280
     0
102
RTVSPost2010PropOp32
 70
     1
102
RTVSPost2010Prop33
280
     0
102
RTVSPost2010PropOp33
 70
     1
102
RTVSPost2010Prop34
280
     0
102
RTVSPost2010PropOp34
 70
     1
102
RTVSPost2010Prop35
280
     0
102
RTVSPost2010PropOp35
 70
     1
102
RTVSPost2010Prop36
280
     0
102
RTVSPost2010PropOp36
 70
     1
102
RTVSPost2010Prop37
 90
       50
102
RTVSPost2010PropOp37
 70
     1
102
RTVSPost2010Prop38
140
0.0
102
RTVSPost2010PropOp38
 70
     1
102
RTVSPost2010Prop39
140
1.0
102
RTVSPost2010PropOp39
 70
     1
102
RTVSPost2010Prop40
 90
        0
102
RTVSPost2010PropOp40
 70
     1
102
RTVSPost2010Prop41ColorIndex
 90
       18
102
RTVSPost2010Prop41ColorRGB
 90
        0
102
RTVSPost2010PropOp41
 70
     1
102
RTVSPost2010Prop42
 90
       50
102
RTVSPost2010PropOp42
 70
     1
102
RTVSPost2010Prop43
 90
        3
102
RTVSPost2010PropOp43
 70
     1
102
RTVSPost2010Prop44ColorIndex
 90
        5
102
RTVSPost2010Prop44ColorRGB
 90
      255
102
RTVSPost2010PropOp44
 70
     1
102
RTVSPost2010Prop45
280
     0
102
RTVSPost2010PropOp45
 70
     1
102
RTVSPost2010Prop46
 90
       50
102
RTVSPost2010PropOp46
 70
     1
102
RTVSPost2010Prop47
 90
       50
102
RTVSPost2010PropOp47
 70
     1
102
RTVSPost2010Prop48
 90
       50
102
RTVSPost2010PropOp48
 70
     1
102
RTVSPost2010Prop49
280
     0
102
RTVSPost2010PropOp49
 70
     1
102
RTVSPost2010Prop50
 90
       50
102
RTVSPost2010PropOp50
 70
     1
102
RTVSPost2010Prop51ColorIndex
 90
      256
102
RTVSPost2010Prop51ColorRGB
 90
-16777216
102
RTVSPost2010PropOp51
 70
     0
102
RTVSPost2010Prop52
140
1.0
102
RTVSPost2010PropOp52
 70
     0
102
RTVSPost2010Prop53
 90
        2
102
RTVSPost2010PropOp53
 70
     1
102
RTVSPost2010Prop54
  1
strokes_ogs.tif
102
RTVSPost2010PropOp54
 70
     1
102
RTVSPost2010Prop55
280
     0
102
RTVSPost2010PropOp55
 70
     1
102
RTVSPost2010Prop56
140
1.0
102
RTVSPost2010PropOp56
 70
     1
102
RTVSPost2010Prop57
140
1.0
102
RTVSPost2010PropOp57
 70
     1
102
RTVSPropertyOp0
 70
     1
102
RTVSPropertyOp1
 70
     1
102
RTVSPropertyOp2
 70
     1
102
RTVSPropertyOp3
 70
     1
102
RTVSPropertyOp4
 70
     1
102
RTVSPropertyOp5
 70
     1
102
RTVSPropertyOp6
 70
     1
102
RTVSPropertyOp7
 70
     1
102
RTVSPropertyOp8
 70
     1
102
RTVSPropertyOp9
 70
     1
102
RTVSPropertyOp10
 70
     1
102
RTVSPropertyOp11
 70
     1
102
RTVSPropertyOp12
 70
     1
102
RTVSPropertyOp13
 70
     1
102
RTVSPropertyOp14
 70
     1
102
RTVSPropertyOp15
 70
     1
102
RTVSPropertyOp16
 70
     1
102
RTVSPropertyOp17
 70
     1
102
RTVSPropertyOp18
 70
     1
102
RTVSPropertyOp19
 70
     1
102
RTVSPropertyOp20
 70
     1
102
RTVSPropertyOp21
 70
     1
102
RTVSPropertyOp22
 70
     1
102
RTVSPropertyOp23
 70
     1
102
RTVSPropertyOp24
 70
     1
102
RTVSPropertyOp25
 70
     1
102
RTVSPropertyOp26
 70
     1
102
RTVSPropertyOp27
 70
     1
102
RTVSPropertyOp28
 70
     1
102
RTVSPropertyOp29
 70
     1
102
RTVSPropertyOp30
 70
     1
102
RTVSPropertyOp31
 70
     1
102
RTVSPropertyOp32
 70
     1
102
RTVSPropertyOp33
 70
     1
102
RTVSPropertyOp34
 70
     1
102
RTVSPropertyOp35
 70
     1
102
RTVSPropertyOp36
 70
     1
102
RTVSPropertyOp37
 70
     1
102
RTVSPropertyOp38
 70
     1
102
RTVSPropertyOp39
 70
     1
102
RTVSPropertyOp40
 70
     1
102
RTVSPropertyOp41
 70
     1
102
RTVSPropertyOp42
 70
     1
102
RTVSPropertyOp43
 70
     1
102
RTVSPropertyOp44
 70
     1
102
RTVSPropertyOp45
 70
     1
102
RTVSPropertyOp46
 70
     1
102
RTVSPropertyOp47
 70
     1
102
RTVSPropertyOp48
 70
     1
102
RTVSPropertyOp49
 70
     1
102
RTVSPropertyOp50
 70
     1
102
RTVSPropertyOp51
 70
     0
102
RTVSPropertyOp52
 70
     0
102
RTVSPropertyOp53
 70
     1
102
RTVSPropertyOp54
 70
     1
102
RTVSPropertyOp55
 70
     1
102
RTVSPropertyOp56
 70
     1
102
RTVSPropertyOp57
 70
     1
102
RTVSPropertyOp58
 70
     1
102
RTVSPropertyOp59
 70
     1
102
RTVSPropertyOp60
 70
     1
102
RTVSPropertyOp61
 70
     1
102
RTVSPropertyOp62
 70
     1
  0
XRECORD
  5
2A62
102
{ACAD_REACTORS
330
2A61
102
}
330
2A61
100
AcDbXrecord
280
     1
102
RTVSPost2010Prop28
280
     0
102
RTVSPost2010PropOp28
 70
     1
102
RTVSPost2010Prop29
280
     1
102
RTVSPost2010PropOp29
 70
     1
102
RTVSPost2010Prop30
280
     1
102
RTVSPost2010PropOp30
 70
     1
102
RTVSPost2010Prop31
280
     0
102
RTVSPost2010PropOp31
 70
     1
102
RTVSPost2010Prop32
280
     0
102
RTVSPost2010PropOp32
 70
     1
102
RTVSPost2010Prop33
280
     0
102
RTVSPost2010PropOp33
 70
     1
102
RTVSPost2010Prop34
280
     0
102
RTVSPost2010PropOp34
 70
     1
102
RTVSPost2010Prop35
280
     0
102
RTVSPost2010PropOp35
 70
     1
102
RTVSPost2010Prop36
280
     0
102
RTVSPost2010PropOp36
 70
     1
102
RTVSPost2010Prop37
 90
       50
102
RTVSPost2010PropOp37
 70
     1
102
RTVSPost2010Prop38
140
0.0
102
RTVSPost2010PropOp38
 70
     1
102
RTVSPost2010Prop39
140
1.0
102
RTVSPost2010PropOp39
 70
     1
102
RTVSPost2010Prop40
 90
        0
102
RTVSPost2010PropOp40
 70
     1
102
RTVSPost2010Prop41ColorIndex
 90
       18
102
RTVSPost2010Prop41ColorRGB
 90
        0
102
RTVSPost2010PropOp41
 70
     1
102
RTVSPost2010Prop42
 90
       50
102
RTVSPost2010PropOp42
 70
     1
102
RTVSPost2010Prop43
 90
        3
102
RTVSPost2010PropOp43
 70
     1
102
RTVSPost2010Prop44ColorIndex
 90
        5
102
RTVSPost2010Prop44ColorRGB
 90
      255
102
RTVSPost2010PropOp44
 70
     1
102
RTVSPost2010Prop45
280
     0
102
RTVSPost2010PropOp45
 70
     1
102
RTVSPost2010Prop46
 90
       50
102
RTVSPost2010PropOp46
 70
     1
102
RTVSPost2010Prop47
 90
       50
102
RTVSPost2010PropOp47
 70
     1
102
RTVSPost2010Prop48
 90
       50
102
RTVSPost2010PropOp48
 70
     1
102
RTVSPost2010Prop49
280
     0
102
RTVSPost2010PropOp49
 70
     1
102
RTVSPost2010Prop50
 90
       50
102
RTVSPost2010PropOp50
 70
     1
102
RTVSPost2010Prop51ColorIndex
 90
      256
102
RTVSPost2010Prop51ColorRGB
 90
-16777216
102
RTVSPost2010PropOp51
 70
     0
102
RTVSPost2010Prop52
140
1.0
102
RTVSPost2010PropOp52
 70
     0
102
RTVSPost2010Prop53
 90
        2
102
RTVSPost2010PropOp53
 70
     1
102
RTVSPost2010Prop54
  1
strokes_ogs.tif
102
RTVSPost2010PropOp54
 70
     1
102
RTVSPost2010Prop55
280
     0
102
RTVSPost2010PropOp55
 70
     1
102
RTVSPost2010Prop56
140
1.0
102
RTVSPost2010PropOp56
 70
     1
102
RTVSPost2010Prop57
140
1.0
102
RTVSPost2010PropOp57
 70
     1
102
RTVSPropertyOp0
 70
     1
102
RTVSPropertyOp1
 70
     1
102
RTVSPropertyOp2
 70
     1
102
RTVSPropertyOp3
 70
     1
102
RTVSPropertyOp4
 70
     1
102
RTVSPropertyOp5
 70
     1
102
RTVSPropertyOp6
 70
     1
102
RTVSPropertyOp7
 70
     1
102
RTVSPropertyOp8
 70
     1
102
RTVSPropertyOp9
 70
     1
102
RTVSPropertyOp10
 70
     1
102
RTVSPropertyOp11
 70
     1
102
RTVSPropertyOp12
 70
     1
102
RTVSPropertyOp13
 70
     1
102
RTVSPropertyOp14
 70
     1
102
RTVSPropertyOp15
 70
     1
102
RTVSPropertyOp16
 70
     1
102
RTVSPropertyOp17
 70
     1
102
RTVSPropertyOp18
 70
     1
102
RTVSPropertyOp19
 70
     1
102
RTVSPropertyOp20
 70
     1
102
RTVSPropertyOp21
 70
     1
102
RTVSPropertyOp22
 70
     1
102
RTVSPropertyOp23
 70
     1
102
RTVSPropertyOp24
 70
     1
102
RTVSPropertyOp25
 70
     1
102
RTVSPropertyOp26
 70
     1
102
RTVSPropertyOp27
 70
     1
102
RTVSPropertyOp28
 70
     1
102
RTVSPropertyOp29
 70
     1
102
RTVSPropertyOp30
 70
     1
102
RTVSPropertyOp31
 70
     1
102
RTVSPropertyOp32
 70
     1
102
RTVSPropertyOp33
 70
     1
102
RTVSPropertyOp34
 70
     1
102
RTVSPropertyOp35
 70
     1
102
RTVSPropertyOp36
 70
     1
102
RTVSPropertyOp37
 70
     1
102
RTVSPropertyOp38
 70
     1
102
RTVSPropertyOp39
 70
     1
102
RTVSPropertyOp40
 70
     1
102
RTVSPropertyOp41
 70
     1
102
RTVSPropertyOp42
 70
     1
102
RTVSPropertyOp43
 70
     1
102
RTVSPropertyOp44
 70
     1
102
RTVSPropertyOp45
 70
     1
102
RTVSPropertyOp46
 70
     1
102
RTVSPropertyOp47
 70
     1
102
RTVSPropertyOp48
 70
     1
102
RTVSPropertyOp49
 70
     1
102
RTVSPropertyOp50
 70
     1
102
RTVSPropertyOp51
 70
     0
102
RTVSPropertyOp52
 70
     0
102
RTVSPropertyOp53
 70
     1
102
RTVSPropertyOp54
 70
     1
102
RTVSPropertyOp55
 70
     1
102
RTVSPropertyOp56
 70
     1
102
RTVSPropertyOp57
 70
     1
102
RTVSPropertyOp58
 70
     1
102
RTVSPropertyOp59
 70
     1
102
RTVSPropertyOp60
 70
     1
102
RTVSPropertyOp61
 70
     1
102
RTVSPropertyOp62
 70
     1
  0
XRECORD
  5
2A60
102
{ACAD_REACTORS
330
2A5F
102
}
330
2A5F
100
AcDbXrecord
280
     1
102
RTVSPost2010Prop28
280
     0
102
RTVSPost2010PropOp28
 70
     1
102
RTVSPost2010Prop29
280
     1
102
RTVSPost2010PropOp29
 70
     1
102
RTVSPost2010Prop30
280
     1
102
RTVSPost2010PropOp30
 70
     1
102
RTVSPost2010Prop31
280
     0
102
RTVSPost2010PropOp31
 70
     1
102
RTVSPost2010Prop32
280
     0
102
RTVSPost2010PropOp32
 70
     1
102
RTVSPost2010Prop33
280
     0
102
RTVSPost2010PropOp33
 70
     1
102
RTVSPost2010Prop34
280
     0
102
RTVSPost2010PropOp34
 70
     1
102
RTVSPost2010Prop35
280
     0
102
RTVSPost2010PropOp35
 70
     1
102
RTVSPost2010Prop36
280
     0
102
RTVSPost2010PropOp36
 70
     1
102
RTVSPost2010Prop37
 90
       50
102
RTVSPost2010PropOp37
 70
     1
102
RTVSPost2010Prop38
140
0.0
102
RTVSPost2010PropOp38
 70
     1
102
RTVSPost2010Prop39
140
1.0
102
RTVSPost2010PropOp39
 70
     1
102
RTVSPost2010Prop40
 90
        0
102
RTVSPost2010PropOp40
 70
     1
102
RTVSPost2010Prop41ColorIndex
 90
       18
102
RTVSPost2010Prop41ColorRGB
 90
        0
102
RTVSPost2010PropOp41
 70
     1
102
RTVSPost2010Prop42
 90
       50
102
RTVSPost2010PropOp42
 70
     1
102
RTVSPost2010Prop43
 90
        3
102
RTVSPost2010PropOp43
 70
     1
102
RTVSPost2010Prop44ColorIndex
 90
        5
102
RTVSPost2010Prop44ColorRGB
 90
      255
102
RTVSPost2010PropOp44
 70
     1
102
RTVSPost2010Prop45
280
     0
102
RTVSPost2010PropOp45
 70
     1
102
RTVSPost2010Prop46
 90
       50
102
RTVSPost2010PropOp46
 70
     1
102
RTVSPost2010Prop47
 90
       50
102
RTVSPost2010PropOp47
 70
     1
102
RTVSPost2010Prop48
 90
       50
102
RTVSPost2010PropOp48
 70
     1
102
RTVSPost2010Prop49
280
     0
102
RTVSPost2010PropOp49
 70
     1
102
RTVSPost2010Prop50
 90
       50
102
RTVSPost2010PropOp50
 70
     1
102
RTVSPost2010Prop51ColorIndex
 90
      256
102
RTVSPost2010Prop51ColorRGB
 90
-16777216
102
RTVSPost2010PropOp51
 70
     0
102
RTVSPost2010Prop52
140
1.0
102
RTVSPost2010PropOp52
 70
     0
102
RTVSPost2010Prop53
 90
        2
102
RTVSPost2010PropOp53
 70
     1
102
RTVSPost2010Prop54
  1
strokes_ogs.tif
102
RTVSPost2010PropOp54
 70
     1
102
RTVSPost2010Prop55
280
     0
102
RTVSPost2010PropOp55
 70
     1
102
RTVSPost2010Prop56
140
1.0
102
RTVSPost2010PropOp56
 70
     1
102
RTVSPost2010Prop57
140
1.0
102
RTVSPost2010PropOp57
 70
     1
102
RTVSPropertyOp0
 70
     1
102
RTVSPropertyOp1
 70
     1
102
RTVSPropertyOp2
 70
     1
102
RTVSPropertyOp3
 70
     1
102
RTVSPropertyOp4
 70
     1
102
RTVSPropertyOp5
 70
     1
102
RTVSPropertyOp6
 70
     1
102
RTVSPropertyOp7
 70
     1
102
RTVSPropertyOp8
 70
     1
102
RTVSPropertyOp9
 70
     1
102
RTVSPropertyOp10
 70
     1
102
RTVSPropertyOp11
 70
     1
102
RTVSPropertyOp12
 70
     1
102
RTVSPropertyOp13
 70
     1
102
RTVSPropertyOp14
 70
     1
102
RTVSPropertyOp15
 70
     1
102
RTVSPropertyOp16
 70
     1
102
RTVSPropertyOp17
 70
     1
102
RTVSPropertyOp18
 70
     1
102
RTVSPropertyOp19
 70
     1
102
RTVSPropertyOp20
 70
     1
102
RTVSPropertyOp21
 70
     1
102
RTVSPropertyOp22
 70
     1
102
RTVSPropertyOp23
 70
     1
102
RTVSPropertyOp24
 70
     1
102
RTVSPropertyOp25
 70
     1
102
RTVSPropertyOp26
 70
     1
102
RTVSPropertyOp27
 70
     1
102
RTVSPropertyOp28
 70
     1
102
RTVSPropertyOp29
 70
     1
102
RTVSPropertyOp30
 70
     1
102
RTVSPropertyOp31
 70
     1
102
RTVSPropertyOp32
 70
     1
102
RTVSPropertyOp33
 70
     1
102
RTVSPropertyOp34
 70
     1
102
RTVSPropertyOp35
 70
     1
102
RTVSPropertyOp36
 70
     1
102
RTVSPropertyOp37
 70
     1
102
RTVSPropertyOp38
 70
     1
102
RTVSPropertyOp39
 70
     1
102
RTVSPropertyOp40
 70
     1
102
RTVSPropertyOp41
 70
     1
102
RTVSPropertyOp42
 70
     1
102
RTVSPropertyOp43
 70
     1
102
RTVSPropertyOp44
 70
     1
102
RTVSPropertyOp45
 70
     1
102
RTVSPropertyOp46
 70
     1
102
RTVSPropertyOp47
 70
     1
102
RTVSPropertyOp48
 70
     1
102
RTVSPropertyOp49
 70
     1
102
RTVSPropertyOp50
 70
     1
102
RTVSPropertyOp51
 70
     0
102
RTVSPropertyOp52
 70
     0
102
RTVSPropertyOp53
 70
     1
102
RTVSPropertyOp54
 70
     1
102
RTVSPropertyOp55
 70
     1
102
RTVSPropertyOp56
 70
     1
102
RTVSPropertyOp57
 70
     1
102
RTVSPropertyOp58
 70
     1
102
RTVSPropertyOp59
 70
     1
102
RTVSPropertyOp60
 70
     1
102
RTVSPropertyOp61
 70
     1
102
RTVSPropertyOp62
 70
     1
  0
XRECORD
  5
2A5A
102
{ACAD_REACTORS
330
2A59
102
}
330
2A59
100
AcDbXrecord
280
     1
102
RTVSPost2010Prop28
280
     0
102
RTVSPost2010PropOp28
 70
     1
102
RTVSPost2010Prop29
280
     1
102
RTVSPost2010PropOp29
 70
     1
102
RTVSPost2010Prop30
280
     1
102
RTVSPost2010PropOp30
 70
     1
102
RTVSPost2010Prop31
280
     0
102
RTVSPost2010PropOp31
 70
     1
102
RTVSPost2010Prop32
280
     0
102
RTVSPost2010PropOp32
 70
     1
102
RTVSPost2010Prop33
280
     0
102
RTVSPost2010PropOp33
 70
     1
102
RTVSPost2010Prop34
280
     0
102
RTVSPost2010PropOp34
 70
     1
102
RTVSPost2010Prop35
280
     0
102
RTVSPost2010PropOp35
 70
     1
102
RTVSPost2010Prop36
280
     0
102
RTVSPost2010PropOp36
 70
     1
102
RTVSPost2010Prop37
 90
       50
102
RTVSPost2010PropOp37
 70
     1
102
RTVSPost2010Prop38
140
0.0
102
RTVSPost2010PropOp38
 70
     1
102
RTVSPost2010Prop39
140
1.0
102
RTVSPost2010PropOp39
 70
     1
102
RTVSPost2010Prop40
 90
        0
102
RTVSPost2010PropOp40
 70
     1
102
RTVSPost2010Prop41ColorIndex
 90
       18
102
RTVSPost2010Prop41ColorRGB
 90
        0
102
RTVSPost2010PropOp41
 70
     1
102
RTVSPost2010Prop42
 90
       50
102
RTVSPost2010PropOp42
 70
     1
102
RTVSPost2010Prop43
 90
        3
102
RTVSPost2010PropOp43
 70
     1
102
RTVSPost2010Prop44ColorIndex
 90
        5
102
RTVSPost2010Prop44ColorRGB
 90
      255
102
RTVSPost2010PropOp44
 70
     1
102
RTVSPost2010Prop45
280
     0
102
RTVSPost2010PropOp45
 70
     1
102
RTVSPost2010Prop46
 90
       50
102
RTVSPost2010PropOp46
 70
     1
102
RTVSPost2010Prop47
 90
       50
102
RTVSPost2010PropOp47
 70
     1
102
RTVSPost2010Prop48
 90
       50
102
RTVSPost2010PropOp48
 70
     1
102
RTVSPost2010Prop49
280
     0
102
RTVSPost2010PropOp49
 70
     1
102
RTVSPost2010Prop50
 90
       50
102
RTVSPost2010PropOp50
 70
     1
102
RTVSPost2010Prop51ColorIndex
 90
      256
102
RTVSPost2010Prop51ColorRGB
 90
-16777216
102
RTVSPost2010PropOp51
 70
     0
102
RTVSPost2010Prop52
140
1.0
102
RTVSPost2010PropOp52
 70
     0
102
RTVSPost2010Prop53
 90
        2
102
RTVSPost2010PropOp53
 70
     1
102
RTVSPost2010Prop54
  1
strokes_ogs.tif
102
RTVSPost2010PropOp54
 70
     1
102
RTVSPost2010Prop55
280
     0
102
RTVSPost2010PropOp55
 70
     1
102
RTVSPost2010Prop56
140
1.0
102
RTVSPost2010PropOp56
 70
     1
102
RTVSPost2010Prop57
140
1.0
102
RTVSPost2010PropOp57
 70
     1
102
RTVSPropertyOp0
 70
     1
102
RTVSPropertyOp1
 70
     1
102
RTVSPropertyOp2
 70
     1
102
RTVSPropertyOp3
 70
     1
102
RTVSPropertyOp4
 70
     1
102
RTVSPropertyOp5
 70
     1
102
RTVSPropertyOp6
 70
     1
102
RTVSPropertyOp7
 70
     1
102
RTVSPropertyOp8
 70
     1
102
RTVSPropertyOp9
 70
     1
102
RTVSPropertyOp10
 70
     1
102
RTVSPropertyOp11
 70
     1
102
RTVSPropertyOp12
 70
     1
102
RTVSPropertyOp13
 70
     1
102
RTVSPropertyOp14
 70
     1
102
RTVSPropertyOp15
 70
     1
102
RTVSPropertyOp16
 70
     1
102
RTVSPropertyOp17
 70
     1
102
RTVSPropertyOp18
 70
     1
102
RTVSPropertyOp19
 70
     1
102
RTVSPropertyOp20
 70
     1
102
RTVSPropertyOp21
 70
     1
102
RTVSPropertyOp22
 70
     1
102
RTVSPropertyOp23
 70
     1
102
RTVSPropertyOp24
 70
     1
102
RTVSPropertyOp25
 70
     1
102
RTVSPropertyOp26
 70
     1
102
RTVSPropertyOp27
 70
     1
102
RTVSPropertyOp28
 70
     1
102
RTVSPropertyOp29
 70
     1
102
RTVSPropertyOp30
 70
     1
102
RTVSPropertyOp31
 70
     1
102
RTVSPropertyOp32
 70
     1
102
RTVSPropertyOp33
 70
     1
102
RTVSPropertyOp34
 70
     1
102
RTVSPropertyOp35
 70
     1
102
RTVSPropertyOp36
 70
     1
102
RTVSPropertyOp37
 70
     1
102
RTVSPropertyOp38
 70
     1
102
RTVSPropertyOp39
 70
     1
102
RTVSPropertyOp40
 70
     1
102
RTVSPropertyOp41
 70
     1
102
RTVSPropertyOp42
 70
     1
102
RTVSPropertyOp43
 70
     1
102
RTVSPropertyOp44
 70
     1
102
RTVSPropertyOp45
 70
     1
102
RTVSPropertyOp46
 70
     1
102
RTVSPropertyOp47
 70
     1
102
RTVSPropertyOp48
 70
     1
102
RTVSPropertyOp49
 70
     1
102
RTVSPropertyOp50
 70
     1
102
RTVSPropertyOp51
 70
     0
102
RTVSPropertyOp52
 70
     0
102
RTVSPropertyOp53
 70
     1
102
RTVSPropertyOp54
 70
     1
102
RTVSPropertyOp55
 70
     1
102
RTVSPropertyOp56
 70
     1
102
RTVSPropertyOp57
 70
     1
102
RTVSPropertyOp58
 70
     1
102
RTVSPropertyOp59
 70
     1
102
RTVSPropertyOp60
 70
     1
102
RTVSPropertyOp61
 70
     1
102
RTVSPropertyOp62
 70
     1
  0
XRECORD
  5
2A5C
102
{ACAD_REACTORS
330
2A5B
102
}
330
2A5B
100
AcDbXrecord
280
     1
102
RTVSPost2010Prop28
280
     0
102
RTVSPost2010PropOp28
 70
     1
102
RTVSPost2010Prop29
280
     1
102
RTVSPost2010PropOp29
 70
     1
102
RTVSPost2010Prop30
280
     1
102
RTVSPost2010PropOp30
 70
     1
102
RTVSPost2010Prop31
280
     0
102
RTVSPost2010PropOp31
 70
     1
102
RTVSPost2010Prop32
280
     0
102
RTVSPost2010PropOp32
 70
     1
102
RTVSPost2010Prop33
280
     0
102
RTVSPost2010PropOp33
 70
     1
102
RTVSPost2010Prop34
280
     0
102
RTVSPost2010PropOp34
 70
     1
102
RTVSPost2010Prop35
280
     0
102
RTVSPost2010PropOp35
 70
     1
102
RTVSPost2010Prop36
280
     0
102
RTVSPost2010PropOp36
 70
     1
102
RTVSPost2010Prop37
 90
       50
102
RTVSPost2010PropOp37
 70
     1
102
RTVSPost2010Prop38
140
0.0
102
RTVSPost2010PropOp38
 70
     1
102
RTVSPost2010Prop39
140
1.0
102
RTVSPost2010PropOp39
 70
     1
102
RTVSPost2010Prop40
 90
        0
102
RTVSPost2010PropOp40
 70
     1
102
RTVSPost2010Prop41ColorIndex
 90
       18
102
RTVSPost2010Prop41ColorRGB
 90
        0
102
RTVSPost2010PropOp41
 70
     1
102
RTVSPost2010Prop42
 90
       50
102
RTVSPost2010PropOp42
 70
     1
102
RTVSPost2010Prop43
 90
        3
102
RTVSPost2010PropOp43
 70
     1
102
RTVSPost2010Prop44ColorIndex
 90
        5
102
RTVSPost2010Prop44ColorRGB
 90
      255
102
RTVSPost2010PropOp44
 70
     1
102
RTVSPost2010Prop45
280
     0
102
RTVSPost2010PropOp45
 70
     1
102
RTVSPost2010Prop46
 90
       50
102
RTVSPost2010PropOp46
 70
     1
102
RTVSPost2010Prop47
 90
       50
102
RTVSPost2010PropOp47
 70
     1
102
RTVSPost2010Prop48
 90
       50
102
RTVSPost2010PropOp48
 70
     1
102
RTVSPost2010Prop49
280
     0
102
RTVSPost2010PropOp49
 70
     1
102
RTVSPost2010Prop50
 90
       50
102
RTVSPost2010PropOp50
 70
     1
102
RTVSPost2010Prop51ColorIndex
 90
      256
102
RTVSPost2010Prop51ColorRGB
 90
-16777216
102
RTVSPost2010PropOp51
 70
     0
102
RTVSPost2010Prop52
140
1.0
102
RTVSPost2010PropOp52
 70
     0
102
RTVSPost2010Prop53
 90
        2
102
RTVSPost2010PropOp53
 70
     1
102
RTVSPost2010Prop54
  1
strokes_ogs.tif
102
RTVSPost2010PropOp54
 70
     1
102
RTVSPost2010Prop55
280
     0
102
RTVSPost2010PropOp55
 70
     1
102
RTVSPost2010Prop56
140
1.0
102
RTVSPost2010PropOp56
 70
     1
102
RTVSPost2010Prop57
140
1.0
102
RTVSPost2010PropOp57
 70
     1
102
RTVSPropertyOp0
 70
     1
102
RTVSPropertyOp1
 70
     1
102
RTVSPropertyOp2
 70
     1
102
RTVSPropertyOp3
 70
     1
102
RTVSPropertyOp4
 70
     1
102
RTVSPropertyOp5
 70
     1
102
RTVSPropertyOp6
 70
     1
102
RTVSPropertyOp7
 70
     1
102
RTVSPropertyOp8
 70
     1
102
RTVSPropertyOp9
 70
     1
102
RTVSPropertyOp10
 70
     1
102
RTVSPropertyOp11
 70
     1
102
RTVSPropertyOp12
 70
     1
102
RTVSPropertyOp13
 70
     1
102
RTVSPropertyOp14
 70
     1
102
RTVSPropertyOp15
 70
     1
102
RTVSPropertyOp16
 70
     1
102
RTVSPropertyOp17
 70
     1
102
RTVSPropertyOp18
 70
     1
102
RTVSPropertyOp19
 70
     1
102
RTVSPropertyOp20
 70
     1
102
RTVSPropertyOp21
 70
     1
102
RTVSPropertyOp22
 70
     1
102
RTVSPropertyOp23
 70
     1
102
RTVSPropertyOp24
 70
     1
102
RTVSPropertyOp25
 70
     1
102
RTVSPropertyOp26
 70
     1
102
RTVSPropertyOp27
 70
     1
102
RTVSPropertyOp28
 70
     1
102
RTVSPropertyOp29
 70
     1
102
RTVSPropertyOp30
 70
     1
102
RTVSPropertyOp31
 70
     1
102
RTVSPropertyOp32
 70
     1
102
RTVSPropertyOp33
 70
     1
102
RTVSPropertyOp34
 70
     1
102
RTVSPropertyOp35
 70
     1
102
RTVSPropertyOp36
 70
     1
102
RTVSPropertyOp37
 70
     1
102
RTVSPropertyOp38
 70
     1
102
RTVSPropertyOp39
 70
     1
102
RTVSPropertyOp40
 70
     1
102
RTVSPropertyOp41
 70
     1
102
RTVSPropertyOp42
 70
     1
102
RTVSPropertyOp43
 70
     1
102
RTVSPropertyOp44
 70
     1
102
RTVSPropertyOp45
 70
     1
102
RTVSPropertyOp46
 70
     1
102
RTVSPropertyOp47
 70
     1
102
RTVSPropertyOp48
 70
     1
102
RTVSPropertyOp49
 70
     1
102
RTVSPropertyOp50
 70
     1
102
RTVSPropertyOp51
 70
     0
102
RTVSPropertyOp52
 70
     0
102
RTVSPropertyOp53
 70
     1
102
RTVSPropertyOp54
 70
     1
102
RTVSPropertyOp55
 70
     1
102
RTVSPropertyOp56
 70
     1
102
RTVSPropertyOp57
 70
     1
102
RTVSPropertyOp58
 70
     1
102
RTVSPropertyOp59
 70
     1
102
RTVSPropertyOp60
 70
     1
102
RTVSPropertyOp61
 70
     1
102
RTVSPropertyOp62
 70
     1
  0
XRECORD
  5
2A52
102
{ACAD_REACTORS
330
2A51
102
}
330
2A51
100
AcDbXrecord
280
     1
102
RTVSPost2010Prop28
280
     0
102
RTVSPost2010PropOp28
 70
     1
102
RTVSPost2010Prop29
280
     1
102
RTVSPost2010PropOp29
 70
     1
102
RTVSPost2010Prop30
280
     1
102
RTVSPost2010PropOp30
 70
     1
102
RTVSPost2010Prop31
280
     0
102
RTVSPost2010PropOp31
 70
     1
102
RTVSPost2010Prop32
280
     0
102
RTVSPost2010PropOp32
 70
     1
102
RTVSPost2010Prop33
280
     0
102
RTVSPost2010PropOp33
 70
     1
102
RTVSPost2010Prop34
280
     0
102
RTVSPost2010PropOp34
 70
     1
102
RTVSPost2010Prop35
280
     0
102
RTVSPost2010PropOp35
 70
     1
102
RTVSPost2010Prop36
280
     0
102
RTVSPost2010PropOp36
 70
     1
102
RTVSPost2010Prop37
 90
       50
102
RTVSPost2010PropOp37
 70
     1
102
RTVSPost2010Prop38
140
0.0
102
RTVSPost2010PropOp38
 70
     1
102
RTVSPost2010Prop39
140
1.0
102
RTVSPost2010PropOp39
 70
     1
102
RTVSPost2010Prop40
 90
        0
102
RTVSPost2010PropOp40
 70
     1
102
RTVSPost2010Prop41ColorIndex
 90
       18
102
RTVSPost2010Prop41ColorRGB
 90
        0
102
RTVSPost2010PropOp41
 70
     1
102
RTVSPost2010Prop42
 90
       50
102
RTVSPost2010PropOp42
 70
     1
102
RTVSPost2010Prop43
 90
        3
102
RTVSPost2010PropOp43
 70
     1
102
RTVSPost2010Prop44ColorIndex
 90
        5
102
RTVSPost2010Prop44ColorRGB
 90
      255
102
RTVSPost2010PropOp44
 70
     1
102
RTVSPost2010Prop45
280
     0
102
RTVSPost2010PropOp45
 70
     1
102
RTVSPost2010Prop46
 90
       50
102
RTVSPost2010PropOp46
 70
     1
102
RTVSPost2010Prop47
 90
       50
102
RTVSPost2010PropOp47
 70
     1
102
RTVSPost2010Prop48
 90
       50
102
RTVSPost2010PropOp48
 70
     1
102
RTVSPost2010Prop49
280
     0
102
RTVSPost2010PropOp49
 70
     1
102
RTVSPost2010Prop50
 90
       50
102
RTVSPost2010PropOp50
 70
     1
102
RTVSPost2010Prop51ColorIndex
 90
      256
102
RTVSPost2010Prop51ColorRGB
 90
-16777216
102
RTVSPost2010PropOp51
 70
     0
102
RTVSPost2010Prop52
140
1.0
102
RTVSPost2010PropOp52
 70
     0
102
RTVSPost2010Prop53
 90
        2
102
RTVSPost2010PropOp53
 70
     1
102
RTVSPost2010Prop54
  1
strokes_ogs.tif
102
RTVSPost2010PropOp54
 70
     1
102
RTVSPost2010Prop55
280
     0
102
RTVSPost2010PropOp55
 70
     1
102
RTVSPost2010Prop56
140
1.0
102
RTVSPost2010PropOp56
 70
     1
102
RTVSPost2010Prop57
140
1.0
102
RTVSPost2010PropOp57
 70
     1
102
RTVSPropertyOp0
 70
     1
102
RTVSPropertyOp1
 70
     1
102
RTVSPropertyOp2
 70
     1
102
RTVSPropertyOp3
 70
     1
102
RTVSPropertyOp4
 70
     1
102
RTVSPropertyOp5
 70
     1
102
RTVSPropertyOp6
 70
     1
102
RTVSPropertyOp7
 70
     1
102
RTVSPropertyOp8
 70
     1
102
RTVSPropertyOp9
 70
     1
102
RTVSPropertyOp10
 70
     1
102
RTVSPropertyOp11
 70
     1
102
RTVSPropertyOp12
 70
     1
102
RTVSPropertyOp13
 70
     1
102
RTVSPropertyOp14
 70
     1
102
RTVSPropertyOp15
 70
     1
102
RTVSPropertyOp16
 70
     1
102
RTVSPropertyOp17
 70
     1
102
RTVSPropertyOp18
 70
     1
102
RTVSPropertyOp19
 70
     1
102
RTVSPropertyOp20
 70
     1
102
RTVSPropertyOp21
 70
     1
102
RTVSPropertyOp22
 70
     1
102
RTVSPropertyOp23
 70
     1
102
RTVSPropertyOp24
 70
     1
102
RTVSPropertyOp25
 70
     1
102
RTVSPropertyOp26
 70
     1
102
RTVSPropertyOp27
 70
     1
102
RTVSPropertyOp28
 70
     1
102
RTVSPropertyOp29
 70
     1
102
RTVSPropertyOp30
 70
     1
102
RTVSPropertyOp31
 70
     1
102
RTVSPropertyOp32
 70
     1
102
RTVSPropertyOp33
 70
     1
102
RTVSPropertyOp34
 70
     1
102
RTVSPropertyOp35
 70
     1
102
RTVSPropertyOp36
 70
     1
102
RTVSPropertyOp37
 70
     1
102
RTVSPropertyOp38
 70
     1
102
RTVSPropertyOp39
 70
     1
102
RTVSPropertyOp40
 70
     1
102
RTVSPropertyOp41
 70
     1
102
RTVSPropertyOp42
 70
     1
102
RTVSPropertyOp43
 70
     1
102
RTVSPropertyOp44
 70
     1
102
RTVSPropertyOp45
 70
     1
102
RTVSPropertyOp46
 70
     1
102
RTVSPropertyOp47
 70
     1
102
RTVSPropertyOp48
 70
     1
102
RTVSPropertyOp49
 70
     1
102
RTVSPropertyOp50
 70
     1
102
RTVSPropertyOp51
 70
     0
102
RTVSPropertyOp52
 70
     0
102
RTVSPropertyOp53
 70
     1
102
RTVSPropertyOp54
 70
     1
102
RTVSPropertyOp55
 70
     1
102
RTVSPropertyOp56
 70
     1
102
RTVSPropertyOp57
 70
     1
102
RTVSPropertyOp58
 70
     1
102
RTVSPropertyOp59
 70
     1
102
RTVSPropertyOp60
 70
     1
102
RTVSPropertyOp61
 70
     1
102
RTVSPropertyOp62
 70
     1
  0
XRECORD
  5
2A46
102
{ACAD_REACTORS
330
2A45
102
}
330
2A45
100
AcDbXrecord
280
     1
102
RTVSPost2010Prop28
280
     0
102
RTVSPost2010PropOp28
 70
     1
102
RTVSPost2010Prop29
280
     1
102
RTVSPost2010PropOp29
 70
     1
102
RTVSPost2010Prop30
280
     1
102
RTVSPost2010PropOp30
 70
     1
102
RTVSPost2010Prop31
280
     0
102
RTVSPost2010PropOp31
 70
     1
102
RTVSPost2010Prop32
280
     0
102
RTVSPost2010PropOp32
 70
     1
102
RTVSPost2010Prop33
280
     0
102
RTVSPost2010PropOp33
 70
     1
102
RTVSPost2010Prop34
280
     0
102
RTVSPost2010PropOp34
 70
     1
102
RTVSPost2010Prop35
280
     0
102
RTVSPost2010PropOp35
 70
     1
102
RTVSPost2010Prop36
280
     0
102
RTVSPost2010PropOp36
 70
     1
102
RTVSPost2010Prop37
 90
       50
102
RTVSPost2010PropOp37
 70
     1
102
RTVSPost2010Prop38
140
0.0
102
RTVSPost2010PropOp38
 70
     1
102
RTVSPost2010Prop39
140
1.0
102
RTVSPost2010PropOp39
 70
     1
102
RTVSPost2010Prop40
 90
        0
102
RTVSPost2010PropOp40
 70
     1
102
RTVSPost2010Prop41ColorIndex
 90
       18
102
RTVSPost2010Prop41ColorRGB
 90
        0
102
RTVSPost2010PropOp41
 70
     1
102
RTVSPost2010Prop42
 90
       50
102
RTVSPost2010PropOp42
 70
     1
102
RTVSPost2010Prop43
 90
        3
102
RTVSPost2010PropOp43
 70
     1
102
RTVSPost2010Prop44ColorIndex
 90
        5
102
RTVSPost2010Prop44ColorRGB
 90
      255
102
RTVSPost2010PropOp44
 70
     1
102
RTVSPost2010Prop45
280
     0
102
RTVSPost2010PropOp45
 70
     1
102
RTVSPost2010Prop46
 90
       50
102
RTVSPost2010PropOp46
 70
     1
102
RTVSPost2010Prop47
 90
       50
102
RTVSPost2010PropOp47
 70
     1
102
RTVSPost2010Prop48
 90
       50
102
RTVSPost2010PropOp48
 70
     1
102
RTVSPost2010Prop49
280
     0
102
RTVSPost2010PropOp49
 70
     1
102
RTVSPost2010Prop50
 90
       50
102
RTVSPost2010PropOp50
 70
     1
102
RTVSPost2010Prop51ColorIndex
 90
      256
102
RTVSPost2010Prop51ColorRGB
 90
-16777216
102
RTVSPost2010PropOp51
 70
     0
102
RTVSPost2010Prop52
140
1.0
102
RTVSPost2010PropOp52
 70
     0
102
RTVSPost2010Prop53
 90
        2
102
RTVSPost2010PropOp53
 70
     1
102
RTVSPost2010Prop54
  1
strokes_ogs.tif
102
RTVSPost2010PropOp54
 70
     1
102
RTVSPost2010Prop55
280
     0
102
RTVSPost2010PropOp55
 70
     1
102
RTVSPost2010Prop56
140
1.0
102
RTVSPost2010PropOp56
 70
     1
102
RTVSPost2010Prop57
140
1.0
102
RTVSPost2010PropOp57
 70
     1
102
RTVSPropertyOp0
 70
     1
102
RTVSPropertyOp1
 70
     1
102
RTVSPropertyOp2
 70
     1
102
RTVSPropertyOp3
 70
     1
102
RTVSPropertyOp4
 70
     1
102
RTVSPropertyOp5
 70
     1
102
RTVSPropertyOp6
 70
     1
102
RTVSPropertyOp7
 70
     1
102
RTVSPropertyOp8
 70
     1
102
RTVSPropertyOp9
 70
     1
102
RTVSPropertyOp10
 70
     1
102
RTVSPropertyOp11
 70
     1
102
RTVSPropertyOp12
 70
     1
102
RTVSPropertyOp13
 70
     1
102
RTVSPropertyOp14
 70
     1
102
RTVSPropertyOp15
 70
     1
102
RTVSPropertyOp16
 70
     1
102
RTVSPropertyOp17
 70
     1
102
RTVSPropertyOp18
 70
     1
102
RTVSPropertyOp19
 70
     1
102
RTVSPropertyOp20
 70
     1
102
RTVSPropertyOp21
 70
     1
102
RTVSPropertyOp22
 70
     1
102
RTVSPropertyOp23
 70
     1
102
RTVSPropertyOp24
 70
     1
102
RTVSPropertyOp25
 70
     1
102
RTVSPropertyOp26
 70
     1
102
RTVSPropertyOp27
 70
     1
102
RTVSPropertyOp28
 70
     1
102
RTVSPropertyOp29
 70
     1
102
RTVSPropertyOp30
 70
     1
102
RTVSPropertyOp31
 70
     1
102
RTVSPropertyOp32
 70
     1
102
RTVSPropertyOp33
 70
     1
102
RTVSPropertyOp34
 70
     1
102
RTVSPropertyOp35
 70
     1
102
RTVSPropertyOp36
 70
     1
102
RTVSPropertyOp37
 70
     1
102
RTVSPropertyOp38
 70
     1
102
RTVSPropertyOp39
 70
     1
102
RTVSPropertyOp40
 70
     1
102
RTVSPropertyOp41
 70
     1
102
RTVSPropertyOp42
 70
     1
102
RTVSPropertyOp43
 70
     1
102
RTVSPropertyOp44
 70
     1
102
RTVSPropertyOp45
 70
     1
102
RTVSPropertyOp46
 70
     1
102
RTVSPropertyOp47
 70
     1
102
RTVSPropertyOp48
 70
     1
102
RTVSPropertyOp49
 70
     1
102
RTVSPropertyOp50
 70
     1
102
RTVSPropertyOp51
 70
     0
102
RTVSPropertyOp52
 70
     0
102
RTVSPropertyOp53
 70
     1
102
RTVSPropertyOp54
 70
     1
102
RTVSPropertyOp55
 70
     1
102
RTVSPropertyOp56
 70
     1
102
RTVSPropertyOp57
 70
     1
102
RTVSPropertyOp58
 70
     1
102
RTVSPropertyOp59
 70
     1
102
RTVSPropertyOp60
 70
     1
102
RTVSPropertyOp61
 70
     1
102
RTVSPropertyOp62
 70
     1
  0
XRECORD
  5
2A5E
102
{ACAD_REACTORS
330
2A5D
102
}
330
2A5D
100
AcDbXrecord
280
     1
102
RTVSPost2010Prop28
280
     0
102
RTVSPost2010PropOp28
 70
     1
102
RTVSPost2010Prop29
280
     1
102
RTVSPost2010PropOp29
 70
     1
102
RTVSPost2010Prop30
280
     1
102
RTVSPost2010PropOp30
 70
     1
102
RTVSPost2010Prop31
280
     0
102
RTVSPost2010PropOp31
 70
     1
102
RTVSPost2010Prop32
280
     0
102
RTVSPost2010PropOp32
 70
     1
102
RTVSPost2010Prop33
280
     0
102
RTVSPost2010PropOp33
 70
     1
102
RTVSPost2010Prop34
280
     0
102
RTVSPost2010PropOp34
 70
     1
102
RTVSPost2010Prop35
280
     0
102
RTVSPost2010PropOp35
 70
     1
102
RTVSPost2010Prop36
280
     0
102
RTVSPost2010PropOp36
 70
     1
102
RTVSPost2010Prop37
 90
       50
102
RTVSPost2010PropOp37
 70
     1
102
RTVSPost2010Prop38
140
0.0
102
RTVSPost2010PropOp38
 70
     1
102
RTVSPost2010Prop39
140
1.0
102
RTVSPost2010PropOp39
 70
     1
102
RTVSPost2010Prop40
 90
        0
102
RTVSPost2010PropOp40
 70
     1
102
RTVSPost2010Prop41ColorIndex
 90
       18
102
RTVSPost2010Prop41ColorRGB
 90
        0
102
RTVSPost2010PropOp41
 70
     1
102
RTVSPost2010Prop42
 90
       50
102
RTVSPost2010PropOp42
 70
     1
102
RTVSPost2010Prop43
 90
        3
102
RTVSPost2010PropOp43
 70
     1
102
RTVSPost2010Prop44ColorIndex
 90
        5
102
RTVSPost2010Prop44ColorRGB
 90
      255
102
RTVSPost2010PropOp44
 70
     1
102
RTVSPost2010Prop45
280
     0
102
RTVSPost2010PropOp45
 70
     1
102
RTVSPost2010Prop46
 90
       50
102
RTVSPost2010PropOp46
 70
     1
102
RTVSPost2010Prop47
 90
       50
102
RTVSPost2010PropOp47
 70
     1
102
RTVSPost2010Prop48
 90
       50
102
RTVSPost2010PropOp48
 70
     1
102
RTVSPost2010Prop49
280
     0
102
RTVSPost2010PropOp49
 70
     1
102
RTVSPost2010Prop50
 90
       50
102
RTVSPost2010PropOp50
 70
     1
102
RTVSPost2010Prop51ColorIndex
 90
      256
102
RTVSPost2010Prop51ColorRGB
 90
-16777216
102
RTVSPost2010PropOp51
 70
     0
102
RTVSPost2010Prop52
140
1.0
102
RTVSPost2010PropOp52
 70
     0
102
RTVSPost2010Prop53
 90
        2
102
RTVSPost2010PropOp53
 70
     1
102
RTVSPost2010Prop54
  1
strokes_ogs.tif
102
RTVSPost2010PropOp54
 70
     1
102
RTVSPost2010Prop55
280
     0
102
RTVSPost2010PropOp55
 70
     1
102
RTVSPost2010Prop56
140
1.0
102
RTVSPost2010PropOp56
 70
     1
102
RTVSPost2010Prop57
140
1.0
102
RTVSPost2010PropOp57
 70
     1
102
RTVSPropertyOp0
 70
     1
102
RTVSPropertyOp1
 70
     1
102
RTVSPropertyOp2
 70
     1
102
RTVSPropertyOp3
 70
     1
102
RTVSPropertyOp4
 70
     1
102
RTVSPropertyOp5
 70
     1
102
RTVSPropertyOp6
 70
     1
102
RTVSPropertyOp7
 70
     1
102
RTVSPropertyOp8
 70
     1
102
RTVSPropertyOp9
 70
     1
102
RTVSPropertyOp10
 70
     1
102
RTVSPropertyOp11
 70
     1
102
RTVSPropertyOp12
 70
     1
102
RTVSPropertyOp13
 70
     1
102
RTVSPropertyOp14
 70
     1
102
RTVSPropertyOp15
 70
     1
102
RTVSPropertyOp16
 70
     1
102
RTVSPropertyOp17
 70
     1
102
RTVSPropertyOp18
 70
     1
102
RTVSPropertyOp19
 70
     1
102
RTVSPropertyOp20
 70
     1
102
RTVSPropertyOp21
 70
     1
102
RTVSPropertyOp22
 70
     1
102
RTVSPropertyOp23
 70
     1
102
RTVSPropertyOp24
 70
     1
102
RTVSPropertyOp25
 70
     1
102
RTVSPropertyOp26
 70
     1
102
RTVSPropertyOp27
 70
     1
102
RTVSPropertyOp28
 70
     1
102
RTVSPropertyOp29
 70
     1
102
RTVSPropertyOp30
 70
     1
102
RTVSPropertyOp31
 70
     1
102
RTVSPropertyOp32
 70
     1
102
RTVSPropertyOp33
 70
     1
102
RTVSPropertyOp34
 70
     1
102
RTVSPropertyOp35
 70
     1
102
RTVSPropertyOp36
 70
     1
102
RTVSPropertyOp37
 70
     1
102
RTVSPropertyOp38
 70
     1
102
RTVSPropertyOp39
 70
     1
102
RTVSPropertyOp40
 70
     1
102
RTVSPropertyOp41
 70
     1
102
RTVSPropertyOp42
 70
     1
102
RTVSPropertyOp43
 70
     1
102
RTVSPropertyOp44
 70
     1
102
RTVSPropertyOp45
 70
     1
102
RTVSPropertyOp46
 70
     1
102
RTVSPropertyOp47
 70
     1
102
RTVSPropertyOp48
 70
     1
102
RTVSPropertyOp49
 70
     1
102
RTVSPropertyOp50
 70
     1
102
RTVSPropertyOp51
 70
     0
102
RTVSPropertyOp52
 70
     0
102
RTVSPropertyOp53
 70
     1
102
RTVSPropertyOp54
 70
     1
102
RTVSPropertyOp55
 70
     1
102
RTVSPropertyOp56
 70
     1
102
RTVSPropertyOp57
 70
     1
102
RTVSPropertyOp58
 70
     1
102
RTVSPropertyOp59
 70
     1
102
RTVSPropertyOp60
 70
     1
102
RTVSPropertyOp61
 70
     1
102
RTVSPropertyOp62
 70
     1
  0
XRECORD
  5
2809
102
{ACAD_REACTORS
330
2808
102
}
330
2808
100
AcDbXrecord
280
     1
330
264D
  0
ACDBASSOCARRAYACTIONBODY
  5
27A8
330
27A7
100
AcDbAssocActionBody
 90
        1
100
AcDbAssocParamBasedActionBody
 90
        0
 90
        0
 90
        3
360
27A9
360
27AA
360
27AE
 90
        0
 90
        9
 90
        0
  1
AlignItems
 90
        0
 90
        1
 90
        0
330
0
330
0
 90
        0
  1
AxesAngle
 90
        2
 90
        1
 40
1.570796326794896
330
0
330
0
 90
        0
  1
ItemSpacing
 90
        1
 90
        1
 40
12.55692257142858
330
0
330
0
 90
        0
  1
Items
 90
        0
 90
        1
 90
       78
330
0
330
0
 90
        0
  1
LevelSpacing
 90
        1
 90
        1
 40
1.0
330
0
330
0
 90
        0
  1
Levels
 90
        0
 90
        1
 90
        1
330
0
330
0
 90
        0
  1
RowElevation
 90
        1
 90
        1
 40
0.0
330
0
330
0
 90
        0
  1
RowSpacing
 90
        1
 90
        1
 40
48.0
330
0
330
0
 90
        0
  1
Rows
 90
        0
 90
        1
 90
        1
330
0
330
0
100
AcDbAssocArrayActionBody
 90
        1
  1
AcDbAssocArrayRectangularParameters
 90
        0
 90
       78
  1
AcDbAssocArrayItem
100
AcDbAssocArrayItem
 90
        0
 90
        0
 90
        0
 90
        0
 90
        8
 11
0.0
 21
0.0
 31
0.0
330
27B0
100
AcDbAssocArrayItem
 90
        0
 90
        1
 90
        0
 90
        0
 90
        8
 11
12.55692257142858
 21
0.0
 31
0.0
330
27B1
100
AcDbAssocArrayItem
 90
        0
 90
        2
 90
        0
 90
        0
 90
        8
 11
25.11384514285716
 21
0.0
 31
0.0
330
27B2
100
AcDbAssocArrayItem
 90
        0
 90
        3
 90
        0
 90
        0
 90
        8
 11
37.67076771428573
 21
0.0
 31
0.0
330
27B3
100
AcDbAssocArrayItem
 90
        0
 90
        4
 90
        0
 90
        0
 90
        8
 11
50.22769028571431
 21
0.0
 31
0.0
330
27B4
100
AcDbAssocArrayItem
 90
        0
 90
        5
 90
        0
 90
        0
 90
        8
 11
62.78461285714289
 21
0.0
 31
0.0
330
27B5
100
AcDbAssocArrayItem
 90
        0
 90
        6
 90
        0
 90
        0
 90
        8
 11
75.34153542857146
 21
0.0
 31
0.0
330
27B6
100
AcDbAssocArrayItem
 90
        0
 90
        7
 90
        0
 90
        0
 90
        8
 11
87.89845800000005
 21
0.0
 31
0.0
330
27B7
100
AcDbAssocArrayItem
 90
        0
 90
        8
 90
        0
 90
        0
 90
        8
 11
100.4553805714286
 21
0.0
 31
0.0
330
27B8
100
AcDbAssocArrayItem
 90
        0
 90
        9
 90
        0
 90
        0
 90
        8
 11
113.0123031428572
 21
0.0
 31
0.0
330
27B9
100
AcDbAssocArrayItem
 90
        0
 90
       10
 90
        0
 90
        0
 90
        8
 11
125.5692257142857
 21
0.0
 31
0.0
330
27BA
100
AcDbAssocArrayItem
 90
        0
 90
       11
 90
        0
 90
        0
 90
        8
 11
138.1261482857143
 21
0.0
 31
0.0
330
27BB
100
AcDbAssocArrayItem
 90
        0
 90
       12
 90
        0
 90
        0
 90
        8
 11
150.6830708571429
 21
0.0
 31
0.0
330
27BC
100
AcDbAssocArrayItem
 90
        0
 90
       13
 90
        0
 90
        0
 90
        8
 11
163.2399934285715
 21
0.0
 31
0.0
330
27BD
100
AcDbAssocArrayItem
 90
        0
 90
       14
 90
        0
 90
        0
 90
        8
 11
175.7969160000001
 21
0.0
 31
0.0
330
27BE
100
AcDbAssocArrayItem
 90
        0
 90
       15
 90
        0
 90
        0
 90
        8
 11
188.3538385714286
 21
0.0
 31
0.0
330
27BF
100
AcDbAssocArrayItem
 90
        0
 90
       16
 90
        0
 90
        0
 90
        8
 11
200.9107611428572
 21
0.0
 31
0.0
330
27C0
100
AcDbAssocArrayItem
 90
        0
 90
       17
 90
        0
 90
        0
 90
        8
 11
213.4676837142858
 21
0.0
 31
0.0
330
27C1
100
AcDbAssocArrayItem
 90
        0
 90
       18
 90
        0
 90
        0
 90
        8
 11
226.0246062857144
 21
0.0
 31
0.0
330
27C2
100
AcDbAssocArrayItem
 90
        0
 90
       19
 90
        0
 90
        0
 90
        8
 11
238.581528857143
 21
0.0
 31
0.0
330
27C3
100
AcDbAssocArrayItem
 90
        0
 90
       20
 90
        0
 90
        0
 90
        8
 11
251.1384514285715
 21
0.0
 31
0.0
330
27C4
100
AcDbAssocArrayItem
 90
        0
 90
       21
 90
        0
 90
        0
 90
        8
 11
263.6953740000001
 21
0.0
 31
0.0
330
27C5
100
AcDbAssocArrayItem
 90
        0
 90
       22
 90
        0
 90
        0
 90
        8
 11
276.2522965714287
 21
0.0
 31
0.0
330
27C6
100
AcDbAssocArrayItem
 90
        0
 90
       23
 90
        0
 90
        0
 90
        8
 11
288.8092191428573
 21
0.0
 31
0.0
330
27C7
100
AcDbAssocArrayItem
 90
        0
 90
       24
 90
        0
 90
        0
 90
        8
 11
301.3661417142858
 21
0.0
 31
0.0
330
27C8
100
AcDbAssocArrayItem
 90
        0
 90
       25
 90
        0
 90
        0
 90
        8
 11
313.9230642857144
 21
0.0
 31
0.0
330
27C9
100
AcDbAssocArrayItem
 90
        0
 90
       26
 90
        0
 90
        0
 90
        8
 11
326.479986857143
 21
0.0
 31
0.0
330
27CA
100
AcDbAssocArrayItem
 90
        0
 90
       27
 90
        0
 90
        0
 90
        8
 11
339.0369094285716
 21
0.0
 31
0.0
330
27CB
100
AcDbAssocArrayItem
 90
        0
 90
       28
 90
        0
 90
        0
 90
        8
 11
351.5938320000002
 21
0.0
 31
0.0
330
27CC
100
AcDbAssocArrayItem
 90
        0
 90
       29
 90
        0
 90
        0
 90
        8
 11
364.1507545714288
 21
0.0
 31
0.0
330
27CD
100
AcDbAssocArrayItem
 90
        0
 90
       30
 90
        0
 90
        0
 90
        8
 11
376.7076771428573
 21
0.0
 31
0.0
330
27CE
100
AcDbAssocArrayItem
 90
        0
 90
       31
 90
        0
 90
        0
 90
        8
 11
389.2645997142859
 21
0.0
 31
0.0
330
27CF
100
AcDbAssocArrayItem
 90
        0
 90
       32
 90
        0
 90
        0
 90
        8
 11
401.8215222857144
 21
0.0
 31
0.0
330
27D0
100
AcDbAssocArrayItem
 90
        0
 90
       33
 90
        0
 90
        0
 90
        8
 11
414.378444857143
 21
0.0
 31
0.0
330
27D1
100
AcDbAssocArrayItem
 90
        0
 90
       34
 90
        0
 90
        0
 90
        8
 11
426.9353674285716
 21
0.0
 31
0.0
330
27D2
100
AcDbAssocArrayItem
 90
        0
 90
       35
 90
        0
 90
        0
 90
        8
 11
439.4922900000001
 21
0.0
 31
0.0
330
27D3
100
AcDbAssocArrayItem
 90
        0
 90
       36
 90
        0
 90
        0
 90
        8
 11
452.0492125714287
 21
0.0
 31
0.0
330
27D4
100
AcDbAssocArrayItem
 90
        0
 90
       37
 90
        0
 90
        0
 90
        8
 11
464.6061351428573
 21
0.0
 31
0.0
330
27D5
100
AcDbAssocArrayItem
 90
        0
 90
       38
 90
        0
 90
        0
 90
        8
 11
477.1630577142859
 21
0.0
 31
0.0
330
27D6
100
AcDbAssocArrayItem
 90
        0
 90
       39
 90
        0
 90
        0
 90
        8
 11
489.7199802857145
 21
0.0
 31
0.0
330
27D7
100
AcDbAssocArrayItem
 90
        0
 90
       40
 90
        0
 90
        0
 90
        8
 11
502.276902857143
 21
0.0
 31
0.0
330
27D8
100
AcDbAssocArrayItem
 90
        0
 90
       41
 90
        0
 90
        0
 90
        8
 11
514.8338254285716
 21
0.0
 31
0.0
330
27D9
100
AcDbAssocArrayItem
 90
        0
 90
       42
 90
        0
 90
        0
 90
        8
 11
527.3907480000002
 21
0.0
 31
0.0
330
27DA
100
AcDbAssocArrayItem
 90
        0
 90
       43
 90
        0
 90
        0
 90
        8
 11
539.9476705714288
 21
0.0
 31
0.0
330
27DB
100
AcDbAssocArrayItem
 90
        0
 90
       44
 90
        0
 90
        0
 90
        8
 11
552.5045931428573
 21
0.0
 31
0.0
330
27DC
100
AcDbAssocArrayItem
 90
        0
 90
       45
 90
        0
 90
        0
 90
        8
 11
565.0615157142859
 21
0.0
 31
0.0
330
27DD
100
AcDbAssocArrayItem
 90
        0
 90
       46
 90
        0
 90
        0
 90
        8
 11
577.6184382857145
 21
0.0
 31
0.0
330
27DE
100
AcDbAssocArrayItem
 90
        0
 90
       47
 90
        0
 90
        0
 90
        8
 11
590.1753608571431
 21
0.0
 31
0.0
330
27DF
100
AcDbAssocArrayItem
 90
        0
 90
       48
 90
        0
 90
        0
 90
        8
 11
602.7322834285716
 21
0.0
 31
0.0
330
27E0
100
AcDbAssocArrayItem
 90
        0
 90
       49
 90
        0
 90
        0
 90
        8
 11
615.2892060000002
 21
0.0
 31
0.0
330
27E1
100
AcDbAssocArrayItem
 90
        0
 90
       50
 90
        0
 90
        0
 90
        8
 11
627.8461285714288
 21
0.0
 31
0.0
330
27E2
100
AcDbAssocArrayItem
 90
        0
 90
       51
 90
        0
 90
        0
 90
        8
 11
640.4030511428573
 21
0.0
 31
0.0
330
27E3
100
AcDbAssocArrayItem
 90
        0
 90
       52
 90
        0
 90
        0
 90
        8
 11
652.9599737142859
 21
0.0
 31
0.0
330
27E4
100
AcDbAssocArrayItem
 90
        0
 90
       53
 90
        0
 90
        0
 90
        8
 11
665.5168962857145
 21
0.0
 31
0.0
330
27E5
100
AcDbAssocArrayItem
 90
        0
 90
       54
 90
        0
 90
        0
 90
        8
 11
678.0738188571432
 21
0.0
 31
0.0
330
27E6
100
AcDbAssocArrayItem
 90
        0
 90
       55
 90
        0
 90
        0
 90
        8
 11
690.6307414285718
 21
0.0
 31
0.0
330
27E7
100
AcDbAssocArrayItem
 90
        0
 90
       56
 90
        0
 90
        0
 90
        8
 11
703.1876640000003
 21
0.0
 31
0.0
330
27E8
100
AcDbAssocArrayItem
 90
        0
 90
       57
 90
        0
 90
        0
 90
        8
 11
715.7445865714289
 21
0.0
 31
0.0
330
27E9
100
AcDbAssocArrayItem
 90
        0
 90
       58
 90
        0
 90
        0
 90
        8
 11
728.3015091428575
 21
0.0
 31
0.0
330
27EA
100
AcDbAssocArrayItem
 90
        0
 90
       59
 90
        0
 90
        0
 90
        8
 11
740.858431714286
 21
0.0
 31
0.0
330
27EB
100
AcDbAssocArrayItem
 90
        0
 90
       60
 90
        0
 90
        0
 90
        8
 11
753.4153542857146
 21
0.0
 31
0.0
330
27EC
100
AcDbAssocArrayItem
 90
        0
 90
       61
 90
        0
 90
        0
 90
        8
 11
765.9722768571432
 21
0.0
 31
0.0
330
27ED
100
AcDbAssocArrayItem
 90
        0
 90
       62
 90
        0
 90
        0
 90
        8
 11
778.5291994285718
 21
0.0
 31
0.0
330
27EE
100
AcDbAssocArrayItem
 90
        0
 90
       63
 90
        0
 90
        0
 90
        8
 11
791.0861220000003
 21
0.0
 31
0.0
330
27EF
100
AcDbAssocArrayItem
 90
        0
 90
       64
 90
        0
 90
        0
 90
        8
 11
803.6430445714289
 21
0.0
 31
0.0
330
27F0
100
AcDbAssocArrayItem
 90
        0
 90
       65
 90
        0
 90
        0
 90
        8
 11
816.1999671428574
 21
0.0
 31
0.0
330
27F1
100
AcDbAssocArrayItem
 90
        0
 90
       66
 90
        0
 90
        0
 90
        8
 11
828.7568897142861
 21
0.0
 31
0.0
330
27F2
100
AcDbAssocArrayItem
 90
        0
 90
       67
 90
        0
 90
        0
 90
        8
 11
841.3138122857146
 21
0.0
 31
0.0
330
27F3
100
AcDbAssocArrayItem
 90
        0
 90
       68
 90
        0
 90
        0
 90
        8
 11
853.8707348571433
 21
0.0
 31
0.0
330
27F4
100
AcDbAssocArrayItem
 90
        0
 90
       69
 90
        0
 90
        0
 90
        8
 11
866.4276574285718
 21
0.0
 31
0.0
330
27F5
100
AcDbAssocArrayItem
 90
        0
 90
       70
 90
        0
 90
        0
 90
        8
 11
878.9845800000003
 21
0.0
 31
0.0
330
27F6
100
AcDbAssocArrayItem
 90
        0
 90
       71
 90
        0
 90
        0
 90
        8
 11
891.541502571429
 21
0.0
 31
0.0
330
27F7
100
AcDbAssocArrayItem
 90
        0
 90
       72
 90
        0
 90
        0
 90
        8
 11
904.0984251428575
 21
0.0
 31
0.0
330
27F8
100
AcDbAssocArrayItem
 90
        0
 90
       73
 90
        0
 90
        0
 90
        8
 11
916.655347714286
 21
0.0
 31
0.0
330
27F9
100
AcDbAssocArrayItem
 90
        0
 90
       74
 90
        0
 90
        0
 90
        8
 11
929.2122702857147
 21
0.0
 31
0.0
330
27FA
100
AcDbAssocArrayItem
 90
        0
 90
       75
 90
        0
 90
        0
 90
        8
 11
941.7691928571434
 21
0.0
 31
0.0
330
27FB
100
AcDbAssocArrayItem
 90
        0
 90
       76
 90
        0
 90
        0
 90
        8
 11
954.3261154285719
 21
0.0
 31
0.0
330
27FC
100
AcDbAssocArrayItem
 90
        0
 90
       77
 90
        0
 90
        0
 90
        8
 11
966.8830380000004
 21
0.0
 31
0.0
330
27FD
 40
1.0
 40
0.0
 40
0.0
 40
549.3224618105736
 40
0.0
 40
1.0
 40
0.0
 40
709.3613396332452
 40
0.0
 40
0.0
 40
1.0
 40
0.0
 40
0.0
 40
0.0
 40
0.0
 40
1.0
  0
ACDBASSOCDEPENDENCY
  5
27AB
330
27A7
100
AcDbAssocDependency
 90
        2
 90
        1
290
     0
290
     1
290
     1
290
     1
 90
        0
330
2799
290
     0
330
0
330
0
360
0
 90
        1
  0
ACDBASSOCDEPENDENCY
  5
27AC
330
27A7
100
AcDbAssocDependency
 90
        2
 90
        1
290
     1
290
     0
290
     1
290
     1
 90
        0
330
2796
290
     0
330
0
330
0
360
0
 90
        2
  0
ACDBASSOCDEPENDENCY
  5
27AD
330
27A7
100
AcDbAssocDependency
 90
        2
 90
        0
290
     1
290
     1
290
     1
290
     1
 90
-2147483648
330
279C
290
     0
330
0
330
0
360
0
 90
        3
  0
ACDBASSOCARRAYACTIONBODY
  5
2944
330
2943
100
AcDbAssocActionBody
 90
        1
100
AcDbAssocParamBasedActionBody
 90
        0
 90
        0
 90
        3
360
2945
360
2946
360
294A
 90
        0
 90
        9
 90
        0
  1
AlignItems
 90
        0
 90
        1
 90
        0
330
0
330
0
 90
        0
  1
AxesAngle
 90
        2
 90
        1
 40
1.570796326794896
330
0
330
0
 90
        0
  1
ItemSpacing
 90
        1
 90
        1
 40
12.5569
330
0
330
0
 90
        0
  1
Items
 90
        0
 90
        1
 90
       78
330
0
330
0
 90
        0
  1
LevelSpacing
 90
        1
 90
        1
 40
1.0
330
0
330
0
 90
        0
  1
Levels
 90
        0
 90
        1
 90
        1
330
0
330
0
 90
        0
  1
RowElevation
 90
        1
 90
        1
 40
0.0
330
0
330
0
 90
        0
  1
RowSpacing
 90
        1
 90
        1
 40
601.5
330
0
330
0
 90
        0
  1
Rows
 90
        0
 90
        1
 90
        1
330
0
330
0
100
AcDbAssocArrayActionBody
 90
        1
  1
AcDbAssocArrayRectangularParameters
 90
        0
 90
       78
  1
AcDbAssocArrayItem
100
AcDbAssocArrayItem
 90
        0
 90
        0
 90
        0
 90
        0
 90
        8
 11
0.0
 21
0.0
 31
0.0
330
294C
100
AcDbAssocArrayItem
 90
        0
 90
        1
 90
        0
 90
        0
 90
        8
 11
12.5569
 21
0.0
 31
0.0
330
294D
100
AcDbAssocArrayItem
 90
        0
 90
        2
 90
        0
 90
        0
 90
        8
 11
25.1138
 21
0.0
 31
0.0
330
294E
100
AcDbAssocArrayItem
 90
        0
 90
        3
 90
        0
 90
        0
 90
        8
 11
37.6707
 21
0.0
 31
0.0
330
294F
100
AcDbAssocArrayItem
 90
        0
 90
        4
 90
        0
 90
        0
 90
        8
 11
50.2276
 21
0.0
 31
0.0
330
2950
100
AcDbAssocArrayItem
 90
        0
 90
        5
 90
        0
 90
        0
 90
        8
 11
62.7845
 21
0.0
 31
0.0
330
2951
100
AcDbAssocArrayItem
 90
        0
 90
        6
 90
        0
 90
        0
 90
        8
 11
75.3414
 21
0.0
 31
0.0
330
2952
100
AcDbAssocArrayItem
 90
        0
 90
        7
 90
        0
 90
        0
 90
        8
 11
87.8983
 21
0.0
 31
0.0
330
2953
100
AcDbAssocArrayItem
 90
        0
 90
        8
 90
        0
 90
        0
 90
        8
 11
100.4552
 21
0.0
 31
0.0
330
2954
100
AcDbAssocArrayItem
 90
        0
 90
        9
 90
        0
 90
        0
 90
        8
 11
113.0121
 21
0.0
 31
0.0
330
2955
100
AcDbAssocArrayItem
 90
        0
 90
       10
 90
        0
 90
        0
 90
        8
 11
125.569
 21
0.0
 31
0.0
330
2956
100
AcDbAssocArrayItem
 90
        0
 90
       11
 90
        0
 90
        0
 90
        8
 11
138.1259
 21
0.0
 31
0.0
330
2957
100
AcDbAssocArrayItem
 90
        0
 90
       12
 90
        0
 90
        0
 90
        8
 11
150.6828
 21
0.0
 31
0.0
330
2958
100
AcDbAssocArrayItem
 90
        0
 90
       13
 90
        0
 90
        0
 90
        8
 11
163.2397
 21
0.0
 31
0.0
330
2959
100
AcDbAssocArrayItem
 90
        0
 90
       14
 90
        0
 90
        0
 90
        8
 11
175.7966
 21
0.0
 31
0.0
330
295A
100
AcDbAssocArrayItem
 90
        0
 90
       15
 90
        0
 90
        0
 90
        8
 11
188.3535
 21
0.0
 31
0.0
330
295B
100
AcDbAssocArrayItem
 90
        0
 90
       16
 90
        0
 90
        0
 90
        8
 11
200.9104
 21
0.0
 31
0.0
330
295C
100
AcDbAssocArrayItem
 90
        0
 90
       17
 90
        0
 90
        0
 90
        8
 11
213.4673
 21
0.0
 31
0.0
330
295D
100
AcDbAssocArrayItem
 90
        0
 90
       18
 90
        0
 90
        0
 90
        8
 11
226.0242
 21
0.0
 31
0.0
330
295E
100
AcDbAssocArrayItem
 90
        0
 90
       19
 90
        0
 90
        0
 90
        8
 11
238.5811
 21
0.0
 31
0.0
330
295F
100
AcDbAssocArrayItem
 90
        0
 90
       20
 90
        0
 90
        0
 90
        8
 11
251.138
 21
0.0
 31
0.0
330
2960
100
AcDbAssocArrayItem
 90
        0
 90
       21
 90
        0
 90
        0
 90
        8
 11
263.6949
 21
0.0
 31
0.0
330
2961
100
AcDbAssocArrayItem
 90
        0
 90
       22
 90
        0
 90
        0
 90
        8
 11
276.2518
 21
0.0
 31
0.0
330
2962
100
AcDbAssocArrayItem
 90
        0
 90
       23
 90
        0
 90
        0
 90
        8
 11
288.8087
 21
0.0
 31
0.0
330
2963
100
AcDbAssocArrayItem
 90
        0
 90
       24
 90
        0
 90
        0
 90
        8
 11
301.3656000000001
 21
0.0
 31
0.0
330
2964
100
AcDbAssocArrayItem
 90
        0
 90
       25
 90
        0
 90
        0
 90
        8
 11
313.9225
 21
0.0
 31
0.0
330
2965
100
AcDbAssocArrayItem
 90
        0
 90
       26
 90
        0
 90
        0
 90
        8
 11
326.4794
 21
0.0
 31
0.0
330
2966
100
AcDbAssocArrayItem
 90
        0
 90
       27
 90
        0
 90
        0
 90
        8
 11
339.0363000000001
 21
0.0
 31
0.0
330
2967
100
AcDbAssocArrayItem
 90
        0
 90
       28
 90
        0
 90
        0
 90
        8
 11
351.5932
 21
0.0
 31
0.0
330
2968
100
AcDbAssocArrayItem
 90
        0
 90
       29
 90
        0
 90
        0
 90
        8
 11
364.1501
 21
0.0
 31
0.0
330
2969
100
AcDbAssocArrayItem
 90
        0
 90
       30
 90
        0
 90
        0
 90
        8
 11
376.707
 21
0.0
 31
0.0
330
296A
100
AcDbAssocArrayItem
 90
        0
 90
       31
 90
        0
 90
        0
 90
        8
 11
389.2639
 21
0.0
 31
0.0
330
296B
100
AcDbAssocArrayItem
 90
        0
 90
       32
 90
        0
 90
        0
 90
        8
 11
401.8208
 21
0.0
 31
0.0
330
296C
100
AcDbAssocArrayItem
 90
        0
 90
       33
 90
        0
 90
        0
 90
        8
 11
414.3777
 21
0.0
 31
0.0
330
296D
100
AcDbAssocArrayItem
 90
        0
 90
       34
 90
        0
 90
        0
 90
        8
 11
426.9346
 21
0.0
 31
0.0
330
296E
100
AcDbAssocArrayItem
 90
        0
 90
       35
 90
        0
 90
        0
 90
        8
 11
439.4915
 21
0.0
 31
0.0
330
296F
100
AcDbAssocArrayItem
 90
        0
 90
       36
 90
        0
 90
        0
 90
        8
 11
452.0484
 21
0.0
 31
0.0
330
2970
100
AcDbAssocArrayItem
 90
        0
 90
       37
 90
        0
 90
        0
 90
        8
 11
464.6053
 21
0.0
 31
0.0
330
2971
100
AcDbAssocArrayItem
 90
        0
 90
       38
 90
        0
 90
        0
 90
        8
 11
477.1622
 21
0.0
 31
0.0
330
2972
100
AcDbAssocArrayItem
 90
        0
 90
       39
 90
        0
 90
        0
 90
        8
 11
489.7191
 21
0.0
 31
0.0
330
2973
100
AcDbAssocArrayItem
 90
        0
 90
       40
 90
        0
 90
        0
 90
        8
 11
502.2759999999999
 21
0.0
 31
0.0
330
2974
100
AcDbAssocArrayItem
 90
        0
 90
       41
 90
        0
 90
        0
 90
        8
 11
514.8329
 21
0.0
 31
0.0
330
2975
100
AcDbAssocArrayItem
 90
        0
 90
       42
 90
        0
 90
        0
 90
        8
 11
527.3898
 21
0.0
 31
0.0
330
2976
100
AcDbAssocArrayItem
 90
        0
 90
       43
 90
        0
 90
        0
 90
        8
 11
539.9467
 21
0.0
 31
0.0
330
2977
100
AcDbAssocArrayItem
 90
        0
 90
       44
 90
        0
 90
        0
 90
        8
 11
552.5036
 21
0.0
 31
0.0
330
2978
100
AcDbAssocArrayItem
 90
        0
 90
       45
 90
        0
 90
        0
 90
        8
 11
565.0605
 21
0.0
 31
0.0
330
2979
100
AcDbAssocArrayItem
 90
        0
 90
       46
 90
        0
 90
        0
 90
        8
 11
577.6174
 21
0.0
 31
0.0
330
297A
100
AcDbAssocArrayItem
 90
        0
 90
       47
 90
        0
 90
        0
 90
        8
 11
590.1743
 21
0.0
 31
0.0
330
297B
100
AcDbAssocArrayItem
 90
        0
 90
       48
 90
        0
 90
        0
 90
        8
 11
602.7312000000001
 21
0.0
 31
0.0
330
297C
100
AcDbAssocArrayItem
 90
        0
 90
       49
 90
        0
 90
        0
 90
        8
 11
615.2880999999999
 21
0.0
 31
0.0
330
297D
100
AcDbAssocArrayItem
 90
        0
 90
       50
 90
        0
 90
        0
 90
        8
 11
627.845
 21
0.0
 31
0.0
330
297E
100
AcDbAssocArrayItem
 90
        0
 90
       51
 90
        0
 90
        0
 90
        8
 11
640.4019
 21
0.0
 31
0.0
330
297F
100
AcDbAssocArrayItem
 90
        0
 90
       52
 90
        0
 90
        0
 90
        8
 11
652.9588
 21
0.0
 31
0.0
330
2980
100
AcDbAssocArrayItem
 90
        0
 90
       53
 90
        0
 90
        0
 90
        8
 11
665.5157
 21
0.0
 31
0.0
330
2981
100
AcDbAssocArrayItem
 90
        0
 90
       54
 90
        0
 90
        0
 90
        8
 11
678.0726000000001
 21
0.0
 31
0.0
330
2982
100
AcDbAssocArrayItem
 90
        0
 90
       55
 90
        0
 90
        0
 90
        8
 11
690.6295
 21
0.0
 31
0.0
330
2983
100
AcDbAssocArrayItem
 90
        0
 90
       56
 90
        0
 90
        0
 90
        8
 11
703.1864
 21
0.0
 31
0.0
330
2984
100
AcDbAssocArrayItem
 90
        0
 90
       57
 90
        0
 90
        0
 90
        8
 11
715.7433000000001
 21
0.0
 31
0.0
330
2985
100
AcDbAssocArrayItem
 90
        0
 90
       58
 90
        0
 90
        0
 90
        8
 11
728.3002
 21
0.0
 31
0.0
330
2986
100
AcDbAssocArrayItem
 90
        0
 90
       59
 90
        0
 90
        0
 90
        8
 11
740.8571000000001
 21
0.0
 31
0.0
330
2987
100
AcDbAssocArrayItem
 90
        0
 90
       60
 90
        0
 90
        0
 90
        8
 11
753.4139999999999
 21
0.0
 31
0.0
330
2988
100
AcDbAssocArrayItem
 90
        0
 90
       61
 90
        0
 90
        0
 90
        8
 11
765.9709
 21
0.0
 31
0.0
330
2989
100
AcDbAssocArrayItem
 90
        0
 90
       62
 90
        0
 90
        0
 90
        8
 11
778.5278
 21
0.0
 31
0.0
330
298A
100
AcDbAssocArrayItem
 90
        0
 90
       63
 90
        0
 90
        0
 90
        8
 11
791.0847
 21
0.0
 31
0.0
330
298B
100
AcDbAssocArrayItem
 90
        0
 90
       64
 90
        0
 90
        0
 90
        8
 11
803.6416
 21
0.0
 31
0.0
330
298C
100
AcDbAssocArrayItem
 90
        0
 90
       65
 90
        0
 90
        0
 90
        8
 11
816.1985000000001
 21
0.0
 31
0.0
330
298D
100
AcDbAssocArrayItem
 90
        0
 90
       66
 90
        0
 90
        0
 90
        8
 11
828.7554
 21
0.0
 31
0.0
330
298E
100
AcDbAssocArrayItem
 90
        0
 90
       67
 90
        0
 90
        0
 90
        8
 11
841.3123
 21
0.0
 31
0.0
330
298F
100
AcDbAssocArrayItem
 90
        0
 90
       68
 90
        0
 90
        0
 90
        8
 11
853.8692000000001
 21
0.0
 31
0.0
330
2990
100
AcDbAssocArrayItem
 90
        0
 90
       69
 90
        0
 90
        0
 90
        8
 11
866.4260999999999
 21
0.0
 31
0.0
330
2991
100
AcDbAssocArrayItem
 90
        0
 90
       70
 90
        0
 90
        0
 90
        8
 11
878.983
 21
0.0
 31
0.0
330
2992
100
AcDbAssocArrayItem
 90
        0
 90
       71
 90
        0
 90
        0
 90
        8
 11
891.5399
 21
0.0
 31
0.0
330
2993
100
AcDbAssocArrayItem
 90
        0
 90
       72
 90
        0
 90
        0
 90
        8
 11
904.0968000000001
 21
0.0
 31
0.0
330
2994
100
AcDbAssocArrayItem
 90
        0
 90
       73
 90
        0
 90
        0
 90
        8
 11
916.6537000000001
 21
0.0
 31
0.0
330
2995
100
AcDbAssocArrayItem
 90
        0
 90
       74
 90
        0
 90
        0
 90
        8
 11
929.2106
 21
0.0
 31
0.0
330
2996
100
AcDbAssocArrayItem
 90
        0
 90
       75
 90
        0
 90
        0
 90
        8
 11
941.7675
 21
0.0
 31
0.0
330
2997
100
AcDbAssocArrayItem
 90
        0
 90
       76
 90
        0
 90
        0
 90
        8
 11
954.3244000000001
 21
0.0
 31
0.0
330
2998
100
AcDbAssocArrayItem
 90
        0
 90
       77
 90
        0
 90
        0
 90
        8
 11
966.8813
 21
0.0
 31
0.0
330
2999
 40
1.0
 40
0.0
 40
0.0
 40
541.5409434105738
 40
0.0
 40
1.0
 40
0.0
 40
1405.751878390281
 40
0.0
 40
0.0
 40
1.0
 40
0.0
 40
0.0
 40
0.0
 40
0.0
 40
1.0
  0
ACDBASSOCDEPENDENCY
  5
2947
330
2943
100
AcDbAssocDependency
 90
        2
 90
        1
290
     0
290
     1
290
     1
290
     1
 90
        0
330
28D8
290
     0
330
0
330
0
360
0
 90
        1
  0
ACDBASSOCDEPENDENCY
  5
2948
330
2943
100
AcDbAssocDependency
 90
        2
 90
        1
290
     1
290
     0
290
     1
290
     1
 90
        0
330
28D5
290
     0
330
0
330
0
360
0
 90
        2
  0
ACDBASSOCDEPENDENCY
  5
2949
330
2943
100
AcDbAssocDependency
 90
        2
 90
        0
290
     1
290
     1
290
     1
290
     1
 90
-2147483648
330
28DB
290
     0
330
0
330
0
360
0
 90
        3
  0
ACDBASSOCVERTEXACTIONPARAM
  5
27A9
330
27A8
100
AcDbAssocActionParam
 90
        0
  1
BaseNormal
100
AcDbAssocSingleDependencyActionParam
 90
        0
330
0
100
AcDbAssocVertexActionParam
 90
        0
 10
0.0
 20
0.0
 30
1.0
  0
ACDBASSOCVERTEXACTIONPARAM
  5
27AA
330
27A8
100
AcDbAssocActionParam
 90
        0
  1
Origin
100
AcDbAssocSingleDependencyActionParam
 90
        0
330
0
100
AcDbAssocVertexActionParam
 90
        0
 10
0.0
 20
0.0
 30
0.0
  0
ACDBASSOCVERTEXACTIONPARAM
  5
27AE
330
27A8
100
AcDbAssocActionParam
 90
        0
  1
basePoint
100
AcDbAssocSingleDependencyActionParam
 90
        0
330
0
100
AcDbAssocVertexActionParam
 90
        0
 10
0.0
 20
0.0
 30
0.0
  0
ACDBASSOCVERTEXACTIONPARAM
  5
2945
330
2944
100
AcDbAssocActionParam
 90
        0
  1
BaseNormal
100
AcDbAssocSingleDependencyActionParam
 90
        0
330
0
100
AcDbAssocVertexActionParam
 90
        0
 10
0.0
 20
0.0
 30
1.0
  0
ACDBASSOCVERTEXACTIONPARAM
  5
2946
330
2944
100
AcDbAssocActionParam
 90
        0
  1
Origin
100
AcDbAssocSingleDependencyActionParam
 90
        0
330
0
100
AcDbAssocVertexActionParam
 90
        0
 10
0.0
 20
0.0
 30
0.0
  0
ACDBASSOCVERTEXACTIONPARAM
  5
294A
330
2944
100
AcDbAssocActionParam
 90
        0
  1
basePoint
100
AcDbAssocSingleDependencyActionParam
 90
        0
330
0
100
AcDbAssocVertexActionParam
 90
        0
 10
0.0
 20
0.0
 30
0.0
  0
ENDSEC
  0
EOF
