  0
SECTION
  2
HEADER
  9
$ACADVER
  1
AC1015
  9
$ACADMAINTVER
 70
    20
  9
$DWGCODEPAGE
  3
ANSI_932
  9
$INSBASE
 10
0.0
 20
0.0
 30
0.0
  9
$EXTMIN
 10
-0.0425346845286185
 20
-0.0300885618821667
 30
-0.0000000000112498
  9
$EXTMAX
 10
2789.553734678998
 20
1973.299228625456
 30
0.0000000000002956
  9
$LIMMIN
 10
0.0
 20
0.0
  9
$LIMMAX
 10
297.0
 20
209.0
  9
$ORTHOMODE
 70
     1
  9
$REGENMODE
 70
     1
  9
$FILLMODE
 70
     1
  9
$QTEXTMODE
 70
     0
  9
$MIRRTEXT
 70
     1
  9
$LTSCALE
 40
1.0
  9
$ATTMODE
 70
     1
  9
$TEXTSIZE
 40
2.5
  9
$TRACEWID
 40
1.0
  9
$TEXTSTYLE
  7
Standard
  9
$CLAYER
  8
本体
  9
$CELTYPE
  6
ByLayer
  9
$CECOLOR
 62
   256
  9
$CELTSCALE
 40
3.0
  9
$DISPSILH
 70
     0
  9
$DIMSCALE
 40
10.0
  9
$DIMASZ
 40
1.5
  9
$DIMEXO
 40
2.0
  9
$DIMDLI
 40
3.75
  9
$DIMRND
 40
0.0
  9
$DIMDLE
 40
0.0
  9
$DIMEXE
 40
1.5
  9
$DIMTP
 40
0.0
  9
$DIMTM
 40
0.0
  9
$DIMTXT
 40
3.0
  9
$DIMCEN
 40
2.5
  9
$DIMTSZ
 40
0.0
  9
$DIMTOL
 70
     0
  9
$DIMLIM
 70
     0
  9
$DIMTIH
 70
     0
  9
$DIMTOH
 70
     0
  9
$DIMSE1
 70
     0
  9
$DIMSE2
 70
     0
  9
$DIMTAD
 70
     1
  9
$DIMZIN
 70
     8
  9
$DIMBLK
  1
Open30
  9
$DIMASO
 70
     1
  9
$DIMSHO
 70
     1
  9
$DIMPOST
  1

  9
$DIMAPOST
  1

  9
$DIMALT
 70
     0
  9
$DIMALTD
 70
     3
  9
$DIMALTF
 40
0.03937007874016
  9
$DIMLFAC
 40
1.0
  9
$DIMTOFL
 70
     1
  9
$DIMTVP
 40
0.0
  9
$DIMTIX
 70
     0
  9
$DIMSOXD
 70
     0
  9
$DIMSAH
 70
     0
  9
$DIMBLK1
  1

  9
$DIMBLK2
  1

  9
$DIMSTYLE
  2
ISO-25
  9
$DIMCLRD
 70
     0
  9
$DIMCLRE
 70
     0
  9
$DIMCLRT
 70
     0
  9
$DIMTFAC
 40
1.0
  9
$DIMGAP
 40
0.5
  9
$DIMJUST
 70
     0
  9
$DIMSD1
 70
     0
  9
$DIMSD2
 70
     0
  9
$DIMTOLJ
 70
     0
  9
$DIMTZIN
 70
     8
  9
$DIMALTZ
 70
     0
  9
$DIMALTTZ
 70
     0
  9
$DIMUPT
 70
     0
  9
$DIMDEC
 70
     2
  9
$DIMTDEC
 70
     2
  9
$DIMALTU
 70
     2
  9
$DIMALTTD
 70
     3
  9
$DIMTXSTY
  7
Standard
  9
$DIMAUNIT
 70
     0
  9
$DIMADEC
 70
     0
  9
$DIMALTRND
 40
0.0
  9
$DIMAZIN
 70
     0
  9
$DIMDSEP
 70
    46
  9
$DIMATFIT
 70
     0
  9
$DIMFRAC
 70
     0
  9
$DIMLDRBLK
  1
Open30
  9
$DIMLUNIT
 70
     2
  9
$DIMLWD
 70
    -2
  9
$DIMLWE
 70
    -2
  9
$DIMTMOVE
 70
     0
  9
$LUNITS
 70
     2
  9
$LUPREC
 70
     4
  9
$SKETCHINC
 40
1.0
  9
$FILLETRAD
 40
9.9
  9
$AUNITS
 70
     0
  9
$AUPREC
 70
     0
  9
$MENU
  1
.
  9
$ELEVATION
 40
0.0
  9
$PELEVATION
 40
0.0
  9
$THICKNESS
 40
0.0
  9
$LIMCHECK
 70
     0
  9
$CHAMFERA
 40
10.0
  9
$CHAMFERB
 40
10.0
  9
$CHAMFERC
 40
20.0
  9
$CHAMFERD
 40
0.0
  9
$SKPOLY
 70
     0
  9
$TDCREATE
 40
2453510.558637211
  9
$TDUCREATE
 40
2453510.183637211
  9
$TDUPDATE
 40
2457560.751298935
  9
$TDUUPDATE
 40
2457560.376298935
  9
$TDINDWG
 40
0.0363967245
  9
$TDUSRTIMER
 40
0.0363967245
  9
$USRTIMER
 70
     1
  9
$ANGBASE
 50
0.0
  9
$ANGDIR
 70
     0
  9
$PDMODE
 70
     0
  9
$PDSIZE
 40
0.0
  9
$PLINEWID
 40
0.0
  9
$SPLFRAME
 70
     0
  9
$SPLINETYPE
 70
     6
  9
$SPLINESEGS
 70
     8
  9
$HANDSEED
  5
2702
  9
$SURFTAB1
 70
     6
  9
$SURFTAB2
 70
     6
  9
$SURFTYPE
 70
     6
  9
$SURFU
 70
     6
  9
$SURFV
 70
     6
  9
$UCSBASE
  2

  9
$UCSNAME
  2

  9
$UCSORG
 10
0.0
 20
0.0
 30
0.0
  9
$UCSXDIR
 10
1.0
 20
0.0
 30
0.0
  9
$UCSYDIR
 10
0.0
 20
1.0
 30
0.0
  9
$UCSORTHOREF
  2

  9
$UCSORTHOVIEW
 70
     0
  9
$UCSORGTOP
 10
0.0
 20
0.0
 30
0.0
  9
$UCSORGBOTTOM
 10
0.0
 20
0.0
 30
0.0
  9
$UCSORGLEFT
 10
0.0
 20
0.0
 30
0.0
  9
$UCSORGRIGHT
 10
0.0
 20
0.0
 30
0.0
  9
$UCSORGFRONT
 10
0.0
 20
0.0
 30
0.0
  9
$UCSORGBACK
 10
0.0
 20
0.0
 30
0.0
  9
$PUCSBASE
  2

  9
$PUCSNAME
  2

  9
$PUCSORG
 10
0.0
 20
0.0
 30
0.0
  9
$PUCSXDIR
 10
1.0
 20
0.0
 30
0.0
  9
$PUCSYDIR
 10
0.0
 20
1.0
 30
0.0
  9
$PUCSORTHOREF
  2

  9
$PUCSORTHOVIEW
 70
     0
  9
$PUCSORGTOP
 10
0.0
 20
0.0
 30
0.0
  9
$PUCSORGBOTTOM
 10
0.0
 20
0.0
 30
0.0
  9
$PUCSORGLEFT
 10
0.0
 20
0.0
 30
0.0
  9
$PUCSORGRIGHT
 10
0.0
 20
0.0
 30
0.0
  9
$PUCSORGFRONT
 10
0.0
 20
0.0
 30
0.0
  9
$PUCSORGBACK
 10
0.0
 20
0.0
 30
0.0
  9
$USERI1
 70
     0
  9
$USERI2
 70
     0
  9
$USERI3
 70
     0
  9
$USERI4
 70
     0
  9
$USERI5
 70
     0
  9
$USERR1
 40
0.0
  9
$USERR2
 40
0.0
  9
$USERR3
 40
0.0
  9
$USERR4
 40
0.0
  9
$USERR5
 40
0.0
  9
$WORLDVIEW
 70
     1
  9
$SHADEDGE
 70
     3
  9
$SHADEDIF
 70
    70
  9
$TILEMODE
 70
     1
  9
$MAXACTVP
 70
    48
  9
$PINSBASE
 10
0.0
 20
0.0
 30
0.0
  9
$PLIMCHECK
 70
     0
  9
$PEXTMIN
 10
0.0
 20
0.0
 30
0.0
  9
$PEXTMAX
 10
0.0
 20
0.0
 30
0.0
  9
$PLIMMIN
 10
0.0
 20
0.0
  9
$PLIMMAX
 10
12.0
 20
9.0
  9
$UNITMODE
 70
     0
  9
$VISRETAIN
 70
     1
  9
$PLINEGEN
 70
     0
  9
$PSLTSCALE
 70
     1
  9
$TREEDEPTH
 70
  3020
  9
$CMLSTYLE
  2
Standard
  9
$CMLJUST
 70
     0
  9
$CMLSCALE
 40
20.0
  9
$PROXYGRAPHICS
 70
     1
  9
$MEASUREMENT
 70
     1
  9
$CELWEIGHT
370
    -1
  9
$ENDCAPS
280
     0
  9
$JOINSTYLE
280
     0
  9
$LWDISPLAY
290
     0
  9
$INSUNITS
 70
     4
  9
$HYPERLINKBASE
  1

  9
$STYLESHEET
  1
monochrome.ctb
  9
$XEDIT
290
     1
  9
$CEPSNTYPE
380
     0
  9
$PSTYLEMODE
290
     1
  9
$FINGERPRINTGUID
  2

  9
$VERSIONGUID
  2
{53B4E512-D952-4B6B-8888-5C2FA7A043B8}
  9
$EXTNAMES
290
     1
  9
$PSVPSCALE
 40
0.0
  9
$OLESTARTUP
290
     0
  0
ENDSEC
  0
SECTION
  2
CLASSES
  0
CLASS
  1
ACDBDICTIONARYWDFLT
  2
AcDbDictionaryWithDefault
  3
ObjectDBX Classes
 90
        0
280
     0
281
     0
  0
CLASS
  1
ACDBPLACEHOLDER
  2
AcDbPlaceHolder
  3
ObjectDBX Classes
 90
        0
280
     0
281
     0
  0
CLASS
  1
LAYOUT
  2
AcDbLayout
  3
ObjectDBX Classes
 90
        0
280
     0
281
     0
  0
CLASS
  1
DICTIONARYVAR
  2
AcDbDictionaryVar
  3
ObjectDBX Classes
 90
        0
280
     0
281
     0
  0
CLASS
  1
MATERIAL
  2
AcDbMaterial
  3
ObjectDBX Classes
 90
     1153
280
     0
281
     0
  0
CLASS
  1
VISUALSTYLE
  2
AcDbVisualStyle
  3
ObjectDBX Classes
 90
     4095
280
     0
281
     0
  0
CLASS
  1
TABLESTYLE
  2
AcDbTableStyle
  3
ObjectDBX Classes
 90
     4095
280
     0
281
     0
  0
CLASS
  1
SCALE
  2
AcDbScale
  3
ObjectDBX Classes
 90
     1153
280
     0
281
     0
  0
CLASS
  1
MLEADERSTYLE
  2
AcDbMLeaderStyle
  3
ACDB_MLEADERSTYLE_CLASS
 90
     4095
280
     0
281
     0
  0
CLASS
  1
ACDBSECTIONVIEWSTYLE
  2
AcDbSectionViewStyle
  3
ObjectDBX Classes
 90
     1025
280
     0
281
     0
  0
CLASS
  1
ACDBDETAILVIEWSTYLE
  2
AcDbDetailViewStyle
  3
ObjectDBX Classes
 90
     1025
280
     0
281
     0
  0
CLASS
  1
CELLSTYLEMAP
  2
AcDbCellStyleMap
  3
ObjectDBX Classes
 90
     1152
280
     0
281
     0
  0
CLASS
  1
ACARRAYJIGENTITY
  2
AcArrayJigEntity
  3
ACAD_ARRAY
 90
      129
280
     0
281
     1
  0
CLASS
  1
ACDBASSOCNETWORK
  2
AcDbAssocNetwork
  3
ObjectDBX Classes
 90
     1025
280
     0
281
     0
  0
CLASS
  1
ACDBASSOCACTION
  2
AcDbAssocAction
  3
ObjectDBX Classes
 90
     1025
280
     0
281
     0
  0
CLASS
  1
ACDBASSOCARRAYACTIONBODY
  2
AcDbAssocArrayActionBody
  3
ObjectDBX Classes
 90
     1025
280
     0
281
     0
  0
CLASS
  1
ACDBASSOCVERTEXACTIONPARAM
  2
AcDbAssocVertexActionParam
  3
ObjectDBX Classes
 90
     1025
280
     0
281
     0
  0
CLASS
  1
ACDBASSOCDEPENDENCY
  2
AcDbAssocDependency
  3
ObjectDBX Classes
 90
     1025
280
     0
281
     0
  0
CLASS
  1
ACDBASSOCARRAYRECTANGULARPARAMETERS
  2
AcDbAssocArrayRectangularParameters
  3
ObjectDBX Classes
 90
    33793
280
     0
281
     0
  0
ENDSEC
  0
SECTION
  2
TABLES
  0
TABLE
  2
VPORT
  5
1EB8
102
{ACAD_XDICTIONARY
360
237B
102
}
330
0
100
AcDbSymbolTable
 70
     1
  0
VPORT
  5
2303
330
1EB8
100
AcDbSymbolTableRecord
100
AcDbViewportTableRecord
  2
*Active
 70
     0
 10
0.0
 20
0.0
 11
1.0
 21
1.0
 12
1394.755599997235
 22
986.6345700317872
 13
0.0
 23
0.0
 14
10.0
 24
10.0
 15
10.0
 25
10.0
 16
0.0
 26
0.0
 36
1.0
 17
0.0
 27
0.0
 37
0.0
 40
1992.48785424741
 41
3.006482982171799
 42
50.0
 43
0.0
 44
0.0
 50
0.0
 51
0.0
 71
     0
 72
   100
 73
     1
 74
     3
 75
     0
 76
     0
 77
     0
 78
     0
281
     0
 65
     1
110
0.0
120
0.0
130
0.0
111
1.0
121
0.0
131
0.0
112
0.0
122
1.0
132
0.0
 79
     0
146
0.0
1001
ACAD_NAV_VCDISPLAY
1070
     3
  0
ENDTAB
  0
TABLE
  2
LTYPE
  5
1EB3
330
0
100
AcDbSymbolTable
 70
     7
  0
LTYPE
  5
1EB4
330
1EB3
100
AcDbSymbolTableRecord
100
AcDbLinetypeTableRecord
  2
ByBlock
 70
     0
  3

 72
    65
 73
     0
 40
0.0
  0
LTYPE
  5
1EB5
330
1EB3
100
AcDbSymbolTableRecord
100
AcDbLinetypeTableRecord
  2
ByLayer
 70
     0
  3

 72
    65
 73
     0
 40
0.0
  0
LTYPE
  5
8
330
1EB3
100
AcDbSymbolTableRecord
100
AcDbLinetypeTableRecord
  2
Continuous
 70
     0
  3
Solid line
 72
    65
 73
     0
 40
0.0
  0
LTYPE
  5
D4
330
1EB3
100
AcDbSymbolTableRecord
100
AcDbLinetypeTableRecord
  2
HIDDEN
 70
     0
  3
Hidden __ __ __ __ __ __ __ __ __ __ __ __ __ _
 72
    65
 73
     2
 40
9.524999999999998
 49
6.349999999999999
 74
     0
 49
-3.174999999999999
 74
     0
  0
LTYPE
  5
FA
330
1EB3
100
AcDbSymbolTableRecord
100
AcDbLinetypeTableRecord
  2
CENTER
 70
     0
  3
------ - ------ - ----
 72
    65
 73
     4
 40
10.0
 49
6.25
 74
     0
 49
-1.25
 74
     0
 49
1.25
 74
     0
 49
-1.25
 74
     0
  0
ENDTAB
  0
TABLE
  2
LAYER
  5
1EB0
102
{ACAD_XDICTIONARY
360
247D
102
}
330
0
100
AcDbSymbolTable
 70
    12
  0
LAYER
  5
76
102
{ACAD_XDICTIONARY
360
235A
102
}
330
1EB0
100
AcDbSymbolTableRecord
100
AcDbLayerTableRecord
  2
0
 70
     0
 62
     7
  6
Continuous
370
    -3
390
5
  0
LAYER
  5
80
102
{ACAD_XDICTIONARY
360
235C
102
}
330
1EB0
100
AcDbSymbolTableRecord
100
AcDbLayerTableRecord
  2
本体
 70
     0
 62
     7
  6
Continuous
370
    13
390
5
  0
LAYER
  5
4
102
{ACAD_XDICTIONARY
360
235E
102
}
330
1EB0
100
AcDbSymbolTableRecord
100
AcDbLayerTableRecord
  2
寸法線
 70
     0
 62
     2
  6
Continuous
370
     9
390
5
  0
LAYER
  5
5EE
102
{ACAD_XDICTIONARY
360
2362
102
}
330
1EB0
100
AcDbSymbolTableRecord
100
AcDbLayerTableRecord
  2
エンボス
 70
     0
 62
     4
  6
Continuous
370
     5
390
5
  0
LAYER
  5
11
102
{ACAD_XDICTIONARY
360
2364
102
}
330
1EB0
100
AcDbSymbolTableRecord
100
AcDbLayerTableRecord
  2
外枠
 70
     0
 62
     7
  6
Continuous
370
    -3
390
5
  0
LAYER
  5
AC
330
1EB0
100
AcDbSymbolTableRecord
100
AcDbLayerTableRecord
  2
Defpoints
 70
     0
 62
     7
  6
Continuous
290
     0
370
    -3
390
5
  0
LAYER
  5
22B1
102
{ACAD_XDICTIONARY
360
2368
102
}
330
1EB0
100
AcDbSymbolTableRecord
100
AcDbLayerTableRecord
  2
中心線
 70
     0
 62
     1
  6
CENTER
370
     5
390
5
  0
LAYER
  5
22B6
102
{ACAD_XDICTIONARY
360
236A
102
}
330
1EB0
100
AcDbSymbolTableRecord
100
AcDbLayerTableRecord
  2
嵩上断面
 70
     0
 62
   112
  6
Continuous
370
    13
390
5
  0
LAYER
  5
22BB
102
{ACAD_XDICTIONARY
360
236C
102
}
330
1EB0
100
AcDbSymbolTableRecord
100
AcDbLayerTableRecord
  2
嵩上平面
 70
     0
 62
   112
  6
HIDDEN
370
    13
390
5
  0
LAYER
  5
22C0
102
{ACAD_XDICTIONARY
360
236E
102
}
330
1EB0
100
AcDbSymbolTableRecord
100
AcDbLayerTableRecord
  2
ゴム
 70
     0
 62
    51
  6
Continuous
370
    13
390
5
  0
ENDTAB
  0
TABLE
  2
STYLE
  5
1EB1
330
0
100
AcDbSymbolTable
 70
     4
  0
STYLE
  5
9
330
1EB1
100
AcDbSymbolTableRecord
100
AcDbTextStyleTableRecord
  2
Standard
 70
     0
 40
0.0
 41
1.0
 50
0.0
 71
     0
 42
2.5
  3

  4

1001
ACAD
1000
MS Gothic
1071
    32817
  0
ENDTAB
  0
TABLE
  2
VIEW
  5
1EB6
330
0
100
AcDbSymbolTable
 70
     0
  0
ENDTAB
  0
TABLE
  2
UCS
  5
1EB7
330
0
100
AcDbSymbolTable
 70
     0
  0
ENDTAB
  0
TABLE
  2
APPID
  5
1EBA
330
0
100
AcDbSymbolTable
 70
     5
  0
APPID
  5
A
330
1EBA
100
AcDbSymbolTableRecord
100
AcDbRegAppTableRecord
  2
ACAD
 70
     0
  0
APPID
  5
2370
330
1EBA
100
AcDbSymbolTableRecord
100
AcDbRegAppTableRecord
  2
ACAD_NAV_VCDISPLAY
 70
     0
  0
APPID
  5
23B1
330
1EBA
100
AcDbSymbolTableRecord
100
AcDbRegAppTableRecord
  2
ACAD_MLEADERVER
 70
     0
  0
APPID
  5
23CA
330
1EBA
100
AcDbSymbolTableRecord
100
AcDbRegAppTableRecord
  2
ACAD_EXEMPT_FROM_CAD_STANDARDS
 70
     0
  0
APPID
  5
2482
330
1EBA
100
AcDbSymbolTableRecord
100
AcDbRegAppTableRecord
  2
AcLayerTools
 70
     0
  0
ENDTAB
  0
TABLE
  2
DIMSTYLE
  5
1EBB
330
0
100
AcDbSymbolTable
 70
     3
100
AcDbDimStyleTable
 71
     1
340
A0
  0
DIMSTYLE
105
A0
102
{ACAD_REACTORS
330
A3
330
B1
330
BE
330
D6
330
E3
330
121
330
4F7
330
506
330
519
102
}
330
1EBB
100
AcDbSymbolTableRecord
100
AcDbDimStyleTableRecord
  2
ISO-25
 70
     0
 40
10.0
 41
1.5
 42
2.0
 43
3.75
 44
1.5
 73
     0
 74
     0
 77
     1
 78
     8
140
3.0
141
2.5
143
0.03937007874016
147
0.5
171
     3
172
     1
271
     2
272
     2
274
     3
283
     0
284
     8
289
     0
340
9
341
99
342
99
  0
DIMSTYLE
105
2290
330
1EBB
100
AcDbSymbolTableRecord
100
AcDbDimStyleTableRecord
  2
Standard
 70
     0
340
9
  0
ENDTAB
  0
TABLE
  2
BLOCK_RECORD
  5
1
330
0
100
AcDbSymbolTable
 70
    33
  0
BLOCK_RECORD
  5
2
102
{ACAD_XDICTIONARY
360
1E9E
102
}
330
1
100
AcDbSymbolTableRecord
100
AcDbBlockTableRecord
  2
*Model_Space
340
1EA2
  0
BLOCK_RECORD
  5
1EA4
102
{ACAD_XDICTIONARY
360
1EA5
102
}
330
1
100
AcDbSymbolTableRecord
100
AcDbBlockTableRecord
  2
*Paper_Space
340
1EA9
  0
BLOCK_RECORD
  5
1EAA
102
{ACAD_XDICTIONARY
360
1EAB
102
}
330
1
100
AcDbSymbolTableRecord
100
AcDbBlockTableRecord
  2
*Paper_Space0
340
1EAF
  0
BLOCK_RECORD
  5
99
330
1
100
AcDbSymbolTableRecord
100
AcDbBlockTableRecord
  2
_Open30
340
0
102
{BLKREFS
331
E8
331
E9
331
22D7
331
22D8
331
22E0
331
22E1
331
22EB
331
22EC
331
22F4
331
22F5
331
22FD
331
22FE
331
4F4
331
4F5
331
4FE
331
4FF
331
50B
331
50C
331
520
331
521
102
}
  0
BLOCK_RECORD
  5
5DB
330
1
100
AcDbSymbolTableRecord
100
AcDbBlockTableRecord
  2
平ゴムパッキン
340
0
102
{BLKREFS
331
1F3C
331
1F3D
102
}
  0
BLOCK_RECORD
  5
F7
330
1
100
AcDbSymbolTableRecord
100
AcDbBlockTableRecord
  2
TB6
340
0
102
{BLKREFS
331
F6
331
FF
331
100
102
}
1001
ACAD
1000
DesignCenter Data
1002
{
1070
     1
1070
     4
1002
}
  0
BLOCK_RECORD
  5
A4
330
1
100
AcDbSymbolTableRecord
100
AcDbBlockTableRecord
  2
*D4
340
0
  0
BLOCK_RECORD
  5
B2
330
1
100
AcDbSymbolTableRecord
100
AcDbBlockTableRecord
  2
*D5
340
0
  0
BLOCK_RECORD
  5
BF
330
1
100
AcDbSymbolTableRecord
100
AcDbBlockTableRecord
  2
*D6
340
0
  0
BLOCK_RECORD
  5
D7
330
1
100
AcDbSymbolTableRecord
100
AcDbBlockTableRecord
  2
*D7
340
0
  0
BLOCK_RECORD
  5
E4
330
1
100
AcDbSymbolTableRecord
100
AcDbBlockTableRecord
  2
*D8
340
0
  0
BLOCK_RECORD
  5
122
330
1
100
AcDbSymbolTableRecord
100
AcDbBlockTableRecord
  2
*D9
340
0
  0
BLOCK_RECORD
  5
4F8
330
1
100
AcDbSymbolTableRecord
100
AcDbBlockTableRecord
  2
*D10
340
0
  0
BLOCK_RECORD
  5
507
330
1
100
AcDbSymbolTableRecord
100
AcDbBlockTableRecord
  2
*D11
340
0
  0
BLOCK_RECORD
  5
51A
330
1
100
AcDbSymbolTableRecord
100
AcDbBlockTableRecord
  2
*D12
340
0
  0
BLOCK_RECORD
  5
2291
330
1
100
AcDbSymbolTableRecord
100
AcDbBlockTableRecord
  2
P-H50
340
0
102
{BLKREFS
331
229F
331
22A0
102
}
  0
BLOCK_RECORD
  5
23CC
102
{ACAD_XDICTIONARY
360
23D0
102
}
330
1
100
AcDbSymbolTableRecord
100
AcDbBlockTableRecord
  2
鎌下
340
0
102
{BLKREFS
331
23D3
102
}
1001
ACAD
1000
DesignCenter Data
1002
{
1070
     1
1070
     4
1002
}
  0
BLOCK_RECORD
  5
246E
102
{ACAD_XDICTIONARY
360
2479
102
}
330
1
100
AcDbSymbolTableRecord
100
AcDbBlockTableRecord
  2
GFB新
340
0
102
{BLKREFS
331
247C
102
}
1001
ACAD
1000
DesignCenter Data
1002
{
1070
     1
1070
     4
1002
}
  0
BLOCK_RECORD
  5
2484
102
{ACAD_REACTORS
330
249A
102
}
330
1
100
AcDbSymbolTableRecord
100
AcDbBlockTableRecord
  2
*U28
340
0
102
{BLKREFS
331
249E
331
249F
331
24A0
331
24A1
331
24A2
331
24A3
331
24A4
331
24A5
331
24A6
331
24A7
331
24A8
331
24A9
331
24AA
331
24AB
331
24AC
331
24AD
331
24AE
331
24AF
331
24B0
331
24B1
331
24B2
331
24B3
331
24B4
331
24B5
331
24B6
331
24B7
331
24B8
331
24B9
331
24BA
331
24BB
331
24BC
331
24BD
331
24BE
331
24BF
331
24C0
331
24C1
331
24C2
331
24C3
331
24C4
331
24C5
331
24C6
331
24C7
331
24C8
331
24C9
331
24CA
331
24CB
331
24CC
331
24CD
331
24CE
331
24CF
331
24D0
331
24D1
331
24D2
331
24D3
331
24D4
331
24D5
331
24D6
331
24D7
331
24D8
331
24D9
331
24DA
331
24DB
331
24DC
331
24DD
331
24DE
331
24DF
331
24E0
331
24E1
331
24E2
331
24E3
331
24E4
331
24E5
331
24E6
331
24E7
331
24E8
331
24E9
331
24EA
331
24EB
102
}
  0
BLOCK_RECORD
  5
2487
102
{ACAD_XDICTIONARY
360
26FC
102
}
102
{ACAD_REACTORS
330
2499
102
}
330
1
100
AcDbSymbolTableRecord
100
AcDbBlockTableRecord
  2
*U29
340
0
102
{BLKREFS
331
248A
102
}
  0
BLOCK_RECORD
  5
25AF
102
{ACAD_REACTORS
330
2616
102
}
330
1
100
AcDbSymbolTableRecord
100
AcDbBlockTableRecord
  2
*U31
340
0
102
{BLKREFS
331
261A
331
261B
331
261C
331
261D
331
261E
331
261F
331
2620
331
2621
331
2622
331
2623
331
2624
331
2625
331
2626
331
2627
331
2628
331
2629
331
262A
331
262B
331
262C
331
262D
331
262E
331
262F
331
2630
331
2631
331
2632
331
2633
331
2634
331
2635
331
2636
331
2637
331
2638
331
2639
331
263A
331
263B
331
263C
331
263D
331
263E
331
263F
331
2640
331
2641
331
2642
331
2643
331
2644
331
2645
331
2646
331
2647
331
2648
331
2649
331
264A
331
264B
331
264C
331
264D
331
264E
331
264F
331
2650
331
2651
331
2652
331
2653
331
2654
331
2655
331
2656
331
2657
331
2658
331
2659
331
265A
331
265B
331
265C
331
265D
331
265E
331
265F
331
2660
331
2661
331
2662
331
2663
331
2664
331
2665
331
2666
331
2667
102
}
  0
BLOCK_RECORD
  5
25B2
102
{ACAD_XDICTIONARY
360
26FF
102
}
102
{ACAD_REACTORS
330
2615
102
}
330
1
100
AcDbSymbolTableRecord
100
AcDbBlockTableRecord
  2
*U32
340
0
102
{BLKREFS
331
25B5
102
}
  0
ENDTAB
  0
ENDSEC
  0
SECTION
  2
BLOCKS
  0
BLOCK
  5
1EA0
330
2
100
AcDbEntity
  8
0
100
AcDbBlockBegin
  2
*Model_Space
 70
     0
 10
0.0
 20
0.0
 30
0.0
  3
*Model_Space
  1

  0
ENDBLK
  5
1EA1
330
2
100
AcDbEntity
  8
0
100
AcDbBlockEnd
  0
BLOCK
  5
1EA7
330
1EA4
100
AcDbEntity
 67
     1
  8
0
100
AcDbBlockBegin
  2
*Paper_Space
 70
     0
 10
0.0
 20
0.0
 30
0.0
  3
*Paper_Space
  1

  0
ENDBLK
  5
1EA8
330
1EA4
100
AcDbEntity
 67
     1
  8
0
100
AcDbBlockEnd
  0
BLOCK
  5
1EAD
330
1EAA
100
AcDbEntity
 67
     1
  8
0
100
AcDbBlockBegin
  2
*Paper_Space0
 70
     0
 10
0.0
 20
0.0
 30
0.0
  3
*Paper_Space0
  1

  0
ENDBLK
  5
1EAE
330
1EAA
100
AcDbEntity
 67
     1
  8
0
100
AcDbBlockEnd
  0
BLOCK
  5
9D
330
99
100
AcDbEntity
  8
0
100
AcDbBlockBegin
  2
_Open30
 70
     0
 10
0.0
 20
0.0
 30
0.0
  3
_Open30
  1

  0
LINE
  5
9A
330
99
100
AcDbEntity
  8
0
  6
ByBlock
 62
     0
370
    -2
100
AcDbLine
 10
-1.0
 20
0.26794919
 30
0.0
 11
0.0
 21
0.0
 31
0.0
  0
LINE
  5
9B
330
99
100
AcDbEntity
  8
0
  6
ByBlock
 62
     0
370
    -2
100
AcDbLine
 10
0.0
 20
0.0
 30
0.0
 11
-1.0
 21
-0.26794919
 31
0.0
  0
LINE
  5
9C
330
99
100
AcDbEntity
  8
0
  6
ByBlock
 62
     0
370
    -2
100
AcDbLine
 10
0.0
 20
0.0
 30
0.0
 11
-1.0
 21
0.0
 31
0.0
  0
ENDBLK
  5
9E
330
99
100
AcDbEntity
  8
0
100
AcDbBlockEnd
  0
BLOCK
  5
5EA
330
5DB
100
AcDbEntity
  8
0
100
AcDbBlockBegin
  2
平ゴムパッキン
 70
     0
 10
0.0
 20
0.0
 30
0.0
  3
平ゴムパッキン
  1

  0
LINE
  5
5DC
330
5DB
100
AcDbEntity
  8
0
100
AcDbLine
 10
3.000005000000001
 20
-0.0000109999999998
 30
0.0
 11
3.000005000000001
 21
-40.000011
 31
0.0
  0
LINE
  5
5DD
330
5DB
100
AcDbEntity
  8
0
100
AcDbLine
 10
3.000005000000001
 20
-0.0000109999999998
 30
0.0
 11
8.000005000000001
 21
-0.0000109999999998
 31
0.0
  0
LINE
  5
5DE
330
5DB
100
AcDbEntity
  8
0
100
AcDbLine
 10
3.000005000000001
 20
-40.000011
 30
0.0
 11
8.000005000000001
 21
-40.000011
 31
0.0
  0
LINE
  5
5DF
330
5DB
100
AcDbEntity
  8
0
100
AcDbLine
 10
8.000005000000001
 20
-0.0000109999999998
 30
0.0
 11
8.000005000000001
 21
-10.000011
 31
0.0
  0
LINE
  5
5E0
330
5DB
100
AcDbEntity
  8
0
100
AcDbLine
 10
8.000005000000001
 20
-30.000011
 30
0.0
 11
8.000005000000001
 21
-40.000011
 31
0.0
  0
LINE
  5
5E1
330
5DB
100
AcDbEntity
  8
0
100
AcDbLine
 10
8.000005000000001
 20
-10.000011
 30
0.0
 11
8.000005000000001
 21
-30.000011
 31
0.0
  0
LINE
  5
5E2
330
5DB
100
AcDbEntity
  8
0
 62
     1
100
AcDbLine
 10
5.874546000000002
 20
-40.000011
 30
0.0
 11
8.000005000000001
 21
-36.318608
 31
0.0
  0
LINE
  5
5E3
330
5DB
100
AcDbEntity
  8
0
 62
     1
100
AcDbLine
 10
3.000005000000001
 20
-38.978862
 30
0.0
 11
8.000005000000001
 21
-30.318608
 31
0.0
  0
LINE
  5
5E4
330
5DB
100
AcDbEntity
  8
0
 62
     1
100
AcDbLine
 10
3.000005000000001
 20
-32.978862
 30
0.0
 11
8.000005000000001
 21
-24.31860866666666
 31
0.0
  0
LINE
  5
5E5
330
5DB
100
AcDbEntity
  8
0
 62
     1
100
AcDbLine
 10
3.000005000000001
 20
-26.978862
 30
0.0
 11
8.000005000000001
 21
-18.31860866666667
 31
0.0
  0
LINE
  5
5E6
330
5DB
100
AcDbEntity
  8
0
 62
     1
100
AcDbLine
 10
3.000005000000001
 20
-20.978862
 30
0.0
 11
8.000005000000001
 21
-12.31860866666666
 31
0.0
  0
LINE
  5
5E7
330
5DB
100
AcDbEntity
  8
0
 62
     1
100
AcDbLine
 10
3.000005000000001
 20
-14.978862
 30
0.0
 11
8.000005000000001
 21
-6.318608000000001
 31
0.0
  0
LINE
  5
5E8
330
5DB
100
AcDbEntity
  8
0
 62
     1
100
AcDbLine
 10
3.000005000000001
 20
-8.978861999999999
 30
0.0
 11
8.000005000000001
 21
-0.3186080000000002
 31
0.0
  0
LINE
  5
5E9
330
5DB
100
AcDbEntity
  8
0
 62
     1
100
AcDbLine
 10
3.000005000000001
 20
-2.978861999999999
 30
0.0
 11
4.719844999999999
 21
-0.0000109999999998
 31
0.0
  0
ENDBLK
  5
5EB
330
5DB
100
AcDbEntity
  8
0
100
AcDbBlockEnd
  0
BLOCK
  5
FD
330
F7
100
AcDbEntity
  8
0
100
AcDbBlockBegin
  2
TB6
 70
     0
 10
0.0
 20
0.0
 30
0.0
  3
TB6
  1

  0
MTEXT
  5
F8
330
F7
100
AcDbEntity
  8
寸法線
  6
Continuous
100
AcDbMText
 10
917.3216494432054
 20
235.349302881973
 30
0.0
 40
20.0
 41
17.2146
 71
     7
 72
     1
  1

 73
     1
 44
1.0
1001
ACAD
1000
MTEXTBEGIN
1070
    73
1070
     1
1070
    44
1040
1.0
1070
    74
1070
     0
1000
MTEXTEND
  0
LINE
  5
F9
330
F7
100
AcDbEntity
  8
本体
  6
CENTER
 62
     1
 48
0.3
100
AcDbLine
 10
9.0
 20
0.0
 30
0.0
 11
-3.0
 21
0.0
 31
0.0
  0
LINE
  5
FB
330
F7
100
AcDbEntity
  8
本体
  6
CENTER
 62
     1
 48
0.3
100
AcDbLine
 10
3.0
 20
6.0
 30
0.0
 11
3.0
 21
-6.0
 31
0.0
  0
CIRCLE
  5
FC
330
F7
100
AcDbEntity
  8
本体
  6
Continuous
 62
     0
100
AcDbCircle
 10
3.0
 20
0.0
 30
0.0
 40
3.0
  0
ENDBLK
  5
FE
330
F7
100
AcDbEntity
  8
0
100
AcDbBlockEnd
  0
BLOCK
  5
AF
330
A4
100
AcDbEntity
  8
0
 48
3.0
100
AcDbBlockBegin
  2
*D4
 70
     1
 10
0.0
 20
0.0
 30
0.0
  3
*D4
  1

  0
LINE
  5
22E8
330
A4
100
AcDbEntity
  8
寸法線
  6
Continuous
 62
     0
 48
3.0
370
    -2
100
AcDbLine
 10
1906.56326022699
 20
1577.734273794808
 30
0.0
 11
1831.56326022699
 21
1577.734273794808
 31
0.0
  0
LINE
  5
22E9
330
A4
100
AcDbEntity
  8
寸法線
  6
Continuous
 62
     0
 48
3.0
370
    -2
100
AcDbLine
 10
1906.56326022699
 20
1477.734273794808
 30
0.0
 11
1831.56326022699
 21
1477.734273794808
 31
0.0
  0
LINE
  5
22EA
330
A4
100
AcDbEntity
  8
寸法線
  6
Continuous
 62
     0
 48
3.0
370
    -2
100
AcDbLine
 10
1846.56326022699
 20
1562.734273794808
 30
0.0
 11
1846.56326022699
 21
1492.734273794808
 31
0.0
  0
INSERT
  5
22EB
330
A4
100
AcDbEntity
  8
寸法線
  6
Continuous
 62
     0
 48
3.0
370
    -2
100
AcDbBlockReference
  2
_Open30
 10
1846.56326022699
 20
1577.734273794808
 30
0.0
 41
15.0
 42
15.0
 43
15.0
 50
90.0
  0
INSERT
  5
22EC
330
A4
100
AcDbEntity
  8
寸法線
  6
Continuous
 62
     0
 48
3.0
370
    -2
100
AcDbBlockReference
  2
_Open30
 10
1846.56326022699
 20
1477.734273794808
 30
0.0
 41
15.0
 42
15.0
 43
15.0
 50
270.0
  0
MTEXT
  5
22ED
330
A4
100
AcDbEntity
  8
寸法線
  6
Continuous
 62
     0
 48
3.0
100
AcDbMText
 10
1826.563260226989
 20
1527.734273794808
 30
0.0
 40
30.0
 41
0.0
 71
     5
 72
     1
  1
100
 11
0.0000000000000001
 21
1.0
 31
0.0
 73
     1
 44
1.0
1001
ACAD
1000
MTEXTBEGIN
1070
    73
1070
     1
1070
    44
1040
1.0
1070
    74
1070
     0
1000
MTEXTEND
  0
POINT
  5
22EE
330
A4
100
AcDbEntity
  8
Defpoints
  6
Continuous
 62
     0
 48
3.0
100
AcDbPoint
 10
1926.56326022699
 20
1577.734273794808
 30
0.0
  0
POINT
  5
22EF
330
A4
100
AcDbEntity
  8
Defpoints
  6
Continuous
 62
     0
 48
3.0
100
AcDbPoint
 10
1926.56326022699
 20
1477.734273794808
 30
0.0
  0
POINT
  5
22F0
330
A4
100
AcDbEntity
  8
Defpoints
  6
Continuous
 62
     0
 48
3.0
100
AcDbPoint
 10
1846.56326022699
 20
1477.734273794808
 30
0.0
  0
ENDBLK
  5
B0
330
A4
100
AcDbEntity
  8
0
 48
3.0
100
AcDbBlockEnd
  0
BLOCK
  5
BC
330
B2
100
AcDbEntity
  8
0
 48
3.0
100
AcDbBlockBegin
  2
*D5
 70
     1
 10
0.0
 20
0.0
 30
0.0
  3
*D5
  1

  0
LINE
  5
22F1
330
B2
100
AcDbEntity
  8
寸法線
  6
Continuous
 62
     0
 48
3.0
370
    -2
100
AcDbLine
 10
1906.56326022699
 20
1657.734273794808
 30
0.0
 11
1751.56326022699
 21
1657.734273794808
 31
0.0
  0
LINE
  5
22F2
330
B2
100
AcDbEntity
  8
寸法線
  6
Continuous
 62
     0
 48
3.0
370
    -2
100
AcDbLine
 10
1906.56326022699
 20
1297.734273794808
 30
0.0
 11
1751.56326022699
 21
1297.734273794808
 31
0.0
  0
LINE
  5
22F3
330
B2
100
AcDbEntity
  8
寸法線
  6
Continuous
 62
     0
 48
3.0
370
    -2
100
AcDbLine
 10
1766.56326022699
 20
1642.734273794808
 30
0.0
 11
1766.56326022699
 21
1312.734273794808
 31
0.0
  0
INSERT
  5
22F4
330
B2
100
AcDbEntity
  8
寸法線
  6
Continuous
 62
     0
 48
3.0
370
    -2
100
AcDbBlockReference
  2
_Open30
 10
1766.56326022699
 20
1657.734273794808
 30
0.0
 41
15.0
 42
15.0
 43
15.0
 50
90.0
  0
INSERT
  5
22F5
330
B2
100
AcDbEntity
  8
寸法線
  6
Continuous
 62
     0
 48
3.0
370
    -2
100
AcDbBlockReference
  2
_Open30
 10
1766.56326022699
 20
1297.734273794808
 30
0.0
 41
15.0
 42
15.0
 43
15.0
 50
270.0
  0
MTEXT
  5
22F6
330
B2
100
AcDbEntity
  8
寸法線
  6
Continuous
 62
     0
 48
3.0
100
AcDbMText
 10
1746.563260226989
 20
1477.734273794808
 30
0.0
 40
30.0
 41
0.0
 71
     5
 72
     1
  1
360
 11
0.0000000000000001
 21
1.0
 31
0.0
 73
     1
 44
1.0
1001
ACAD
1000
MTEXTBEGIN
1070
    73
1070
     1
1070
    44
1040
1.0
1070
    74
1070
     0
1000
MTEXTEND
  0
POINT
  5
22F7
330
B2
100
AcDbEntity
  8
Defpoints
  6
Continuous
 62
     0
 48
3.0
100
AcDbPoint
 10
1926.56326022699
 20
1657.734273794808
 30
0.0
  0
POINT
  5
22F8
330
B2
100
AcDbEntity
  8
Defpoints
  6
Continuous
 62
     0
 48
3.0
100
AcDbPoint
 10
1926.56326022699
 20
1297.734273794808
 30
0.0
  0
POINT
  5
22F9
330
B2
100
AcDbEntity
  8
Defpoints
  6
Continuous
 62
     0
 48
3.0
100
AcDbPoint
 10
1766.56326022699
 20
1297.734273794808
 30
0.0
  0
ENDBLK
  5
BD
330
B2
100
AcDbEntity
  8
0
 48
3.0
100
AcDbBlockEnd
  0
BLOCK
  5
C9
330
BF
100
AcDbEntity
  8
0
 48
3.0
100
AcDbBlockBegin
  2
*D6
 70
     1
 10
0.0
 20
0.0
 30
0.0
  3
*D6
  1

  0
LINE
  5
22FA
330
BF
100
AcDbEntity
  8
寸法線
  6
Continuous
 62
     0
 48
3.0
370
    -2
100
AcDbLine
 10
2025.563257226989
 20
1647.734274794808
 30
0.0
 11
2108.564178734866
 21
1647.734274794808
 31
0.0
  0
LINE
  5
22FB
330
BF
100
AcDbEntity
  8
寸法線
  6
Continuous
 62
     0
 48
3.0
370
    -2
100
AcDbLine
 10
2025.563257226989
 20
1307.734272794808
 30
0.0
 11
2108.564178734866
 21
1307.734272794808
 31
0.0
  0
LINE
  5
22FC
330
BF
100
AcDbEntity
  8
寸法線
  6
Continuous
 62
     0
 48
3.0
370
    -2
100
AcDbLine
 10
2093.564178734866
 20
1632.734274794808
 30
0.0
 11
2093.564178734866
 21
1322.734272794808
 31
0.0
  0
INSERT
  5
22FD
330
BF
100
AcDbEntity
  8
寸法線
  6
Continuous
 62
     0
 48
3.0
370
    -2
100
AcDbBlockReference
  2
_Open30
 10
2093.564178734866
 20
1647.734274794808
 30
0.0
 41
15.0
 42
15.0
 43
15.0
 50
90.0
  0
INSERT
  5
22FE
330
BF
100
AcDbEntity
  8
寸法線
  6
Continuous
 62
     0
 48
3.0
370
    -2
100
AcDbBlockReference
  2
_Open30
 10
2093.564178734866
 20
1307.734272794808
 30
0.0
 41
15.0
 42
15.0
 43
15.0
 50
270.0
  0
MTEXT
  5
22FF
330
BF
100
AcDbEntity
  8
寸法線
  6
Continuous
 62
     0
 48
3.0
100
AcDbMText
 10
2073.564178734866
 20
1477.734273794808
 30
0.0
 40
30.0
 41
0.0
 71
     5
 72
     1
  1
340
 11
0.0000000000000001
 21
1.0
 31
0.0
 73
     1
 44
1.0
1001
ACAD
1000
MTEXTBEGIN
1070
    73
1070
     1
1070
    44
1040
1.0
1070
    74
1070
     0
1000
MTEXTEND
  0
POINT
  5
2300
330
BF
100
AcDbEntity
  8
Defpoints
  6
Continuous
 62
     0
 48
3.0
100
AcDbPoint
 10
2005.56325722699
 20
1647.734274794808
 30
0.0
  0
POINT
  5
2301
330
BF
100
AcDbEntity
  8
Defpoints
  6
Continuous
 62
     0
 48
3.0
100
AcDbPoint
 10
2005.56325722699
 20
1307.734272794808
 30
0.0
  0
POINT
  5
2302
330
BF
100
AcDbEntity
  8
Defpoints
  6
Continuous
 62
     0
 48
3.0
100
AcDbPoint
 10
2093.564178734866
 20
1307.734272794808
 30
0.0
  0
ENDBLK
  5
CA
330
BF
100
AcDbEntity
  8
0
 48
3.0
100
AcDbBlockEnd
  0
BLOCK
  5
E1
330
D7
100
AcDbEntity
  8
0
 48
3.0
100
AcDbBlockBegin
  2
*D7
 70
     1
 10
0.0
 20
0.0
 30
0.0
  3
*D7
  1

  0
LINE
  5
22D4
330
D7
100
AcDbEntity
  8
寸法線
  6
Continuous
 62
     0
 48
3.0
370
    -2
100
AcDbLine
 10
453.7527897266564
 20
624.3437350377721
 30
0.0
 11
453.7527897266564
 21
469.3437350377721
 31
0.0
  0
LINE
  5
22D5
330
D7
100
AcDbEntity
  8
寸法線
  6
Continuous
 62
     0
 48
3.0
370
    -2
100
AcDbLine
 10
1443.752789726656
 20
624.3437350377721
 30
0.0
 11
1443.752789726656
 21
469.3437350377721
 31
0.0
  0
LINE
  5
22D6
330
D7
100
AcDbEntity
  8
寸法線
  6
Continuous
 62
     0
 48
3.0
370
    -2
100
AcDbLine
 10
468.7527897266563
 20
484.3437350377721
 30
0.0
 11
1428.752789726656
 21
484.3437350377721
 31
0.0
  0
INSERT
  5
22D7
330
D7
100
AcDbEntity
  8
寸法線
  6
Continuous
 62
     0
 48
3.0
370
    -2
100
AcDbBlockReference
  2
_Open30
 10
453.7527897266564
 20
484.3437350377721
 30
0.0
 41
15.0
 42
15.0
 43
15.0
 50
180.0
  0
INSERT
  5
22D8
330
D7
100
AcDbEntity
  8
寸法線
  6
Continuous
 62
     0
 48
3.0
370
    -2
100
AcDbBlockReference
  2
_Open30
 10
1443.752789726656
 20
484.3437350377721
 30
0.0
 41
15.0
 42
15.0
 43
15.0
  0
MTEXT
  5
22D9
330
D7
100
AcDbEntity
  8
寸法線
  6
Continuous
 62
     0
 48
3.0
100
AcDbMText
 10
948.7527897266563
 20
504.3437350377721
 30
0.0
 40
30.0
 41
0.0
 71
     5
 72
     1
  1
990
 73
     1
 44
1.0
1001
ACAD
1000
MTEXTBEGIN
1070
    73
1070
     1
1070
    44
1040
1.0
1070
    74
1070
     0
1000
MTEXTEND
  0
POINT
  5
22DA
330
D7
100
AcDbEntity
  8
Defpoints
  6
Continuous
 62
     0
 48
3.0
100
AcDbPoint
 10
453.7527897266564
 20
644.3437350377721
 30
0.0
  0
POINT
  5
22DB
330
D7
100
AcDbEntity
  8
Defpoints
  6
Continuous
 62
     0
 48
3.0
100
AcDbPoint
 10
1443.752789726656
 20
644.3437350377721
 30
0.0
  0
POINT
  5
22DC
330
D7
100
AcDbEntity
  8
Defpoints
  6
Continuous
 62
     0
 48
3.0
100
AcDbPoint
 10
1443.752789726656
 20
484.3437350377721
 30
0.0
  0
ENDBLK
  5
E2
330
D7
100
AcDbEntity
  8
0
 48
3.0
100
AcDbBlockEnd
  0
BLOCK
  5
EE
330
E4
100
AcDbEntity
  8
0
 48
3.0
100
AcDbBlockBegin
  2
*D8
 70
     1
 10
0.0
 20
0.0
 30
0.0
  3
*D8
  1

  0
LINE
  5
E5
330
E4
100
AcDbEntity
  8
寸法線
  6
Continuous
 62
     0
 48
3.0
370
    -2
100
AcDbLine
 10
1463.752789726656
 20
699.3437350377721
 30
0.0
 11
1558.01741365042
 21
699.3437350377721
 31
0.0
  0
LINE
  5
E6
330
E4
100
AcDbEntity
  8
寸法線
  6
Continuous
 62
     0
 48
3.0
370
    -2
100
AcDbLine
 10
1463.752789726656
 20
649.3437350377721
 30
0.0
 11
1558.01741365042
 21
649.3437350377721
 31
0.0
  0
LINE
  5
E7
330
E4
100
AcDbEntity
  8
寸法線
  6
Continuous
 62
     0
 48
3.0
370
    -2
100
AcDbLine
 10
1543.01741365042
 20
684.3437350377721
 30
0.0
 11
1543.01741365042
 21
664.3437350377721
 31
0.0
  0
INSERT
  5
E8
330
E4
100
AcDbEntity
  8
寸法線
  6
Continuous
 62
     0
 48
3.0
370
    -2
100
AcDbBlockReference
  2
_Open30
 10
1543.01741365042
 20
699.3437350377721
 30
0.0
 41
15.0
 42
15.0
 43
15.0
 50
90.0
  0
INSERT
  5
E9
330
E4
100
AcDbEntity
  8
寸法線
  6
Continuous
 62
     0
 48
3.0
370
    -2
100
AcDbBlockReference
  2
_Open30
 10
1543.01741365042
 20
649.3437350377721
 30
0.0
 41
15.0
 42
15.0
 43
15.0
 50
270.0
  0
MTEXT
  5
EA
330
E4
100
AcDbEntity
  8
寸法線
  6
Continuous
 62
     0
 48
3.0
100
AcDbMText
 10
1523.01741365042
 20
674.3437350377724
 30
0.0
 40
30.0
 41
0.0
 71
     5
 72
     1
  1
50
 11
0.0000000000000001
 21
1.0
 31
0.0
 73
     1
 44
1.0
1001
ACAD
1000
MTEXTBEGIN
1070
    73
1070
     1
1070
    44
1040
1.0
1070
    74
1070
     0
1000
MTEXTEND
  0
POINT
  5
EB
330
E4
100
AcDbEntity
  8
Defpoints
  6
Continuous
 62
     0
 48
3.0
100
AcDbPoint
 10
1443.752789726656
 20
699.3437350377721
 30
0.0
  0
POINT
  5
EC
330
E4
100
AcDbEntity
  8
Defpoints
  6
Continuous
 62
     0
 48
3.0
100
AcDbPoint
 10
1443.752789726656
 20
649.3437350377721
 30
0.0
  0
POINT
  5
ED
330
E4
100
AcDbEntity
  8
Defpoints
  6
Continuous
 62
     0
 48
3.0
100
AcDbPoint
 10
1543.01741365042
 20
649.3437350377721
 30
0.0
  0
ENDBLK
  5
EF
330
E4
100
AcDbEntity
  8
0
 48
3.0
100
AcDbBlockEnd
  0
BLOCK
  5
12C
330
122
100
AcDbEntity
  8
0
 48
3.0
100
AcDbBlockBegin
  2
*D9
 70
     1
 10
0.0
 20
0.0
 30
0.0
  3
*D9
  1

  0
LINE
  5
22DD
330
122
100
AcDbEntity
  8
寸法線
  6
Continuous
 62
     0
 48
3.0
370
    -2
100
AcDbLine
 10
451.2527897266563
 20
751.3437350377721
 30
0.0
 11
451.2527897266563
 21
906.3437350377721
 31
0.0
  0
LINE
  5
22DE
330
122
100
AcDbEntity
  8
寸法線
  6
Continuous
 62
     0
 48
3.0
370
    -2
100
AcDbLine
 10
1446.252789726656
 20
751.3437350377721
 30
0.0
 11
1446.252789726656
 21
906.3437350377721
 31
0.0
  0
LINE
  5
22DF
330
122
100
AcDbEntity
  8
寸法線
  6
Continuous
 62
     0
 48
3.0
370
    -2
100
AcDbLine
 10
466.2527897266564
 20
891.3437350377721
 30
0.0
 11
1431.252789726656
 21
891.3437350377721
 31
0.0
  0
INSERT
  5
22E0
330
122
100
AcDbEntity
  8
寸法線
  6
Continuous
 62
     0
 48
3.0
370
    -2
100
AcDbBlockReference
  2
_Open30
 10
451.2527897266563
 20
891.3437350377721
 30
0.0
 41
15.0
 42
15.0
 43
15.0
 50
180.0
  0
INSERT
  5
22E1
330
122
100
AcDbEntity
  8
寸法線
  6
Continuous
 62
     0
 48
3.0
370
    -2
100
AcDbBlockReference
  2
_Open30
 10
1446.252789726656
 20
891.3437350377721
 30
0.0
 41
15.0
 42
15.0
 43
15.0
  0
MTEXT
  5
22E2
330
122
100
AcDbEntity
  8
寸法線
  6
Continuous
 62
     0
 48
3.0
100
AcDbMText
 10
948.7527897266563
 20
911.343735037772
 30
0.0
 40
30.0
 41
0.0
 71
     5
 72
     1
  1
995
 73
     1
 44
1.0
1001
ACAD
1000
MTEXTBEGIN
1070
    73
1070
     1
1070
    44
1040
1.0
1070
    74
1070
     0
1000
MTEXTEND
  0
POINT
  5
22E3
330
122
100
AcDbEntity
  8
Defpoints
  6
Continuous
 62
     0
 48
3.0
100
AcDbPoint
 10
451.2527897266563
 20
731.3437350377721
 30
0.0
  0
POINT
  5
22E4
330
122
100
AcDbEntity
  8
Defpoints
  6
Continuous
 62
     0
 48
3.0
100
AcDbPoint
 10
1446.252789726656
 20
731.3437350377721
 30
0.0
  0
POINT
  5
22E5
330
122
100
AcDbEntity
  8
Defpoints
  6
Continuous
 62
     0
 48
3.0
100
AcDbPoint
 10
1446.252789726656
 20
891.3437350377721
 30
0.0
  0
ENDBLK
  5
12D
330
122
100
AcDbEntity
  8
0
 48
3.0
100
AcDbBlockEnd
  0
BLOCK
  5
504
330
4F8
100
AcDbEntity
  8
0
 48
3.0
100
AcDbBlockBegin
  2
*D10
 70
     1
 10
0.0
 20
0.0
 30
0.0
  3
*D10
  1

  0
LINE
  5
4F9
330
4F8
100
AcDbEntity
  8
寸法線
  6
Continuous
 62
     0
 48
3.0
370
    -2
100
AcDbLine
 10
1463.752789726656
 20
699.3437350377721
 30
0.0
 11
1558.01741365042
 21
699.3437350377721
 31
0.0
  0
LINE
  5
4FA
330
4F8
100
AcDbEntity
  8
寸法線
  6
Continuous
 62
     0
 48
3.0
370
    -2
100
AcDbLine
 10
1463.752789726656
 20
731.3437350377721
 30
0.0
 11
1558.01741365042
 21
731.3437350377721
 31
0.0
  0
LINE
  5
4FB
330
4F8
100
AcDbEntity
  8
寸法線
  6
Continuous
 62
     0
 48
3.0
370
    -2
100
AcDbLine
 10
1543.01741365042
 20
684.3437350377721
 30
0.0
 11
1543.01741365042
 21
669.3437350377721
 31
0.0
  0
LINE
  5
4FC
330
4F8
100
AcDbEntity
  8
寸法線
  6
Continuous
 62
     0
 48
3.0
370
    -2
100
AcDbLine
 10
1543.01741365042
 20
746.3437350377721
 30
0.0
 11
1543.01741365042
 21
806.5214000123914
 31
0.0
  0
LINE
  5
4FD
330
4F8
100
AcDbEntity
  8
寸法線
  6
Continuous
 62
     0
 48
3.0
370
    -2
100
AcDbLine
 10
1543.01741365042
 20
699.3437350377721
 30
0.0
 11
1543.01741365042
 21
731.3437350377721
 31
0.0
  0
INSERT
  5
4FE
330
4F8
100
AcDbEntity
  8
寸法線
  6
Continuous
 62
     0
 48
3.0
370
    -2
100
AcDbBlockReference
  2
_Open30
 10
1543.01741365042
 20
699.3437350377721
 30
0.0
 41
15.0
 42
15.0
 43
15.0
 50
90.0
  0
INSERT
  5
4FF
330
4F8
100
AcDbEntity
  8
寸法線
  6
Continuous
 62
     0
 48
3.0
370
    -2
100
AcDbBlockReference
  2
_Open30
 10
1543.01741365042
 20
731.3437350377721
 30
0.0
 41
15.0
 42
15.0
 43
15.0
 50
270.0
  0
MTEXT
  5
500
330
4F8
100
AcDbEntity
  8
寸法線
  6
Continuous
 62
     0
 48
3.0
100
AcDbMText
 10
1523.01741365042
 20
783.932567525082
 30
0.0
 40
30.0
 41
0.0
 71
     5
 72
     1
  1
32
 11
0.0000000000000001
 21
1.0
 31
0.0
 73
     1
 44
1.0
1001
ACAD
1000
MTEXTBEGIN
1070
    73
1070
     1
1070
    44
1040
1.0
1070
    74
1070
     0
1000
MTEXTEND
  0
POINT
  5
501
330
4F8
100
AcDbEntity
  8
Defpoints
  6
Continuous
 62
     0
 48
3.0
100
AcDbPoint
 10
1443.752789726656
 20
699.3437350377721
 30
0.0
  0
POINT
  5
502
330
4F8
100
AcDbEntity
  8
Defpoints
  6
Continuous
 62
     0
 48
3.0
100
AcDbPoint
 10
1443.752789726656
 20
731.3437350377721
 30
0.0
  0
POINT
  5
503
330
4F8
100
AcDbEntity
  8
Defpoints
  6
Continuous
 62
     0
 48
3.0
100
AcDbPoint
 10
1543.01741365042
 20
731.3437350377721
 30
0.0
  0
ENDBLK
  5
505
330
4F8
100
AcDbEntity
  8
0
 48
3.0
100
AcDbBlockEnd
  0
BLOCK
  5
511
330
507
100
AcDbEntity
  8
0
 48
3.0
100
AcDbBlockBegin
  2
*D11
 70
     1
 10
0.0
 20
0.0
 30
0.0
  3
*D11
  1

  0
LINE
  5
508
330
507
100
AcDbEntity
  8
寸法線
  6
Continuous
 62
     0
 48
3.0
370
    -2
100
AcDbLine
 10
1463.752789726656
 20
644.3437350377721
 30
0.0
 11
1658.675678599331
 21
644.3437350377721
 31
0.0
  0
LINE
  5
509
330
507
100
AcDbEntity
  8
寸法線
  6
Continuous
 62
     0
 48
3.0
370
    -2
100
AcDbLine
 10
1463.752789726656
 20
731.3437350377721
 30
0.0
 11
1658.675678599331
 21
731.3437350377721
 31
0.0
  0
LINE
  5
50A
330
507
100
AcDbEntity
  8
寸法線
  6
Continuous
 62
     0
 48
3.0
370
    -2
100
AcDbLine
 10
1643.675678599331
 20
659.3437350377721
 30
0.0
 11
1643.675678599331
 21
716.3437350377721
 31
0.0
  0
INSERT
  5
50B
330
507
100
AcDbEntity
  8
寸法線
  6
Continuous
 62
     0
 48
3.0
370
    -2
100
AcDbBlockReference
  2
_Open30
 10
1643.675678599331
 20
644.3437350377721
 30
0.0
 41
15.0
 42
15.0
 43
15.0
 50
270.0
  0
INSERT
  5
50C
330
507
100
AcDbEntity
  8
寸法線
  6
Continuous
 62
     0
 48
3.0
370
    -2
100
AcDbBlockReference
  2
_Open30
 10
1643.675678599331
 20
731.3437350377721
 30
0.0
 41
15.0
 42
15.0
 43
15.0
 50
90.0
  0
MTEXT
  5
50D
330
507
100
AcDbEntity
  8
寸法線
  6
Continuous
 62
     0
 48
3.0
100
AcDbMText
 10
1623.675678599331
 20
687.8437350377724
 30
0.0
 40
30.0
 41
0.0
 71
     5
 72
     1
  1
87
 11
0.0000000000000001
 21
1.0
 31
0.0
 73
     1
 44
1.0
1001
ACAD
1000
MTEXTBEGIN
1070
    73
1070
     1
1070
    44
1040
1.0
1070
    74
1070
     0
1000
MTEXTEND
  0
POINT
  5
50E
330
507
100
AcDbEntity
  8
Defpoints
  6
Continuous
 62
     0
 48
3.0
100
AcDbPoint
 10
1443.752789726656
 20
644.3437350377721
 30
0.0
  0
POINT
  5
50F
330
507
100
AcDbEntity
  8
Defpoints
  6
Continuous
 62
     0
 48
3.0
100
AcDbPoint
 10
1443.752789726656
 20
731.3437350377721
 30
0.0
  0
POINT
  5
510
330
507
100
AcDbEntity
  8
Defpoints
  6
Continuous
 62
     0
 48
3.0
100
AcDbPoint
 10
1643.675678599331
 20
731.3437350377721
 30
0.0
  0
ENDBLK
  5
512
330
507
100
AcDbEntity
  8
0
 48
3.0
100
AcDbBlockEnd
  0
BLOCK
  5
526
330
51A
100
AcDbEntity
  8
0
 48
3.0
100
AcDbBlockBegin
  2
*D12
 70
     1
 10
0.0
 20
0.0
 30
0.0
  3
*D12
  1

  0
LINE
  5
51B
330
51A
100
AcDbEntity
  8
寸法線
  6
Continuous
 62
     0
 48
3.0
370
    -2
100
AcDbLine
 10
1463.752789726656
 20
649.3437350377721
 30
0.0
 11
1558.01741365042
 21
649.3437350377721
 31
0.0
  0
LINE
  5
51C
330
51A
100
AcDbEntity
  8
寸法線
  6
Continuous
 62
     0
 48
3.0
370
    -2
100
AcDbLine
 10
1463.752789726656
 20
644.3437350377721
 30
0.0
 11
1558.01741365042
 21
644.3437350377721
 31
0.0
  0
LINE
  5
51D
330
51A
100
AcDbEntity
  8
寸法線
  6
Continuous
 62
     0
 48
3.0
370
    -2
100
AcDbLine
 10
1543.01741365042
 20
664.3437350377721
 30
0.0
 11
1543.01741365042
 21
679.3437350377721
 31
0.0
  0
LINE
  5
51E
330
51A
100
AcDbEntity
  8
寸法線
  6
Continuous
 62
     0
 48
3.0
370
    -2
100
AcDbLine
 10
1543.01741365042
 20
629.3437350377721
 30
0.0
 11
1543.01741365042
 21
588.8107401139143
 31
0.0
  0
LINE
  5
51F
330
51A
100
AcDbEntity
  8
寸法線
  6
Continuous
 62
     0
 48
3.0
370
    -2
100
AcDbLine
 10
1543.01741365042
 20
649.3437350377721
 30
0.0
 11
1543.01741365042
 21
644.3437350377721
 31
0.0
  0
INSERT
  5
520
330
51A
100
AcDbEntity
  8
寸法線
  6
Continuous
 62
     0
 48
3.0
370
    -2
100
AcDbBlockReference
  2
_Open30
 10
1543.01741365042
 20
649.3437350377721
 30
0.0
 41
15.0
 42
15.0
 43
15.0
 50
270.0
  0
INSERT
  5
521
330
51A
100
AcDbEntity
  8
寸法線
  6
Continuous
 62
     0
 48
3.0
370
    -2
100
AcDbBlockReference
  2
_Open30
 10
1543.01741365042
 20
644.3437350377721
 30
0.0
 41
15.0
 42
15.0
 43
15.0
 50
90.0
  0
MTEXT
  5
522
330
51A
100
AcDbEntity
  8
寸法線
  6
Continuous
 62
     0
 48
3.0
100
AcDbMText
 10
1523.01741365042
 20
601.5772375758435
 30
0.0
 40
30.0
 41
0.0
 71
     5
 72
     1
  1
5
 11
0.0000000000000001
 21
1.0
 31
0.0
 73
     1
 44
1.0
1001
ACAD
1000
MTEXTBEGIN
1070
    73
1070
     1
1070
    44
1040
1.0
1070
    74
1070
     0
1000
MTEXTEND
  0
POINT
  5
523
330
51A
100
AcDbEntity
  8
Defpoints
  6
Continuous
 62
     0
 48
3.0
100
AcDbPoint
 10
1443.752789726656
 20
649.3437350377721
 30
0.0
  0
POINT
  5
524
330
51A
100
AcDbEntity
  8
Defpoints
  6
Continuous
 62
     0
 48
3.0
100
AcDbPoint
 10
1443.752789726656
 20
644.3437350377721
 30
0.0
  0
POINT
  5
525
330
51A
100
AcDbEntity
  8
Defpoints
  6
Continuous
 62
     0
 48
3.0
100
AcDbPoint
 10
1543.01741365042
 20
644.3437350377721
 30
0.0
  0
ENDBLK
  5
527
330
51A
100
AcDbEntity
  8
0
 48
3.0
100
AcDbBlockEnd
  0
BLOCK
  5
229B
330
2291
100
AcDbEntity
  8
0
 48
3.0
100
AcDbBlockBegin
  2
P-H50
 70
     0
 10
0.0
 20
0.0
 30
0.0
  3
P-H50
  1

  0
LINE
  5
2292
330
2291
100
AcDbEntity
  8
0
100
AcDbLine
 10
2.999997
 20
0.000001
 30
0.0
 11
46.999997
 21
0.000001
 31
0.0
  0
LINE
  5
2293
330
2291
100
AcDbEntity
  8
0
100
AcDbLine
 10
-0.000003
 20
-2.999999
 30
0.0
 11
-0.000003
 21
-36.999999
 31
0.0
  0
LINE
  5
2294
330
2291
100
AcDbEntity
  8
0
100
AcDbLine
 10
2.999997
 20
-39.999999
 30
0.0
 11
46.999997
 21
-39.999999
 31
0.0
  0
ARC
  5
2295
330
2291
100
AcDbEntity
  8
0
100
AcDbCircle
 10
2.999997
 20
-36.999999
 30
0.0
 40
3.0
100
AcDbArc
 50
180.0
 51
270.0
  0
ARC
  5
2296
330
2291
100
AcDbEntity
  8
0
100
AcDbCircle
 10
2.999997
 20
-2.999999
 30
0.0
 40
3.0
100
AcDbArc
 50
90.0
 51
180.0
  0
LINE
  5
2297
330
2291
100
AcDbEntity
  8
0
100
AcDbLine
 10
49.999997
 20
-36.999999
 30
0.0
 11
49.999997
 21
-2.999999
 31
0.0
  0
ARC
  5
2298
330
2291
100
AcDbEntity
  8
0
100
AcDbCircle
 10
46.999997
 20
-36.999999
 30
0.0
 40
3.0
100
AcDbArc
 50
270.0
 51
0.0
  0
ARC
  5
2299
330
2291
100
AcDbEntity
  8
0
100
AcDbCircle
 10
46.999997
 20
-2.999999
 30
0.0
 40
3.0
100
AcDbArc
 50
0.0
 51
90.0
  0
LWPOLYLINE
  5
229A
330
2291
100
AcDbEntity
  8
0
  6
Continuous
100
AcDbPolyline
 90
        4
 70
     1
 43
0.0
 10
2.299996999999999
 20
-37.69999900000001
 10
47.699997
 20
-37.69999900000001
 10
47.699997
 20
-2.299998999999999
 10
2.299996999999999
 20
-2.299998999999999
  0
ENDBLK
  5
229C
330
2291
100
AcDbEntity
  8
0
 48
3.0
100
AcDbBlockEnd
  0
BLOCK
  5
23D1
330
23CC
100
AcDbEntity
  8
0
 48
3.0
100
AcDbBlockBegin
  2
鎌下
 70
     0
 10
0.0
 20
0.0
 30
0.0
  3
鎌下
  1

  0
MTEXT
  5
23CD
330
23CC
100
AcDbEntity
  8
外枠
  6
Continuous
100
AcDbMText
 10
40.55333581259037
 20
-88.14888116777728
 30
0.0
 40
28.17460800000001
 41
43.8527
 71
     1
 72
     5
  1
{\fHGSeikaishotaiPRO|b0|i0|c128|p65;下}
 73
     1
 44
1.0
1001
ACAD
1000
MTEXTBEGIN
1070
    73
1070
     1
1070
    44
1040
1.0
1070
    74
1070
     0
1000
MTEXTEND
  0
MTEXT
  5
23CE
330
23CC
100
AcDbEntity
  8
外枠
  6
Continuous
100
AcDbMText
 10
40.55333581259037
 20
-45.61885629864991
 30
0.0
 40
28.17460800000001
 41
43.8527
 71
     1
 72
     5
  1
{\fHGSeikaishotaiPRO|b0|i0|c128|p65;鎌}
 73
     1
 44
1.0
1001
ACAD
1000
MTEXTBEGIN
1070
    73
1070
     1
1070
    44
1040
1.0
1070
    74
1070
     0
1000
MTEXTEND
  0
ELLIPSE
  5
23CF
330
23CC
100
AcDbEntity
  8
外枠
  6
Continuous
100
AcDbEllipse
 10
61.68068686355036
 20
-84.59863033186412
 30
0.0
 11
0.0
 21
-47.8594442149426
 31
0.0
210
0.0
220
0.0
230
1.0
 40
0.7999999999999857
 41
0.0
 42
6.283185307179586
  0
ENDBLK
  5
23D2
330
23CC
100
AcDbEntity
  8
0
 48
3.0
100
AcDbBlockEnd
  0
BLOCK
  5
247A
330
246E
100
AcDbEntity
  8
0
 48
3.0
100
AcDbBlockBegin
  2
GFB新
 70
     0
 10
0.0
 20
0.0
 30
0.0
  3
GFB新
  1

  0
LINE
  5
246F
330
246E
100
AcDbEntity
  8
エンボス
370
     0
100
AcDbLine
 10
-207.7431163161555
 20
217.548054223251
 30
0.0
 11
-207.7431163161555
 21
37.54805422325097
 31
0.0
  0
LINE
  5
2470
330
246E
100
AcDbEntity
  8
エンボス
370
     0
100
AcDbLine
 10
-177.5031163161557
 20
217.548054223251
 30
0.0
 11
-177.5031163161557
 21
37.54805422325097
 31
0.0
  0
LWPOLYLINE
  5
2471
330
246E
100
AcDbEntity
  8
エンボス
  6
Continuous
100
AcDbPolyline
 90
        4
 70
     1
 43
0.0
 10
-354.3157130905711
 20
306.2431911820901
 10
-20.00000000000046
 20
306.2431911820901
 10
-20.00000000000046
 20
20.0
 10
-354.3157130905711
 20
20.0
  0
HATCH
  5
2472
330
246E
100
AcDbEntity
  8
エンボス
 48
3.0
100
AcDbHatch
 10
0.0
 20
0.0
 30
0.0
210
0.0
220
0.0
230
1.0
  2
ANSI31
 70
     0
 71
     0
 91
        2
 92
        7
 72
     0
 73
     1
 93
        4
 10
-177.5031163161557
 20
190.178232740995
 10
-207.7431163161555
 20
190.178232740995
 10
-207.7431163161555
 20
150.178232740995
 10
-177.5031163161557
 20
150.178232740995
 97
        0
 92
        7
 72
     0
 73
     1
 93
        4
 10
-177.5031163161552
 20
110.178232740995
 10
-207.7431163161555
 20
110.178232740995
 10
-207.7431163161555
 20
70.17823274099504
 10
-177.5031163161557
 20
70.17823274099504
 97
        0
 75
     0
 76
     1
 52
0.0
 41
1.0
 77
     0
 78
     1
 53
45.0
 43
-2606.130945379155
 44
61.80481481577524
 45
-2.245064030267287
 46
2.245064030267288
 79
     0
 47
0.6338635763914874
 98
        2
 10
-190.2538551621915
 20
172.4840090799864
 10
-186.4493471399023
 20
100.8574248738171
  0
LINE
  5
2473
330
246E
100
AcDbEntity
  8
エンボス
  6
Continuous
100
AcDbLine
 10
-207.7431163161555
 20
190.178232740995
 30
0.0
 11
-177.5031163161552
 21
190.178232740995
 31
0.0
  0
LINE
  5
2474
330
246E
100
AcDbEntity
  8
エンボス
  6
Continuous
100
AcDbLine
 10
-207.7431163161555
 20
150.178232740995
 30
0.0
 11
-177.5031163161552
 21
150.178232740995
 31
0.0
  0
LINE
  5
2475
330
246E
100
AcDbEntity
  8
エンボス
  6
Continuous
100
AcDbLine
 10
-207.7431163161555
 20
110.178232740995
 30
0.0
 11
-177.5031163161552
 21
110.178232740995
 31
0.0
  0
LINE
  5
2476
330
246E
100
AcDbEntity
  8
エンボス
  6
Continuous
100
AcDbLine
 10
-207.7431163161555
 20
70.17823274099504
 30
0.0
 11
-177.5031163161552
 21
70.17823274099504
 31
0.0
  0
TEXT
  5
2477
330
246E
100
AcDbEntity
  8
エンボス
  6
Continuous
100
AcDbText
 10
-314.1412150274577
 20
260.5024615214613
 30
0.0
 40
30.0
  1
GFB形状詳細
100
AcDbText
1001
ACAD
1000
MTEXTBEGIN
1070
    73
1070
     1
1070
    44
1040
1.0
1070
    74
1070
     0
1000
MTEXTEND
1000
MTEXTBEGIN
1070
    73
1070
     1
1070
    44
1040
1.0
1070
    74
1070
     0
1000
MTEXTEND
1000
MTEXTBEGIN
1070
    73
1070
     1
1070
    44
1040
1.0
1070
    74
1070
     0
1000
MTEXTEND
1000
MTEXTBEGIN
1070
    73
1070
     1
1070
    44
1040
1.0
1070
    74
1070
     0
1000
MTEXTEND
  0
MTEXT
  5
2478
330
246E
100
AcDbEntity
  8
エンボス
  6
Continuous
100
AcDbMText
 10
-283.7566471803206
 20
246.2734505767348
 30
0.0
 40
15.0
 41
256.2474
 71
     1
 72
     5
  1
※塗りつぶし部分突起
 73
     1
 44
1.0
1001
ACAD
1000
MTEXTBEGIN
1070
    73
1070
     1
1070
    44
1040
1.0
1070
    74
1070
     0
1000
MTEXTEND
  0
ENDBLK
  5
247B
330
246E
100
AcDbEntity
  8
0
 48
3.0
100
AcDbBlockEnd
  0
BLOCK
  5
2485
330
2484
100
AcDbEntity
  8
0
 48
3.0
100
AcDbBlockBegin
  2
*U28
 70
     1
 10
0.0
 20
0.0
 30
0.0
  3
*U28
  1

  0
LINE
  5
248B
330
2484
100
AcDbEntity
  8
本体
  6
Continuous
100
AcDbLine
 10
-12.55691999999999
 20
0.0
 30
0.0
 11
-3.0
 21
0.0
 31
0.0
  0
LINE
  5
248C
330
2484
100
AcDbEntity
  8
本体
  6
Continuous
100
AcDbLine
 10
-12.55691999999999
 20
-6.0
 30
0.0
 11
-3.0
 21
-6.0
 31
0.0
  0
LWPOLYLINE
  5
248D
330
2484
100
AcDbEntity
  8
本体
  6
Continuous
100
AcDbPolyline
 90
        4
 70
     1
 43
0.0
 10
-3.0
 20
0.0
 10
0.0
 20
0.0
 10
0.0
 20
-32.0
 10
-3.0
 20
-32.0
  0
LINE
  5
248E
330
2484
100
AcDbEntity
  8
本体
  6
Continuous
100
AcDbLine
 10
-12.55691999999999
 20
-6.0
 30
0.0
 11
-3.0
 21
0.0
 31
0.0
  0
LINE
  5
248F
330
2484
100
AcDbEntity
  8
本体
  6
Continuous
100
AcDbLine
 10
-12.55691999999999
 20
-25.0
 30
0.0
 11
-3.0
 21
-25.0
 31
0.0
  0
ENDBLK
  5
2486
330
2484
100
AcDbEntity
  8
0
 48
3.0
100
AcDbBlockEnd
  0
BLOCK
  5
2488
330
2487
100
AcDbEntity
  8
0
 48
3.0
100
AcDbBlockBegin
  2
*U29
 70
     1
 10
0.0
 20
0.0
 30
0.0
  3
*U29
  1

  0
INSERT
  5
249E
330
2487
100
AcDbEntity
  8
本体
  6
ByBlock
 62
     0
370
    -2
380
     1
100
AcDbBlockReference
  2
*U28
 10
0.0
 20
0.0
 30
0.0
  0
INSERT
  5
249F
330
2487
100
AcDbEntity
  8
本体
  6
ByBlock
 62
     0
370
    -2
380
     1
100
AcDbBlockReference
  2
*U28
 10
12.55692
 20
0.0
 30
0.0
  0
INSERT
  5
24A0
330
2487
100
AcDbEntity
  8
本体
  6
ByBlock
 62
     0
370
    -2
380
     1
100
AcDbBlockReference
  2
*U28
 10
25.11384000000001
 20
0.0
 30
0.0
  0
INSERT
  5
24A1
330
2487
100
AcDbEntity
  8
本体
  6
ByBlock
 62
     0
370
    -2
380
     1
100
AcDbBlockReference
  2
*U28
 10
37.67076000000001
 20
0.0
 30
0.0
  0
INSERT
  5
24A2
330
2487
100
AcDbEntity
  8
本体
  6
ByBlock
 62
     0
370
    -2
380
     1
100
AcDbBlockReference
  2
*U28
 10
50.22768000000001
 20
0.0
 30
0.0
  0
INSERT
  5
24A3
330
2487
100
AcDbEntity
  8
本体
  6
ByBlock
 62
     0
370
    -2
380
     1
100
AcDbBlockReference
  2
*U28
 10
62.78460000000002
 20
0.0
 30
0.0
  0
INSERT
  5
24A4
330
2487
100
AcDbEntity
  8
本体
  6
ByBlock
 62
     0
370
    -2
380
     1
100
AcDbBlockReference
  2
*U28
 10
75.34152000000002
 20
0.0
 30
0.0
  0
INSERT
  5
24A5
330
2487
100
AcDbEntity
  8
本体
  6
ByBlock
 62
     0
370
    -2
380
     1
100
AcDbBlockReference
  2
*U28
 10
87.89844000000002
 20
0.0
 30
0.0
  0
INSERT
  5
24A6
330
2487
100
AcDbEntity
  8
本体
  6
ByBlock
 62
     0
370
    -2
380
     1
100
AcDbBlockReference
  2
*U28
 10
100.45536
 20
0.0
 30
0.0
  0
INSERT
  5
24A7
330
2487
100
AcDbEntity
  8
本体
  6
ByBlock
 62
     0
370
    -2
380
     1
100
AcDbBlockReference
  2
*U28
 10
113.01228
 20
0.0
 30
0.0
  0
INSERT
  5
24A8
330
2487
100
AcDbEntity
  8
本体
  6
ByBlock
 62
     0
370
    -2
380
     1
100
AcDbBlockReference
  2
*U28
 10
125.5692
 20
0.0
 30
0.0
  0
INSERT
  5
24A9
330
2487
100
AcDbEntity
  8
本体
  6
ByBlock
 62
     0
370
    -2
380
     1
100
AcDbBlockReference
  2
*U28
 10
138.12612
 20
0.0
 30
0.0
  0
INSERT
  5
24AA
330
2487
100
AcDbEntity
  8
本体
  6
ByBlock
 62
     0
370
    -2
380
     1
100
AcDbBlockReference
  2
*U28
 10
150.68304
 20
0.0
 30
0.0
  0
INSERT
  5
24AB
330
2487
100
AcDbEntity
  8
本体
  6
ByBlock
 62
     0
370
    -2
380
     1
100
AcDbBlockReference
  2
*U28
 10
163.23996
 20
0.0
 30
0.0
  0
INSERT
  5
24AC
330
2487
100
AcDbEntity
  8
本体
  6
ByBlock
 62
     0
370
    -2
380
     1
100
AcDbBlockReference
  2
*U28
 10
175.79688
 20
0.0
 30
0.0
  0
INSERT
  5
24AD
330
2487
100
AcDbEntity
  8
本体
  6
ByBlock
 62
     0
370
    -2
380
     1
100
AcDbBlockReference
  2
*U28
 10
188.3538
 20
0.0
 30
0.0
  0
INSERT
  5
24AE
330
2487
100
AcDbEntity
  8
本体
  6
ByBlock
 62
     0
370
    -2
380
     1
100
AcDbBlockReference
  2
*U28
 10
200.9107200000001
 20
0.0
 30
0.0
  0
INSERT
  5
24AF
330
2487
100
AcDbEntity
  8
本体
  6
ByBlock
 62
     0
370
    -2
380
     1
100
AcDbBlockReference
  2
*U28
 10
213.46764
 20
0.0
 30
0.0
  0
INSERT
  5
24B0
330
2487
100
AcDbEntity
  8
本体
  6
ByBlock
 62
     0
370
    -2
380
     1
100
AcDbBlockReference
  2
*U28
 10
226.0245600000001
 20
0.0
 30
0.0
  0
INSERT
  5
24B1
330
2487
100
AcDbEntity
  8
本体
  6
ByBlock
 62
     0
370
    -2
380
     1
100
AcDbBlockReference
  2
*U28
 10
238.5814800000001
 20
0.0
 30
0.0
  0
INSERT
  5
24B2
330
2487
100
AcDbEntity
  8
本体
  6
ByBlock
 62
     0
370
    -2
380
     1
100
AcDbBlockReference
  2
*U28
 10
251.1384000000001
 20
0.0
 30
0.0
  0
INSERT
  5
24B3
330
2487
100
AcDbEntity
  8
本体
  6
ByBlock
 62
     0
370
    -2
380
     1
100
AcDbBlockReference
  2
*U28
 10
263.6953200000001
 20
0.0
 30
0.0
  0
INSERT
  5
24B4
330
2487
100
AcDbEntity
  8
本体
  6
ByBlock
 62
     0
370
    -2
380
     1
100
AcDbBlockReference
  2
*U28
 10
276.2522400000001
 20
0.0
 30
0.0
  0
INSERT
  5
24B5
330
2487
100
AcDbEntity
  8
本体
  6
ByBlock
 62
     0
370
    -2
380
     1
100
AcDbBlockReference
  2
*U28
 10
288.8091600000001
 20
0.0
 30
0.0
  0
INSERT
  5
24B6
330
2487
100
AcDbEntity
  8
本体
  6
ByBlock
 62
     0
370
    -2
380
     1
100
AcDbBlockReference
  2
*U28
 10
301.3660800000001
 20
0.0
 30
0.0
  0
INSERT
  5
24B7
330
2487
100
AcDbEntity
  8
本体
  6
ByBlock
 62
     0
370
    -2
380
     1
100
AcDbBlockReference
  2
*U28
 10
313.9230000000001
 20
0.0
 30
0.0
  0
INSERT
  5
24B8
330
2487
100
AcDbEntity
  8
本体
  6
ByBlock
 62
     0
370
    -2
380
     1
100
AcDbBlockReference
  2
*U28
 10
326.4799200000001
 20
0.0
 30
0.0
  0
INSERT
  5
24B9
330
2487
100
AcDbEntity
  8
本体
  6
ByBlock
 62
     0
370
    -2
380
     1
100
AcDbBlockReference
  2
*U28
 10
339.0368400000001
 20
0.0
 30
0.0
  0
INSERT
  5
24BA
330
2487
100
AcDbEntity
  8
本体
  6
ByBlock
 62
     0
370
    -2
380
     1
100
AcDbBlockReference
  2
*U28
 10
351.5937600000001
 20
0.0
 30
0.0
  0
INSERT
  5
24BB
330
2487
100
AcDbEntity
  8
本体
  6
ByBlock
 62
     0
370
    -2
380
     1
100
AcDbBlockReference
  2
*U28
 10
364.1506800000001
 20
0.0
 30
0.0
  0
INSERT
  5
24BC
330
2487
100
AcDbEntity
  8
本体
  6
ByBlock
 62
     0
370
    -2
380
     1
100
AcDbBlockReference
  2
*U28
 10
376.7076000000001
 20
0.0
 30
0.0
  0
INSERT
  5
24BD
330
2487
100
AcDbEntity
  8
本体
  6
ByBlock
 62
     0
370
    -2
380
     1
100
AcDbBlockReference
  2
*U28
 10
389.2645200000001
 20
0.0
 30
0.0
  0
INSERT
  5
24BE
330
2487
100
AcDbEntity
  8
本体
  6
ByBlock
 62
     0
370
    -2
380
     1
100
AcDbBlockReference
  2
*U28
 10
401.8214400000001
 20
0.0
 30
0.0
  0
INSERT
  5
24BF
330
2487
100
AcDbEntity
  8
本体
  6
ByBlock
 62
     0
370
    -2
380
     1
100
AcDbBlockReference
  2
*U28
 10
414.37836
 20
0.0
 30
0.0
  0
INSERT
  5
24C0
330
2487
100
AcDbEntity
  8
本体
  6
ByBlock
 62
     0
370
    -2
380
     1
100
AcDbBlockReference
  2
*U28
 10
426.93528
 20
0.0
 30
0.0
  0
INSERT
  5
24C1
330
2487
100
AcDbEntity
  8
本体
  6
ByBlock
 62
     0
370
    -2
380
     1
100
AcDbBlockReference
  2
*U28
 10
439.4922000000001
 20
0.0
 30
0.0
  0
INSERT
  5
24C2
330
2487
100
AcDbEntity
  8
本体
  6
ByBlock
 62
     0
370
    -2
380
     1
100
AcDbBlockReference
  2
*U28
 10
452.0491200000001
 20
0.0
 30
0.0
  0
INSERT
  5
24C3
330
2487
100
AcDbEntity
  8
本体
  6
ByBlock
 62
     0
370
    -2
380
     1
100
AcDbBlockReference
  2
*U28
 10
464.6060400000001
 20
0.0
 30
0.0
  0
INSERT
  5
24C4
330
2487
100
AcDbEntity
  8
本体
  6
ByBlock
 62
     0
370
    -2
380
     1
100
AcDbBlockReference
  2
*U28
 10
477.1629600000001
 20
0.0
 30
0.0
  0
INSERT
  5
24C5
330
2487
100
AcDbEntity
  8
本体
  6
ByBlock
 62
     0
370
    -2
380
     1
100
AcDbBlockReference
  2
*U28
 10
489.7198800000001
 20
0.0
 30
0.0
  0
INSERT
  5
24C6
330
2487
100
AcDbEntity
  8
本体
  6
ByBlock
 62
     0
370
    -2
380
     1
100
AcDbBlockReference
  2
*U28
 10
502.2768000000001
 20
0.0
 30
0.0
  0
INSERT
  5
24C7
330
2487
100
AcDbEntity
  8
本体
  6
ByBlock
 62
     0
370
    -2
380
     1
100
AcDbBlockReference
  2
*U28
 10
514.8337200000001
 20
0.0
 30
0.0
  0
INSERT
  5
24C8
330
2487
100
AcDbEntity
  8
本体
  6
ByBlock
 62
     0
370
    -2
380
     1
100
AcDbBlockReference
  2
*U28
 10
527.3906400000002
 20
0.0
 30
0.0
  0
INSERT
  5
24C9
330
2487
100
AcDbEntity
  8
本体
  6
ByBlock
 62
     0
370
    -2
380
     1
100
AcDbBlockReference
  2
*U28
 10
539.9475600000001
 20
0.0
 30
0.0
  0
INSERT
  5
24CA
330
2487
100
AcDbEntity
  8
本体
  6
ByBlock
 62
     0
370
    -2
380
     1
100
AcDbBlockReference
  2
*U28
 10
552.5044800000001
 20
0.0
 30
0.0
  0
INSERT
  5
24CB
330
2487
100
AcDbEntity
  8
本体
  6
ByBlock
 62
     0
370
    -2
380
     1
100
AcDbBlockReference
  2
*U28
 10
565.0614000000001
 20
0.0
 30
0.0
  0
INSERT
  5
24CC
330
2487
100
AcDbEntity
  8
本体
  6
ByBlock
 62
     0
370
    -2
380
     1
100
AcDbBlockReference
  2
*U28
 10
577.6183200000001
 20
0.0
 30
0.0
  0
INSERT
  5
24CD
330
2487
100
AcDbEntity
  8
本体
  6
ByBlock
 62
     0
370
    -2
380
     1
100
AcDbBlockReference
  2
*U28
 10
590.1752400000001
 20
0.0
 30
0.0
  0
INSERT
  5
24CE
330
2487
100
AcDbEntity
  8
本体
  6
ByBlock
 62
     0
370
    -2
380
     1
100
AcDbBlockReference
  2
*U28
 10
602.7321600000001
 20
0.0
 30
0.0
  0
INSERT
  5
24CF
330
2487
100
AcDbEntity
  8
本体
  6
ByBlock
 62
     0
370
    -2
380
     1
100
AcDbBlockReference
  2
*U28
 10
615.2890800000001
 20
0.0
 30
0.0
  0
INSERT
  5
24D0
330
2487
100
AcDbEntity
  8
本体
  6
ByBlock
 62
     0
370
    -2
380
     1
100
AcDbBlockReference
  2
*U28
 10
627.8460000000001
 20
0.0
 30
0.0
  0
INSERT
  5
24D1
330
2487
100
AcDbEntity
  8
本体
  6
ByBlock
 62
     0
370
    -2
380
     1
100
AcDbBlockReference
  2
*U28
 10
640.4029200000002
 20
0.0
 30
0.0
  0
INSERT
  5
24D2
330
2487
100
AcDbEntity
  8
本体
  6
ByBlock
 62
     0
370
    -2
380
     1
100
AcDbBlockReference
  2
*U28
 10
652.9598400000002
 20
0.0
 30
0.0
  0
INSERT
  5
24D3
330
2487
100
AcDbEntity
  8
本体
  6
ByBlock
 62
     0
370
    -2
380
     1
100
AcDbBlockReference
  2
*U28
 10
665.5167600000002
 20
0.0
 30
0.0
  0
INSERT
  5
24D4
330
2487
100
AcDbEntity
  8
本体
  6
ByBlock
 62
     0
370
    -2
380
     1
100
AcDbBlockReference
  2
*U28
 10
678.0736800000002
 20
0.0
 30
0.0
  0
INSERT
  5
24D5
330
2487
100
AcDbEntity
  8
本体
  6
ByBlock
 62
     0
370
    -2
380
     1
100
AcDbBlockReference
  2
*U28
 10
690.6306000000001
 20
0.0
 30
0.0
  0
INSERT
  5
24D6
330
2487
100
AcDbEntity
  8
本体
  6
ByBlock
 62
     0
370
    -2
380
     1
100
AcDbBlockReference
  2
*U28
 10
703.1875200000001
 20
0.0
 30
0.0
  0
INSERT
  5
24D7
330
2487
100
AcDbEntity
  8
本体
  6
ByBlock
 62
     0
370
    -2
380
     1
100
AcDbBlockReference
  2
*U28
 10
715.7444400000001
 20
0.0
 30
0.0
  0
INSERT
  5
24D8
330
2487
100
AcDbEntity
  8
本体
  6
ByBlock
 62
     0
370
    -2
380
     1
100
AcDbBlockReference
  2
*U28
 10
728.3013600000002
 20
0.0
 30
0.0
  0
INSERT
  5
24D9
330
2487
100
AcDbEntity
  8
本体
  6
ByBlock
 62
     0
370
    -2
380
     1
100
AcDbBlockReference
  2
*U28
 10
740.8582800000001
 20
0.0
 30
0.0
  0
INSERT
  5
24DA
330
2487
100
AcDbEntity
  8
本体
  6
ByBlock
 62
     0
370
    -2
380
     1
100
AcDbBlockReference
  2
*U28
 10
753.4152000000002
 20
0.0
 30
0.0
  0
INSERT
  5
24DB
330
2487
100
AcDbEntity
  8
本体
  6
ByBlock
 62
     0
370
    -2
380
     1
100
AcDbBlockReference
  2
*U28
 10
765.9721200000002
 20
0.0
 30
0.0
  0
INSERT
  5
24DC
330
2487
100
AcDbEntity
  8
本体
  6
ByBlock
 62
     0
370
    -2
380
     1
100
AcDbBlockReference
  2
*U28
 10
778.5290400000002
 20
0.0
 30
0.0
  0
INSERT
  5
24DD
330
2487
100
AcDbEntity
  8
本体
  6
ByBlock
 62
     0
370
    -2
380
     1
100
AcDbBlockReference
  2
*U28
 10
791.0859600000002
 20
0.0
 30
0.0
  0
INSERT
  5
24DE
330
2487
100
AcDbEntity
  8
本体
  6
ByBlock
 62
     0
370
    -2
380
     1
100
AcDbBlockReference
  2
*U28
 10
803.6428800000003
 20
0.0
 30
0.0
  0
INSERT
  5
24DF
330
2487
100
AcDbEntity
  8
本体
  6
ByBlock
 62
     0
370
    -2
380
     1
100
AcDbBlockReference
  2
*U28
 10
816.1998000000002
 20
0.0
 30
0.0
  0
INSERT
  5
24E0
330
2487
100
AcDbEntity
  8
本体
  6
ByBlock
 62
     0
370
    -2
380
     1
100
AcDbBlockReference
  2
*U28
 10
828.7567200000001
 20
0.0
 30
0.0
  0
INSERT
  5
24E1
330
2487
100
AcDbEntity
  8
本体
  6
ByBlock
 62
     0
370
    -2
380
     1
100
AcDbBlockReference
  2
*U28
 10
841.3136400000002
 20
0.0
 30
0.0
  0
INSERT
  5
24E2
330
2487
100
AcDbEntity
  8
本体
  6
ByBlock
 62
     0
370
    -2
380
     1
100
AcDbBlockReference
  2
*U28
 10
853.8705600000001
 20
0.0
 30
0.0
  0
INSERT
  5
24E3
330
2487
100
AcDbEntity
  8
本体
  6
ByBlock
 62
     0
370
    -2
380
     1
100
AcDbBlockReference
  2
*U28
 10
866.4274800000002
 20
0.0
 30
0.0
  0
INSERT
  5
24E4
330
2487
100
AcDbEntity
  8
本体
  6
ByBlock
 62
     0
370
    -2
380
     1
100
AcDbBlockReference
  2
*U28
 10
878.9844000000002
 20
0.0
 30
0.0
  0
INSERT
  5
24E5
330
2487
100
AcDbEntity
  8
本体
  6
ByBlock
 62
     0
370
    -2
380
     1
100
AcDbBlockReference
  2
*U28
 10
891.5413200000003
 20
0.0
 30
0.0
  0
INSERT
  5
24E6
330
2487
100
AcDbEntity
  8
本体
  6
ByBlock
 62
     0
370
    -2
380
     1
100
AcDbBlockReference
  2
*U28
 10
904.0982400000002
 20
0.0
 30
0.0
  0
INSERT
  5
24E7
330
2487
100
AcDbEntity
  8
本体
  6
ByBlock
 62
     0
370
    -2
380
     1
100
AcDbBlockReference
  2
*U28
 10
916.6551600000003
 20
0.0
 30
0.0
  0
INSERT
  5
24E8
330
2487
100
AcDbEntity
  8
本体
  6
ByBlock
 62
     0
370
    -2
380
     1
100
AcDbBlockReference
  2
*U28
 10
929.2120800000002
 20
0.0
 30
0.0
  0
INSERT
  5
24E9
330
2487
100
AcDbEntity
  8
本体
  6
ByBlock
 62
     0
370
    -2
380
     1
100
AcDbBlockReference
  2
*U28
 10
941.7690000000002
 20
0.0
 30
0.0
  0
INSERT
  5
24EA
330
2487
100
AcDbEntity
  8
本体
  6
ByBlock
 62
     0
370
    -2
380
     1
100
AcDbBlockReference
  2
*U28
 10
954.3259200000003
 20
0.0
 30
0.0
  0
INSERT
  5
24EB
330
2487
100
AcDbEntity
  8
本体
  6
ByBlock
 62
     0
370
    -2
380
     1
100
AcDbBlockReference
  2
*U28
 10
966.8828400000002
 20
0.0
 30
0.0
  0
ENDBLK
  5
2489
330
2487
100
AcDbEntity
  8
0
 48
3.0
100
AcDbBlockEnd
  0
BLOCK
  5
25B0
330
25AF
100
AcDbEntity
  8
0
 48
3.0
100
AcDbBlockBegin
  2
*U31
 70
     1
 10
0.0
 20
0.0
 30
0.0
  3
*U31
  1

  0
LINE
  5
25B6
330
25AF
100
AcDbEntity
  8
本体
  6
Continuous
100
AcDbLine
 10
7.778459399999974
 20
175.5
 30
0.0
 11
7.778459399999974
 21
102.5
 31
0.0
  0
LINE
  5
25B7
330
25AF
100
AcDbEntity
  8
本体
  6
Continuous
100
AcDbLine
 10
4.778459399999974
 20
175.5
 30
0.0
 11
4.778459399999974
 21
102.5
 31
0.0
  0
LINE
  5
25B8
330
25AF
100
AcDbEntity
  8
本体
  6
Continuous
100
AcDbLine
 10
7.778459399999974
 20
97.5
 30
0.0
 11
7.778459399999974
 21
2.5
 31
0.0
  0
LINE
  5
25B9
330
25AF
100
AcDbEntity
  8
本体
  6
Continuous
100
AcDbLine
 10
4.778459399999974
 20
97.5
 30
0.0
 11
4.778459399999974
 21
2.5
 31
0.0
  0
LINE
  5
25BA
330
25AF
100
AcDbEntity
  8
本体
  6
Continuous
100
AcDbLine
 10
4.778459399999974
 20
-2.5
 30
0.0
 11
4.778459399999974
 21
-97.5
 31
0.0
  0
LINE
  5
25BB
330
25AF
100
AcDbEntity
  8
本体
  6
Continuous
100
AcDbLine
 10
7.778459399999974
 20
-2.5
 30
0.0
 11
7.778459399999974
 21
-97.5
 31
0.0
  0
LINE
  5
25BC
330
25AF
100
AcDbEntity
  8
本体
  6
Continuous
100
AcDbLine
 10
7.778459399999974
 20
-175.5
 30
0.0
 11
7.778459399999974
 21
-102.5
 31
0.0
  0
LINE
  5
25BD
330
25AF
100
AcDbEntity
  8
本体
  6
Continuous
100
AcDbLine
 10
4.778459399999974
 20
-175.5
 30
0.0
 11
4.778459399999974
 21
-102.5
 31
0.0
  0
LINE
  5
25BE
330
25AF
100
AcDbEntity
  8
本体
  6
Continuous
100
AcDbLine
 10
-7.778460600000016
 20
97.5
 30
0.0
 11
4.778459399999974
 21
102.5
 31
0.0
  0
LINE
  5
25BF
330
25AF
100
AcDbEntity
  8
本体
  6
Continuous
100
AcDbLine
 10
-7.778460600000016
 20
-2.5
 30
0.0
 11
4.778459399999974
 21
2.5
 31
0.0
  0
LINE
  5
25C0
330
25AF
100
AcDbEntity
  8
本体
  6
Continuous
100
AcDbLine
 10
-7.778460600000016
 20
-102.5
 30
0.0
 11
4.778459399999974
 21
-97.5
 31
0.0
  0
LINE
  5
25C1
330
25AF
100
AcDbEntity
  8
エンボス
  6
Continuous
100
AcDbLine
 10
4.778460600000016
 20
-162.5669372158395
 30
0.0
 11
7.778460600000016
 21
-163.7669372158393
 31
0.0
  0
LINE
  5
25C2
330
25AF
100
AcDbEntity
  8
エンボス
  6
Continuous
100
AcDbLine
 10
4.778460600000016
 20
-172.1669372158394
 30
0.0
 11
7.778460600000016
 21
-170.9669372158393
 31
0.0
  0
LINE
  5
25C3
330
25AF
100
AcDbEntity
  8
エンボス
  6
Continuous
100
AcDbLine
 10
7.778460600000016
 20
-165.5669372158395
 30
0.0
 11
4.778460600000016
 21
-166.7669372158393
 31
0.0
  0
LINE
  5
25C4
330
25AF
100
AcDbEntity
  8
エンボス
  6
Continuous
100
AcDbLine
 10
7.778460600000016
 20
-175.1669372158394
 30
0.0
 11
4.778460600000016
 21
-173.9669372158394
 31
0.0
  0
LINE
  5
25C5
330
25AF
100
AcDbEntity
  8
エンボス
  6
Continuous
100
AcDbLine
 10
7.778460600000016
 20
-141.2000048
 30
0.0
 11
4.778460600000016
 21
-140.0000047999999
 31
0.0
  0
LINE
  5
25C6
330
25AF
100
AcDbEntity
  8
エンボス
  6
Continuous
100
AcDbLine
 10
7.778460600000016
 20
-148.4000048
 30
0.0
 11
4.778460600000016
 21
-149.6000048000001
 31
0.0
  0
LINE
  5
25C7
330
25AF
100
AcDbEntity
  8
エンボス
  6
Continuous
100
AcDbLine
 10
4.778460600000016
 20
-145.4000048
 30
0.0
 11
7.778460600000016
 21
-146.6000048000001
 31
0.0
  0
LINE
  5
25C8
330
25AF
100
AcDbEntity
  8
エンボス
  6
Continuous
100
AcDbLine
 10
4.778460600000016
 20
-128.6000048000001
 30
0.0
 11
7.778460600000016
 21
-129.8000047999999
 31
0.0
  0
LINE
  5
25C9
330
25AF
100
AcDbEntity
  8
エンボス
  6
Continuous
100
AcDbLine
 10
7.778460600000016
 20
-131.6000048000001
 30
0.0
 11
4.778460600000016
 21
-132.8000047999999
 31
0.0
  0
LINE
  5
25CA
330
25AF
100
AcDbEntity
  8
エンボス
  6
Continuous
100
AcDbLine
 10
4.778460600000016
 20
-138.2000048
 30
0.0
 11
7.778460600000016
 21
-137.0000047999999
 31
0.0
  0
LINE
  5
25CB
330
25AF
100
AcDbEntity
  8
エンボス
  6
Continuous
100
AcDbLine
 10
4.778460600000016
 20
-155.0000047999999
 30
0.0
 11
7.778460600000016
 21
-153.8000047999999
 31
0.0
  0
LINE
  5
25CC
330
25AF
100
AcDbEntity
  8
エンボス
  6
Continuous
100
AcDbLine
 10
7.778460600000016
 20
-158.0000047999999
 30
0.0
 11
4.778460600000016
 21
-156.8000047999999
 31
0.0
  0
LINE
  5
25CD
330
25AF
100
AcDbEntity
  8
エンボス
  6
Continuous
100
AcDbLine
 10
4.778460600000016
 20
-111.8000047999999
 30
0.0
 11
7.778460600000016
 21
-113.0000047999999
 31
0.0
  0
LINE
  5
25CE
330
25AF
100
AcDbEntity
  8
エンボス
  6
Continuous
100
AcDbLine
 10
7.778460600000016
 20
-107.6000048
 30
0.0
 11
4.778460600000016
 21
-106.4000048
 31
0.0
  0
LINE
  5
25CF
330
25AF
100
AcDbEntity
  8
エンボス
  6
Continuous
100
AcDbLine
 10
4.778460600000016
 20
-121.4000048
 30
0.0
 11
7.778460600000016
 21
-120.2000048
 31
0.0
  0
LINE
  5
25D0
330
25AF
100
AcDbEntity
  8
エンボス
  6
Continuous
100
AcDbLine
 10
7.778460600000016
 20
-124.4000048
 30
0.0
 11
4.778460600000016
 21
-123.2000048
 31
0.0
  0
LINE
  5
25D1
330
25AF
100
AcDbEntity
  8
エンボス
  6
Continuous
100
AcDbLine
 10
7.778460600000016
 20
-114.8000047999999
 30
0.0
 11
4.778460600000016
 21
-116.0000047999999
 31
0.0
  0
LINE
  5
25D2
330
25AF
100
AcDbEntity
  8
エンボス
  6
Continuous
100
AcDbLine
 10
4.778460600000016
 20
-104.6000048000001
 30
0.0
 11
7.778460600000016
 21
-103.4000048
 31
0.0
  0
LINE
  5
25D3
330
25AF
100
AcDbEntity
  8
エンボス
  6
Continuous
100
AcDbLine
 10
4.778460600000016
 20
-88.96693721583938
 30
0.0
 11
7.778460600000016
 21
-87.76693721583933
 31
0.0
  0
LINE
  5
25D4
330
25AF
100
AcDbEntity
  8
エンボス
  6
Continuous
100
AcDbLine
 10
7.778460600000016
 20
-91.96693721583939
 30
0.0
 11
4.778460600000016
 21
-90.76693721583934
 31
0.0
  0
LINE
  5
25D5
330
25AF
100
AcDbEntity
  8
エンボス
  6
Continuous
100
AcDbLine
 10
7.778460600000016
 20
-58.00000479999994
 30
0.0
 11
4.778460600000016
 21
-56.80000479999989
 31
0.0
  0
LINE
  5
25D6
330
25AF
100
AcDbEntity
  8
エンボス
  6
Continuous
100
AcDbLine
 10
4.778460600000016
 20
-55.00000479999994
 30
0.0
 11
7.778460600000016
 21
-53.80000479999989
 31
0.0
  0
LINE
  5
25D7
330
25AF
100
AcDbEntity
  8
エンボス
  6
Continuous
100
AcDbLine
 10
7.778460600000016
 20
-75.16693721583942
 30
0.0
 11
4.778460600000016
 21
-73.96693721583938
 31
0.0
  0
LINE
  5
25D8
330
25AF
100
AcDbEntity
  8
エンボス
  6
Continuous
100
AcDbLine
 10
4.778460600000016
 20
-62.56693721583951
 30
0.0
 11
7.778460600000016
 21
-63.76693721583933
 31
0.0
  0
LINE
  5
25D9
330
25AF
100
AcDbEntity
  8
エンボス
  6
Continuous
100
AcDbLine
 10
7.778460600000016
 20
-65.56693721583951
 30
0.0
 11
4.778460600000016
 21
-66.76693721583934
 31
0.0
  0
LINE
  5
25DA
330
25AF
100
AcDbEntity
  8
エンボス
  6
Continuous
100
AcDbLine
 10
4.778460600000016
 20
-72.16693721583943
 30
0.0
 11
7.778460600000016
 21
-70.96693721583938
 31
0.0
  0
LINE
  5
25DB
330
25AF
100
AcDbEntity
  8
エンボス
  6
Continuous
100
AcDbLine
 10
7.778460600000016
 20
-82.36693721583947
 30
0.0
 11
4.778460600000016
 21
-83.56693721583951
 31
0.0
  0
LINE
  5
25DC
330
25AF
100
AcDbEntity
  8
エンボス
  6
Continuous
100
AcDbLine
 10
4.778460600000016
 20
-79.36693721583947
 30
0.0
 11
7.778460600000016
 21
-80.56693721583952
 31
0.0
  0
LINE
  5
25DD
330
25AF
100
AcDbEntity
  8
エンボス
  6
Continuous
100
AcDbLine
 10
7.778460600000016
 20
-14.80000479999989
 30
0.0
 11
4.778460600000016
 21
-16.00000479999994
 31
0.0
  0
LINE
  5
25DE
330
25AF
100
AcDbEntity
  8
エンボス
  6
Continuous
100
AcDbLine
 10
7.778460600000016
 20
-24.40000480000004
 30
0.0
 11
4.778460600000016
 21
-23.20000479999999
 31
0.0
  0
LINE
  5
25DF
330
25AF
100
AcDbEntity
  8
エンボス
  6
Continuous
100
AcDbLine
 10
4.778460600000016
 20
-21.40000480000003
 30
0.0
 11
7.778460600000016
 21
-20.20000479999999
 31
0.0
  0
LINE
  5
25E0
330
25AF
100
AcDbEntity
  8
エンボス
  6
Continuous
100
AcDbLine
 10
4.778460600000016
 20
-38.20000479999999
 30
0.0
 11
7.778460600000016
 21
-37.00000479999995
 31
0.0
  0
LINE
  5
25E1
330
25AF
100
AcDbEntity
  8
エンボス
  6
Continuous
100
AcDbLine
 10
7.778460600000016
 20
-31.60000480000008
 30
0.0
 11
4.778460600000016
 21
-32.8000047999999
 31
0.0
  0
LINE
  5
25E2
330
25AF
100
AcDbEntity
  8
エンボス
  6
Continuous
100
AcDbLine
 10
4.778460600000016
 20
-28.60000480000008
 30
0.0
 11
7.778460600000016
 21
-29.8000047999999
 31
0.0
  0
LINE
  5
25E3
330
25AF
100
AcDbEntity
  8
エンボス
  6
Continuous
100
AcDbLine
 10
4.778460600000016
 20
-45.40000480000003
 30
0.0
 11
7.778460600000016
 21
-46.60000480000007
 31
0.0
  0
LINE
  5
25E4
330
25AF
100
AcDbEntity
  8
エンボス
  6
Continuous
100
AcDbLine
 10
7.778460600000016
 20
-48.40000480000004
 30
0.0
 11
4.778460600000016
 21
-49.60000480000008
 31
0.0
  0
LINE
  5
25E5
330
25AF
100
AcDbEntity
  8
エンボス
  6
Continuous
100
AcDbLine
 10
7.778460600000016
 20
-41.20000479999998
 30
0.0
 11
4.778460600000016
 21
-40.00000479999994
 31
0.0
  0
LINE
  5
25E6
330
25AF
100
AcDbEntity
  8
エンボス
  6
Continuous
100
AcDbLine
 10
4.778460600000016
 20
-4.600004800000078
 30
0.0
 11
7.778460600000016
 21
-3.400004800000033
 31
0.0
  0
LINE
  5
25E7
330
25AF
100
AcDbEntity
  8
エンボス
  6
Continuous
100
AcDbLine
 10
7.778460600000016
 20
-7.600004800000078
 30
0.0
 11
4.778460600000016
 21
-6.400004800000033
 31
0.0
  0
LINE
  5
25E8
330
25AF
100
AcDbEntity
  8
エンボス
  6
Continuous
100
AcDbLine
 10
4.778460600000016
 20
-11.80000479999989
 30
0.0
 11
7.778460600000016
 21
-13.00000479999994
 31
0.0
  0
LINE
  5
25E9
330
25AF
100
AcDbEntity
  8
エンボス
  6
Continuous
100
AcDbLine
 10
7.778460600000016
 20
58.79999520000001
 30
0.0
 11
4.778460600000016
 21
59.99999520000006
 31
0.0
  0
LINE
  5
25EA
330
25AF
100
AcDbEntity
  8
エンボス
  6
Continuous
100
AcDbLine
 10
4.778460600000016
 20
20.63306278416053
 30
0.0
 11
7.778460600000016
 21
19.43306278416048
 31
0.0
  0
LINE
  5
25EB
330
25AF
100
AcDbEntity
  8
エンボス
  6
Continuous
100
AcDbLine
 10
7.778460600000016
 20
17.63306278416053
 30
0.0
 11
4.778460600000016
 21
16.43306278416048
 31
0.0
  0
LINE
  5
25EC
330
25AF
100
AcDbEntity
  8
エンボス
  6
Continuous
100
AcDbLine
 10
7.778460600000016
 20
8.03306278416062
 30
0.0
 11
4.778460600000016
 21
9.233062784160665
 31
0.0
  0
LINE
  5
25ED
330
25AF
100
AcDbEntity
  8
エンボス
  6
Continuous
100
AcDbLine
 10
4.778460600000016
 20
11.03306278416062
 30
0.0
 11
7.778460600000016
 21
12.23306278416066
 31
0.0
  0
LINE
  5
25EE
330
25AF
100
AcDbEntity
  8
エンボス
  6
Continuous
100
AcDbLine
 10
4.778460600000016
 20
27.83306278416058
 30
0.0
 11
7.778460600000016
 21
29.03306278416062
 31
0.0
  0
LINE
  5
25EF
330
25AF
100
AcDbEntity
  8
エンボス
  6
Continuous
100
AcDbLine
 10
7.778460600000016
 20
34.43306278416049
 30
0.0
 11
4.778460600000016
 21
33.23306278416067
 31
0.0
  0
LINE
  5
25F0
330
25AF
100
AcDbEntity
  8
エンボス
  6
Continuous
100
AcDbLine
 10
4.778460600000016
 20
37.43306278416048
 30
0.0
 11
7.778460600000016
 21
36.23306278416067
 31
0.0
  0
LINE
  5
25F1
330
25AF
100
AcDbEntity
  8
エンボス
  6
Continuous
100
AcDbLine
 10
7.778460600000016
 20
24.83306278416057
 30
0.0
 11
4.778460600000016
 21
26.03306278416062
 31
0.0
  0
LINE
  5
25F2
330
25AF
100
AcDbEntity
  8
エンボス
  6
Continuous
100
AcDbLine
 10
4.778460600000016
 20
44.99999520000005
 30
0.0
 11
7.778460600000016
 21
46.1999952000001
 31
0.0
  0
LINE
  5
25F3
330
25AF
100
AcDbEntity
  8
エンボス
  6
Continuous
100
AcDbLine
 10
7.778460600000016
 20
41.99999520000005
 30
0.0
 11
4.778460600000016
 21
43.1999952000001
 31
0.0
  0
LINE
  5
25F4
330
25AF
100
AcDbEntity
  8
エンボス
  6
Continuous
100
AcDbLine
 10
7.778460600000016
 20
51.59999519999996
 30
0.0
 11
4.778460600000016
 21
50.39999519999992
 31
0.0
  0
LINE
  5
25F5
330
25AF
100
AcDbEntity
  8
エンボス
  6
Continuous
100
AcDbLine
 10
4.778460600000016
 20
54.59999519999996
 30
0.0
 11
7.778460600000016
 21
53.39999519999992
 31
0.0
  0
LINE
  5
25F6
330
25AF
100
AcDbEntity
  8
エンボス
  6
Continuous
100
AcDbLine
 10
4.778460600000016
 20
71.39999519999992
 30
0.0
 11
7.778460600000016
 21
70.1999952000001
 31
0.0
  0
LINE
  5
25F7
330
25AF
100
AcDbEntity
  8
エンボス
  6
Continuous
100
AcDbLine
 10
7.778460600000016
 20
68.39999519999992
 30
0.0
 11
4.778460600000016
 21
67.1999952000001
 31
0.0
  0
LINE
  5
25F8
330
25AF
100
AcDbEntity
  8
エンボス
  6
Continuous
100
AcDbLine
 10
4.778460600000016
 20
61.79999520000001
 30
0.0
 11
7.778460600000016
 21
62.99999520000006
 31
0.0
  0
LINE
  5
25F9
330
25AF
100
AcDbEntity
  8
エンボス
  6
Continuous
100
AcDbLine
 10
4.778460600000016
 20
78.59999519999997
 30
0.0
 11
7.778460600000016
 21
79.79999520000001
 31
0.0
  0
LINE
  5
25FA
330
25AF
100
AcDbEntity
  8
エンボス
  6
Continuous
100
AcDbLine
 10
7.778460600000016
 20
75.59999519999997
 30
0.0
 11
4.778460600000016
 21
76.79999520000001
 31
0.0
  0
LINE
  5
25FB
330
25AF
100
AcDbEntity
  8
エンボス
  6
Continuous
100
AcDbLine
 10
7.778460600000016
 20
85.19999520000011
 30
0.0
 11
4.778460600000016
 21
83.99999520000006
 31
0.0
  0
LINE
  5
25FC
330
25AF
100
AcDbEntity
  8
エンボス
  6
Continuous
100
AcDbLine
 10
4.778460600000016
 20
88.1999952000001
 30
0.0
 11
7.778460600000016
 21
86.99999520000005
 31
0.0
  0
LINE
  5
25FD
330
25AF
100
AcDbEntity
  8
エンボス
  6
Continuous
100
AcDbLine
 10
7.778460600000016
 20
92.39999519999992
 30
0.0
 11
4.778460600000016
 21
93.59999519999997
 31
0.0
  0
LINE
  5
25FE
330
25AF
100
AcDbEntity
  8
エンボス
  6
Continuous
100
AcDbLine
 10
4.778460600000016
 20
95.39999519999993
 30
0.0
 11
7.778460600000016
 21
96.59999519999997
 31
0.0
  0
LINE
  5
25FF
330
25AF
100
AcDbEntity
  8
エンボス
  6
Continuous
100
AcDbLine
 10
4.778460600000016
 20
133.265100971483
 30
0.0
 11
7.778460600000016
 21
134.465100971483
 31
0.0
  0
LINE
  5
2600
330
25AF
100
AcDbEntity
  8
エンボス
  6
Continuous
100
AcDbLine
 10
7.778460600000016
 20
130.265100971483
 30
0.0
 11
4.778460600000016
 21
131.465100971483
 31
0.0
  0
LINE
  5
2601
330
25AF
100
AcDbEntity
  8
エンボス
  6
Continuous
100
AcDbLine
 10
7.778460600000016
 20
113.0981685556435
 30
0.0
 11
4.778460600000016
 21
114.2981685556435
 31
0.0
  0
LINE
  5
2602
330
25AF
100
AcDbEntity
  8
エンボス
  6
Continuous
100
AcDbLine
 10
4.778460600000016
 20
125.6981685556434
 30
0.0
 11
7.778460600000016
 21
124.4981685556436
 31
0.0
  0
LINE
  5
2603
330
25AF
100
AcDbEntity
  8
エンボス
  6
Continuous
100
AcDbLine
 10
7.778460600000016
 20
122.6981685556434
 30
0.0
 11
4.778460600000016
 21
121.4981685556436
 31
0.0
  0
LINE
  5
2604
330
25AF
100
AcDbEntity
  8
エンボス
  6
Continuous
100
AcDbLine
 10
4.778460600000016
 20
116.0981685556435
 30
0.0
 11
7.778460600000016
 21
117.2981685556435
 31
0.0
  0
LINE
  5
2605
330
25AF
100
AcDbEntity
  8
エンボス
  6
Continuous
100
AcDbLine
 10
7.778460600000016
 20
105.8981685556434
 30
0.0
 11
4.778460600000016
 21
104.6981685556434
 31
0.0
  0
LINE
  5
2606
330
25AF
100
AcDbEntity
  8
エンボス
  6
Continuous
100
AcDbLine
 10
4.778460600000016
 20
108.8981685556434
 30
0.0
 11
7.778460600000016
 21
107.6981685556434
 31
0.0
  0
LINE
  5
2607
330
25AF
100
AcDbEntity
  8
エンボス
  6
Continuous
100
AcDbLine
 10
7.778460600000016
 20
163.8651009714829
 30
0.0
 11
4.778460600000016
 21
165.0651009714829
 31
0.0
  0
LINE
  5
2608
330
25AF
100
AcDbEntity
  8
エンボス
  6
Continuous
100
AcDbLine
 10
4.778460600000016
 20
166.8651009714829
 30
0.0
 11
7.778460600000016
 21
168.0651009714829
 31
0.0
  0
LINE
  5
2609
330
25AF
100
AcDbEntity
  8
エンボス
  6
Continuous
100
AcDbLine
 10
4.778460600000016
 20
150.0651009714829
 30
0.0
 11
7.778460600000016
 21
151.2651009714829
 31
0.0
  0
LINE
  5
260A
330
25AF
100
AcDbEntity
  8
エンボス
  6
Continuous
100
AcDbLine
 10
7.778460600000016
 20
156.6651009714828
 30
0.0
 11
4.778460600000016
 21
155.465100971483
 31
0.0
  0
LINE
  5
260B
330
25AF
100
AcDbEntity
  8
エンボス
  6
Continuous
100
AcDbLine
 10
4.778460600000016
 20
159.6651009714828
 30
0.0
 11
7.778460600000016
 21
158.465100971483
 31
0.0
  0
LINE
  5
260C
330
25AF
100
AcDbEntity
  8
エンボス
  6
Continuous
100
AcDbLine
 10
4.778460600000016
 20
142.8651009714829
 30
0.0
 11
7.778460600000016
 21
141.6651009714828
 31
0.0
  0
LINE
  5
260D
330
25AF
100
AcDbEntity
  8
エンボス
  6
Continuous
100
AcDbLine
 10
7.778460600000016
 20
139.8651009714829
 30
0.0
 11
4.778460600000016
 21
138.6651009714828
 31
0.0
  0
LINE
  5
260E
330
25AF
100
AcDbEntity
  8
エンボス
  6
Continuous
100
AcDbLine
 10
7.778460600000016
 20
147.0651009714829
 30
0.0
 11
4.778460600000016
 21
148.2651009714829
 31
0.0
  0
LINE
  5
260F
330
25AF
100
AcDbEntity
  8
エンボス
  6
Continuous
100
AcDbLine
 10
7.778460600000016
 20
173.465100971483
 30
0.0
 11
4.778460600000016
 21
172.2651009714829
 31
0.0
  0
ENDBLK
  5
25B1
330
25AF
100
AcDbEntity
  8
0
 48
3.0
100
AcDbBlockEnd
  0
BLOCK
  5
25B3
330
25B2
100
AcDbEntity
  8
0
 48
3.0
100
AcDbBlockBegin
  2
*U32
 70
     1
 10
0.0
 20
0.0
 30
0.0
  3
*U32
  1

  0
INSERT
  5
261A
330
25B2
100
AcDbEntity
  8
本体
  6
ByBlock
 62
     0
370
    -2
380
     1
100
AcDbBlockReference
  2
*U31
 10
0.0
 20
0.0
 30
0.0
  0
INSERT
  5
261B
330
25B2
100
AcDbEntity
  8
本体
  6
ByBlock
 62
     0
370
    -2
380
     1
100
AcDbBlockReference
  2
*U31
 10
12.5569
 20
0.0
 30
0.0
  0
INSERT
  5
261C
330
25B2
100
AcDbEntity
  8
本体
  6
ByBlock
 62
     0
370
    -2
380
     1
100
AcDbBlockReference
  2
*U31
 10
25.1138
 20
0.0
 30
0.0
  0
INSERT
  5
261D
330
25B2
100
AcDbEntity
  8
本体
  6
ByBlock
 62
     0
370
    -2
380
     1
100
AcDbBlockReference
  2
*U31
 10
37.6707
 20
0.0
 30
0.0
  0
INSERT
  5
261E
330
25B2
100
AcDbEntity
  8
本体
  6
ByBlock
 62
     0
370
    -2
380
     1
100
AcDbBlockReference
  2
*U31
 10
50.2276
 20
0.0
 30
0.0
  0
INSERT
  5
261F
330
25B2
100
AcDbEntity
  8
本体
  6
ByBlock
 62
     0
370
    -2
380
     1
100
AcDbBlockReference
  2
*U31
 10
62.7845
 20
0.0
 30
0.0
  0
INSERT
  5
2620
330
25B2
100
AcDbEntity
  8
本体
  6
ByBlock
 62
     0
370
    -2
380
     1
100
AcDbBlockReference
  2
*U31
 10
75.3414
 20
0.0
 30
0.0
  0
INSERT
  5
2621
330
25B2
100
AcDbEntity
  8
本体
  6
ByBlock
 62
     0
370
    -2
380
     1
100
AcDbBlockReference
  2
*U31
 10
87.8983
 20
0.0
 30
0.0
  0
INSERT
  5
2622
330
25B2
100
AcDbEntity
  8
本体
  6
ByBlock
 62
     0
370
    -2
380
     1
100
AcDbBlockReference
  2
*U31
 10
100.4552
 20
0.0
 30
0.0
  0
INSERT
  5
2623
330
25B2
100
AcDbEntity
  8
本体
  6
ByBlock
 62
     0
370
    -2
380
     1
100
AcDbBlockReference
  2
*U31
 10
113.0121
 20
0.0
 30
0.0
  0
INSERT
  5
2624
330
25B2
100
AcDbEntity
  8
本体
  6
ByBlock
 62
     0
370
    -2
380
     1
100
AcDbBlockReference
  2
*U31
 10
125.569
 20
0.0
 30
0.0
  0
INSERT
  5
2625
330
25B2
100
AcDbEntity
  8
本体
  6
ByBlock
 62
     0
370
    -2
380
     1
100
AcDbBlockReference
  2
*U31
 10
138.1259
 20
0.0
 30
0.0
  0
INSERT
  5
2626
330
25B2
100
AcDbEntity
  8
本体
  6
ByBlock
 62
     0
370
    -2
380
     1
100
AcDbBlockReference
  2
*U31
 10
150.6828
 20
0.0
 30
0.0
  0
INSERT
  5
2627
330
25B2
100
AcDbEntity
  8
本体
  6
ByBlock
 62
     0
370
    -2
380
     1
100
AcDbBlockReference
  2
*U31
 10
163.2397
 20
0.0
 30
0.0
  0
INSERT
  5
2628
330
25B2
100
AcDbEntity
  8
本体
  6
ByBlock
 62
     0
370
    -2
380
     1
100
AcDbBlockReference
  2
*U31
 10
175.7966
 20
0.0
 30
0.0
  0
INSERT
  5
2629
330
25B2
100
AcDbEntity
  8
本体
  6
ByBlock
 62
     0
370
    -2
380
     1
100
AcDbBlockReference
  2
*U31
 10
188.3535
 20
0.0
 30
0.0
  0
INSERT
  5
262A
330
25B2
100
AcDbEntity
  8
本体
  6
ByBlock
 62
     0
370
    -2
380
     1
100
AcDbBlockReference
  2
*U31
 10
200.9104
 20
0.0
 30
0.0
  0
INSERT
  5
262B
330
25B2
100
AcDbEntity
  8
本体
  6
ByBlock
 62
     0
370
    -2
380
     1
100
AcDbBlockReference
  2
*U31
 10
213.4673
 20
0.0
 30
0.0
  0
INSERT
  5
262C
330
25B2
100
AcDbEntity
  8
本体
  6
ByBlock
 62
     0
370
    -2
380
     1
100
AcDbBlockReference
  2
*U31
 10
226.0242
 20
0.0
 30
0.0
  0
INSERT
  5
262D
330
25B2
100
AcDbEntity
  8
本体
  6
ByBlock
 62
     0
370
    -2
380
     1
100
AcDbBlockReference
  2
*U31
 10
238.5811
 20
0.0
 30
0.0
  0
INSERT
  5
262E
330
25B2
100
AcDbEntity
  8
本体
  6
ByBlock
 62
     0
370
    -2
380
     1
100
AcDbBlockReference
  2
*U31
 10
251.138
 20
0.0
 30
0.0
  0
INSERT
  5
262F
330
25B2
100
AcDbEntity
  8
本体
  6
ByBlock
 62
     0
370
    -2
380
     1
100
AcDbBlockReference
  2
*U31
 10
263.6949
 20
0.0
 30
0.0
  0
INSERT
  5
2630
330
25B2
100
AcDbEntity
  8
本体
  6
ByBlock
 62
     0
370
    -2
380
     1
100
AcDbBlockReference
  2
*U31
 10
276.2518
 20
0.0
 30
0.0
  0
INSERT
  5
2631
330
25B2
100
AcDbEntity
  8
本体
  6
ByBlock
 62
     0
370
    -2
380
     1
100
AcDbBlockReference
  2
*U31
 10
288.8087
 20
0.0
 30
0.0
  0
INSERT
  5
2632
330
25B2
100
AcDbEntity
  8
本体
  6
ByBlock
 62
     0
370
    -2
380
     1
100
AcDbBlockReference
  2
*U31
 10
301.3656000000001
 20
0.0
 30
0.0
  0
INSERT
  5
2633
330
25B2
100
AcDbEntity
  8
本体
  6
ByBlock
 62
     0
370
    -2
380
     1
100
AcDbBlockReference
  2
*U31
 10
313.9225
 20
0.0
 30
0.0
  0
INSERT
  5
2634
330
25B2
100
AcDbEntity
  8
本体
  6
ByBlock
 62
     0
370
    -2
380
     1
100
AcDbBlockReference
  2
*U31
 10
326.4794
 20
0.0
 30
0.0
  0
INSERT
  5
2635
330
25B2
100
AcDbEntity
  8
本体
  6
ByBlock
 62
     0
370
    -2
380
     1
100
AcDbBlockReference
  2
*U31
 10
339.0363000000001
 20
0.0
 30
0.0
  0
INSERT
  5
2636
330
25B2
100
AcDbEntity
  8
本体
  6
ByBlock
 62
     0
370
    -2
380
     1
100
AcDbBlockReference
  2
*U31
 10
351.5932
 20
0.0
 30
0.0
  0
INSERT
  5
2637
330
25B2
100
AcDbEntity
  8
本体
  6
ByBlock
 62
     0
370
    -2
380
     1
100
AcDbBlockReference
  2
*U31
 10
364.1501
 20
0.0
 30
0.0
  0
INSERT
  5
2638
330
25B2
100
AcDbEntity
  8
本体
  6
ByBlock
 62
     0
370
    -2
380
     1
100
AcDbBlockReference
  2
*U31
 10
376.707
 20
0.0
 30
0.0
  0
INSERT
  5
2639
330
25B2
100
AcDbEntity
  8
本体
  6
ByBlock
 62
     0
370
    -2
380
     1
100
AcDbBlockReference
  2
*U31
 10
389.2639
 20
0.0
 30
0.0
  0
INSERT
  5
263A
330
25B2
100
AcDbEntity
  8
本体
  6
ByBlock
 62
     0
370
    -2
380
     1
100
AcDbBlockReference
  2
*U31
 10
401.8208
 20
0.0
 30
0.0
  0
INSERT
  5
263B
330
25B2
100
AcDbEntity
  8
本体
  6
ByBlock
 62
     0
370
    -2
380
     1
100
AcDbBlockReference
  2
*U31
 10
414.3777
 20
0.0
 30
0.0
  0
INSERT
  5
263C
330
25B2
100
AcDbEntity
  8
本体
  6
ByBlock
 62
     0
370
    -2
380
     1
100
AcDbBlockReference
  2
*U31
 10
426.9346
 20
0.0
 30
0.0
  0
INSERT
  5
263D
330
25B2
100
AcDbEntity
  8
本体
  6
ByBlock
 62
     0
370
    -2
380
     1
100
AcDbBlockReference
  2
*U31
 10
439.4915
 20
0.0
 30
0.0
  0
INSERT
  5
263E
330
25B2
100
AcDbEntity
  8
本体
  6
ByBlock
 62
     0
370
    -2
380
     1
100
AcDbBlockReference
  2
*U31
 10
452.0484
 20
0.0
 30
0.0
  0
INSERT
  5
263F
330
25B2
100
AcDbEntity
  8
本体
  6
ByBlock
 62
     0
370
    -2
380
     1
100
AcDbBlockReference
  2
*U31
 10
464.6053
 20
0.0
 30
0.0
  0
INSERT
  5
2640
330
25B2
100
AcDbEntity
  8
本体
  6
ByBlock
 62
     0
370
    -2
380
     1
100
AcDbBlockReference
  2
*U31
 10
477.1622
 20
0.0
 30
0.0
  0
INSERT
  5
2641
330
25B2
100
AcDbEntity
  8
本体
  6
ByBlock
 62
     0
370
    -2
380
     1
100
AcDbBlockReference
  2
*U31
 10
489.7191
 20
0.0
 30
0.0
  0
INSERT
  5
2642
330
25B2
100
AcDbEntity
  8
本体
  6
ByBlock
 62
     0
370
    -2
380
     1
100
AcDbBlockReference
  2
*U31
 10
502.2759999999999
 20
0.0
 30
0.0
  0
INSERT
  5
2643
330
25B2
100
AcDbEntity
  8
本体
  6
ByBlock
 62
     0
370
    -2
380
     1
100
AcDbBlockReference
  2
*U31
 10
514.8329
 20
0.0
 30
0.0
  0
INSERT
  5
2644
330
25B2
100
AcDbEntity
  8
本体
  6
ByBlock
 62
     0
370
    -2
380
     1
100
AcDbBlockReference
  2
*U31
 10
527.3898
 20
0.0
 30
0.0
  0
INSERT
  5
2645
330
25B2
100
AcDbEntity
  8
本体
  6
ByBlock
 62
     0
370
    -2
380
     1
100
AcDbBlockReference
  2
*U31
 10
539.9467
 20
0.0
 30
0.0
  0
INSERT
  5
2646
330
25B2
100
AcDbEntity
  8
本体
  6
ByBlock
 62
     0
370
    -2
380
     1
100
AcDbBlockReference
  2
*U31
 10
552.5036
 20
0.0
 30
0.0
  0
INSERT
  5
2647
330
25B2
100
AcDbEntity
  8
本体
  6
ByBlock
 62
     0
370
    -2
380
     1
100
AcDbBlockReference
  2
*U31
 10
565.0605
 20
0.0
 30
0.0
  0
INSERT
  5
2648
330
25B2
100
AcDbEntity
  8
本体
  6
ByBlock
 62
     0
370
    -2
380
     1
100
AcDbBlockReference
  2
*U31
 10
577.6174
 20
0.0
 30
0.0
  0
INSERT
  5
2649
330
25B2
100
AcDbEntity
  8
本体
  6
ByBlock
 62
     0
370
    -2
380
     1
100
AcDbBlockReference
  2
*U31
 10
590.1743
 20
0.0
 30
0.0
  0
INSERT
  5
264A
330
25B2
100
AcDbEntity
  8
本体
  6
ByBlock
 62
     0
370
    -2
380
     1
100
AcDbBlockReference
  2
*U31
 10
602.7312000000001
 20
0.0
 30
0.0
  0
INSERT
  5
264B
330
25B2
100
AcDbEntity
  8
本体
  6
ByBlock
 62
     0
370
    -2
380
     1
100
AcDbBlockReference
  2
*U31
 10
615.2880999999999
 20
0.0
 30
0.0
  0
INSERT
  5
264C
330
25B2
100
AcDbEntity
  8
本体
  6
ByBlock
 62
     0
370
    -2
380
     1
100
AcDbBlockReference
  2
*U31
 10
627.845
 20
0.0
 30
0.0
  0
INSERT
  5
264D
330
25B2
100
AcDbEntity
  8
本体
  6
ByBlock
 62
     0
370
    -2
380
     1
100
AcDbBlockReference
  2
*U31
 10
640.4019
 20
0.0
 30
0.0
  0
INSERT
  5
264E
330
25B2
100
AcDbEntity
  8
本体
  6
ByBlock
 62
     0
370
    -2
380
     1
100
AcDbBlockReference
  2
*U31
 10
652.9588
 20
0.0
 30
0.0
  0
INSERT
  5
264F
330
25B2
100
AcDbEntity
  8
本体
  6
ByBlock
 62
     0
370
    -2
380
     1
100
AcDbBlockReference
  2
*U31
 10
665.5157
 20
0.0
 30
0.0
  0
INSERT
  5
2650
330
25B2
100
AcDbEntity
  8
本体
  6
ByBlock
 62
     0
370
    -2
380
     1
100
AcDbBlockReference
  2
*U31
 10
678.0726000000001
 20
0.0
 30
0.0
  0
INSERT
  5
2651
330
25B2
100
AcDbEntity
  8
本体
  6
ByBlock
 62
     0
370
    -2
380
     1
100
AcDbBlockReference
  2
*U31
 10
690.6295
 20
0.0
 30
0.0
  0
INSERT
  5
2652
330
25B2
100
AcDbEntity
  8
本体
  6
ByBlock
 62
     0
370
    -2
380
     1
100
AcDbBlockReference
  2
*U31
 10
703.1864
 20
0.0
 30
0.0
  0
INSERT
  5
2653
330
25B2
100
AcDbEntity
  8
本体
  6
ByBlock
 62
     0
370
    -2
380
     1
100
AcDbBlockReference
  2
*U31
 10
715.7433000000001
 20
0.0
 30
0.0
  0
INSERT
  5
2654
330
25B2
100
AcDbEntity
  8
本体
  6
ByBlock
 62
     0
370
    -2
380
     1
100
AcDbBlockReference
  2
*U31
 10
728.3002
 20
0.0
 30
0.0
  0
INSERT
  5
2655
330
25B2
100
AcDbEntity
  8
本体
  6
ByBlock
 62
     0
370
    -2
380
     1
100
AcDbBlockReference
  2
*U31
 10
740.8571000000001
 20
0.0
 30
0.0
  0
INSERT
  5
2656
330
25B2
100
AcDbEntity
  8
本体
  6
ByBlock
 62
     0
370
    -2
380
     1
100
AcDbBlockReference
  2
*U31
 10
753.4139999999999
 20
0.0
 30
0.0
  0
INSERT
  5
2657
330
25B2
100
AcDbEntity
  8
本体
  6
ByBlock
 62
     0
370
    -2
380
     1
100
AcDbBlockReference
  2
*U31
 10
765.9709
 20
0.0
 30
0.0
  0
INSERT
  5
2658
330
25B2
100
AcDbEntity
  8
本体
  6
ByBlock
 62
     0
370
    -2
380
     1
100
AcDbBlockReference
  2
*U31
 10
778.5278
 20
0.0
 30
0.0
  0
INSERT
  5
2659
330
25B2
100
AcDbEntity
  8
本体
  6
ByBlock
 62
     0
370
    -2
380
     1
100
AcDbBlockReference
  2
*U31
 10
791.0847
 20
0.0
 30
0.0
  0
INSERT
  5
265A
330
25B2
100
AcDbEntity
  8
本体
  6
ByBlock
 62
     0
370
    -2
380
     1
100
AcDbBlockReference
  2
*U31
 10
803.6416
 20
0.0
 30
0.0
  0
INSERT
  5
265B
330
25B2
100
AcDbEntity
  8
本体
  6
ByBlock
 62
     0
370
    -2
380
     1
100
AcDbBlockReference
  2
*U31
 10
816.1985000000001
 20
0.0
 30
0.0
  0
INSERT
  5
265C
330
25B2
100
AcDbEntity
  8
本体
  6
ByBlock
 62
     0
370
    -2
380
     1
100
AcDbBlockReference
  2
*U31
 10
828.7554
 20
0.0
 30
0.0
  0
INSERT
  5
265D
330
25B2
100
AcDbEntity
  8
本体
  6
ByBlock
 62
     0
370
    -2
380
     1
100
AcDbBlockReference
  2
*U31
 10
841.3123
 20
0.0
 30
0.0
  0
INSERT
  5
265E
330
25B2
100
AcDbEntity
  8
本体
  6
ByBlock
 62
     0
370
    -2
380
     1
100
AcDbBlockReference
  2
*U31
 10
853.8692000000001
 20
0.0
 30
0.0
  0
INSERT
  5
265F
330
25B2
100
AcDbEntity
  8
本体
  6
ByBlock
 62
     0
370
    -2
380
     1
100
AcDbBlockReference
  2
*U31
 10
866.4260999999999
 20
0.0
 30
0.0
  0
INSERT
  5
2660
330
25B2
100
AcDbEntity
  8
本体
  6
ByBlock
 62
     0
370
    -2
380
     1
100
AcDbBlockReference
  2
*U31
 10
878.983
 20
0.0
 30
0.0
  0
INSERT
  5
2661
330
25B2
100
AcDbEntity
  8
本体
  6
ByBlock
 62
     0
370
    -2
380
     1
100
AcDbBlockReference
  2
*U31
 10
891.5399
 20
0.0
 30
0.0
  0
INSERT
  5
2662
330
25B2
100
AcDbEntity
  8
本体
  6
ByBlock
 62
     0
370
    -2
380
     1
100
AcDbBlockReference
  2
*U31
 10
904.0968000000001
 20
0.0
 30
0.0
  0
INSERT
  5
2663
330
25B2
100
AcDbEntity
  8
本体
  6
ByBlock
 62
     0
370
    -2
380
     1
100
AcDbBlockReference
  2
*U31
 10
916.6537000000001
 20
0.0
 30
0.0
  0
INSERT
  5
2664
330
25B2
100
AcDbEntity
  8
本体
  6
ByBlock
 62
     0
370
    -2
380
     1
100
AcDbBlockReference
  2
*U31
 10
929.2106
 20
0.0
 30
0.0
  0
INSERT
  5
2665
330
25B2
100
AcDbEntity
  8
本体
  6
ByBlock
 62
     0
370
    -2
380
     1
100
AcDbBlockReference
  2
*U31
 10
941.7675
 20
0.0
 30
0.0
  0
INSERT
  5
2666
330
25B2
100
AcDbEntity
  8
本体
  6
ByBlock
 62
     0
370
    -2
380
     1
100
AcDbBlockReference
  2
*U31
 10
954.3244000000001
 20
0.0
 30
0.0
  0
INSERT
  5
2667
330
25B2
100
AcDbEntity
  8
本体
  6
ByBlock
 62
     0
370
    -2
380
     1
100
AcDbBlockReference
  2
*U31
 10
966.8813
 20
0.0
 30
0.0
  0
ENDBLK
  5
25B4
330
25B2
100
AcDbEntity
  8
0
 48
3.0
100
AcDbBlockEnd
  0
ENDSEC
  0
SECTION
  2
ENTITIES
  0
LINE
  5
12
330
2
100
AcDbEntity
  8
外枠
 48
80.0
370
     9
100
AcDbLine
 10
0.0
 20
0.0
 30
0.0
 11
2789.511161023067
 21
0.0
 31
0.0
  0
LINE
  5
13
330
2
100
AcDbEntity
  8
外枠
 48
80.0
370
     9
100
AcDbLine
 10
2789.511161023071
 20
1973.26911249564
 30
0.0
 11
0.0
 21
1973.26911249564
 31
0.0
  0
LINE
  5
14
330
2
100
AcDbEntity
  8
外枠
 48
100.0
370
     9
100
AcDbLine
 10
10.0
 20
10.0
 30
0.0
 11
2780.119625023061
 21
10.0
 31
0.0
  0
LINE
  5
17
330
2
100
AcDbEntity
  8
外枠
  6
Continuous
 48
100.0
370
     9
100
AcDbLine
 10
9.999999999996362
 20
155.3992728208031
 30
0.0
 11
2780.119625023061
 21
155.3992728207995
 31
0.0
  0
LINE
  5
18
330
2
100
AcDbEntity
  8
外枠
  6
Continuous
 48
100.0
370
     9
100
AcDbLine
 10
9.999999999996362
 20
160.0950408208045
 30
0.0
 11
2780.119625023061
 21
160.0950408207973
 31
0.0
  0
LINE
  5
19
330
2
100
AcDbEntity
  8
外枠
 48
100.0
370
     9
100
AcDbLine
 10
10.0
 20
1963.877576495633
 30
0.0
 11
2780.119625023053
 21
1963.877576495637
 31
0.0
  0
LINE
  5
1A
330
2
100
AcDbEntity
  8
外枠
 48
80.0
370
     9
100
AcDbLine
 10
0.0
 20
0.0
 30
0.0
 11
0.0
 21
1973.26911249564
 31
0.0
  0
LINE
  5
1B
330
2
100
AcDbEntity
  8
外枠
 48
100.0
370
     9
100
AcDbLine
 10
10.0
 20
1963.877576495633
 30
0.0
 11
10.0
 21
10.0
 31
0.0
  0
LINE
  5
1C
330
2
100
AcDbEntity
  8
外枠
  6
Continuous
 48
100.0
370
     9
100
AcDbLine
 10
10.0
 20
82.69963641040158
 30
0.0
 11
1153.530108552004
 21
82.69963641039794
 31
0.0
  0
MTEXT
  5
1D
330
2
100
AcDbEntity
  8
外枠
  6
Continuous
 48
100.0
370
     9
100
AcDbMText
 10
555.6000408682721
 20
136.1535564242149
 30
0.0
 40
29.0
 41
664.6118999999999
 71
     1
 72
     5
  1
細目JIS道路側溝用グレーチング
 73
     1
 44
1.0
1001
ACAD
1000
MTEXTBEGIN
1070
    73
1070
     1
1070
    44
1040
1.0
1070
    74
1070
     0
1000
MTEXTEND
  0
MTEXT
  5
1E
330
2
100
AcDbEntity
  8
外枠
  6
Continuous
 48
100.0
370
     9
100
AcDbMText
 10
246.8574963386418
 20
64.81814764649607
 30
0.0
 40
35.0
 41
532.9183
 71
     1
 72
     5
  1
360\U+00D7995\U+00D732/87
 73
     1
 44
1.0
1001
ACAD
1000
MTEXTBEGIN
1070
    73
1070
     1
1070
    44
1040
1.0
1070
    74
1070
     0
1000
MTEXTEND
  0
MTEXT
  5
1F
330
2
100
AcDbEntity
  8
外枠
  6
Continuous
 48
100.0
370
     9
100
AcDbMText
 10
63.87242611591682
 20
137.3760680266387
 30
0.0
 40
30.0
 41
126.3036
 71
     1
 72
     5
  1
T-20
 73
     1
 44
1.0
1001
ACAD
1000
MTEXTBEGIN
1070
    73
1070
     1
1070
    44
1040
1.0
1070
    74
1070
     0
1000
MTEXTEND
  0
MTEXT
  5
20
330
2
100
AcDbEntity
  8
外枠
  6
Continuous
 48
100.0
370
     9
100
AcDbMText
 10
68.92783543177666
 20
59.95966632915224
 30
0.0
 40
35.0
 41
88.86979999999999
 71
     1
 72
     5
  1
EJH
 73
     1
 44
1.0
1001
ACAD
1000
MTEXTBEGIN
1070
    73
1070
     1
1070
    44
1040
1.0
1070
    74
1070
     0
1000
MTEXTEND
  0
LINE
  5
21
330
2
100
AcDbEntity
  8
外枠
 48
100.0
370
     9
100
AcDbLine
 10
45.0
 20
155.3992728208031
 30
0.0
 11
45.0
 21
10.0
 31
0.0
  0
MTEXT
  5
22
330
2
100
AcDbEntity
  8
外枠
  6
Continuous
 48
100.0
370
     9
100
AcDbMText
 10
15.05670849094895
 20
75.82038473524153
 30
0.0
 40
20.0
 41
23.52947333656417
 71
     1
 72
     5
  1
品\P番
 73
     1
 44
1.0
1001
ACAD
1000
MTEXTBEGIN
1070
    73
1070
     1
1070
    44
1040
1.0
1070
    74
1070
     0
1000
MTEXTEND
  0
MTEXT
  5
23
330
2
100
AcDbEntity
  8
外枠
  6
Continuous
 48
100.0
370
     9
100
AcDbMText
 10
14.92010060012399
 20
149.3317229429121
 30
0.0
 40
20.0
 41
30.07989939987533
 71
     1
 72
     5
  1
荷\P重
 73
     1
 44
1.0
1001
ACAD
1000
MTEXTBEGIN
1070
    73
1070
     1
1070
    44
1040
1.0
1070
    74
1070
     0
1000
MTEXTEND
  0
LINE
  5
24
330
2
100
AcDbEntity
  8
外枠
 48
100.0
370
     9
100
AcDbLine
 10
179.1040495562847
 20
155.3992728208031
 30
0.0
 11
179.1040495562847
 21
10.0
 31
0.0
  0
MTEXT
  5
25
330
2
100
AcDbEntity
  8
外枠
  6
Continuous
 48
100.0
370
     9
100
AcDbMText
 10
271.7517807368968
 20
133.8572910967996
 30
0.0
 40
30.0
 41
271.6208
 71
     1
 72
     5
  1
250用
 73
     1
 44
1.0
1001
ACAD
1000
MTEXTBEGIN
1070
    73
1070
     1
1070
    44
1040
1.0
1070
    74
1070
     0
1000
MTEXTEND
  0
MTEXT
  5
26
330
2
100
AcDbEntity
  8
外枠
  6
Continuous
 48
100.0
370
     9
100
AcDbMText
 10
184.4346535744698
 20
149.3074501239389
 30
0.0
 40
20.0
 41
29.6694
 71
     1
 72
     5
  1
溝幅
 73
     1
 44
1.0
1001
ACAD
1000
MTEXTBEGIN
1070
    73
1070
     1
1070
    44
1040
1.0
1070
    74
1070
     0
1000
MTEXTEND
  0
LINE
  5
27
330
2
100
AcDbEntity
  8
外枠
 48
100.0
370
     9
100
AcDbLine
 10
214.1040495562847
 20
155.3992728208031
 30
0.0
 11
214.1040495562847
 21
82.69963641040158
 31
0.0
  0
MTEXT
  5
28
330
2
100
AcDbEntity
  8
外枠
  6
Continuous
 48
100.0
370
     9
100
AcDbMText
 10
477.8955451146976
 20
149.3074501239389
 30
0.0
 40
20.0
 41
29.6694
 71
     1
 72
     5
  1
品名
 73
     1
 44
1.0
1001
ACAD
1000
MTEXTBEGIN
1070
    73
1070
     1
1070
    44
1040
1.0
1070
    74
1070
     0
1000
MTEXTEND
  0
LINE
  5
29
330
2
100
AcDbEntity
  8
外枠
 48
100.0
370
     9
100
AcDbLine
 10
472.5649410965124
 20
155.3992728208031
 30
0.0
 11
472.5649410965124
 21
82.69963641040158
 31
0.0
  0
LINE
  5
2A
330
2
100
AcDbEntity
  8
外枠
 48
100.0
370
     9
100
AcDbLine
 10
507.5649410965125
 20
155.3992728208031
 30
0.0
 11
507.5649410965125
 21
82.69963641040158
 31
0.0
  0
MTEXT
  5
2B
330
2
100
AcDbEntity
  8
外枠
  6
Continuous
 48
100.0
370
     9
100
AcDbMText
 10
728.477887653953
 20
76.92551173516403
 30
0.0
 40
20.0
 41
664.6118999999999
 71
     1
 72
     5
  1
摘\P要
 73
     1
 44
1.0
1001
ACAD
1000
MTEXTBEGIN
1070
    73
1070
     1
1070
    44
1040
1.0
1070
    74
1070
     0
1000
MTEXTEND
  0
LINE
  5
2C
330
2
100
AcDbEntity
  8
外枠
 48
100.0
370
     9
100
AcDbLine
 10
723.8282373115871
 20
82.6996364103943
 30
0.0
 11
723.8282373115871
 21
9.999999999992724
 31
0.0
  0
LINE
  5
2F
330
2
100
AcDbEntity
  8
外枠
 48
100.0
370
     9
100
AcDbLine
 10
758.8282373115871
 20
82.6996364103943
 30
0.0
 11
758.8282373115871
 21
9.999999999992724
 31
0.0
  0
LINE
  5
31
330
2
100
AcDbEntity
  8
外枠
 48
100.0
370
     9
100
AcDbLine
 10
974.9513069700951
 20
82.6996364103943
 30
0.0
 11
974.9513069700951
 21
9.999999999992724
 31
0.0
  0
MTEXT
  5
32
330
2
100
AcDbEntity
  8
外枠
  6
Continuous
 48
100.0
370
     9
100
AcDbMText
 10
979.7329598959768
 20
74.84825461820583
 30
0.0
 40
20.0
 41
31.38947761565365
 71
     1
 72
     5
  1
材\P質
 73
     1
 44
1.0
1001
ACAD
1000
MTEXTBEGIN
1070
    73
1070
     1
1070
    44
1040
1.0
1070
    74
1070
     0
1000
MTEXTEND
  0
LINE
  5
33
330
2
100
AcDbEntity
  8
外枠
 48
100.0
370
     9
100
AcDbLine
 10
1009.951306970095
 20
82.6996364103943
 30
0.0
 11
1009.951306970095
 21
9.999999999992724
 31
0.0
  0
LINE
  5
37
330
2
100
AcDbEntity
  8
外枠
 48
80.0
370
     9
100
AcDbLine
 10
2789.511161023067
 20
0.0
 30
0.0
 11
2789.511161023071
 21
1973.26911249564
 31
0.0
  0
LINE
  5
38
330
2
100
AcDbEntity
  8
外枠
 48
100.0
370
     9
100
AcDbLine
 10
2780.119625023053
 20
1963.877576495637
 30
0.0
 11
2780.119625023061
 21
10.0
 31
0.0
  0
LINE
  5
3A
330
2
100
AcDbEntity
  8
外枠
 48
3.0
100
AcDbLine
 10
1607.072254912545
 20
61.67068719952067
 30
0.0
 11
2262.173600934632
 21
61.67068719952067
 31
0.0
  0
MTEXT
  5
3B
330
2
100
AcDbEntity
  8
外枠
  6
Continuous
 48
100.0
370
     9
100
AcDbMText
 10
1683.622173868318
 20
50.71504764095289
 30
0.0
 40
30.00024
 41
539.4827578564582
 71
     1
 72
     5
  1
T A K A R A   G R A T I N G
 73
     1
 44
1.0
1001
ACAD
1000
MTEXTBEGIN
1070
    73
1070
     1
1070
    44
1040
1.0
1070
    74
1070
     0
1000
MTEXTEND
  0
MTEXT
  5
3C
330
2
100
AcDbEntity
  8
外枠
  6
Continuous
 48
100.0
370
     9
100
AcDbMText
 10
1728.02061463669
 20
127.1672938476838
 30
0.0
 40
30.0
 41
282.8297
 71
     1
 72
     5
  1
株 式 会 社
 73
     1
 44
1.0
1001
ACAD
1000
MTEXTBEGIN
1070
    73
1070
     1
1070
    44
1040
1.0
1070
    74
1070
     0
1000
MTEXTEND
  0
LINE
  5
3D
330
2
100
AcDbEntity
  8
外枠
  6
Continuous
 48
100.0
370
     9
100
AcDbLine
 10
1508.680137877982
 20
155.3992728208068
 30
0.0
 11
1508.680137877982
 21
10.00000000000364
 31
0.0
  0
LINE
  5
3E
330
2
100
AcDbEntity
  8
外枠
  6
Continuous
 48
100.0
370
     9
100
AcDbLine
 10
1593.95141853916
 20
155.3992728207995
 30
0.0
 11
1593.95141853916
 21
9.999999999996362
 31
0.0
  0
LINE
  5
3F
330
2
100
AcDbEntity
  8
外枠
  6
Continuous
 48
100.0
370
     9
100
AcDbLine
 10
1616.777813337499
 20
106.634063069062
 30
0.0
 11
1612.463999974505
 21
110.08511375945
 31
0.0
  0
LINE
  5
40
330
2
100
AcDbEntity
  8
外枠
  6
Continuous
 48
100.0
370
     9
100
AcDbLine
 10
1616.777813337499
 20
106.634063069062
 30
0.0
 11
1612.463999974505
 21
103.183012378663
 31
0.0
  0
LINE
  5
41
330
2
100
AcDbEntity
  8
外枠
  6
Continuous
 48
100.0
370
     9
100
AcDbLine
 10
1616.777813337505
 20
113.5361644498489
 30
0.0
 11
1612.463999974505
 21
110.08511375945
 31
0.0
  0
LINE
  5
42
330
2
100
AcDbEntity
  8
外枠
  6
Continuous
 48
100.0
370
     9
100
AcDbLine
 10
1616.777813337499
 20
99.73196168827508
 30
0.0
 11
1612.463999974505
 21
103.183012378663
 31
0.0
  0
MTEXT
  5
43
330
2
100
AcDbEntity
  8
外枠
  6
Continuous
 48
100.0
370
     9
100
AcDbMText
 10
1520.476936402745
 20
137.4995509975779
 30
0.0
 40
20.0
 41
1015.1375
 71
     1
 72
     5
  1
31.5
 73
     1
 44
1.0
1001
ACAD
1000
MTEXTBEGIN
1070
    73
1070
     1
1070
    44
1040
1.0
1070
    74
1070
     0
1000
MTEXTEND
  0
MTEXT
  5
44
330
2
100
AcDbEntity
  8
外枠
  6
Continuous
 48
100.0
370
     9
100
AcDbMText
 10
1568.464698185987
 20
108.4136993179927
 30
0.0
 40
18.0
 41
25.456
 71
     1
 72
     5
  1
kg
 73
     1
 44
1.0
1001
ACAD
1000
MTEXTBEGIN
1070
    73
1070
     1
1070
    44
1040
1.0
1070
    74
1070
     0
1000
MTEXTEND
  0
LINE
  5
45
330
2
100
AcDbEntity
  8
外枠
  6
Continuous
 48
100.0
370
     9
100
AcDbLine
 10
1649.122643507042
 20
139.4120285854742
 30
0.0
 11
1653.436456870031
 21
135.9609778950862
 31
0.0
  0
LINE
  5
46
330
2
100
AcDbEntity
  8
外枠
  6
Continuous
 48
100.0
370
     9
100
AcDbLine
 10
1666.377896959009
 20
139.4120285854742
 30
0.0
 11
1662.06408359602
 21
135.9609778950862
 31
0.0
  0
MTEXT
  5
47
330
2
100
AcDbEntity
  8
外枠
  6
Continuous
 48
100.0
370
     9
100
AcDbMText
 10
1642.840555134189
 20
120.8184913847756
 30
0.0
 40
23.95393639053264
 41
23.85059431815661
 71
     1
 72
     5
  1
{\fＭＳ ゴシック|b0|i0|c128|p49;宝}
 73
     1
 44
1.0
1001
ACAD
1000
MTEXTBEGIN
1070
    73
1070
     1
1070
    44
1040
1.0
1070
    74
1070
     0
1000
MTEXTEND
  0
LINE
  5
48
330
2
100
AcDbEntity
  8
外枠
  6
Continuous
 48
100.0
370
     9
100
AcDbLine
 10
1662.06408359602
 20
135.9609778950862
 30
0.0
 11
1694.408913765557
 21
110.08511375945
 31
0.0
  0
LINE
  5
49
330
2
100
AcDbEntity
  8
外枠
  6
Continuous
 48
100.0
370
     9
100
AcDbLine
 10
1657.750270233026
 20
132.5099272046927
 30
0.0
 11
1690.095100402563
 21
106.634063069062
 31
0.0
  0
LINE
  5
4A
330
2
100
AcDbEntity
  8
外枠
  6
Continuous
 48
100.0
370
     9
100
AcDbLine
 10
1690.095100402563
 20
106.634063069062
 30
0.0
 11
1657.750270233026
 21
80.75819893343123
 31
0.0
  0
LINE
  5
4B
330
2
100
AcDbEntity
  8
外枠
  6
Continuous
 48
100.0
370
     9
100
AcDbLine
 10
1694.408913765557
 20
103.183012378663
 30
0.0
 11
1662.06408359602
 21
77.30714824303777
 31
0.0
  0
LINE
  5
4C
330
2
100
AcDbEntity
  8
外枠
  6
Continuous
 48
100.0
370
     9
100
AcDbLine
 10
1657.750270233026
 20
80.75819893342577
 30
0.0
 11
1625.405440063488
 21
106.634063069062
 31
0.0
  0
LINE
  5
4D
330
2
100
AcDbEntity
  8
外枠
  6
Continuous
 48
100.0
370
     9
100
AcDbLine
 10
1653.436456870031
 20
77.30714824303777
 30
0.0
 11
1621.0916267005
 21
103.183012378663
 31
0.0
  0
LINE
  5
4E
330
2
100
AcDbEntity
  8
外枠
  6
Continuous
 48
100.0
370
     9
100
AcDbLine
 10
1621.0916267005
 20
103.183012378663
 30
0.0
 11
1616.777813337505
 21
99.73196168827508
 31
0.0
  0
LINE
  5
4F
330
2
100
AcDbEntity
  8
外枠
  6
Continuous
 48
100.0
370
     9
100
AcDbLine
 10
1653.436456870031
 20
77.30714824303777
 30
0.0
 11
1649.122643507042
 21
73.85609755263885
 31
0.0
  0
LINE
  5
50
330
2
100
AcDbEntity
  8
外枠
  6
Continuous
 48
100.0
370
     9
100
AcDbLine
 10
1653.436456870031
 20
70.4050468622454
 30
0.0
 11
1649.122643507042
 21
73.85609755263885
 31
0.0
  0
LINE
  5
51
330
2
100
AcDbEntity
  8
外枠
  6
Continuous
 48
100.0
370
     9
100
AcDbLine
 10
1657.750270233026
 20
73.85609755263885
 30
0.0
 11
1653.436456870031
 21
70.4050468622454
 31
0.0
  0
LINE
  5
52
330
2
100
AcDbEntity
  8
外枠
  6
Continuous
 48
100.0
370
     9
100
AcDbLine
 10
1666.377896959009
 20
73.85609755263885
 30
0.0
 11
1662.06408359602
 21
70.4050468622454
 31
0.0
  0
LINE
  5
53
330
2
100
AcDbEntity
  8
外枠
  6
Continuous
 48
100.0
370
     9
100
AcDbLine
 10
1662.06408359602
 20
70.4050468622454
 30
0.0
 11
1657.750270233026
 21
73.85609755263885
 31
0.0
  0
LINE
  5
54
330
2
100
AcDbEntity
  8
外枠
  6
Continuous
 48
100.0
370
     9
100
AcDbLine
 10
1666.377896959009
 20
73.85609755263885
 30
0.0
 11
1662.06408359602
 21
77.30714824303777
 31
0.0
  0
LINE
  5
55
330
2
100
AcDbEntity
  8
外枠
  6
Continuous
 48
100.0
370
     9
100
AcDbLine
 10
1657.750270233026
 20
132.5099272046927
 30
0.0
 11
1625.405440063483
 21
106.634063069062
 31
0.0
  0
LINE
  5
56
330
2
100
AcDbEntity
  8
外枠
  6
Continuous
 48
100.0
370
     9
100
AcDbLine
 10
1653.436456870031
 20
135.9609778950862
 30
0.0
 11
1621.0916267005
 21
110.08511375945
 31
0.0
  0
LINE
  5
57
330
2
100
AcDbEntity
  8
外枠
  6
Continuous
 48
100.0
370
     9
100
AcDbLine
 10
1621.0916267005
 20
110.08511375945
 30
0.0
 11
1616.777813337505
 21
113.5361644498489
 31
0.0
  0
LINE
  5
58
330
2
100
AcDbEntity
  8
外枠
  6
Continuous
 48
100.0
370
     9
100
AcDbLine
 10
1694.408913765557
 20
103.183012378663
 30
0.0
 11
1698.722727128541
 21
99.73196168827508
 31
0.0
  0
LINE
  5
59
330
2
100
AcDbEntity
  8
外枠
  6
Continuous
 48
100.0
370
     9
100
AcDbLine
 10
1703.036540491541
 20
103.183012378663
 30
0.0
 11
1698.722727128541
 21
99.73196168827508
 31
0.0
  0
LINE
  5
5A
330
2
100
AcDbEntity
  8
外枠
  6
Continuous
 48
100.0
370
     9
100
AcDbLine
 10
1698.722727128541
 20
113.5361644498489
 30
0.0
 11
1694.408913765557
 21
110.08511375945
 31
0.0
  0
LINE
  5
5B
330
2
100
AcDbEntity
  8
外枠
  6
Continuous
 48
100.0
370
     9
100
AcDbLine
 10
1698.722727128541
 20
106.634063069062
 30
0.0
 11
1703.036540491541
 21
103.183012378663
 31
0.0
  0
LINE
  5
5C
330
2
100
AcDbEntity
  8
外枠
  6
Continuous
 48
100.0
370
     9
100
AcDbLine
 10
1698.722727128541
 20
113.5361644498489
 30
0.0
 11
1703.036540491541
 21
110.08511375945
 31
0.0
  0
LINE
  5
5D
330
2
100
AcDbEntity
  8
外枠
  6
Continuous
 48
100.0
370
     9
100
AcDbLine
 10
1703.036540491541
 20
110.08511375945
 30
0.0
 11
1698.722727128541
 21
106.634063069062
 31
0.0
  0
LINE
  5
5E
330
2
100
AcDbEntity
  8
外枠
  6
Continuous
 48
100.0
370
     9
100
AcDbLine
 10
1653.436456870031
 20
142.8630792758676
 30
0.0
 11
1649.122643507042
 21
139.4120285854742
 31
0.0
  0
LINE
  5
5F
330
2
100
AcDbEntity
  8
外枠
  6
Continuous
 48
100.0
370
     9
100
AcDbLine
 10
1662.06408359602
 20
142.8630792758676
 30
0.0
 11
1666.377896959009
 21
139.4120285854742
 31
0.0
  0
LINE
  5
60
330
2
100
AcDbEntity
  8
外枠
  6
Continuous
 48
100.0
370
     9
100
AcDbLine
 10
1653.436456870031
 20
142.8630792758676
 30
0.0
 11
1657.750270233026
 21
139.4120285854742
 31
0.0
  0
LINE
  5
61
330
2
100
AcDbEntity
  8
外枠
  6
Continuous
 48
100.0
370
     9
100
AcDbLine
 10
1662.06408359602
 20
142.8630792758676
 30
0.0
 11
1657.750270233026
 21
139.4120285854742
 31
0.0
  0
MTEXT
  5
62
330
2
100
AcDbEntity
  8
外枠
  6
Continuous
 48
100.0
370
     9
100
AcDbMText
 10
1982.246612759803
 20
141.5312822365363
 30
0.0
 40
50.0
 41
269.1378
 71
     1
 72
     5
  1
宝 機 材
 73
     1
 44
1.0
1001
ACAD
1000
MTEXTBEGIN
1070
    73
1070
     1
1070
    44
1040
1.0
1070
    74
1070
     0
1000
MTEXTEND
  0
LINE
  5
63
330
2
100
AcDbEntity
  8
外枠
  6
Continuous
 48
100.0
370
     9
100
AcDbLine
 10
2694.775480668144
 20
78.59726492113622
 30
0.0
 11
2729.639779322774
 21
43.73296626650699
 31
0.0
  0
LINE
  5
64
330
2
100
AcDbEntity
  8
外枠
  6
Continuous
 48
100.0
370
     9
100
AcDbLine
 10
2729.639779322774
 20
113.4615635757691
 30
0.0
 11
2694.775480668144
 21
78.59726492113622
 31
0.0
  0
LINE
  5
66
330
2
100
AcDbEntity
  8
外枠
  6
Continuous
 48
100.0
370
     9
100
AcDbLine
 10
2271.730765417811
 20
155.3992728207995
 30
0.0
 11
2271.730765417811
 21
10.0
 31
0.0
  0
LINE
  5
67
330
2
100
AcDbEntity
  8
外枠
  6
Continuous
 48
100.0
370
     9
100
AcDbLine
 10
2387.385592047314
 20
155.3992728207995
 30
0.0
 11
2387.385592047314
 21
9.999999999996362
 31
0.0
  0
MTEXT
  5
68
330
2
100
AcDbEntity
  8
外枠
  6
Continuous
 48
100.0
370
     9
100
AcDbMText
 10
2518.897970034654
 20
80.52451510381798
 30
0.0
 40
16.435188
 41
274.138099993296
 71
     1
 72
     5
  1
縮尺（A4用紙)
 73
     1
 44
1.0
1001
ACAD
1000
MTEXTBEGIN
1070
    73
1070
     1
1070
    44
1040
1.0
1070
    74
1070
     0
1000
MTEXTEND
  0
LINE
  5
69
330
2
100
AcDbEntity
  8
外枠
  6
Continuous
 48
100.0
370
     9
100
AcDbLine
 10
2503.04041867681
 20
155.3992728207995
 30
0.0
 11
2503.04041867681
 21
9.999999999996362
 31
0.0
  0
LINE
  5
6A
330
2
100
AcDbEntity
  8
外枠
  6
Continuous
 48
100.0
370
     9
100
AcDbLine
 10
2676.662359028593
 20
155.3992728207995
 30
0.0
 11
2676.662359028593
 21
10.0
 31
0.0
  0
MTEXT
  5
6B
330
2
100
AcDbEntity
  8
外枠
  6
Continuous
 48
100.0
370
     9
100
AcDbMText
 10
2557.587330290393
 20
42.24161905183791
 30
0.0
 40
23.47884
 41
274.138099993296
 71
     1
 72
     5
  1
1：10
 73
     1
 44
1.0
1001
ACAD
1000
MTEXTBEGIN
1070
    73
1070
     1
1070
    44
1040
1.0
1070
    74
1070
     0
1000
MTEXTEND
  0
MTEXT
  5
6C
330
2
100
AcDbEntity
  8
外枠
  6
Continuous
 48
100.0
370
     9
100
AcDbMText
 10
2280.290404386422
 20
149.5129012429788
 30
0.0
 40
18.783072
 41
274.13809060176
 71
     1
 72
     5
  1
Check
 73
     1
 44
1.0
1001
ACAD
1000
MTEXTBEGIN
1070
    73
1070
     1
1070
    44
1040
1.0
1070
    74
1070
     0
1000
MTEXTEND
  0
MTEXT
  5
6D
330
2
100
AcDbEntity
  8
外枠
  6
Continuous
 48
100.0
370
     9
100
AcDbMText
 10
2398.03460165154
 20
149.5129012429788
 30
0.0
 40
18.783072
 41
274.13809060176
 71
     1
 72
     5
  1
Draw
 73
     1
 44
1.0
1001
ACAD
1000
MTEXTBEGIN
1070
    73
1070
     1
1070
    44
1040
1.0
1070
    74
1070
     0
1000
MTEXTEND
  0
LINE
  5
6F
330
2
100
AcDbEntity
  8
外枠
  6
Continuous
 48
100.0
370
     9
100
AcDbLine
 10
2676.662359028593
 20
85.04752041039683
 30
0.0
 11
2503.04041867681
 21
85.04752041039683
 31
0.0
  0
MTEXT
  5
70
330
2
100
AcDbEntity
  8
外枠
  6
Continuous
 48
100.0
370
     9
100
AcDbMText
 10
2518.897970034654
 20
153.7304166203976
 30
0.0
 40
16.435188
 41
274.138099993296
 71
     1
 72
     5
  1
図面作成日
 73
     1
 44
1.0
1001
ACAD
1000
MTEXTBEGIN
1070
    73
1070
     1
1070
    44
1040
1.0
1070
    74
1070
     0
1000
MTEXTEND
  0
LINE
  5
72
330
2
100
AcDbEntity
  8
外枠
  6
Continuous
 48
100.0
370
     9
100
AcDbLine
 10
2729.639779322774
 20
43.73296626650699
 30
0.0
 11
2764.504077977396
 21
78.59726492113622
 31
0.0
  0
LINE
  5
73
330
2
100
AcDbEntity
  8
外枠
  6
Continuous
 48
100.0
370
     9
100
AcDbLine
 10
2764.504077977396
 20
78.59726492113622
 30
0.0
 11
2729.639779322774
 21
113.4615635757691
 31
0.0
  0
LINE
  5
7F
330
2
100
AcDbEntity
  8
本体
  6
Continuous
100
AcDbLine
 10
451.2527897266563
 20
1657.734273794808
 30
0.0
 11
1446.252789726656
 21
1657.734273794808
 31
0.0
  0
LINE
  5
81
330
2
100
AcDbEntity
  8
本体
  6
Continuous
100
AcDbLine
 10
451.2527897266563
 20
1653.234273794808
 30
0.0
 11
1446.252789726656
 21
1653.234273794808
 31
0.0
  0
LINE
  5
82
330
2
100
AcDbEntity
  8
本体
  6
Continuous
100
AcDbLine
 10
451.2527897266563
 20
1580.234273794808
 30
0.0
 11
1446.252789726656
 21
1580.234273794808
 31
0.0
  0
LINE
  5
83
330
2
100
AcDbEntity
  8
本体
  6
Continuous
100
AcDbLine
 10
451.2527897266563
 20
1575.234273794808
 30
0.0
 11
1446.252789726656
 21
1575.234273794808
 31
0.0
  0
LINE
  5
84
330
2
100
AcDbEntity
  8
本体
  6
Continuous
100
AcDbLine
 10
451.2527897266563
 20
1480.234273794808
 30
0.0
 11
1446.252789726656
 21
1480.234273794808
 31
0.0
  0
LINE
  5
85
330
2
100
AcDbEntity
  8
本体
  6
Continuous
100
AcDbLine
 10
451.2527897266563
 20
1475.234273794808
 30
0.0
 11
1446.252789726656
 21
1475.234273794808
 31
0.0
  0
LINE
  5
8E
330
2
100
AcDbEntity
  8
本体
  6
Continuous
100
AcDbLine
 10
1926.56326022699
 20
1657.734273794808
 30
0.0
 11
1926.56326022699
 21
1653.234273794808
 31
0.0
  0
LINE
  5
8F
330
2
100
AcDbEntity
  8
本体
  6
Continuous
100
AcDbLine
 10
1926.56326022699
 20
1653.234273794808
 30
0.0
 11
1958.56326022699
 21
1653.234273794808
 31
0.0
  0
LINE
  5
90
330
2
100
AcDbEntity
  8
本体
  6
Continuous
100
AcDbLine
 10
1951.56326022699
 20
1653.234273794808
 30
0.0
 11
1951.56326022699
 21
1657.734273794808
 31
0.0
  0
LINE
  5
91
330
2
100
AcDbEntity
  8
本体
  6
Continuous
100
AcDbLine
 10
1951.56326022699
 20
1657.734273794808
 30
0.0
 11
1926.56326022699
 21
1657.734273794808
 31
0.0
  0
LINE
  5
92
330
2
100
AcDbEntity
  8
本体
  6
Continuous
100
AcDbLine
 10
1926.56326022699
 20
1302.234273794808
 30
0.0
 11
1958.56326022699
 21
1302.234273794808
 31
0.0
  0
LINE
  5
93
330
2
100
AcDbEntity
  8
本体
  6
Continuous
100
AcDbLine
 10
1951.56326022699
 20
1297.734273794808
 30
0.0
 11
1926.56326022699
 21
1297.734273794808
 31
0.0
  0
LINE
  5
94
330
2
100
AcDbEntity
  8
本体
  6
Continuous
100
AcDbLine
 10
1926.56326022699
 20
1297.734273794808
 30
0.0
 11
1926.56326022699
 21
1302.234273794808
 31
0.0
  0
LINE
  5
95
330
2
100
AcDbEntity
  8
本体
  6
Continuous
100
AcDbLine
 10
1951.56326022699
 20
1302.234273794808
 30
0.0
 11
1951.56326022699
 21
1297.734273794808
 31
0.0
  0
LINE
  5
96
330
2
100
AcDbEntity
  8
本体
  6
Continuous
100
AcDbLine
 10
1926.56326022699
 20
1653.234273794808
 30
0.0
 11
1926.56326022699
 21
1302.234273794808
 31
0.0
  0
LINE
  5
97
330
2
100
AcDbEntity
  8
本体
  6
Continuous
100
AcDbLine
 10
1958.56326022699
 20
1653.234273794808
 30
0.0
 11
1958.56326022699
 21
1302.234273794808
 31
0.0
  0
DIMENSION
  5
A3
330
2
100
AcDbEntity
  8
寸法線
  6
Continuous
100
AcDbDimension
  2
*D4
 10
1846.56326022699
 20
1477.734273794808
 30
0.0
 11
1826.563260226989
 21
1527.734273794808
 31
0.0
 70
    32
 71
     5
 42
100.0
  3
ISO-25
100
AcDbAlignedDimension
 13
1926.56326022699
 23
1577.734273794808
 33
0.0
 14
1926.56326022699
 24
1477.734273794808
 34
0.0
 50
90.0
100
AcDbRotatedDimension
  0
DIMENSION
  5
B1
330
2
100
AcDbEntity
  8
寸法線
  6
Continuous
100
AcDbDimension
  2
*D5
 10
1766.56326022699
 20
1297.734273794808
 30
0.0
 11
1746.563260226989
 21
1477.734273794808
 31
0.0
 70
    32
 71
     5
 42
360.0
  3
ISO-25
100
AcDbAlignedDimension
 13
1926.56326022699
 23
1657.734273794808
 33
0.0
 14
1926.56326022699
 24
1297.734273794808
 34
0.0
 50
90.0
100
AcDbRotatedDimension
  0
DIMENSION
  5
BE
330
2
100
AcDbEntity
  8
寸法線
  6
Continuous
100
AcDbDimension
  2
*D6
 10
2093.564178734866
 20
1307.734272794808
 30
0.0
 11
2073.564178734866
 21
1477.734273794808
 31
0.0
 70
    32
 71
     5
 42
340.000002
  3
ISO-25
100
AcDbAlignedDimension
 13
2005.56325722699
 23
1647.734274794808
 33
0.0
 14
2005.56325722699
 24
1307.734272794808
 34
0.0
 50
90.0
100
AcDbRotatedDimension
  0
LEADER
  5
CB
330
2
100
AcDbEntity
  8
寸法線
  6
Continuous
100
AcDbLeader
  3
ISO-25
 73
     0
 74
     0
 75
     1
 40
30.0
 41
171.1675126903553
 76
     3
 10
1444.801749846529
 20
1657.734273794808
 30
0.0
 10
1500.512427965184
 20
1728.444951913463
 30
0.0
 10
1515.512427965184
 20
1728.444951913463
 30
0.0
340
CC
1001
ACAD
1000
DSTYLE
1002
{
1070
     5
1000
OPEN30
1070
    77
1070
     1
1070
   147
1040
0.5
1070
   342
1005
99
1002
}
  0
MTEXT
  5
CC
102
{ACAD_REACTORS
330
CB
102
}
330
2
100
AcDbEntity
  8
寸法線
  6
Continuous
100
AcDbMText
 10
1520.512427965184
 20
1733.444951913463
 30
0.0
 40
30.0
 41
0.0
 71
     7
 72
     1
  1
FB4.5\U+00D725
 73
     1
 44
1.0
1001
ACAD
1000
MTEXTBEGIN
1070
    73
1070
     1
1070
    44
1040
1.0
1070
    74
1070
     0
1000
MTEXTEND
  0
LEADER
  5
CD
330
2
100
AcDbEntity
  8
寸法線
  6
Continuous
100
AcDbLeader
  3
ISO-25
 73
     0
 74
     0
 75
     1
 40
31.82741116751269
 41
385.4314720812182
 76
     3
 10
1987.06325722699
 20
1647.734274794808
 30
0.0
 10
2052.773934345645
 20
1728.444951913463
 30
0.0
 10
2067.773934345645
 20
1728.444951913463
 30
0.0
340
CE
1001
ACAD
1000
DSTYLE
1002
{
1070
     5
1000
OPEN30
1070
    77
1070
     1
1070
   147
1040
0.5
1070
   342
1005
99
1002
}
  0
MTEXT
  5
CE
102
{ACAD_REACTORS
330
CD
102
}
330
2
100
AcDbEntity
  8
寸法線
  6
Continuous
100
AcDbMText
 10
2072.773934345645
 20
1733.444951913463
 30
0.0
 40
30.0
 41
0.0
 71
     7
 72
     1
  1
P2.3\U+00D750\U+00D740+HGRゴム
 73
     1
 44
1.0
1001
ACAD
1000
MTEXTBEGIN
1070
    73
1070
     1
1070
    44
1040
1.0
1070
    74
1070
     0
1000
MTEXTEND
  0
LINE
  5
CF
330
2
100
AcDbEntity
  8
嵩上断面
  6
Continuous
100
AcDbLine
 10
453.7527897266564
 20
699.3437350377721
 30
0.0
 11
453.7527897266564
 21
649.3437350377721
 31
0.0
  0
LINE
  5
D0
330
2
100
AcDbEntity
  8
嵩上断面
  6
Continuous
100
AcDbLine
 10
1443.752789726656
 20
699.3437350377721
 30
0.0
 11
1443.752789726656
 21
649.3437350377721
 31
0.0
  0
LINE
  5
D1
102
{ACAD_REACTORS
330
516
102
}
330
2
100
AcDbEntity
  8
嵩上断面
  6
Continuous
100
AcDbLine
 10
1443.752789726656
 20
649.3437350377721
 30
0.0
 11
453.7527897266564
 21
649.3437350377721
 31
0.0
  0
LINE
  5
D2
330
2
100
AcDbEntity
  8
嵩上断面
  6
Continuous
100
AcDbLine
 10
1443.752789726656
 20
699.3437350377721
 30
0.0
 11
453.7527897266564
 21
699.3437350377721
 31
0.0
  0
LINE
  5
D3
330
2
100
AcDbEntity
  8
嵩上断面
  6
HIDDEN
 48
2.0
100
AcDbLine
 10
1443.752789726656
 20
697.0437350377721
 30
0.0
 11
453.7527897266564
 21
697.0437350377721
 31
0.0
  0
LINE
  5
D5
330
2
100
AcDbEntity
  8
嵩上断面
  6
HIDDEN
 48
2.0
100
AcDbLine
 10
1443.752789726656
 20
651.6437350377722
 30
0.0
 11
453.7527897266564
 21
651.6437350377722
 31
0.0
  0
DIMENSION
  5
D6
330
2
100
AcDbEntity
  8
寸法線
  6
Continuous
100
AcDbDimension
  2
*D7
 10
1443.752789726656
 20
484.3437350377721
 30
0.0
 11
948.7527897266563
 21
504.3437350377721
 31
0.0
 70
    32
 71
     5
 42
990.0
  3
ISO-25
100
AcDbAlignedDimension
 13
453.7527897266564
 23
644.3437350377721
 33
0.0
 14
1443.752789726656
 24
644.3437350377721
 34
0.0
100
AcDbRotatedDimension
  0
DIMENSION
  5
E3
330
2
100
AcDbEntity
  8
寸法線
  6
Continuous
100
AcDbDimension
  2
*D8
 10
1543.01741365042
 20
649.3437350377721
 30
0.0
 11
1523.01741365042
 21
674.3437350377724
 31
0.0
 70
    32
 71
     5
 42
-1.0
  3
ISO-25
100
AcDbAlignedDimension
 13
1443.752789726656
 23
699.3437350377721
 33
0.0
 14
1443.752789726656
 24
649.3437350377721
 34
0.0
 50
90.0
100
AcDbRotatedDimension
  0
LINE
  5
F0
330
2
100
AcDbEntity
  8
中心線
  6
Continuous
100
AcDbLine
 10
1218.724909726657
 20
739.3437350377721
 30
0.0
 11
1218.724909726657
 21
692.3437350377721
 31
0.0
  0
LINE
  5
F1
330
2
100
AcDbEntity
  8
中心線
  6
Continuous
100
AcDbLine
 10
1231.281829726657
 20
739.3437350377721
 30
0.0
 11
1231.281829726657
 21
692.3437350377721
 31
0.0
  0
LINE
  5
F5
330
2
100
AcDbEntity
  8
嵩上断面
  6
Continuous
100
AcDbLine
 10
454.2527897266563
 20
699.3437350377721
 30
0.0
 11
463.8097097266563
 21
699.3437350377721
 31
0.0
  0
INSERT
  5
F6
330
2
100
AcDbEntity
  8
本体
  6
Continuous
100
AcDbBlockReference
  2
TB6
 10
1926.56326022699
 20
1577.734273794808
 30
0.0
  0
INSERT
  5
FF
330
2
100
AcDbEntity
  8
本体
  6
Continuous
100
AcDbBlockReference
  2
TB6
 10
1926.56326022699
 20
1477.734273794808
 30
0.0
  0
INSERT
  5
100
330
2
100
AcDbEntity
  8
本体
  6
Continuous
100
AcDbBlockReference
  2
TB6
 10
1926.56326022699
 20
1377.734273794808
 30
0.0
  0
DIMENSION
  5
121
330
2
100
AcDbEntity
  8
寸法線
  6
Continuous
100
AcDbDimension
  2
*D9
 10
1446.252789726656
 20
891.3437350377721
 30
0.0
 11
948.7527897266563
 21
911.343735037772
 31
0.0
 70
    32
 71
     5
 42
995.0
  3
ISO-25
100
AcDbAlignedDimension
 13
451.2527897266563
 23
731.3437350377721
 33
0.0
 14
1446.252789726656
 24
731.3437350377721
 34
0.0
100
AcDbRotatedDimension
  0
LINE
  5
12E
330
2
100
AcDbEntity
  8
本体
  6
Continuous
100
AcDbLine
 10
1433.692549726657
 20
725.3437350377721
 30
0.0
 11
1443.252789726656
 21
725.3437350377721
 31
0.0
  0
LINE
  5
131
330
2
100
AcDbEntity
  8
本体
  6
Continuous
100
AcDbLine
 10
451.2527897266563
 20
1375.234273794808
 30
0.0
 11
1446.252789726656
 21
1375.234273794808
 31
0.0
  0
LINE
  5
132
330
2
100
AcDbEntity
  8
本体
  6
Continuous
100
AcDbLine
 10
451.2527897266563
 20
1380.234273794808
 30
0.0
 11
1446.252789726656
 21
1380.234273794808
 31
0.0
  0
LINE
  5
137
330
2
100
AcDbEntity
  8
本体
  6
Continuous
100
AcDbLine
 10
451.2527897266563
 20
1302.234273794808
 30
0.0
 11
1446.252789726656
 21
1302.234273794808
 31
0.0
  0
LINE
  5
138
330
2
100
AcDbEntity
  8
本体
  6
Continuous
100
AcDbLine
 10
451.2527897266563
 20
1297.734273794808
 30
0.0
 11
1446.252789726656
 21
1297.734273794808
 31
0.0
  0
LWPOLYLINE
  5
145
330
2
100
AcDbEntity
  8
本体
  6
Continuous
100
AcDbPolyline
 90
        4
 70
     1
 43
0.0
 10
451.2527897266563
 20
731.3437350377721
 10
454.2527897266563
 20
731.3437350377721
 10
454.2527897266563
 20
699.3437350377721
 10
451.2527897266563
 20
699.3437350377721
  0
LWPOLYLINE
  5
146
330
2
100
AcDbEntity
  8
本体
  6
Continuous
100
AcDbPolyline
 90
        4
 70
     1
 43
0.0
 10
1443.252789726656
 20
731.3437350377721
 10
1446.252789726656
 20
731.3437350377721
 10
1446.252789726656
 20
699.3437350377721
 10
1443.252789726656
 20
699.3437350377721
  0
LINE
  5
147
330
2
100
AcDbEntity
  8
本体
  6
Continuous
100
AcDbLine
 10
1433.692549726657
 20
731.3437350377721
 30
0.0
 11
1443.252789726656
 21
731.3437350377721
 31
0.0
  0
LINE
  5
4ED
330
2
100
AcDbEntity
  8
本体
  6
Continuous
100
AcDbLine
 10
1433.692549726657
 20
725.3437350377721
 30
0.0
 11
1443.249469726656
 21
725.3437350377721
 31
0.0
  0
LINE
  5
4EF
330
2
100
AcDbEntity
  8
寸法線
  6
Continuous
100
AcDbLine
 10
1218.724909726657
 20
751.3437350377721
 30
0.0
 11
1218.724909726657
 21
826.3437350377721
 31
0.0
  0
LINE
  5
4F0
330
2
100
AcDbEntity
  8
寸法線
  6
Continuous
100
AcDbLine
 10
1231.281829726657
 20
751.3437350377721
 30
0.0
 11
1231.281829726657
 21
826.3437350377721
 31
0.0
  0
LINE
  5
4F1
330
2
100
AcDbEntity
  8
寸法線
  6
Continuous
100
AcDbLine
 10
1203.724909726657
 20
811.343735037772
 30
0.0
 11
1188.724909726657
 21
811.343735037772
 31
0.0
  0
LINE
  5
4F2
330
2
100
AcDbEntity
  8
寸法線
  6
Continuous
100
AcDbLine
 10
1246.281829726657
 20
811.343735037772
 30
0.0
 11
1349.320925731011
 21
811.343735037772
 31
0.0
  0
LINE
  5
4F3
330
2
100
AcDbEntity
  8
寸法線
  6
Continuous
100
AcDbLine
 10
1218.724909726657
 20
811.343735037772
 30
0.0
 11
1231.281829726657
 21
811.343735037772
 31
0.0
  0
INSERT
  5
4F4
330
2
100
AcDbEntity
  8
寸法線
  6
Continuous
100
AcDbBlockReference
  2
_Open30
 10
1218.724909726657
 20
811.343735037772
 30
0.0
 41
15.0
 42
15.0
 43
15.0
  0
INSERT
  5
4F5
330
2
100
AcDbEntity
  8
寸法線
  6
Continuous
100
AcDbBlockReference
  2
_Open30
 10
1231.281829726657
 20
811.343735037772
 30
0.0
 41
15.0
 42
15.0
 43
15.0
 50
180.0
  0
MTEXT
  5
4F6
330
2
100
AcDbEntity
  8
寸法線
  6
Continuous
100
AcDbMText
 10
1312.461605007555
 20
831.343735037772
 30
0.0
 40
30.0
 41
0.0
 71
     5
 72
     1
  1
12.5
 73
     1
 44
1.0
1001
ACAD
1000
MTEXTBEGIN
1070
    73
1070
     1
1070
    44
1040
1.0
1070
    74
1070
     0
1000
MTEXTEND
  0
DIMENSION
  5
4F7
330
2
100
AcDbEntity
  8
寸法線
  6
Continuous
100
AcDbDimension
  2
*D10
 10
1543.01741365042
 20
731.3437350377721
 30
0.0
 11
1523.01741365042
 21
783.932567525082
 31
0.0
 70
    32
 71
     5
 42
-1.0
  3
ISO-25
100
AcDbAlignedDimension
 13
1443.752789726656
 23
699.3437350377721
 33
0.0
 14
1443.752789726656
 24
731.3437350377721
 34
0.0
 50
90.0
100
AcDbRotatedDimension
  0
DIMENSION
  5
506
330
2
100
AcDbEntity
  8
寸法線
  6
Continuous
100
AcDbDimension
  2
*D11
 10
1643.675678599331
 20
731.3437350377721
 30
0.0
 11
1623.675678599331
 21
687.8437350377724
 31
0.0
 70
    32
 71
     5
 42
-1.0
  3
ISO-25
100
AcDbAlignedDimension
 13
1443.752789726656
 23
644.3437350377721
 33
0.0
 14
1443.752789726656
 24
731.3437350377721
 34
0.0
 50
90.0
100
AcDbRotatedDimension
  0
LINE
  5
513
102
{ACAD_REACTORS
330
516
102
}
330
2
100
AcDbEntity
  8
ゴム
  6
Continuous
100
AcDbLine
 10
453.7527897266564
 20
649.3437350377721
 30
0.0
 11
453.7527897266564
 21
644.3437350377721
 31
0.0
  0
LINE
  5
514
102
{ACAD_REACTORS
330
516
102
}
330
2
100
AcDbEntity
  8
ゴム
  6
Continuous
100
AcDbLine
 10
453.7527897266564
 20
644.3437350377721
 30
0.0
 11
1443.752789726656
 21
644.3437350377721
 31
0.0
  0
LINE
  5
515
102
{ACAD_REACTORS
330
516
102
}
330
2
100
AcDbEntity
  8
ゴム
  6
Continuous
100
AcDbLine
 10
1443.752789726656
 20
644.3437350377721
 30
0.0
 11
1443.752789726656
 21
649.3437350377721
 31
0.0
  0
HATCH
  5
516
330
2
100
AcDbEntity
  8
ゴム
  6
Continuous
100
AcDbHatch
 10
0.0
 20
0.0
 30
0.0
210
0.0
220
0.0
230
1.0
  2
ANSI31
 70
     0
 71
     1
 91
        1
 92
        1
 93
        4
 72
     1
 10
1443.752789726656
 20
644.3437350377721
 11
1443.752789726656
 21
649.3437350377721
 72
     1
 10
1443.752789726656
 20
649.3437350377721
 11
453.7527897266564
 21
649.3437350377721
 72
     1
 10
453.7527897266564
 20
649.3437350377721
 11
453.7527897266564
 21
644.3437350377721
 72
     1
 10
453.7527897266564
 20
644.3437350377721
 11
1443.752789726656
 21
644.3437350377721
 97
        4
330
515
330
D1
330
513
330
514
 75
     0
 76
     1
 52
0.0
 41
1.0
 77
     0
 78
     1
 53
45.0
 43
14.47126030695381
 44
425.788120822061
 45
-2.245064030267287
 46
2.245064030267288
 79
     0
 98
        1
 10
14.47126030695381
 20
425.788120822061
  0
DIMENSION
  5
519
330
2
100
AcDbEntity
  8
寸法線
  6
Continuous
100
AcDbDimension
  2
*D12
 10
1543.01741365042
 20
644.3437350377721
 30
0.0
 11
1523.01741365042
 21
601.5772375758435
 31
0.0
 70
    32
 71
     5
 42
-1.0
  3
ISO-25
100
AcDbAlignedDimension
 13
1443.752789726656
 23
649.3437350377721
 33
0.0
 14
1443.752789726656
 24
644.3437350377721
 34
0.0
 50
90.0
100
AcDbRotatedDimension
  0
LINE
  5
5D9
330
2
100
AcDbEntity
  8
本体
  6
Continuous
100
AcDbLine
 10
1433.695825726656
 20
725.3437350377721
 30
0.0
 11
1443.252745726656
 21
731.3437350377721
 31
0.0
  0
LINE
  5
1EFF
330
2
100
AcDbEntity
  8
嵩上平面
  6
HIDDEN
 48
3.0
370
     9
100
AcDbLine
 10
453.7527897266564
 20
1647.734274794808
 30
0.0
 11
1443.752789726656
 21
1647.734274794808
 31
0.0
  0
LINE
  5
1F00
330
2
100
AcDbEntity
  8
嵩上平面
  6
HIDDEN
 48
3.0
370
     9
100
AcDbLine
 10
453.7527897266564
 20
1607.734274794808
 30
0.0
 11
1443.752789726656
 21
1607.734274794808
 31
0.0
  0
LINE
  5
1F01
330
2
100
AcDbEntity
  8
嵩上平面
  6
HIDDEN
 48
3.0
370
     9
100
AcDbLine
 10
453.7527897266564
 20
1347.734272794808
 30
0.0
 11
1443.752789726656
 21
1347.734272794808
 31
0.0
  0
LINE
  5
1F02
330
2
100
AcDbEntity
  8
嵩上平面
  6
HIDDEN
 48
3.0
370
     9
100
AcDbLine
 10
453.7527897266564
 20
1307.734272794808
 30
0.0
 11
1443.752789726656
 21
1307.734272794808
 31
0.0
  0
LINE
  5
1F03
330
2
100
AcDbEntity
  8
嵩上平面
  6
HIDDEN
 48
3.0
370
     9
100
AcDbLine
 10
453.7527897266564
 20
1307.734272794808
 30
0.0
 11
453.7527897266564
 21
1347.734272794808
 31
0.0
  0
LINE
  5
1F04
330
2
100
AcDbEntity
  8
嵩上平面
  6
HIDDEN
 48
3.0
370
     9
100
AcDbLine
 10
1443.752789726656
 20
1307.734272794808
 30
0.0
 11
1443.752789726656
 21
1347.734272794808
 31
0.0
  0
LINE
  5
1F05
330
2
100
AcDbEntity
  8
嵩上平面
  6
HIDDEN
 48
3.0
370
     9
100
AcDbLine
 10
453.7527897266564
 20
1607.734274794808
 30
0.0
 11
453.7527897266564
 21
1647.734274794808
 31
0.0
  0
LINE
  5
1F06
330
2
100
AcDbEntity
  8
嵩上平面
  6
HIDDEN
 48
3.0
370
     9
100
AcDbLine
 10
1443.752789726656
 20
1607.734274794808
 30
0.0
 11
1443.752789726656
 21
1647.734274794808
 31
0.0
  0
INSERT
  5
1F3C
330
2
100
AcDbEntity
  8
ゴム
 48
3.0
100
AcDbBlockReference
  2
平ゴムパッキン
 10
2005.56325722699
 20
1647.734274794808
 30
0.0
  0
INSERT
  5
1F3D
330
2
100
AcDbEntity
  8
ゴム
 48
3.0
100
AcDbBlockReference
  2
平ゴムパッキン
 10
2005.56325722699
 20
1307.734272794808
 30
0.0
 41
-1.0
 50
180.0
  0
MTEXT
  5
20C2
330
2
100
AcDbEntity
  8
外枠
  6
Continuous
 48
100.0
370
     9
100
AcDbMText
 10
1022.193186254242
 20
77.61017986570414
 30
0.0
 40
18.0
 41
122.0406
 71
     1
 72
     5
  1
【主部材】
 73
     1
 44
1.0
1001
ACAD
1000
MTEXTBEGIN
1070
    73
1070
     1
1070
    44
1040
1.0
1070
    74
1070
     0
1000
MTEXTEND
  0
MTEXT
  5
20C3
330
2
100
AcDbEntity
  8
外枠
  6
Continuous
 48
100.0
370
     9
100
AcDbMText
 10
1038.975343934131
 20
43.7816999552947
 30
0.0
 40
25.0
 41
122.0406
 71
     1
 72
     5
  1
SS400
 73
     1
 44
1.0
1001
ACAD
1000
MTEXTBEGIN
1070
    73
1070
     1
1070
    44
1040
1.0
1070
    74
1070
     0
1000
MTEXTEND
  0
MTEXT
  5
20C4
330
2
100
AcDbEntity
  8
外枠
  6
Continuous
 48
100.0
370
     9
100
AcDbMText
 10
1202.677957061338
 20
120.1377642323818
 30
0.0
 40
25.0
 41
1015.1375
 71
     1
 72
     5
  1
溶融亜鉛めっき仕上
 73
     1
 44
1.0
1001
ACAD
1000
MTEXTBEGIN
1070
    73
1070
     1
1070
    44
1040
1.0
1070
    74
1070
     0
1000
MTEXTEND
  0
MTEXT
  5
20C5
330
2
100
AcDbEntity
  8
外枠
  6
Continuous
 48
100.0
370
     9
100
AcDbMText
 10
1199.761738767627
 20
151.0819879350654
 30
0.0
 40
18.0
 41
301.8661
 71
     1
 72
     5
  1
【グレーチング】JIS　H8641
 73
     1
 44
1.0
1001
ACAD
1000
MTEXTBEGIN
1070
    73
1070
     1
1070
    44
1040
1.0
1070
    74
1070
     0
1000
MTEXTEND
  0
MTEXT
  5
20C6
330
2
100
AcDbEntity
  8
外枠
  6
Continuous
 48
100.0
370
     9
100
AcDbMText
 10
1159.385398923399
 20
148.6111115828503
 30
0.0
 40
20.0
 41
1015.1375
 71
     1
 72
     5
  1
表\P面\P処\P理
 73
     1
 44
1.0
1001
ACAD
1000
MTEXTBEGIN
1070
    73
1070
     1
1070
    44
1040
1.0
1070
    74
1070
     0
1000
MTEXTEND
  0
LINE
  5
20C7
330
2
100
AcDbEntity
  8
外枠
  6
Continuous
 48
100.0
370
     9
100
AcDbLine
 10
1188.531791166651
 20
155.3992728207999
 30
0.0
 11
1188.531791166651
 21
9.999999999996816
 31
0.0
  0
LINE
  5
20C8
330
2
100
AcDbEntity
  8
外枠
  6
Continuous
 48
100.0
370
     9
100
AcDbLine
 10
1153.531306970095
 20
155.3992728207999
 30
0.0
 11
1153.531306970095
 21
9.999999999996816
 31
0.0
  0
LINE
  5
20C9
330
2
100
AcDbEntity
  8
外枠
 48
3.0
100
AcDbLine
 10
1188.531791166651
 20
82.6996364103984
 30
0.0
 11
1593.951336296073
 21
82.6996364103984
 31
0.0
  0
LINE
  5
2120
330
2
100
AcDbEntity
  8
本体
  6
Continuous
100
AcDbLine
 10
1433.692549726657
 20
706.3437350377721
 30
0.0
 11
1443.252789726656
 21
706.3437350377721
 31
0.0
  0
MTEXT
  5
21CF
330
2
100
AcDbEntity
  8
外枠
  6
Continuous
 48
100.0
370
     9
100
AcDbMText
 10
2509.985545378613
 20
121.2206105686568
 30
0.0
 40
23.47884
 41
274.1381
 71
     1
 72
     5
  1
'14・09・01
 73
     1
 44
1.0
1001
ACAD
1000
MTEXTBEGIN
1070
    73
1070
     1
1070
    44
1040
1.0
1070
    74
1070
     0
1000
MTEXTEND
  0
INSERT
  5
229F
330
2
100
AcDbEntity
  8
嵩上断面
 48
3.0
100
AcDbBlockReference
  2
P-H50
 10
1958.56326022699
 20
1647.734274794808
 30
0.0
  0
INSERT
  5
22A0
330
2
100
AcDbEntity
  8
嵩上断面
 48
3.0
100
AcDbBlockReference
  2
P-H50
 10
1958.56326022699
 20
1307.734272794808
 30
0.0
 41
-1.0
 50
180.0
  0
MTEXT
  5
22CD
330
2
100
AcDbEntity
  8
外枠
  6
Continuous
100
AcDbMText
 10
2427.938927859905
 20
67.25039165302224
 30
0.0
 40
28.17460800000001
 41
43.8527
 71
     1
 72
     5
  1
{\fHG正楷書体-PRO|b0|i0|c128|p65;水}
 73
     1
 44
1.0
1001
ACAD
1000
MTEXTBEGIN
1070
    73
1070
     1
1070
    44
1040
1.0
1070
    74
1070
     0
1000
MTEXTEND
  0
MTEXT
  5
22CE
330
2
100
AcDbEntity
  8
外枠
  6
Continuous
100
AcDbMText
 10
2427.938927859905
 20
109.7804165221496
 30
0.0
 40
28.17460800000001
 41
43.8527
 71
     1
 72
     5
  1
{\fHG正楷書体-PRO|b0|i0|c128|p65;清}
 73
     1
 44
1.0
1001
ACAD
1000
MTEXTBEGIN
1070
    73
1070
     1
1070
    44
1040
1.0
1070
    74
1070
     0
1000
MTEXTEND
  0
ELLIPSE
  5
22CF
330
2
100
AcDbEntity
  8
外枠
  6
Continuous
100
AcDbEllipse
 10
2449.066278910865
 20
70.80064248893541
 30
0.0
 11
0.0
 21
-47.8594442149426
 31
0.0
210
0.0
220
0.0
230
1.0
 40
0.7999999999999857
 41
0.0
 42
6.283185307179586
  0
INSERT
  5
23D3
330
2
100
AcDbEntity
  8
外枠
 48
3.0
100
AcDbBlockReference
  2
鎌下
 10
2271.730765417811
 20
155.3992728207995
 30
0.0
  0
INSERT
  5
247C
330
2
100
AcDbEntity
  8
本体
 48
3.0
100
AcDbBlockReference
  2
GFB新
 10
2780.119625023061
 20
160.0950408207973
 30
0.0
  0
INSERT
  5
248A
102
{ACAD_REACTORS
330
249B
102
}
330
2
100
AcDbEntity
  8
本体
100
AcDbBlockReference
  2
*U29
 10
466.8097097266564
 20
731.3437350377721
 30
0.0
  0
LINE
  5
24F2
330
2
100
AcDbEntity
  8
本体
  6
Continuous
100
AcDbLine
 10
1446.252789726656
 20
1653.234273794808
 30
0.0
 11
1446.252789726656
 21
1580.234273794808
 31
0.0
  0
LINE
  5
24F3
330
2
100
AcDbEntity
  8
本体
  6
Continuous
100
AcDbLine
 10
1443.252789726656
 20
1653.234273794808
 30
0.0
 11
1443.252789726656
 21
1580.234273794808
 31
0.0
  0
LINE
  5
24F4
330
2
100
AcDbEntity
  8
本体
  6
Continuous
100
AcDbLine
 10
1446.252789726656
 20
1575.234273794808
 30
0.0
 11
1446.252789726656
 21
1480.234273794808
 31
0.0
  0
LINE
  5
24F5
330
2
100
AcDbEntity
  8
本体
  6
Continuous
100
AcDbLine
 10
1443.252789726656
 20
1575.234273794808
 30
0.0
 11
1443.252789726656
 21
1480.234273794808
 31
0.0
  0
LINE
  5
24F6
330
2
100
AcDbEntity
  8
本体
  6
Continuous
100
AcDbLine
 10
1443.252789726656
 20
1475.234273794808
 30
0.0
 11
1443.252789726656
 21
1380.234273794808
 31
0.0
  0
LINE
  5
24F7
330
2
100
AcDbEntity
  8
本体
  6
Continuous
100
AcDbLine
 10
1446.252789726656
 20
1475.234273794808
 30
0.0
 11
1446.252789726656
 21
1380.234273794808
 31
0.0
  0
LINE
  5
24F8
330
2
100
AcDbEntity
  8
本体
  6
Continuous
100
AcDbLine
 10
1446.252789726656
 20
1302.234273794808
 30
0.0
 11
1446.252789726656
 21
1375.234273794808
 31
0.0
  0
LINE
  5
24F9
330
2
100
AcDbEntity
  8
本体
  6
Continuous
100
AcDbLine
 10
1443.252789726656
 20
1302.234273794808
 30
0.0
 11
1443.252789726656
 21
1375.234273794808
 31
0.0
  0
LINE
  5
24FA
330
2
100
AcDbEntity
  8
本体
  6
Continuous
100
AcDbLine
 10
1430.695869726656
 20
1575.234273794808
 30
0.0
 11
1443.252789726656
 21
1580.234273794808
 31
0.0
  0
LINE
  5
24FB
330
2
100
AcDbEntity
  8
本体
  6
Continuous
100
AcDbLine
 10
1430.695869726656
 20
1475.234273794808
 30
0.0
 11
1443.252789726656
 21
1480.234273794808
 31
0.0
  0
LINE
  5
24FC
330
2
100
AcDbEntity
  8
本体
  6
Continuous
100
AcDbLine
 10
1430.695869726656
 20
1375.234273794808
 30
0.0
 11
1443.252789726656
 21
1380.234273794808
 31
0.0
  0
LINE
  5
24FD
330
2
100
AcDbEntity
  8
エンボス
  6
Continuous
100
AcDbLine
 10
1443.252790926656
 20
1315.167336578968
 30
0.0
 11
1446.252790926656
 21
1313.967336578969
 31
0.0
  0
LINE
  5
24FE
330
2
100
AcDbEntity
  8
エンボス
  6
Continuous
100
AcDbLine
 10
1443.252790926656
 20
1305.567336578968
 30
0.0
 11
1446.252790926656
 21
1306.767336578968
 31
0.0
  0
LINE
  5
24FF
330
2
100
AcDbEntity
  8
エンボス
  6
Continuous
100
AcDbLine
 10
1446.252790926656
 20
1312.167336578968
 30
0.0
 11
1443.252790926656
 21
1310.967336578968
 31
0.0
  0
LINE
  5
2500
330
2
100
AcDbEntity
  8
エンボス
  6
Continuous
100
AcDbLine
 10
1446.252790926656
 20
1302.567336578968
 30
0.0
 11
1443.252790926656
 21
1303.767336578969
 31
0.0
  0
LINE
  5
2501
330
2
100
AcDbEntity
  8
エンボス
  6
Continuous
100
AcDbLine
 10
1446.252790926656
 20
1336.534268994808
 30
0.0
 11
1443.252790926656
 21
1337.734268994808
 31
0.0
  0
LINE
  5
2502
330
2
100
AcDbEntity
  8
エンボス
  6
Continuous
100
AcDbLine
 10
1446.252790926656
 20
1329.334268994808
 30
0.0
 11
1443.252790926656
 21
1328.134268994808
 31
0.0
  0
LINE
  5
2503
330
2
100
AcDbEntity
  8
エンボス
  6
Continuous
100
AcDbLine
 10
1443.252790926656
 20
1332.334268994808
 30
0.0
 11
1446.252790926656
 21
1331.134268994808
 31
0.0
  0
LINE
  5
2504
330
2
100
AcDbEntity
  8
エンボス
  6
Continuous
100
AcDbLine
 10
1443.252790926656
 20
1349.134268994808
 30
0.0
 11
1446.252790926656
 21
1347.934268994808
 31
0.0
  0
LINE
  5
2505
330
2
100
AcDbEntity
  8
エンボス
  6
Continuous
100
AcDbLine
 10
1446.252790926656
 20
1346.134268994808
 30
0.0
 11
1443.252790926656
 21
1344.934268994808
 31
0.0
  0
LINE
  5
2506
330
2
100
AcDbEntity
  8
エンボス
  6
Continuous
100
AcDbLine
 10
1443.252790926656
 20
1339.534268994808
 30
0.0
 11
1446.252790926656
 21
1340.734268994808
 31
0.0
  0
LINE
  5
2507
330
2
100
AcDbEntity
  8
エンボス
  6
Continuous
100
AcDbLine
 10
1443.252790926656
 20
1322.734268994808
 30
0.0
 11
1446.252790926656
 21
1323.934268994808
 31
0.0
  0
LINE
  5
2508
330
2
100
AcDbEntity
  8
エンボス
  6
Continuous
100
AcDbLine
 10
1446.252790926656
 20
1319.734268994808
 30
0.0
 11
1443.252790926656
 21
1320.934268994808
 31
0.0
  0
LINE
  5
2509
330
2
100
AcDbEntity
  8
エンボス
  6
Continuous
100
AcDbLine
 10
1443.252790926656
 20
1365.934268994808
 30
0.0
 11
1446.252790926656
 21
1364.734268994808
 31
0.0
  0
LINE
  5
250A
330
2
100
AcDbEntity
  8
エンボス
  6
Continuous
100
AcDbLine
 10
1446.252790926656
 20
1370.134268994808
 30
0.0
 11
1443.252790926656
 21
1371.334268994808
 31
0.0
  0
LINE
  5
250B
330
2
100
AcDbEntity
  8
エンボス
  6
Continuous
100
AcDbLine
 10
1443.252790926656
 20
1356.334268994808
 30
0.0
 11
1446.252790926656
 21
1357.534268994808
 31
0.0
  0
LINE
  5
250C
330
2
100
AcDbEntity
  8
エンボス
  6
Continuous
100
AcDbLine
 10
1446.252790926656
 20
1353.334268994808
 30
0.0
 11
1443.252790926656
 21
1354.534268994808
 31
0.0
  0
LINE
  5
250D
330
2
100
AcDbEntity
  8
エンボス
  6
Continuous
100
AcDbLine
 10
1446.252790926656
 20
1362.934268994808
 30
0.0
 11
1443.252790926656
 21
1361.734268994808
 31
0.0
  0
LINE
  5
250E
330
2
100
AcDbEntity
  8
エンボス
  6
Continuous
100
AcDbLine
 10
1443.252790926656
 20
1373.134268994808
 30
0.0
 11
1446.252790926656
 21
1374.334268994808
 31
0.0
  0
LINE
  5
250F
330
2
100
AcDbEntity
  8
エンボス
  6
Continuous
100
AcDbLine
 10
1443.252790926656
 20
1388.767336578968
 30
0.0
 11
1446.252790926656
 21
1389.967336578968
 31
0.0
  0
LINE
  5
2510
330
2
100
AcDbEntity
  8
エンボス
  6
Continuous
100
AcDbLine
 10
1446.252790926656
 20
1385.767336578968
 30
0.0
 11
1443.252790926656
 21
1386.967336578968
 31
0.0
  0
LINE
  5
2511
330
2
100
AcDbEntity
  8
エンボス
  6
Continuous
100
AcDbLine
 10
1446.252790926656
 20
1419.734268994808
 30
0.0
 11
1443.252790926656
 21
1420.934268994808
 31
0.0
  0
LINE
  5
2512
330
2
100
AcDbEntity
  8
エンボス
  6
Continuous
100
AcDbLine
 10
1443.252790926656
 20
1422.734268994808
 30
0.0
 11
1446.252790926656
 21
1423.934268994808
 31
0.0
  0
LINE
  5
2513
330
2
100
AcDbEntity
  8
エンボス
  6
Continuous
100
AcDbLine
 10
1446.252790926656
 20
1402.567336578968
 30
0.0
 11
1443.252790926656
 21
1403.767336578968
 31
0.0
  0
LINE
  5
2514
330
2
100
AcDbEntity
  8
エンボス
  6
Continuous
100
AcDbLine
 10
1443.252790926656
 20
1415.167336578968
 30
0.0
 11
1446.252790926656
 21
1413.967336578968
 31
0.0
  0
LINE
  5
2515
330
2
100
AcDbEntity
  8
エンボス
  6
Continuous
100
AcDbLine
 10
1446.252790926656
 20
1412.167336578968
 30
0.0
 11
1443.252790926656
 21
1410.967336578968
 31
0.0
  0
LINE
  5
2516
330
2
100
AcDbEntity
  8
エンボス
  6
Continuous
100
AcDbLine
 10
1443.252790926656
 20
1405.567336578968
 30
0.0
 11
1446.252790926656
 21
1406.767336578968
 31
0.0
  0
LINE
  5
2517
330
2
100
AcDbEntity
  8
エンボス
  6
Continuous
100
AcDbLine
 10
1446.252790926656
 20
1395.367336578968
 30
0.0
 11
1443.252790926656
 21
1394.167336578968
 31
0.0
  0
LINE
  5
2518
330
2
100
AcDbEntity
  8
エンボス
  6
Continuous
100
AcDbLine
 10
1443.252790926656
 20
1398.367336578968
 30
0.0
 11
1446.252790926656
 21
1397.167336578968
 31
0.0
  0
LINE
  5
2519
330
2
100
AcDbEntity
  8
エンボス
  6
Continuous
100
AcDbLine
 10
1446.252790926656
 20
1462.934268994808
 30
0.0
 11
1443.252790926656
 21
1461.734268994808
 31
0.0
  0
LINE
  5
251A
330
2
100
AcDbEntity
  8
エンボス
  6
Continuous
100
AcDbLine
 10
1446.252790926656
 20
1453.334268994808
 30
0.0
 11
1443.252790926656
 21
1454.534268994808
 31
0.0
  0
LINE
  5
251B
330
2
100
AcDbEntity
  8
エンボス
  6
Continuous
100
AcDbLine
 10
1443.252790926656
 20
1456.334268994808
 30
0.0
 11
1446.252790926656
 21
1457.534268994808
 31
0.0
  0
LINE
  5
251C
330
2
100
AcDbEntity
  8
エンボス
  6
Continuous
100
AcDbLine
 10
1443.252790926656
 20
1439.534268994808
 30
0.0
 11
1446.252790926656
 21
1440.734268994808
 31
0.0
  0
LINE
  5
251D
330
2
100
AcDbEntity
  8
エンボス
  6
Continuous
100
AcDbLine
 10
1446.252790926656
 20
1446.134268994808
 30
0.0
 11
1443.252790926656
 21
1444.934268994808
 31
0.0
  0
LINE
  5
251E
330
2
100
AcDbEntity
  8
エンボス
  6
Continuous
100
AcDbLine
 10
1443.252790926656
 20
1449.134268994808
 30
0.0
 11
1446.252790926656
 21
1447.934268994808
 31
0.0
  0
LINE
  5
251F
330
2
100
AcDbEntity
  8
エンボス
  6
Continuous
100
AcDbLine
 10
1443.252790926656
 20
1432.334268994808
 30
0.0
 11
1446.252790926656
 21
1431.134268994808
 31
0.0
  0
LINE
  5
2520
330
2
100
AcDbEntity
  8
エンボス
  6
Continuous
100
AcDbLine
 10
1446.252790926656
 20
1429.334268994808
 30
0.0
 11
1443.252790926656
 21
1428.134268994807
 31
0.0
  0
LINE
  5
2521
330
2
100
AcDbEntity
  8
エンボス
  6
Continuous
100
AcDbLine
 10
1446.252790926656
 20
1436.534268994808
 30
0.0
 11
1443.252790926656
 21
1437.734268994808
 31
0.0
  0
LINE
  5
2522
330
2
100
AcDbEntity
  8
エンボス
  6
Continuous
100
AcDbLine
 10
1443.252790926656
 20
1473.134268994808
 30
0.0
 11
1446.252790926656
 21
1474.334268994808
 31
0.0
  0
LINE
  5
2523
330
2
100
AcDbEntity
  8
エンボス
  6
Continuous
100
AcDbLine
 10
1446.252790926656
 20
1470.134268994808
 30
0.0
 11
1443.252790926656
 21
1471.334268994808
 31
0.0
  0
LINE
  5
2524
330
2
100
AcDbEntity
  8
エンボス
  6
Continuous
100
AcDbLine
 10
1443.252790926656
 20
1465.934268994808
 30
0.0
 11
1446.252790926656
 21
1464.734268994808
 31
0.0
  0
LINE
  5
2525
330
2
100
AcDbEntity
  8
エンボス
  6
Continuous
100
AcDbLine
 10
1446.252790926656
 20
1536.534268994808
 30
0.0
 11
1443.252790926656
 21
1537.734268994808
 31
0.0
  0
LINE
  5
2526
330
2
100
AcDbEntity
  8
エンボス
  6
Continuous
100
AcDbLine
 10
1443.252790926656
 20
1498.367336578968
 30
0.0
 11
1446.252790926656
 21
1497.167336578968
 31
0.0
  0
LINE
  5
2527
330
2
100
AcDbEntity
  8
エンボス
  6
Continuous
100
AcDbLine
 10
1446.252790926656
 20
1495.367336578968
 30
0.0
 11
1443.252790926656
 21
1494.167336578968
 31
0.0
  0
LINE
  5
2528
330
2
100
AcDbEntity
  8
エンボス
  6
Continuous
100
AcDbLine
 10
1446.252790926656
 20
1485.767336578968
 30
0.0
 11
1443.252790926656
 21
1486.967336578968
 31
0.0
  0
LINE
  5
2529
330
2
100
AcDbEntity
  8
エンボス
  6
Continuous
100
AcDbLine
 10
1443.252790926656
 20
1488.767336578968
 30
0.0
 11
1446.252790926656
 21
1489.967336578969
 31
0.0
  0
LINE
  5
252A
330
2
100
AcDbEntity
  8
エンボス
  6
Continuous
100
AcDbLine
 10
1443.252790926656
 20
1505.567336578968
 30
0.0
 11
1446.252790926656
 21
1506.767336578968
 31
0.0
  0
LINE
  5
252B
330
2
100
AcDbEntity
  8
エンボス
  6
Continuous
100
AcDbLine
 10
1446.252790926656
 20
1512.167336578968
 30
0.0
 11
1443.252790926656
 21
1510.967336578968
 31
0.0
  0
LINE
  5
252C
330
2
100
AcDbEntity
  8
エンボス
  6
Continuous
100
AcDbLine
 10
1443.252790926656
 20
1515.167336578968
 30
0.0
 11
1446.252790926656
 21
1513.967336578969
 31
0.0
  0
LINE
  5
252D
330
2
100
AcDbEntity
  8
エンボス
  6
Continuous
100
AcDbLine
 10
1446.252790926656
 20
1502.567336578968
 30
0.0
 11
1443.252790926656
 21
1503.767336578968
 31
0.0
  0
LINE
  5
252E
330
2
100
AcDbEntity
  8
エンボス
  6
Continuous
100
AcDbLine
 10
1443.252790926656
 20
1522.734268994808
 30
0.0
 11
1446.252790926656
 21
1523.934268994808
 31
0.0
  0
LINE
  5
252F
330
2
100
AcDbEntity
  8
エンボス
  6
Continuous
100
AcDbLine
 10
1446.252790926656
 20
1519.734268994808
 30
0.0
 11
1443.252790926656
 21
1520.934268994808
 31
0.0
  0
LINE
  5
2530
330
2
100
AcDbEntity
  8
エンボス
  6
Continuous
100
AcDbLine
 10
1446.252790926656
 20
1529.334268994808
 30
0.0
 11
1443.252790926656
 21
1528.134268994808
 31
0.0
  0
LINE
  5
2531
330
2
100
AcDbEntity
  8
エンボス
  6
Continuous
100
AcDbLine
 10
1443.252790926656
 20
1532.334268994808
 30
0.0
 11
1446.252790926656
 21
1531.134268994808
 31
0.0
  0
LINE
  5
2532
330
2
100
AcDbEntity
  8
エンボス
  6
Continuous
100
AcDbLine
 10
1443.252790926656
 20
1549.134268994808
 30
0.0
 11
1446.252790926656
 21
1547.934268994808
 31
0.0
  0
LINE
  5
2533
330
2
100
AcDbEntity
  8
エンボス
  6
Continuous
100
AcDbLine
 10
1446.252790926656
 20
1546.134268994808
 30
0.0
 11
1443.252790926656
 21
1544.934268994808
 31
0.0
  0
LINE
  5
2534
330
2
100
AcDbEntity
  8
エンボス
  6
Continuous
100
AcDbLine
 10
1443.252790926656
 20
1539.534268994808
 30
0.0
 11
1446.252790926656
 21
1540.734268994808
 31
0.0
  0
LINE
  5
2535
330
2
100
AcDbEntity
  8
エンボス
  6
Continuous
100
AcDbLine
 10
1443.252790926656
 20
1556.334268994808
 30
0.0
 11
1446.252790926656
 21
1557.534268994808
 31
0.0
  0
LINE
  5
2536
330
2
100
AcDbEntity
  8
エンボス
  6
Continuous
100
AcDbLine
 10
1446.252790926656
 20
1553.334268994808
 30
0.0
 11
1443.252790926656
 21
1554.534268994808
 31
0.0
  0
LINE
  5
2537
330
2
100
AcDbEntity
  8
エンボス
  6
Continuous
100
AcDbLine
 10
1446.252790926656
 20
1562.934268994808
 30
0.0
 11
1443.252790926656
 21
1561.734268994808
 31
0.0
  0
LINE
  5
2538
330
2
100
AcDbEntity
  8
エンボス
  6
Continuous
100
AcDbLine
 10
1443.252790926656
 20
1565.934268994808
 30
0.0
 11
1446.252790926656
 21
1564.734268994808
 31
0.0
  0
LINE
  5
2539
330
2
100
AcDbEntity
  8
エンボス
  6
Continuous
100
AcDbLine
 10
1446.252790926656
 20
1570.134268994808
 30
0.0
 11
1443.252790926656
 21
1571.334268994808
 31
0.0
  0
LINE
  5
253A
330
2
100
AcDbEntity
  8
エンボス
  6
Continuous
100
AcDbLine
 10
1443.252790926656
 20
1573.134268994808
 30
0.0
 11
1446.252790926656
 21
1574.334268994808
 31
0.0
  0
LINE
  5
253B
330
2
100
AcDbEntity
  8
エンボス
  6
Continuous
100
AcDbLine
 10
1443.252790926656
 20
1610.999374766291
 30
0.0
 11
1446.252790926656
 21
1612.199374766291
 31
0.0
  0
LINE
  5
253C
330
2
100
AcDbEntity
  8
エンボス
  6
Continuous
100
AcDbLine
 10
1446.252790926656
 20
1607.999374766291
 30
0.0
 11
1443.252790926656
 21
1609.199374766291
 31
0.0
  0
LINE
  5
253D
330
2
100
AcDbEntity
  8
エンボス
  6
Continuous
100
AcDbLine
 10
1446.252790926656
 20
1590.832442350451
 30
0.0
 11
1443.252790926656
 21
1592.032442350451
 31
0.0
  0
LINE
  5
253E
330
2
100
AcDbEntity
  8
エンボス
  6
Continuous
100
AcDbLine
 10
1443.252790926656
 20
1603.432442350451
 30
0.0
 11
1446.252790926656
 21
1602.232442350451
 31
0.0
  0
LINE
  5
253F
330
2
100
AcDbEntity
  8
エンボス
  6
Continuous
100
AcDbLine
 10
1446.252790926656
 20
1600.432442350451
 30
0.0
 11
1443.252790926656
 21
1599.232442350451
 31
0.0
  0
LINE
  5
2540
330
2
100
AcDbEntity
  8
エンボス
  6
Continuous
100
AcDbLine
 10
1443.252790926656
 20
1593.832442350451
 30
0.0
 11
1446.252790926656
 21
1595.032442350451
 31
0.0
  0
LINE
  5
2541
330
2
100
AcDbEntity
  8
エンボス
  6
Continuous
100
AcDbLine
 10
1446.252790926656
 20
1583.632442350451
 30
0.0
 11
1443.252790926656
 21
1582.432442350451
 31
0.0
  0
LINE
  5
2542
330
2
100
AcDbEntity
  8
エンボス
  6
Continuous
100
AcDbLine
 10
1443.252790926656
 20
1586.632442350451
 30
0.0
 11
1446.252790926656
 21
1585.432442350451
 31
0.0
  0
LINE
  5
2543
330
2
100
AcDbEntity
  8
エンボス
  6
Continuous
100
AcDbLine
 10
1446.252790926656
 20
1641.599374766291
 30
0.0
 11
1443.252790926656
 21
1642.799374766291
 31
0.0
  0
LINE
  5
2544
330
2
100
AcDbEntity
  8
エンボス
  6
Continuous
100
AcDbLine
 10
1443.252790926656
 20
1644.599374766291
 30
0.0
 11
1446.252790926656
 21
1645.799374766291
 31
0.0
  0
LINE
  5
2545
330
2
100
AcDbEntity
  8
エンボス
  6
Continuous
100
AcDbLine
 10
1443.252790926656
 20
1627.799374766291
 30
0.0
 11
1446.252790926656
 21
1628.999374766291
 31
0.0
  0
LINE
  5
2546
330
2
100
AcDbEntity
  8
エンボス
  6
Continuous
100
AcDbLine
 10
1446.252790926656
 20
1634.399374766291
 30
0.0
 11
1443.252790926656
 21
1633.199374766291
 31
0.0
  0
LINE
  5
2547
330
2
100
AcDbEntity
  8
エンボス
  6
Continuous
100
AcDbLine
 10
1443.252790926656
 20
1637.399374766291
 30
0.0
 11
1446.252790926656
 21
1636.199374766291
 31
0.0
  0
LINE
  5
2548
330
2
100
AcDbEntity
  8
エンボス
  6
Continuous
100
AcDbLine
 10
1443.252790926656
 20
1620.599374766291
 30
0.0
 11
1446.252790926656
 21
1619.399374766291
 31
0.0
  0
LINE
  5
2549
330
2
100
AcDbEntity
  8
エンボス
  6
Continuous
100
AcDbLine
 10
1446.252790926656
 20
1617.599374766291
 30
0.0
 11
1443.252790926656
 21
1616.399374766291
 31
0.0
  0
LINE
  5
254A
330
2
100
AcDbEntity
  8
エンボス
  6
Continuous
100
AcDbLine
 10
1446.252790926656
 20
1624.799374766291
 30
0.0
 11
1443.252790926656
 21
1625.999374766291
 31
0.0
  0
LINE
  5
254B
330
2
100
AcDbEntity
  8
エンボス
  6
Continuous
100
AcDbLine
 10
1446.252790926656
 20
1651.199374766291
 30
0.0
 11
1443.252790926656
 21
1649.999374766291
 31
0.0
  0
LINE
  5
254C
330
2
100
AcDbEntity
  8
本体
  6
Continuous
100
AcDbLine
 10
454.2527897266563
 20
1653.234273794808
 30
0.0
 11
454.2527897266563
 21
1580.234273794808
 31
0.0
  0
LINE
  5
254D
330
2
100
AcDbEntity
  8
本体
  6
Continuous
100
AcDbLine
 10
451.2527897266563
 20
1653.234273794808
 30
0.0
 11
451.2527897266563
 21
1580.234273794808
 31
0.0
  0
LINE
  5
254E
330
2
100
AcDbEntity
  8
本体
  6
Continuous
100
AcDbLine
 10
454.2527897266563
 20
1575.234273794808
 30
0.0
 11
454.2527897266563
 21
1480.234273794808
 31
0.0
  0
LINE
  5
254F
330
2
100
AcDbEntity
  8
本体
  6
Continuous
100
AcDbLine
 10
451.2527897266563
 20
1575.234273794808
 30
0.0
 11
451.2527897266563
 21
1480.234273794808
 31
0.0
  0
LINE
  5
2550
330
2
100
AcDbEntity
  8
本体
  6
Continuous
100
AcDbLine
 10
451.2527897266563
 20
1475.234273794808
 30
0.0
 11
451.2527897266563
 21
1380.234273794808
 31
0.0
  0
LINE
  5
2551
330
2
100
AcDbEntity
  8
本体
  6
Continuous
100
AcDbLine
 10
454.2527897266563
 20
1475.234273794808
 30
0.0
 11
454.2527897266563
 21
1380.234273794808
 31
0.0
  0
LINE
  5
2552
330
2
100
AcDbEntity
  8
本体
  6
Continuous
100
AcDbLine
 10
454.2527897266563
 20
1302.234273794808
 30
0.0
 11
454.2527897266563
 21
1375.234273794808
 31
0.0
  0
LINE
  5
2553
330
2
100
AcDbEntity
  8
本体
  6
Continuous
100
AcDbLine
 10
451.2527897266563
 20
1302.234273794808
 30
0.0
 11
451.2527897266563
 21
1375.234273794808
 31
0.0
  0
LINE
  5
2554
330
2
100
AcDbEntity
  8
エンボス
  6
Continuous
100
AcDbLine
 10
451.2527909266564
 20
1315.167336578968
 30
0.0
 11
454.2527909266564
 21
1313.967336578969
 31
0.0
  0
LINE
  5
2555
330
2
100
AcDbEntity
  8
エンボス
  6
Continuous
100
AcDbLine
 10
451.2527909266564
 20
1305.567336578968
 30
0.0
 11
454.2527909266564
 21
1306.767336578968
 31
0.0
  0
LINE
  5
2556
330
2
100
AcDbEntity
  8
エンボス
  6
Continuous
100
AcDbLine
 10
454.2527909266564
 20
1312.167336578968
 30
0.0
 11
451.2527909266564
 21
1310.967336578968
 31
0.0
  0
LINE
  5
2557
330
2
100
AcDbEntity
  8
エンボス
  6
Continuous
100
AcDbLine
 10
454.2527909266564
 20
1302.567336578968
 30
0.0
 11
451.2527909266564
 21
1303.767336578969
 31
0.0
  0
LINE
  5
2558
330
2
100
AcDbEntity
  8
エンボス
  6
Continuous
100
AcDbLine
 10
454.2527909266564
 20
1336.534268994808
 30
0.0
 11
451.2527909266564
 21
1337.734268994808
 31
0.0
  0
LINE
  5
2559
330
2
100
AcDbEntity
  8
エンボス
  6
Continuous
100
AcDbLine
 10
454.2527909266564
 20
1329.334268994808
 30
0.0
 11
451.2527909266564
 21
1328.134268994808
 31
0.0
  0
LINE
  5
255A
330
2
100
AcDbEntity
  8
エンボス
  6
Continuous
100
AcDbLine
 10
451.2527909266564
 20
1332.334268994808
 30
0.0
 11
454.2527909266564
 21
1331.134268994808
 31
0.0
  0
LINE
  5
255B
330
2
100
AcDbEntity
  8
エンボス
  6
Continuous
100
AcDbLine
 10
451.2527909266564
 20
1349.134268994808
 30
0.0
 11
454.2527909266564
 21
1347.934268994808
 31
0.0
  0
LINE
  5
255C
330
2
100
AcDbEntity
  8
エンボス
  6
Continuous
100
AcDbLine
 10
454.2527909266564
 20
1346.134268994808
 30
0.0
 11
451.2527909266564
 21
1344.934268994808
 31
0.0
  0
LINE
  5
255D
330
2
100
AcDbEntity
  8
エンボス
  6
Continuous
100
AcDbLine
 10
451.2527909266564
 20
1339.534268994808
 30
0.0
 11
454.2527909266564
 21
1340.734268994808
 31
0.0
  0
LINE
  5
255E
330
2
100
AcDbEntity
  8
エンボス
  6
Continuous
100
AcDbLine
 10
451.2527909266564
 20
1322.734268994808
 30
0.0
 11
454.2527909266564
 21
1323.934268994808
 31
0.0
  0
LINE
  5
255F
330
2
100
AcDbEntity
  8
エンボス
  6
Continuous
100
AcDbLine
 10
454.2527909266564
 20
1319.734268994808
 30
0.0
 11
451.2527909266564
 21
1320.934268994808
 31
0.0
  0
LINE
  5
2560
330
2
100
AcDbEntity
  8
エンボス
  6
Continuous
100
AcDbLine
 10
451.2527909266564
 20
1365.934268994808
 30
0.0
 11
454.2527909266564
 21
1364.734268994808
 31
0.0
  0
LINE
  5
2561
330
2
100
AcDbEntity
  8
エンボス
  6
Continuous
100
AcDbLine
 10
454.2527909266564
 20
1370.134268994808
 30
0.0
 11
451.2527909266564
 21
1371.334268994808
 31
0.0
  0
LINE
  5
2562
330
2
100
AcDbEntity
  8
エンボス
  6
Continuous
100
AcDbLine
 10
451.2527909266564
 20
1356.334268994808
 30
0.0
 11
454.2527909266564
 21
1357.534268994808
 31
0.0
  0
LINE
  5
2563
330
2
100
AcDbEntity
  8
エンボス
  6
Continuous
100
AcDbLine
 10
454.2527909266564
 20
1353.334268994808
 30
0.0
 11
451.2527909266564
 21
1354.534268994808
 31
0.0
  0
LINE
  5
2564
330
2
100
AcDbEntity
  8
エンボス
  6
Continuous
100
AcDbLine
 10
454.2527909266564
 20
1362.934268994808
 30
0.0
 11
451.2527909266564
 21
1361.734268994808
 31
0.0
  0
LINE
  5
2565
330
2
100
AcDbEntity
  8
エンボス
  6
Continuous
100
AcDbLine
 10
451.2527909266564
 20
1373.134268994808
 30
0.0
 11
454.2527909266564
 21
1374.334268994808
 31
0.0
  0
LINE
  5
2566
330
2
100
AcDbEntity
  8
エンボス
  6
Continuous
100
AcDbLine
 10
451.2527909266564
 20
1388.767336578968
 30
0.0
 11
454.2527909266564
 21
1389.967336578968
 31
0.0
  0
LINE
  5
2567
330
2
100
AcDbEntity
  8
エンボス
  6
Continuous
100
AcDbLine
 10
454.2527909266564
 20
1385.767336578968
 30
0.0
 11
451.2527909266564
 21
1386.967336578968
 31
0.0
  0
LINE
  5
2568
330
2
100
AcDbEntity
  8
エンボス
  6
Continuous
100
AcDbLine
 10
454.2527909266564
 20
1419.734268994808
 30
0.0
 11
451.2527909266564
 21
1420.934268994808
 31
0.0
  0
LINE
  5
2569
330
2
100
AcDbEntity
  8
エンボス
  6
Continuous
100
AcDbLine
 10
451.2527909266564
 20
1422.734268994808
 30
0.0
 11
454.2527909266564
 21
1423.934268994808
 31
0.0
  0
LINE
  5
256A
330
2
100
AcDbEntity
  8
エンボス
  6
Continuous
100
AcDbLine
 10
454.2527909266564
 20
1402.567336578968
 30
0.0
 11
451.2527909266564
 21
1403.767336578968
 31
0.0
  0
LINE
  5
256B
330
2
100
AcDbEntity
  8
エンボス
  6
Continuous
100
AcDbLine
 10
451.2527909266564
 20
1415.167336578968
 30
0.0
 11
454.2527909266564
 21
1413.967336578968
 31
0.0
  0
LINE
  5
256C
330
2
100
AcDbEntity
  8
エンボス
  6
Continuous
100
AcDbLine
 10
454.2527909266564
 20
1412.167336578968
 30
0.0
 11
451.2527909266564
 21
1410.967336578968
 31
0.0
  0
LINE
  5
256D
330
2
100
AcDbEntity
  8
エンボス
  6
Continuous
100
AcDbLine
 10
451.2527909266564
 20
1405.567336578968
 30
0.0
 11
454.2527909266564
 21
1406.767336578968
 31
0.0
  0
LINE
  5
256E
330
2
100
AcDbEntity
  8
エンボス
  6
Continuous
100
AcDbLine
 10
454.2527909266564
 20
1395.367336578968
 30
0.0
 11
451.2527909266564
 21
1394.167336578968
 31
0.0
  0
LINE
  5
256F
330
2
100
AcDbEntity
  8
エンボス
  6
Continuous
100
AcDbLine
 10
451.2527909266564
 20
1398.367336578968
 30
0.0
 11
454.2527909266564
 21
1397.167336578968
 31
0.0
  0
LINE
  5
2570
330
2
100
AcDbEntity
  8
エンボス
  6
Continuous
100
AcDbLine
 10
454.2527909266564
 20
1462.934268994808
 30
0.0
 11
451.2527909266564
 21
1461.734268994808
 31
0.0
  0
LINE
  5
2571
330
2
100
AcDbEntity
  8
エンボス
  6
Continuous
100
AcDbLine
 10
454.2527909266564
 20
1453.334268994808
 30
0.0
 11
451.2527909266564
 21
1454.534268994808
 31
0.0
  0
LINE
  5
2572
330
2
100
AcDbEntity
  8
エンボス
  6
Continuous
100
AcDbLine
 10
451.2527909266564
 20
1456.334268994808
 30
0.0
 11
454.2527909266564
 21
1457.534268994808
 31
0.0
  0
LINE
  5
2573
330
2
100
AcDbEntity
  8
エンボス
  6
Continuous
100
AcDbLine
 10
451.2527909266564
 20
1439.534268994808
 30
0.0
 11
454.2527909266564
 21
1440.734268994808
 31
0.0
  0
LINE
  5
2574
330
2
100
AcDbEntity
  8
エンボス
  6
Continuous
100
AcDbLine
 10
454.2527909266564
 20
1446.134268994808
 30
0.0
 11
451.2527909266564
 21
1444.934268994808
 31
0.0
  0
LINE
  5
2575
330
2
100
AcDbEntity
  8
エンボス
  6
Continuous
100
AcDbLine
 10
451.2527909266564
 20
1449.134268994808
 30
0.0
 11
454.2527909266564
 21
1447.934268994808
 31
0.0
  0
LINE
  5
2576
330
2
100
AcDbEntity
  8
エンボス
  6
Continuous
100
AcDbLine
 10
451.2527909266564
 20
1432.334268994808
 30
0.0
 11
454.2527909266564
 21
1431.134268994808
 31
0.0
  0
LINE
  5
2577
330
2
100
AcDbEntity
  8
エンボス
  6
Continuous
100
AcDbLine
 10
454.2527909266564
 20
1429.334268994808
 30
0.0
 11
451.2527909266564
 21
1428.134268994807
 31
0.0
  0
LINE
  5
2578
330
2
100
AcDbEntity
  8
エンボス
  6
Continuous
100
AcDbLine
 10
454.2527909266564
 20
1436.534268994808
 30
0.0
 11
451.2527909266564
 21
1437.734268994808
 31
0.0
  0
LINE
  5
2579
330
2
100
AcDbEntity
  8
エンボス
  6
Continuous
100
AcDbLine
 10
451.2527909266564
 20
1473.134268994808
 30
0.0
 11
454.2527909266564
 21
1474.334268994808
 31
0.0
  0
LINE
  5
257A
330
2
100
AcDbEntity
  8
エンボス
  6
Continuous
100
AcDbLine
 10
454.2527909266564
 20
1470.134268994808
 30
0.0
 11
451.2527909266564
 21
1471.334268994808
 31
0.0
  0
LINE
  5
257B
330
2
100
AcDbEntity
  8
エンボス
  6
Continuous
100
AcDbLine
 10
451.2527909266564
 20
1465.934268994808
 30
0.0
 11
454.2527909266564
 21
1464.734268994808
 31
0.0
  0
LINE
  5
257C
330
2
100
AcDbEntity
  8
エンボス
  6
Continuous
100
AcDbLine
 10
454.2527909266564
 20
1536.534268994808
 30
0.0
 11
451.2527909266564
 21
1537.734268994808
 31
0.0
  0
LINE
  5
257D
330
2
100
AcDbEntity
  8
エンボス
  6
Continuous
100
AcDbLine
 10
451.2527909266564
 20
1498.367336578968
 30
0.0
 11
454.2527909266564
 21
1497.167336578968
 31
0.0
  0
LINE
  5
257E
330
2
100
AcDbEntity
  8
エンボス
  6
Continuous
100
AcDbLine
 10
454.2527909266564
 20
1495.367336578968
 30
0.0
 11
451.2527909266564
 21
1494.167336578968
 31
0.0
  0
LINE
  5
257F
330
2
100
AcDbEntity
  8
エンボス
  6
Continuous
100
AcDbLine
 10
454.2527909266564
 20
1485.767336578968
 30
0.0
 11
451.2527909266564
 21
1486.967336578968
 31
0.0
  0
LINE
  5
2580
330
2
100
AcDbEntity
  8
エンボス
  6
Continuous
100
AcDbLine
 10
451.2527909266564
 20
1488.767336578968
 30
0.0
 11
454.2527909266564
 21
1489.967336578969
 31
0.0
  0
LINE
  5
2581
330
2
100
AcDbEntity
  8
エンボス
  6
Continuous
100
AcDbLine
 10
451.2527909266564
 20
1505.567336578968
 30
0.0
 11
454.2527909266564
 21
1506.767336578968
 31
0.0
  0
LINE
  5
2582
330
2
100
AcDbEntity
  8
エンボス
  6
Continuous
100
AcDbLine
 10
454.2527909266564
 20
1512.167336578968
 30
0.0
 11
451.2527909266564
 21
1510.967336578968
 31
0.0
  0
LINE
  5
2583
330
2
100
AcDbEntity
  8
エンボス
  6
Continuous
100
AcDbLine
 10
451.2527909266564
 20
1515.167336578968
 30
0.0
 11
454.2527909266564
 21
1513.967336578969
 31
0.0
  0
LINE
  5
2584
330
2
100
AcDbEntity
  8
エンボス
  6
Continuous
100
AcDbLine
 10
454.2527909266564
 20
1502.567336578968
 30
0.0
 11
451.2527909266564
 21
1503.767336578968
 31
0.0
  0
LINE
  5
2585
330
2
100
AcDbEntity
  8
エンボス
  6
Continuous
100
AcDbLine
 10
451.2527909266564
 20
1522.734268994808
 30
0.0
 11
454.2527909266564
 21
1523.934268994808
 31
0.0
  0
LINE
  5
2586
330
2
100
AcDbEntity
  8
エンボス
  6
Continuous
100
AcDbLine
 10
454.2527909266564
 20
1519.734268994808
 30
0.0
 11
451.2527909266564
 21
1520.934268994808
 31
0.0
  0
LINE
  5
2587
330
2
100
AcDbEntity
  8
エンボス
  6
Continuous
100
AcDbLine
 10
454.2527909266564
 20
1529.334268994808
 30
0.0
 11
451.2527909266564
 21
1528.134268994808
 31
0.0
  0
LINE
  5
2588
330
2
100
AcDbEntity
  8
エンボス
  6
Continuous
100
AcDbLine
 10
451.2527909266564
 20
1532.334268994808
 30
0.0
 11
454.2527909266564
 21
1531.134268994808
 31
0.0
  0
LINE
  5
2589
330
2
100
AcDbEntity
  8
エンボス
  6
Continuous
100
AcDbLine
 10
451.2527909266564
 20
1549.134268994808
 30
0.0
 11
454.2527909266564
 21
1547.934268994808
 31
0.0
  0
LINE
  5
258A
330
2
100
AcDbEntity
  8
エンボス
  6
Continuous
100
AcDbLine
 10
454.2527909266564
 20
1546.134268994808
 30
0.0
 11
451.2527909266564
 21
1544.934268994808
 31
0.0
  0
LINE
  5
258B
330
2
100
AcDbEntity
  8
エンボス
  6
Continuous
100
AcDbLine
 10
451.2527909266564
 20
1539.534268994808
 30
0.0
 11
454.2527909266564
 21
1540.734268994808
 31
0.0
  0
LINE
  5
258C
330
2
100
AcDbEntity
  8
エンボス
  6
Continuous
100
AcDbLine
 10
451.2527909266564
 20
1556.334268994808
 30
0.0
 11
454.2527909266564
 21
1557.534268994808
 31
0.0
  0
LINE
  5
258D
330
2
100
AcDbEntity
  8
エンボス
  6
Continuous
100
AcDbLine
 10
454.2527909266564
 20
1553.334268994808
 30
0.0
 11
451.2527909266564
 21
1554.534268994808
 31
0.0
  0
LINE
  5
258E
330
2
100
AcDbEntity
  8
エンボス
  6
Continuous
100
AcDbLine
 10
454.2527909266564
 20
1562.934268994808
 30
0.0
 11
451.2527909266564
 21
1561.734268994808
 31
0.0
  0
LINE
  5
258F
330
2
100
AcDbEntity
  8
エンボス
  6
Continuous
100
AcDbLine
 10
451.2527909266564
 20
1565.934268994808
 30
0.0
 11
454.2527909266564
 21
1564.734268994808
 31
0.0
  0
LINE
  5
2590
330
2
100
AcDbEntity
  8
エンボス
  6
Continuous
100
AcDbLine
 10
454.2527909266564
 20
1570.134268994808
 30
0.0
 11
451.2527909266564
 21
1571.334268994808
 31
0.0
  0
LINE
  5
2591
330
2
100
AcDbEntity
  8
エンボス
  6
Continuous
100
AcDbLine
 10
451.2527909266564
 20
1573.134268994808
 30
0.0
 11
454.2527909266564
 21
1574.334268994808
 31
0.0
  0
LINE
  5
2592
330
2
100
AcDbEntity
  8
エンボス
  6
Continuous
100
AcDbLine
 10
451.2527909266564
 20
1610.999374766291
 30
0.0
 11
454.2527909266564
 21
1612.199374766291
 31
0.0
  0
LINE
  5
2593
330
2
100
AcDbEntity
  8
エンボス
  6
Continuous
100
AcDbLine
 10
454.2527909266564
 20
1607.999374766291
 30
0.0
 11
451.2527909266564
 21
1609.199374766291
 31
0.0
  0
LINE
  5
2594
330
2
100
AcDbEntity
  8
エンボス
  6
Continuous
100
AcDbLine
 10
454.2527909266564
 20
1590.832442350451
 30
0.0
 11
451.2527909266564
 21
1592.032442350451
 31
0.0
  0
LINE
  5
2595
330
2
100
AcDbEntity
  8
エンボス
  6
Continuous
100
AcDbLine
 10
451.2527909266564
 20
1603.432442350451
 30
0.0
 11
454.2527909266564
 21
1602.232442350451
 31
0.0
  0
LINE
  5
2596
330
2
100
AcDbEntity
  8
エンボス
  6
Continuous
100
AcDbLine
 10
454.2527909266564
 20
1600.432442350451
 30
0.0
 11
451.2527909266564
 21
1599.232442350451
 31
0.0
  0
LINE
  5
2597
330
2
100
AcDbEntity
  8
エンボス
  6
Continuous
100
AcDbLine
 10
451.2527909266564
 20
1593.832442350451
 30
0.0
 11
454.2527909266564
 21
1595.032442350451
 31
0.0
  0
LINE
  5
2598
330
2
100
AcDbEntity
  8
エンボス
  6
Continuous
100
AcDbLine
 10
454.2527909266564
 20
1583.632442350451
 30
0.0
 11
451.2527909266564
 21
1582.432442350451
 31
0.0
  0
LINE
  5
2599
330
2
100
AcDbEntity
  8
エンボス
  6
Continuous
100
AcDbLine
 10
451.2527909266564
 20
1586.632442350451
 30
0.0
 11
454.2527909266564
 21
1585.432442350451
 31
0.0
  0
LINE
  5
259A
330
2
100
AcDbEntity
  8
エンボス
  6
Continuous
100
AcDbLine
 10
454.2527909266564
 20
1641.599374766291
 30
0.0
 11
451.2527909266564
 21
1642.799374766291
 31
0.0
  0
LINE
  5
259B
330
2
100
AcDbEntity
  8
エンボス
  6
Continuous
100
AcDbLine
 10
451.2527909266564
 20
1644.599374766291
 30
0.0
 11
454.2527909266564
 21
1645.799374766291
 31
0.0
  0
LINE
  5
259C
330
2
100
AcDbEntity
  8
エンボス
  6
Continuous
100
AcDbLine
 10
451.2527909266564
 20
1627.799374766291
 30
0.0
 11
454.2527909266564
 21
1628.999374766291
 31
0.0
  0
LINE
  5
259D
330
2
100
AcDbEntity
  8
エンボス
  6
Continuous
100
AcDbLine
 10
454.2527909266564
 20
1634.399374766291
 30
0.0
 11
451.2527909266564
 21
1633.199374766291
 31
0.0
  0
LINE
  5
259E
330
2
100
AcDbEntity
  8
エンボス
  6
Continuous
100
AcDbLine
 10
451.2527909266564
 20
1637.399374766291
 30
0.0
 11
454.2527909266564
 21
1636.199374766291
 31
0.0
  0
LINE
  5
259F
330
2
100
AcDbEntity
  8
エンボス
  6
Continuous
100
AcDbLine
 10
451.2527909266564
 20
1620.599374766291
 30
0.0
 11
454.2527909266564
 21
1619.399374766291
 31
0.0
  0
LINE
  5
25A0
330
2
100
AcDbEntity
  8
エンボス
  6
Continuous
100
AcDbLine
 10
454.2527909266564
 20
1617.599374766291
 30
0.0
 11
451.2527909266564
 21
1616.399374766291
 31
0.0
  0
LINE
  5
25A1
330
2
100
AcDbEntity
  8
エンボス
  6
Continuous
100
AcDbLine
 10
454.2527909266564
 20
1624.799374766291
 30
0.0
 11
451.2527909266564
 21
1625.999374766291
 31
0.0
  0
LINE
  5
25A2
330
2
100
AcDbEntity
  8
エンボス
  6
Continuous
100
AcDbLine
 10
454.2527909266564
 20
1651.199374766291
 30
0.0
 11
451.2527909266564
 21
1649.999374766291
 31
0.0
  0
LINE
  5
25A3
330
2
100
AcDbEntity
  8
本体
 48
3.0
100
AcDbLine
 10
451.2527897266563
 20
1657.734273794808
 30
0.0
 11
451.2527897266563
 21
1297.734273794808
 31
0.0
  0
LINE
  5
25AD
330
2
100
AcDbEntity
  8
本体
 48
3.0
100
AcDbLine
 10
1446.252789726656
 20
1657.734273794808
 30
0.0
 11
1446.252789726656
 21
1297.734273794808
 31
0.0
  0
INSERT
  5
25B5
102
{ACAD_REACTORS
330
2617
102
}
330
2
100
AcDbEntity
  8
本体
100
AcDbBlockReference
  2
*U32
 10
459.0312503266564
 20
1477.734273794808
 30
0.0
  0
LEADER
  5
2668
330
2
100
AcDbEntity
  8
寸法線
  6
Continuous
100
AcDbLeader
  3
ISO-25
 73
     0
 74
     0
 75
     1
 40
30.0
 41
152.2842639593908
 76
     3
 10
1444.801749846529
 20
1523.701232124081
 30
0.0
 10
1500.512427965184
 20
1594.411910242736
 30
0.0
 10
1515.512427965184
 20
1594.411910242736
 30
0.0
340
2669
1001
ACAD
1000
DSTYLE
1002
{
1070
     5
1000
OPEN30
1070
    77
1070
     1
1070
   147
1040
0.5
1070
   342
1005
99
1002
}
  0
MTEXT
  5
2669
102
{ACAD_REACTORS
330
2668
102
}
330
2
100
AcDbEntity
  8
寸法線
  6
Continuous
100
AcDbMText
 10
1520.512427965184
 20
1599.411910242736
 30
0.0
 40
30.0
 41
0.0
 71
     7
 72
     1
  1
GFB3\U+00D732
 73
     1
 44
1.0
1001
ACAD
1000
MTEXTBEGIN
1070
    73
1070
     1
1070
    44
1040
1.0
1070
    74
1070
     0
1000
MTEXTEND
  0
LEADER
  5
266A
330
2
100
AcDbEntity
  8
寸法線
  6
Continuous
100
AcDbLeader
  3
ISO-25
 73
     0
 74
     0
 75
     1
 40
30.0
 41
35.78680203045685
 76
     3
 10
1444.801749846529
 20
1377.288059225643
 30
0.0
 10
1500.512427965184
 20
1447.998737344297
 30
0.0
 10
1515.512427965184
 20
1447.998737344297
 30
0.0
340
266B
1001
ACAD
1000
DSTYLE
1002
{
1070
     5
1000
OPEN30
1070
    77
1070
     1
1070
   147
1040
0.5
1070
   342
1005
99
1002
}
  0
MTEXT
  5
266B
102
{ACAD_REACTORS
330
266A
102
}
330
2
100
AcDbEntity
  8
寸法線
  6
Continuous
100
AcDbMText
 10
1520.512427965184
 20
1452.998737344298
 30
0.0
 40
30.0
 41
0.0
 71
     7
 72
     1
  1
TB
 73
     1
 44
1.0
1001
ACAD
1000
MTEXTBEGIN
1070
    73
1070
     1
1070
    44
1040
1.0
1070
    74
1070
     0
1000
MTEXTEND
  0
ENDSEC
  0
SECTION
  2
OBJECTS
  0
DICTIONARY
  5
7
330
0
100
AcDbDictionary
281
     1
  3
ACAD_ASSOCNETWORK
350
2493
  3
ACAD_CIP_PREVIOUS_PRODUCT_INFO
350
2359
  3
ACAD_COLOR
350
2337
  3
ACAD_DETAILVIEWSTYLE
350
2350
  3
ACAD_GROUP
350
1EBD
  3
ACAD_LAYOUT
350
1EA3
  3
ACAD_MATERIAL
350
2305
  3
ACAD_MLEADERSTYLE
350
234C
  3
ACAD_MLINESTYLE
350
1EBE
  3
ACAD_PLOTSETTINGS
350
1EBF
  3
ACAD_PLOTSTYLENAME
350
6
  3
ACAD_SCALELIST
350
233A
  3
ACAD_SECTIONVIEWSTYLE
350
234E
  3
ACAD_TABLESTYLE
350
2338
  3
ACAD_VISUALSTYLE
350
231E
  3
ACDB_RECOMPOSE_DATA
350
26BA
  3
AcDbVariableDictionary
350
23B8
  3
DWGPROPS
350
26BB
  0
DICTIONARY
  5
237B
330
1EB8
100
AcDbDictionary
280
     1
281
     1
  0
DICTIONARY
  5
247D
330
1EB0
100
AcDbDictionary
280
     1
281
     1
  3
ACAD_LAYERSTATES
360
247E
  0
DICTIONARY
  5
235A
330
76
100
AcDbDictionary
280
     1
281
     1
  3
ADSK_XREC_LAYER_RECONCILED
360
235B
  0
DICTIONARY
  5
235C
330
80
100
AcDbDictionary
280
     1
281
     1
  3
ADSK_XREC_LAYER_RECONCILED
360
235D
  0
DICTIONARY
  5
235E
330
4
100
AcDbDictionary
280
     1
281
     1
  3
ADSK_XREC_LAYER_RECONCILED
360
235F
  0
DICTIONARY
  5
2362
330
5EE
100
AcDbDictionary
280
     1
281
     1
  3
ADSK_XREC_LAYER_RECONCILED
360
2363
  0
DICTIONARY
  5
2364
330
11
100
AcDbDictionary
280
     1
281
     1
  3
ADSK_XREC_LAYER_RECONCILED
360
2365
  0
DICTIONARY
  5
2368
330
22B1
100
AcDbDictionary
280
     1
281
     1
  3
ADSK_XREC_LAYER_RECONCILED
360
2369
  0
DICTIONARY
  5
236A
330
22B6
100
AcDbDictionary
280
     1
281
     1
  3
ADSK_XREC_LAYER_RECONCILED
360
236B
  0
DICTIONARY
  5
236C
330
22BB
100
AcDbDictionary
280
     1
281
     1
  3
ADSK_XREC_LAYER_RECONCILED
360
236D
  0
DICTIONARY
  5
236E
330
22C0
100
AcDbDictionary
280
     1
281
     1
  3
ADSK_XREC_LAYER_RECONCILED
360
236F
  0
DICTIONARY
  5
1E9E
330
2
100
AcDbDictionary
280
     1
281
     1
  3
ACAD_ASSOCNETWORK
360
2491
  3
ACAD_LAYOUTSELFREF
360
2255
  0
DICTIONARY
  5
1EA5
330
1EA4
100
AcDbDictionary
280
     1
281
     1
  3
ACAD_LAYOUTSELFREF
360
2262
  0
DICTIONARY
  5
1EAB
330
1EAA
100
AcDbDictionary
280
     1
281
     1
  3
ACAD_LAYOUTSELFREF
360
2263
  0
DICTIONARY
  5
23D0
330
23CC
100
AcDbDictionary
280
     1
281
     1
  0
DICTIONARY
  5
2479
330
246E
100
AcDbDictionary
280
     1
281
     1
  0
DICTIONARY
  5
26FC
330
2487
100
AcDbDictionary
280
     1
281
     1
  3
AcDbBlockTableRecordData
360
26FD
  0
DICTIONARY
  5
26FF
330
25B2
100
AcDbDictionary
280
     1
281
     1
  3
AcDbBlockTableRecordData
360
2700
  0
DICTIONARY
  5
2493
102
{ACAD_REACTORS
330
7
102
}
330
7
100
AcDbDictionary
281
     1
  3
ACAD_ASSOCNETWORK
350
2494
  0
XRECORD
  5
2359
102
{ACAD_REACTORS
330
7
102
}
330
7
100
AcDbXrecord
280
     1
300
ACDLT
300
2014
300
ACDLT_F_S
  0
DICTIONARY
  5
2337
102
{ACAD_REACTORS
330
7
102
}
330
7
100
AcDbDictionary
281
     1
  0
DICTIONARY
  5
2350
102
{ACAD_REACTORS
330
7
102
}
330
7
100
AcDbDictionary
281
     1
  3
Metric50
350
2351
  0
DICTIONARY
  5
1EBD
102
{ACAD_REACTORS
330
7
102
}
330
7
100
AcDbDictionary
281
     1
  0
DICTIONARY
  5
1EA3
102
{ACAD_REACTORS
330
7
102
}
330
7
100
AcDbDictionary
281
     1
  3
Layout1
350
1EA9
  3
Layout2
350
1EAF
  3
Model
350
1EA2
  0
DICTIONARY
  5
2305
102
{ACAD_REACTORS
330
7
102
}
330
7
100
AcDbDictionary
281
     1
  3
ByBlock
350
230E
  3
ByLayer
350
2306
  3
Global
350
2316
  0
DICTIONARY
  5
234C
102
{ACAD_REACTORS
330
7
102
}
330
7
100
AcDbDictionary
281
     1
  3
Standard
350
234D
  0
DICTIONARY
  5
1EBE
102
{ACAD_REACTORS
330
7
102
}
330
7
100
AcDbDictionary
281
     1
  3
Standard
350
1EC0
  0
DICTIONARY
  5
1EBF
102
{ACAD_REACTORS
330
7
102
}
330
7
100
AcDbDictionary
281
     1
  0
ACDBDICTIONARYWDFLT
  5
6
102
{ACAD_REACTORS
330
7
102
}
330
7
100
AcDbDictionary
281
     1
  3
Normal
350
5
100
AcDbDictionaryWithDefault
340
5
  0
DICTIONARY
  5
233A
102
{ACAD_REACTORS
330
7
102
}
330
7
100
AcDbDictionary
281
     1
  3
A0
350
233B
  3
A1
350
233C
  3
A2
350
233D
  3
A3
350
233E
  3
A4
350
233F
  3
A5
350
2340
  3
A6
350
2341
  3
A7
350
2342
  3
A8
350
2343
  3
A9
350
2344
  3
B0
350
2345
  3
B1
350
2346
  3
B2
350
2347
  3
B3
350
2348
  3
B4
350
2349
  3
B5
350
234A
  3
B6
350
234B
  0
DICTIONARY
  5
234E
102
{ACAD_REACTORS
330
7
102
}
330
7
100
AcDbDictionary
281
     1
  3
Metric50
350
234F
  0
DICTIONARY
  5
2338
102
{ACAD_REACTORS
330
7
102
}
330
7
100
AcDbDictionary
281
     1
  3
Standard
350
2339
  0
DICTIONARY
  5
231E
102
{ACAD_REACTORS
330
7
102
}
330
7
100
AcDbDictionary
281
     1
  3
2dWireframe
350
2324
  3
Basic
350
2323
  3
Brighten
350
232A
  3
ColorChange
350
232E
  3
Conceptual
350
2327
  3
Dim
350
2329
  3
EdgeColorOff
350
2336
  3
Facepattern
350
232D
  3
Flat
350
231F
  3
FlatWithEdges
350
2320
  3
Gouraud
350
2321
  3
GouraudWithEdges
350
2322
  3
Hidden
350
2326
  3
JitterOff
350
2334
  3
Linepattern
350
232C
  3
OverhangOff
350
2335
  3
Realistic
350
2328
  3
Shaded
350
2333
  3
Shaded with edges
350
2332
  3
Shades of Gray
350
232F
  3
Sketchy
350
2330
  3
Thicken
350
232B
  3
Wireframe
350
2325
  3
X-Ray
350
2331
  0
XRECORD
  5
26BA
102
{ACAD_REACTORS
330
7
102
}
330
7
100
AcDbXrecord
280
     1
 90
        1
330
2339
  0
DICTIONARY
  5
23B8
102
{ACAD_REACTORS
330
7
102
}
330
7
100
AcDbDictionary
281
     1
  3
CANNOSCALE
350
23BD
  3
CMLEADERSTYLE
350
23BA
  3
CTABLESTYLE
350
23B9
  3
CVIEWDETAILSTYLE
350
23BB
  3
CVIEWSECTIONSTYLE
350
23BC
  3
DIMASSOC
350
23C0
  3
INDEXCTL
350
23BF
  3
SORTENTS
350
23BE
  3
XCLIPFRAME
350
26B8
  0
XRECORD
  5
26BB
102
{ACAD_REACTORS
330
7
102
}
330
7
100
AcDbXrecord
280
     1
  1
DWGPROPS COOKIE
  2

  3

  4

  6

  7

  8
takara
  9

300
=
301
=
302
=
303
=
304
=
305
=
306
=
307
=
308
=
309
=
 40
0.036394375
 41
2453510.558637211
 42
2457560.751298935
  1

 90
        0
  0
DICTIONARY
  5
247E
102
{ACAD_REACTORS
330
247D
102
}
330
247D
100
AcDbDictionary
281
     1
  3
_LAYISO_STATE
350
247F
1001
AcLayerTools
1000
1EA2
1000
0
  0
XRECORD
  5
235B
102
{ACAD_REACTORS
330
235A
102
}
330
235A
100
AcDbXrecord
280
     1
290
     1
  0
XRECORD
  5
235D
102
{ACAD_REACTORS
330
235C
102
}
330
235C
100
AcDbXrecord
280
     1
290
     1
  0
XRECORD
  5
235F
102
{ACAD_REACTORS
330
235E
102
}
330
235E
100
AcDbXrecord
280
     1
290
     1
  0
XRECORD
  5
2363
102
{ACAD_REACTORS
330
2362
102
}
330
2362
100
AcDbXrecord
280
     1
290
     1
  0
XRECORD
  5
2365
102
{ACAD_REACTORS
330
2364
102
}
330
2364
100
AcDbXrecord
280
     1
290
     1
  0
XRECORD
  5
2369
102
{ACAD_REACTORS
330
2368
102
}
330
2368
100
AcDbXrecord
280
     1
290
     1
  0
XRECORD
  5
236B
102
{ACAD_REACTORS
330
236A
102
}
330
236A
100
AcDbXrecord
280
     1
290
     1
  0
XRECORD
  5
236D
102
{ACAD_REACTORS
330
236C
102
}
330
236C
100
AcDbXrecord
280
     1
290
     1
  0
XRECORD
  5
236F
102
{ACAD_REACTORS
330
236E
102
}
330
236E
100
AcDbXrecord
280
     1
290
     1
  0
DICTIONARY
  5
2491
102
{ACAD_REACTORS
330
1E9E
102
}
330
1E9E
100
AcDbDictionary
281
     1
  3
ACAD_ASSOCNETWORK
350
2492
  0
XRECORD
  5
2255
102
{ACAD_REACTORS
330
1E9E
102
}
330
1E9E
100
AcDbXrecord
280
     1
340
2
  0
XRECORD
  5
2262
102
{ACAD_REACTORS
330
1EA5
102
}
330
1EA5
100
AcDbXrecord
280
     1
340
1EA4
  0
XRECORD
  5
2263
102
{ACAD_REACTORS
330
1EAB
102
}
330
1EAB
100
AcDbXrecord
280
     1
340
1EAA
  0
DICTIONARY
  5
26FD
102
{ACAD_REACTORS
330
26FC
102
}
330
26FC
100
AcDbDictionary
280
     1
281
     1
  3
Edit
360
26FE
  0
DICTIONARY
  5
2700
102
{ACAD_REACTORS
330
26FF
102
}
330
26FF
100
AcDbDictionary
280
     1
281
     1
  3
Edit
360
2701
  0
ACDBASSOCNETWORK
  5
2494
102
{ACAD_REACTORS
330
2493
102
}
330
2493
100
AcDbAssocAction
 90
        1
 90
        1
330
0
360
0
 90
        0
 90
        0
 90
        0
100
AcDbAssocNetwork
 90
        0
 90
        1
 90
        1
330
2492
 90
        1
330
2492
  0
ACDBDETAILVIEWSTYLE
  5
2351
102
{ACAD_XDICTIONARY
360
26FA
102
}
102
{ACAD_REACTORS
330
2350
102
}
330
2350
100
AcDbModelDocViewStyle
 70
     0
  3
Metric50
290
     0
100
AcDbDetailViewStyle
 70
     0
 71
     0
 90
        3
 71
     1
340
9
 40
5.0
340
0
 40
5.0
300

 40
0.0
280
     1
 71
     2
340
8
 90
       25
 71
     3
340
9
 40
5.0
 90
        0
 40
15.0
 90
        1
300
%<\AcVar ViewDetailId>% (%<\AcVar ViewScale \f "%sn">%)
 71
     4
340
8
 90
       25
340
8
 90
       25
280
     0
  0
LAYOUT
  5
1EA9
102
{ACAD_XDICTIONARY
360
26BE
102
}
102
{ACAD_REACTORS
330
1EA3
102
}
330
1EA3
100
AcDbPlotSettings
  1

  2
None
  4

  6

 40
0.0
 41
0.0
 42
0.0
 43
0.0
 44
0.0
 45
0.0
 46
0.0
 47
0.0
 48
0.0
 49
0.0
140
0.0
141
0.0
142
1.0
143
1.0
 70
   688
 72
     0
 73
     0
 74
     5
  7
monochrome.ctb
 75
    16
147
1.0
148
0.0
149
0.0
100
AcDbLayout
  1
Layout1
 70
     1
 71
     1
 10
0.0
 20
0.0
 11
12.0
 21
9.0
 12
0.0
 22
0.0
 32
0.0
 14
0.0
 24
0.0
 34
0.0
 15
0.0
 25
0.0
 35
0.0
146
0.0
 13
0.0
 23
0.0
 33
0.0
 16
1.0
 26
0.0
 36
0.0
 17
0.0
 27
1.0
 37
0.0
 76
     0
330
1EA4
  0
LAYOUT
  5
1EAF
102
{ACAD_XDICTIONARY
360
26C0
102
}
102
{ACAD_REACTORS
330
1EA3
102
}
330
1EA3
100
AcDbPlotSettings
  1

  2
None
  4

  6

 40
0.0
 41
0.0
 42
0.0
 43
0.0
 44
0.0
 45
0.0
 46
0.0
 47
0.0
 48
0.0
 49
0.0
140
0.0
141
0.0
142
1.0
143
1.0
 70
   688
 72
     0
 73
     0
 74
     5
  7
monochrome.ctb
 75
    16
147
1.0
148
0.0
149
0.0
100
AcDbLayout
  1
Layout2
 70
     1
 71
     2
 10
0.0
 20
0.0
 11
12.0
 21
9.0
 12
0.0
 22
0.0
 32
0.0
 14
0.0
 24
0.0
 34
0.0
 15
0.0
 25
0.0
 35
0.0
146
0.0
 13
0.0
 23
0.0
 33
0.0
 16
1.0
 26
0.0
 36
0.0
 17
0.0
 27
1.0
 37
0.0
 76
     0
330
1EAA
  0
LAYOUT
  5
1EA2
102
{ACAD_XDICTIONARY
360
26BC
102
}
102
{ACAD_REACTORS
330
1EA3
102
}
330
1EA3
100
AcDbPlotSettings
  1

  2
EPSON LP-9400
  4
A4
  6

 40
5.873749732971191
 41
5.873747825622558
 42
5.873748779296875
 43
5.873748779296875
 44
209.9733276367187
 45
297.0106506347656
 46
2.339999999999999
 47
0.0
 48
0.0
 49
0.0
140
0.0
141
0.0
142
1.0
143
9.816891609963194
 70
 11956
 72
     1
 73
     1
 74
     1
  7
monochrome.ctb
 75
     0
147
0.1018652379725877
148
1264.94917075748
149
959.6633564695521
100
AcDbLayout
  1
Model
 70
     1
 71
     0
 10
0.0
 20
0.0
 11
12.0
 21
9.0
 12
0.0
 22
0.0
 32
0.0
 14
0.0
 24
0.0
 34
0.0
 15
0.0
 25
0.0
 35
0.0
146
0.0
 13
0.0
 23
0.0
 33
0.0
 16
1.0
 26
0.0
 36
0.0
 17
0.0
 27
1.0
 37
0.0
 76
     0
330
2
331
2303
  0
MATERIAL
  5
230E
102
{ACAD_XDICTIONARY
360
230F
102
}
102
{ACAD_REACTORS
330
2305
102
}
330
2305
100
AcDbMaterial
  1
ByBlock
 72
     0
 43
0.0008202099737533
 43
0.0
 43
0.0
 43
0.0
 43
0.0
 43
0.0008202099737533
 43
0.0
 43
0.0
 43
0.0
 43
0.0
 43
1.0
 43
0.0
 43
0.0
 43
0.0
 43
0.0
 43
1.0
 77
     0
 47
0.0008202099737533
 47
0.0
 47
0.0
 47
0.0
 47
0.0
 47
0.0008202099737533
 47
0.0
 47
0.0
 47
0.0
 47
0.0
 47
1.0
 47
0.0
 47
0.0
 47
0.0
 47
0.0
 47
1.0
171
     0
 49
0.0008202099737533
 49
0.0
 49
0.0
 49
0.0
 49
0.0
 49
0.0008202099737533
 49
0.0
 49
0.0
 49
0.0
 49
0.0
 49
1.0
 49
0.0
 49
0.0
 49
0.0
 49
0.0
 49
1.0
175
     0
142
0.0008202099737533
142
0.0
142
0.0
142
0.0
142
0.0
142
0.0008202099737533
142
0.0
142
0.0
142
0.0
142
0.0
142
1.0
142
0.0
142
0.0
142
0.0
142
0.0
142
1.0
179
     0
144
0.0008202099737533
144
0.0
144
0.0
144
0.0
144
0.0
144
0.0008202099737533
144
0.0
144
0.0
144
0.0
144
0.0
144
1.0
144
0.0
144
0.0
144
0.0
144
0.0
144
1.0
147
0.0008202099737533
147
0.0
147
0.0
147
0.0
147
0.0
147
0.0008202099737533
147
0.0
147
0.0
147
0.0
147
0.0
147
1.0
147
0.0
147
0.0
147
0.0
147
0.0
147
1.0
  0
MATERIAL
  5
2306
102
{ACAD_XDICTIONARY
360
2307
102
}
102
{ACAD_REACTORS
330
2305
102
}
330
2305
100
AcDbMaterial
  1
ByLayer
 72
     0
 43
0.0008202099737533
 43
0.0
 43
0.0
 43
0.0
 43
0.0
 43
0.0008202099737533
 43
0.0
 43
0.0
 43
0.0
 43
0.0
 43
1.0
 43
0.0
 43
0.0
 43
0.0
 43
0.0
 43
1.0
 77
     0
 47
0.0008202099737533
 47
0.0
 47
0.0
 47
0.0
 47
0.0
 47
0.0008202099737533
 47
0.0
 47
0.0
 47
0.0
 47
0.0
 47
1.0
 47
0.0
 47
0.0
 47
0.0
 47
0.0
 47
1.0
171
     0
 49
0.0008202099737533
 49
0.0
 49
0.0
 49
0.0
 49
0.0
 49
0.0008202099737533
 49
0.0
 49
0.0
 49
0.0
 49
0.0
 49
1.0
 49
0.0
 49
0.0
 49
0.0
 49
0.0
 49
1.0
175
     0
142
0.0008202099737533
142
0.0
142
0.0
142
0.0
142
0.0
142
0.0008202099737533
142
0.0
142
0.0
142
0.0
142
0.0
142
1.0
142
0.0
142
0.0
142
0.0
142
0.0
142
1.0
179
     0
144
0.0008202099737533
144
0.0
144
0.0
144
0.0
144
0.0
144
0.0008202099737533
144
0.0
144
0.0
144
0.0
144
0.0
144
1.0
144
0.0
144
0.0
144
0.0
144
0.0
144
1.0
147
0.0008202099737533
147
0.0
147
0.0
147
0.0
147
0.0
147
0.0008202099737533
147
0.0
147
0.0
147
0.0
147
0.0
147
1.0
147
0.0
147
0.0
147
0.0
147
0.0
147
1.0
  0
MATERIAL
  5
2316
102
{ACAD_XDICTIONARY
360
2317
102
}
102
{ACAD_REACTORS
330
2305
102
}
330
2305
100
AcDbMaterial
  1
Global
 72
     0
 43
0.0008202099737533
 43
0.0
 43
0.0
 43
0.0
 43
0.0
 43
0.0008202099737533
 43
0.0
 43
0.0
 43
0.0
 43
0.0
 43
1.0
 43
0.0
 43
0.0
 43
0.0
 43
0.0
 43
1.0
 77
     0
 47
0.0008202099737533
 47
0.0
 47
0.0
 47
0.0
 47
0.0
 47
0.0008202099737533
 47
0.0
 47
0.0
 47
0.0
 47
0.0
 47
1.0
 47
0.0
 47
0.0
 47
0.0
 47
0.0
 47
1.0
171
     0
 49
0.0008202099737533
 49
0.0
 49
0.0
 49
0.0
 49
0.0
 49
0.0008202099737533
 49
0.0
 49
0.0
 49
0.0
 49
0.0
 49
1.0
 49
0.0
 49
0.0
 49
0.0
 49
0.0
 49
1.0
175
     0
142
0.0008202099737533
142
0.0
142
0.0
142
0.0
142
0.0
142
0.0008202099737533
142
0.0
142
0.0
142
0.0
142
0.0
142
1.0
142
0.0
142
0.0
142
0.0
142
0.0
142
1.0
179
     0
144
0.0008202099737533
144
0.0
144
0.0
144
0.0
144
0.0
144
0.0008202099737533
144
0.0
144
0.0
144
0.0
144
0.0
144
1.0
144
0.0
144
0.0
144
0.0
144
0.0
144
1.0
147
0.0008202099737533
147
0.0
147
0.0
147
0.0
147
0.0
147
0.0008202099737533
147
0.0
147
0.0
147
0.0
147
0.0
147
1.0
147
0.0
147
0.0
147
0.0
147
0.0
147
1.0
  0
MLEADERSTYLE
  5
234D
102
{ACAD_XDICTIONARY
360
26F6
102
}
102
{ACAD_REACTORS
330
234C
102
}
330
234C
100
AcDbMLeaderStyle
170
     2
171
     1
172
     0
 90
        2
 40
0.0
 41
0.0
173
     1
 91
-1056964608
340
1EB4
 92
       -2
290
     1
 42
2.0
291
     1
 43
0.36
  3
Standard
 44
4.0
300

342
9
174
     1
178
     6
175
     1
176
     0
 93
-1056964608
 45
4.0
292
     0
297
     0
 46
4.0
 94
-1056964608
 47
1.0
 49
1.0
140
1.0
293
     1
141
0.0
294
     1
177
     0
142
1.0
295
     0
296
     0
143
0.125
1001
ACAD_MLEADERVER
1070
     2
  0
MLINESTYLE
  5
1EC0
102
{ACAD_REACTORS
330
1EBE
102
}
330
1EBE
100
AcDbMlineStyle
  2
STANDARD
 70
     0
  3

 62
   256
 51
90.0
 52
90.0
 71
     2
 49
0.5
 62
   256
  6
BYLAYER
 49
-0.5
 62
   256
  6
BYLAYER
  0
ACDBPLACEHOLDER
  5
5
102
{ACAD_REACTORS
330
6
102
}
330
6
  0
SCALE
  5
233B
102
{ACAD_REACTORS
330
233A
102
}
330
233A
100
AcDbScale
 70
     0
300
1:1
140
1.0
141
1.0
290
     1
  0
SCALE
  5
233C
102
{ACAD_REACTORS
330
233A
102
}
330
233A
100
AcDbScale
 70
     0
300
1:2
140
1.0
141
2.0
290
     0
  0
SCALE
  5
233D
102
{ACAD_REACTORS
330
233A
102
}
330
233A
100
AcDbScale
 70
     0
300
1:4
140
1.0
141
4.0
290
     0
  0
SCALE
  5
233E
102
{ACAD_REACTORS
330
233A
102
}
330
233A
100
AcDbScale
 70
     0
300
1:5
140
1.0
141
5.0
290
     0
  0
SCALE
  5
233F
102
{ACAD_REACTORS
330
233A
102
}
330
233A
100
AcDbScale
 70
     0
300
1:8
140
1.0
141
8.0
290
     0
  0
SCALE
  5
2340
102
{ACAD_REACTORS
330
233A
102
}
330
233A
100
AcDbScale
 70
     0
300
1:10
140
1.0
141
10.0
290
     0
  0
SCALE
  5
2341
102
{ACAD_REACTORS
330
233A
102
}
330
233A
100
AcDbScale
 70
     0
300
1:16
140
1.0
141
16.0
290
     0
  0
SCALE
  5
2342
102
{ACAD_REACTORS
330
233A
102
}
330
233A
100
AcDbScale
 70
     0
300
1:20
140
1.0
141
20.0
290
     0
  0
SCALE
  5
2343
102
{ACAD_REACTORS
330
233A
102
}
330
233A
100
AcDbScale
 70
     0
300
1:30
140
1.0
141
30.0
290
     0
  0
SCALE
  5
2344
102
{ACAD_REACTORS
330
233A
102
}
330
233A
100
AcDbScale
 70
     0
300
1:40
140
1.0
141
40.0
290
     0
  0
SCALE
  5
2345
102
{ACAD_REACTORS
330
233A
102
}
330
233A
100
AcDbScale
 70
     0
300
1:50
140
1.0
141
50.0
290
     0
  0
SCALE
  5
2346
102
{ACAD_REACTORS
330
233A
102
}
330
233A
100
AcDbScale
 70
     0
300
1:100
140
1.0
141
100.0
290
     0
  0
SCALE
  5
2347
102
{ACAD_REACTORS
330
233A
102
}
330
233A
100
AcDbScale
 70
     0
300
2:1
140
2.0
141
1.0
290
     0
  0
SCALE
  5
2348
102
{ACAD_REACTORS
330
233A
102
}
330
233A
100
AcDbScale
 70
     0
300
4:1
140
4.0
141
1.0
290
     0
  0
SCALE
  5
2349
102
{ACAD_REACTORS
330
233A
102
}
330
233A
100
AcDbScale
 70
     0
300
8:1
140
8.0
141
1.0
290
     0
  0
SCALE
  5
234A
102
{ACAD_REACTORS
330
233A
102
}
330
233A
100
AcDbScale
 70
     0
300
10:1
140
10.0
141
1.0
290
     0
  0
SCALE
  5
234B
102
{ACAD_REACTORS
330
233A
102
}
330
233A
100
AcDbScale
 70
     0
300
100:1
140
100.0
141
1.0
290
     0
  0
ACDBSECTIONVIEWSTYLE
  5
234F
102
{ACAD_XDICTIONARY
360
26F8
102
}
102
{ACAD_REACTORS
330
234E
102
}
330
234E
100
AcDbModelDocViewStyle
 70
     0
  3
Metric50
290
     0
100
AcDbSectionViewStyle
 70
     0
 71
     0
 90
      102
 71
     1
340
9
 40
5.0
340
0
340
0
 40
5.0
300
I, O, Q, S, X, Z
 40
10.0
 90
        0
 40
2.5
 90
        0
 71
     2
340
8
 90
       25
340
8
 90
       50
 40
5.0
 40
2.5
 40
5.0
 71
     3
340
9
 40
5.0
 90
        0
 40
15.0
 90
        1
300
%<\AcVar ViewSectionStartId>%-%<\AcVar ViewSectionEndId>% (%<\AcVar ViewScale \f "%sn">%)
 71
     4
300
ANSI31
 40
1.0
 90
        0
290
     0
290
     0
 90
        6
 40
0.0
 40
1.570796326794896
 40
0.2617993877991494
 40
1.308996938995747
 40
-0.2617993877991494
 40
1.832595714594046
  0
TABLESTYLE
  5
2339
102
{ACAD_XDICTIONARY
360
2371
102
}
102
{ACAD_REACTORS
330
2338
102
}
330
2338
100
AcDbTableStyle
  3
Standard
 70
     0
 71
     0
 40
1.5
 41
1.5
280
     0
281
     0
  7
Standard
140
4.5
170
     2
 62
     0
 63
     7
283
     0
274
    -2
284
     1
 64
     0
275
    -2
285
     1
 65
     0
276
    -2
286
     1
 66
     0
277
    -2
287
     1
 67
     0
278
    -2
288
     1
 68
     0
279
    -2
289
     1
 69
     0
  7
Standard
140
6.0
170
     5
 62
     0
 63
     7
283
     0
274
    -2
284
     1
 64
     0
275
    -2
285
     1
 65
     0
276
    -2
286
     1
 66
     0
277
    -2
287
     1
 67
     0
278
    -2
288
     1
 68
     0
279
    -2
289
     1
 69
     0
  7
Standard
140
4.5
170
     5
 62
     0
 63
     7
283
     0
274
    -2
284
     1
 64
     0
275
    -2
285
     1
 65
     0
276
    -2
286
     1
 66
     0
277
    -2
287
     1
 67
     0
278
    -2
288
     1
 68
     0
279
    -2
289
     1
 69
     0
  0
VISUALSTYLE
  5
2324
102
{ACAD_XDICTIONARY
360
26CF
102
}
102
{ACAD_REACTORS
330
231E
102
}
330
231E
100
AcDbVisualStyle
  2
2dWireframe
 70
     4
 71
     0
 72
     2
 73
     0
 90
        0
 40
-0.6
 41
-30.0
 62
     5
 63
     7
 74
     1
 91
        4
 64
     7
 65
   257
 75
     1
175
     1
 42
1.0
 92
        0
 66
   257
 43
1.0
 76
     1
 77
     6
 78
     2
 67
     7
 79
     5
170
     0
171
     0
290
     0
174
     0
 93
        1
 44
0.0
173
     0
291
     0
 45
0.0
1001
ACAD
1000
AcDbSavedByObjectVersion
1070
     0
  0
VISUALSTYLE
  5
2323
102
{ACAD_XDICTIONARY
360
26CD
102
}
102
{ACAD_REACTORS
330
231E
102
}
330
231E
100
AcDbVisualStyle
  2
Basic
 70
     7
 71
     1
 72
     0
 73
     1
 90
        0
 40
-0.6
 41
-30.0
 62
     5
 63
     7
 74
     0
 91
        4
 64
     7
 65
   257
 75
     1
175
     1
 42
1.0
 92
        8
 66
     7
 43
1.0
 76
     1
 77
     6
 78
     2
 67
     7
 79
     5
170
     0
171
     0
290
     0
174
     0
 93
        1
 44
0.0
173
     0
291
     1
 45
0.0
1001
ACAD
1000
AcDbSavedByObjectVersion
1070
     0
  0
VISUALSTYLE
  5
232A
102
{ACAD_XDICTIONARY
360
26DB
102
}
102
{ACAD_REACTORS
330
231E
102
}
330
231E
100
AcDbVisualStyle
  2
Brighten
 70
    12
 71
     2
 72
     2
 73
     0
 90
        0
 40
-0.6
 41
-30.0
 62
     5
 63
     7
 74
     1
 91
        4
 64
     7
 65
   257
 75
     1
175
     1
 42
1.0
 92
        8
 66
     7
 43
1.0
 76
     1
 77
     6
 78
     2
 67
     7
 79
     5
170
     0
171
     0
290
     0
174
     0
 93
        1
 44
50.0
173
     0
291
     1
 45
0.0
1001
ACAD
1000
AcDbSavedByObjectVersion
1070
     0
  0
VISUALSTYLE
  5
232E
102
{ACAD_XDICTIONARY
360
26E3
102
}
102
{ACAD_REACTORS
330
231E
102
}
330
231E
100
AcDbVisualStyle
  2
ColorChange
 70
    16
 71
     2
 72
     2
 73
     3
 90
        0
 40
-0.6
 41
-30.0
 62
     5
 63
     8
 74
     1
 91
        4
 64
     7
 65
   257
 75
     1
175
     1
 42
1.0
 92
        8
 66
     8
 43
1.0
 76
     1
 77
     6
 78
     2
 67
     7
 79
     5
170
     0
171
     0
290
     0
174
     0
 93
        1
 44
0.0
173
     0
291
     1
 45
0.0
1001
ACAD
1000
AcDbSavedByObjectVersion
1070
     0
  0
VISUALSTYLE
  5
2327
102
{ACAD_XDICTIONARY
360
26D5
102
}
102
{ACAD_REACTORS
330
231E
102
}
330
231E
100
AcDbVisualStyle
  2
Conceptual
 70
     9
 71
     3
 72
     2
 73
     0
 90
        0
 40
-0.6
 41
-30.0
 62
     5
 63
     7
 74
     2
 91
        2
 64
     7
 65
   257
 75
     1
175
     1
 42
179.0
 92
        8
 66
     7
 43
1.0
 76
     1
 77
     6
 78
     2
 67
     7
 79
     3
170
     0
171
     0
290
     0
174
     0
 93
        1
 44
0.0
173
     0
291
     0
 45
0.0
1001
ACAD
1000
AcDbSavedByObjectVersion
1070
     0
  0
VISUALSTYLE
  5
2329
102
{ACAD_XDICTIONARY
360
26D9
102
}
102
{ACAD_REACTORS
330
231E
102
}
330
231E
100
AcDbVisualStyle
  2
Dim
 70
    11
 71
     2
 72
     2
 73
     0
 90
        0
 40
-0.6
 41
-30.0
 62
     5
 63
     7
 74
     1
 91
        4
 64
     7
 65
   257
 75
     1
175
     1
 42
1.0
 92
        8
 66
     7
 43
1.0
 76
     1
 77
     6
 78
     2
 67
     7
 79
     5
170
     0
171
     0
290
     0
174
     0
 93
        1
 44
-50.0
173
     0
291
     1
 45
0.0
1001
ACAD
1000
AcDbSavedByObjectVersion
1070
     0
  0
VISUALSTYLE
  5
2336
102
{ACAD_XDICTIONARY
360
26F3
102
}
102
{ACAD_REACTORS
330
231E
102
}
330
231E
100
AcDbVisualStyle
  2
EdgeColorOff
 70
    22
 71
     2
 72
     2
 73
     0
 90
        0
 40
-0.6
 41
-30.0
 62
     5
 63
     7
 74
     1
 91
        4
 64
     7
 65
   257
 75
     1
175
     1
 42
1.0
 92
        8
 66
     7
 43
1.0
 76
     1
 77
     6
 78
     2
 67
     7
 79
     5
170
     0
171
     0
290
     0
174
     0
 93
        1
 44
0.0
173
     0
291
     1
 45
0.0
1001
ACAD
1000
AcDbSavedByObjectVersion
1070
     0
  0
VISUALSTYLE
  5
232D
102
{ACAD_XDICTIONARY
360
26E1
102
}
102
{ACAD_REACTORS
330
231E
102
}
330
231E
100
AcDbVisualStyle
  2
Facepattern
 70
    15
 71
     2
 72
     2
 73
     0
 90
        0
 40
-0.6
 41
-30.0
 62
     5
 63
     7
 74
     1
 91
        4
 64
     7
 65
   257
 75
     1
175
     1
 42
1.0
 92
        8
 66
     7
 43
1.0
 76
     1
 77
     6
 78
     2
 67
     7
 79
     5
170
     0
171
     0
290
     0
174
     0
 93
        1
 44
0.0
173
     0
291
     1
 45
0.0
1001
ACAD
1000
AcDbSavedByObjectVersion
1070
     0
  0
VISUALSTYLE
  5
231F
102
{ACAD_XDICTIONARY
360
26C5
102
}
102
{ACAD_REACTORS
330
231E
102
}
330
231E
100
AcDbVisualStyle
  2
Flat
 70
     0
 71
     2
 72
     1
 73
     1
 90
        2
 40
-0.6
 41
30.0
 62
     5
 63
     7
 74
     0
 91
        0
 64
     7
 65
   257
 75
     1
175
     1
 42
1.0
 92
        8
 66
     7
 43
1.0
 76
     1
 77
     6
 78
     2
 67
     7
 79
     5
170
     0
171
     0
290
     0
174
     0
 93
       13
 44
0.0
173
     0
291
     1
 45
0.0
1001
ACAD
1000
AcDbSavedByObjectVersion
1070
     0
  0
VISUALSTYLE
  5
2320
102
{ACAD_XDICTIONARY
360
26C7
102
}
102
{ACAD_REACTORS
330
231E
102
}
330
231E
100
AcDbVisualStyle
  2
FlatWithEdges
 70
     1
 71
     2
 72
     1
 73
     1
 90
        2
 40
-0.6
 41
30.0
 62
     5
 63
     7
 74
     1
 91
        0
 64
     7
 65
   257
 75
     1
175
     1
 42
1.0
 92
        0
 66
   257
 43
1.0
 76
     1
 77
     6
 78
     2
 67
     7
 79
     5
170
     0
171
     0
290
     0
174
     0
 93
       13
 44
0.0
173
     0
291
     1
 45
0.0
1001
ACAD
1000
AcDbSavedByObjectVersion
1070
     0
  0
VISUALSTYLE
  5
2321
102
{ACAD_XDICTIONARY
360
26C9
102
}
102
{ACAD_REACTORS
330
231E
102
}
330
231E
100
AcDbVisualStyle
  2
Gouraud
 70
     2
 71
     2
 72
     2
 73
     1
 90
        2
 40
-0.6
 41
30.0
 62
     5
 63
     7
 74
     0
 91
        0
 64
     7
 65
   257
 75
     1
175
     1
 42
1.0
 92
        0
 66
     7
 43
1.0
 76
     1
 77
     6
 78
     2
 67
     7
 79
     5
170
     0
171
     0
290
     0
174
     0
 93
       13
 44
0.0
173
     0
291
     1
 45
0.0
1001
ACAD
1000
AcDbSavedByObjectVersion
1070
     0
  0
VISUALSTYLE
  5
2322
102
{ACAD_XDICTIONARY
360
26CB
102
}
102
{ACAD_REACTORS
330
231E
102
}
330
231E
100
AcDbVisualStyle
  2
GouraudWithEdges
 70
     3
 71
     2
 72
     2
 73
     1
 90
        2
 40
-0.6
 41
30.0
 62
     5
 63
     7
 74
     1
 91
        0
 64
     7
 65
   257
 75
     1
175
     1
 42
1.0
 92
        0
 66
   257
 43
1.0
 76
     1
 77
     6
 78
     2
 67
     7
 79
     5
170
     0
171
     0
290
     0
174
     0
 93
       13
 44
0.0
173
     0
291
     1
 45
0.0
1001
ACAD
1000
AcDbSavedByObjectVersion
1070
     0
  0
VISUALSTYLE
  5
2326
102
{ACAD_XDICTIONARY
360
26D3
102
}
102
{ACAD_REACTORS
330
231E
102
}
330
231E
100
AcDbVisualStyle
  2
Hidden
 70
     6
 71
     1
 72
     2
 73
     2
 90
        0
 40
-0.6
 41
-30.0
 62
     5
 63
     7
 74
     2
 91
        2
 64
     7
 65
   257
 75
     2
175
     1
 42
40.0
 92
        0
 66
   257
 43
1.0
 76
     1
 77
     6
 78
     2
 67
     7
 79
     3
170
     0
171
     0
290
     0
174
     0
 93
        1
 44
0.0
173
     0
291
     0
 45
0.0
1001
ACAD
1000
AcDbSavedByObjectVersion
1070
     0
  0
VISUALSTYLE
  5
2334
102
{ACAD_XDICTIONARY
360
26EF
102
}
102
{ACAD_REACTORS
330
231E
102
}
330
231E
100
AcDbVisualStyle
  2
JitterOff
 70
    20
 71
     2
 72
     2
 73
     0
 90
        0
 40
-0.6
 41
-30.0
 62
     5
 63
     7
 74
     1
 91
        4
 64
     7
 65
   257
 75
     1
175
     1
 42
1.0
 92
       10
 66
     7
 43
1.0
 76
     1
 77
     6
 78
     2
 67
     7
 79
     5
170
     0
171
     0
290
     0
174
     0
 93
        1
 44
0.0
173
     0
291
     1
 45
0.0
1001
ACAD
1000
AcDbSavedByObjectVersion
1070
     0
  0
VISUALSTYLE
  5
232C
102
{ACAD_XDICTIONARY
360
26DF
102
}
102
{ACAD_REACTORS
330
231E
102
}
330
231E
100
AcDbVisualStyle
  2
Linepattern
 70
    14
 71
     2
 72
     2
 73
     0
 90
        0
 40
-0.6
 41
-30.0
 62
     5
 63
     7
 74
     1
 91
        4
 64
     7
 65
   257
 75
     7
175
     7
 42
1.0
 92
        8
 66
     7
 43
1.0
 76
     1
 77
     6
 78
     2
 67
     7
 79
     5
170
     0
171
     0
290
     0
174
     0
 93
        1
 44
0.0
173
     0
291
     1
 45
0.0
1001
ACAD
1000
AcDbSavedByObjectVersion
1070
     0
  0
VISUALSTYLE
  5
2335
102
{ACAD_XDICTIONARY
360
26F1
102
}
102
{ACAD_REACTORS
330
231E
102
}
330
231E
100
AcDbVisualStyle
  2
OverhangOff
 70
    21
 71
     2
 72
     2
 73
     0
 90
        0
 40
-0.6
 41
-30.0
 62
     5
 63
     7
 74
     1
 91
        4
 64
     7
 65
   257
 75
     1
175
     1
 42
1.0
 92
        9
 66
     7
 43
1.0
 76
     1
 77
     6
 78
     2
 67
     7
 79
     5
170
     0
171
     0
290
     0
174
     0
 93
        1
 44
0.0
173
     0
291
     1
 45
0.0
1001
ACAD
1000
AcDbSavedByObjectVersion
1070
     0
  0
VISUALSTYLE
  5
2328
102
{ACAD_XDICTIONARY
360
26D7
102
}
102
{ACAD_REACTORS
330
231E
102
}
330
231E
100
AcDbVisualStyle
  2
Realistic
 70
     8
 71
     2
 72
     2
 73
     0
 90
        2
 40
-0.6
 41
30.0
 62
     5
 63
     7
 74
     0
 91
        0
 64
     7
 65
   257
 75
     1
175
     1
 42
1.0
 92
        8
 66
   257
 43
1.0
 76
     1
 77
     6
 78
     2
 67
     7
 79
     3
170
     0
171
     0
290
     0
174
     0
 93
       13
 44
0.0
173
     0
291
     0
 45
0.0
1001
ACAD
1000
AcDbSavedByObjectVersion
1070
     0
  0
VISUALSTYLE
  5
2333
102
{ACAD_XDICTIONARY
360
26ED
102
}
102
{ACAD_REACTORS
330
231E
102
}
330
231E
100
AcDbVisualStyle
  2
Shaded
 70
    27
 71
     2
 72
     2
 73
     1
 90
        2
 40
-0.6
 41
30.0
 62
     5
 63
     7
 74
     0
 91
        4
 64
     7
 65
   257
 75
     1
175
     1
 42
1.0
 92
        8
 66
   257
 43
1.0
 76
     1
 77
     6
 78
     2
 67
     8
 79
     3
170
     0
171
     0
290
     0
174
     0
 93
        5
 44
0.0
173
     0
291
     0
 45
0.0
1001
ACAD
1000
AcDbSavedByObjectVersion
1070
     0
  0
VISUALSTYLE
  5
2332
102
{ACAD_XDICTIONARY
360
26EB
102
}
102
{ACAD_REACTORS
330
231E
102
}
330
231E
100
AcDbVisualStyle
  2
Shaded with edges
 70
    26
 71
     2
 72
     2
 73
     1
 90
        2
 40
-0.6
 41
30.0
 62
     5
 63
     7
 74
     1
 91
       10
 64
     7
 65
   257
 75
     2
175
     1
 42
1.0
 92
        8
 66
   257
 43
1.0
 76
     1
 77
     6
 78
     2
 67
     7
 79
     3
170
     0
171
     0
290
     0
174
     0
 93
        5
 44
0.0
173
     0
291
     0
 45
0.0
1001
ACAD
1000
AcDbSavedByObjectVersion
1070
     0
  0
VISUALSTYLE
  5
232F
102
{ACAD_XDICTIONARY
360
26E5
102
}
102
{ACAD_REACTORS
330
231E
102
}
330
231E
100
AcDbVisualStyle
  2
Shades of Gray
 70
    23
 71
     2
 72
     2
 73
     3
 90
        0
 40
-0.6
 41
-30.0
 62
     5
 63
     7
 74
     2
 91
        2
 64
     7
 65
     7
 75
     1
175
     1
 42
40.0
 92
        8
 66
     7
 43
1.0
 76
     1
 77
     6
 78
     2
 67
     7
 79
     3
170
     0
171
     0
290
     0
174
     0
 93
        1
 44
0.0
173
     0
291
     0
 45
0.0
1001
ACAD
1000
AcDbSavedByObjectVersion
1070
     0
  0
VISUALSTYLE
  5
2330
102
{ACAD_XDICTIONARY
360
26E7
102
}
102
{ACAD_REACTORS
330
231E
102
}
330
231E
100
AcDbVisualStyle
  2
Sketchy
 70
    24
 71
     1
 72
     2
 73
     2
 90
        0
 40
-0.6
 41
-30.0
 62
     5
 63
     7
 74
     2
 91
        2
 64
     7
 65
     7
 75
     1
175
     1
 42
40.0
 92
       11
 66
     7
 43
1.0
 76
     1
 77
     6
 78
     2
 67
     7
 79
     6
170
     0
171
     0
290
     0
174
     0
 93
        1
 44
0.0
173
     0
291
     0
 45
0.0
1001
ACAD
1000
AcDbSavedByObjectVersion
1070
     0
  0
VISUALSTYLE
  5
232B
102
{ACAD_XDICTIONARY
360
26DD
102
}
102
{ACAD_REACTORS
330
231E
102
}
330
231E
100
AcDbVisualStyle
  2
Thicken
 70
    13
 71
     2
 72
     2
 73
     0
 90
        0
 40
-0.6
 41
-30.0
 62
     5
 63
     7
 74
     1
 91
        4
 64
     7
 65
   257
 75
     1
175
     1
 42
1.0
 92
       12
 66
     7
 43
1.0
 76
     1
 77
     6
 78
     2
 67
     7
 79
     5
170
     0
171
     0
290
     0
174
     0
 93
        1
 44
0.0
173
     0
291
     1
 45
0.0
1001
ACAD
1000
AcDbSavedByObjectVersion
1070
     0
  0
VISUALSTYLE
  5
2325
102
{ACAD_XDICTIONARY
360
26D1
102
}
102
{ACAD_REACTORS
330
231E
102
}
330
231E
100
AcDbVisualStyle
  2
Wireframe
 70
     5
 71
     0
 72
     2
 73
     0
 90
        0
 40
-0.6
 41
-30.0
 62
     5
 63
     7
 74
     1
 91
        4
 64
     7
 65
   257
 75
     1
175
     1
 42
1.0
 92
        0
 66
   257
 43
1.0
 76
     1
 77
     6
 78
     2
 67
     7
 79
     3
170
     0
171
     0
290
     0
174
     0
 93
        1
 44
0.0
173
     0
291
     0
 45
0.0
1001
ACAD
1000
AcDbSavedByObjectVersion
1070
     0
  0
VISUALSTYLE
  5
2331
102
{ACAD_XDICTIONARY
360
26E9
102
}
102
{ACAD_REACTORS
330
231E
102
}
330
231E
100
AcDbVisualStyle
  2
X-Ray
 70
    25
 71
     2
 72
     2
 73
     1
 90
        1
 40
0.5
 41
-30.0
 62
     5
 63
     7
 74
     1
 91
        0
 64
     7
 65
   257
 75
     1
175
     1
 42
1.0
 92
        8
 66
     7
 43
1.0
 76
     1
 77
     6
 78
     2
 67
     7
 79
     3
170
     0
171
     0
290
     0
174
     0
 93
       13
 44
0.0
173
     0
291
     0
 45
0.0
1001
ACAD
1000
AcDbSavedByObjectVersion
1070
     0
  0
DICTIONARYVAR
  5
23BD
102
{ACAD_REACTORS
330
23B8
102
}
330
23B8
100
DictionaryVariables
280
     0
  1
1:1
  0
DICTIONARYVAR
  5
23BA
102
{ACAD_REACTORS
330
23B8
102
}
330
23B8
100
DictionaryVariables
280
     0
  1
STANDARD
  0
DICTIONARYVAR
  5
23B9
102
{ACAD_REACTORS
330
23B8
102
}
330
23B8
100
DictionaryVariables
280
     0
  1
STANDARD
  0
DICTIONARYVAR
  5
23BB
102
{ACAD_REACTORS
330
23B8
102
}
330
23B8
100
DictionaryVariables
280
     0
  1
Metric50
  0
DICTIONARYVAR
  5
23BC
102
{ACAD_REACTORS
330
23B8
102
}
330
23B8
100
DictionaryVariables
280
     0
  1
Metric50
  0
DICTIONARYVAR
  5
23C0
102
{ACAD_REACTORS
330
23B8
102
}
330
23B8
100
DictionaryVariables
280
     0
  1
1
  0
DICTIONARYVAR
  5
23BF
102
{ACAD_REACTORS
330
23B8
102
}
330
23B8
100
DictionaryVariables
280
     0
  1
0
  0
DICTIONARYVAR
  5
23BE
102
{ACAD_REACTORS
330
23B8
102
}
330
23B8
100
DictionaryVariables
280
     0
  1
127
  0
DICTIONARYVAR
  5
26B8
102
{ACAD_REACTORS
330
23B8
102
}
330
23B8
100
DictionaryVariables
280
     0
  1
2
  0
XRECORD
  5
247F
102
{ACAD_XDICTIONARY
360
2480
102
}
102
{ACAD_REACTORS
330
247E
102
}
330
247E
100
AcDbXrecord
280
     1
 91
      535
301

290
     0
302
本体
330
22C0
 90
        8
 62
    51
370
    13
331
8
  1
色_51
440
        0
330
22BB
 90
        8
 62
   112
370
    13
331
D4
  1
色_112
440
        0
330
22B6
 90
        8
 62
   112
370
    13
331
8
  1
色_112
440
        0
330
22B1
 90
        8
 62
     1
370
     5
331
FA
  1
色_1
440
        0
330
200C
 90
        8
 62
     3
370
     9
331
8
  1
色_3
440
        0
330
AC
 90
        0
 62
     7
370
    -3
331
8
  1
色_7
440
        0
330
11
 90
        8
 62
     7
370
    -3
331
8
  1
色_7
440
        0
330
5EE
 90
        8
 62
     4
370
     5
331
8
  1
色_4
440
        0
330
2E
 90
        8
 62
    31
370
     9
331
8
  1
色_31
440
        0
330
4
 90
        8
 62
     2
370
     9
331
8
  1
色_2
440
        0
330
80
 90
        8
 62
     7
370
    13
331
8
  1
色_7
440
        0
330
76
 90
        8
 62
     7
370
    -3
331
8
  1
色_7
440
        0
  0
ACDBASSOCNETWORK
  5
2492
102
{ACAD_REACTORS
330
2491
102
}
330
2491
100
AcDbAssocAction
 90
        1
 90
        1
330
2494
360
0
 90
        1
 90
        0
 90
        0
100
AcDbAssocNetwork
 90
        0
 90
        2
 90
        2
360
2495
360
2611
 90
        2
330
2495
330
2611
  0
XRECORD
  5
26FE
102
{ACAD_REACTORS
330
26FD
102
}
330
26FD
100
AcDbXrecord
280
     1
1070
     0
1070
     1
1070
     1
  0
XRECORD
  5
2701
102
{ACAD_REACTORS
330
2700
102
}
330
2700
100
AcDbXrecord
280
     1
1070
     0
1070
     1
1070
     1
  0
DICTIONARY
  5
26FA
330
2351
100
AcDbDictionary
280
     1
281
     1
  3
ACAD_XREC_ROUNDTRIP
360
26FB
  0
DICTIONARY
  5
26BE
330
1EA9
100
AcDbDictionary
280
     1
281
     1
  3
ACAD_XREC_ROUNDTRIP
360
26BF
  0
DICTIONARY
  5
26C0
330
1EAF
100
AcDbDictionary
280
     1
281
     1
  3
ACAD_XREC_ROUNDTRIP
360
26C1
  0
DICTIONARY
  5
26BC
330
1EA2
100
AcDbDictionary
280
     1
281
     1
  3
ACAD_XREC_ROUNDTRIP
360
26BD
  0
DICTIONARY
  5
230F
330
230E
100
AcDbDictionary
280
     1
281
     1
  3
ACAD_XREC_ROUNDTRIP
360
26C3
  3
BUMPTILE
360
2311
  3
DIFFUSETILE
360
2310
  3
OPACITYTILE
360
2314
  3
REFLECTIONTILE
360
2313
  3
REFRACTIONTILE
360
2315
  3
SPECULARTILE
360
2312
  0
DICTIONARY
  5
2307
330
2306
100
AcDbDictionary
280
     1
281
     1
  3
ACAD_XREC_ROUNDTRIP
360
26C2
  3
BUMPTILE
360
2309
  3
DIFFUSETILE
360
2308
  3
OPACITYTILE
360
230C
  3
REFLECTIONTILE
360
230B
  3
REFRACTIONTILE
360
230D
  3
SPECULARTILE
360
230A
  0
DICTIONARY
  5
2317
330
2316
100
AcDbDictionary
280
     1
281
     1
  3
ACAD_XREC_ROUNDTRIP
360
26C4
  3
BUMPTILE
360
2319
  3
DIFFUSETILE
360
2318
  3
OPACITYTILE
360
231C
  3
REFLECTIONTILE
360
231B
  3
REFRACTIONTILE
360
231D
  3
SPECULARTILE
360
231A
  0
DICTIONARY
  5
26F6
330
234D
100
AcDbDictionary
280
     1
281
     1
  3
ACAD_XREC_ROUNDTRIP
360
26F7
  0
DICTIONARY
  5
26F8
330
234F
100
AcDbDictionary
280
     1
281
     1
  3
ACAD_XREC_ROUNDTRIP
360
26F9
  0
DICTIONARY
  5
2371
330
2339
100
AcDbDictionary
280
     1
281
     1
  3
ACAD_ROUNDTRIP_2008_TABLESTYLE_CELLSTYLEMAP
360
26B9
  3
ACAD_XREC_ROUNDTRIP
360
26F5
  0
DICTIONARY
  5
26CF
330
2324
100
AcDbDictionary
280
     1
281
     1
  3
ACAD_XREC_ROUNDTRIP
360
26D0
  0
DICTIONARY
  5
26CD
330
2323
100
AcDbDictionary
280
     1
281
     1
  3
ACAD_XREC_ROUNDTRIP
360
26CE
  0
DICTIONARY
  5
26DB
330
232A
100
AcDbDictionary
280
     1
281
     1
  3
ACAD_XREC_ROUNDTRIP
360
26DC
  0
DICTIONARY
  5
26E3
330
232E
100
AcDbDictionary
280
     1
281
     1
  3
ACAD_XREC_ROUNDTRIP
360
26E4
  0
DICTIONARY
  5
26D5
330
2327
100
AcDbDictionary
280
     1
281
     1
  3
ACAD_XREC_ROUNDTRIP
360
26D6
  0
DICTIONARY
  5
26D9
330
2329
100
AcDbDictionary
280
     1
281
     1
  3
ACAD_XREC_ROUNDTRIP
360
26DA
  0
DICTIONARY
  5
26F3
330
2336
100
AcDbDictionary
280
     1
281
     1
  3
ACAD_XREC_ROUNDTRIP
360
26F4
  0
DICTIONARY
  5
26E1
330
232D
100
AcDbDictionary
280
     1
281
     1
  3
ACAD_XREC_ROUNDTRIP
360
26E2
  0
DICTIONARY
  5
26C5
330
231F
100
AcDbDictionary
280
     1
281
     1
  3
ACAD_XREC_ROUNDTRIP
360
26C6
  0
DICTIONARY
  5
26C7
330
2320
100
AcDbDictionary
280
     1
281
     1
  3
ACAD_XREC_ROUNDTRIP
360
26C8
  0
DICTIONARY
  5
26C9
330
2321
100
AcDbDictionary
280
     1
281
     1
  3
ACAD_XREC_ROUNDTRIP
360
26CA
  0
DICTIONARY
  5
26CB
330
2322
100
AcDbDictionary
280
     1
281
     1
  3
ACAD_XREC_ROUNDTRIP
360
26CC
  0
DICTIONARY
  5
26D3
330
2326
100
AcDbDictionary
280
     1
281
     1
  3
ACAD_XREC_ROUNDTRIP
360
26D4
  0
DICTIONARY
  5
26EF
330
2334
100
AcDbDictionary
280
     1
281
     1
  3
ACAD_XREC_ROUNDTRIP
360
26F0
  0
DICTIONARY
  5
26DF
330
232C
100
AcDbDictionary
280
     1
281
     1
  3
ACAD_XREC_ROUNDTRIP
360
26E0
  0
DICTIONARY
  5
26F1
330
2335
100
AcDbDictionary
280
     1
281
     1
  3
ACAD_XREC_ROUNDTRIP
360
26F2
  0
DICTIONARY
  5
26D7
330
2328
100
AcDbDictionary
280
     1
281
     1
  3
ACAD_XREC_ROUNDTRIP
360
26D8
  0
DICTIONARY
  5
26ED
330
2333
100
AcDbDictionary
280
     1
281
     1
  3
ACAD_XREC_ROUNDTRIP
360
26EE
  0
DICTIONARY
  5
26EB
330
2332
100
AcDbDictionary
280
     1
281
     1
  3
ACAD_XREC_ROUNDTRIP
360
26EC
  0
DICTIONARY
  5
26E5
330
232F
100
AcDbDictionary
280
     1
281
     1
  3
ACAD_XREC_ROUNDTRIP
360
26E6
  0
DICTIONARY
  5
26E7
330
2330
100
AcDbDictionary
280
     1
281
     1
  3
ACAD_XREC_ROUNDTRIP
360
26E8
  0
DICTIONARY
  5
26DD
330
232B
100
AcDbDictionary
280
     1
281
     1
  3
ACAD_XREC_ROUNDTRIP
360
26DE
  0
DICTIONARY
  5
26D1
330
2325
100
AcDbDictionary
280
     1
281
     1
  3
ACAD_XREC_ROUNDTRIP
360
26D2
  0
DICTIONARY
  5
26E9
330
2331
100
AcDbDictionary
280
     1
281
     1
  3
ACAD_XREC_ROUNDTRIP
360
26EA
  0
DICTIONARY
  5
2480
330
247F
100
AcDbDictionary
280
     1
281
     1
  3
AcadLayerStateAnnoScale
360
2481
  0
ACDBASSOCACTION
  5
2495
330
2492
100
AcDbAssocAction
 90
        1
 90
        1
330
2492
360
2496
 90
        1
 90
        3
 90
        3
360
2499
360
249A
360
249B
  0
ACDBASSOCACTION
  5
2611
330
2492
100
AcDbAssocAction
 90
        1
 90
        1
330
2492
360
2612
 90
        2
 90
        3
 90
        3
360
2615
360
2616
360
2617
  0
XRECORD
  5
26FB
102
{ACAD_REACTORS
330
26FA
102
}
330
26FA
100
AcDbXrecord
280
     1
102
DISPLAYNAME
  1
Metric50
102
FLAGS
 90
        0
  0
XRECORD
  5
26BF
102
{ACAD_REACTORS
330
26BE
102
}
330
26BE
100
AcDbXrecord
280
     1
102
SHADEPLOT
 70
     0
102
SHADEPLOTRESLEVEL
 70
     2
102
SHADEPLOTCUSTOMDPI
 70
   300
  0
XRECORD
  5
26C1
102
{ACAD_REACTORS
330
26C0
102
}
330
26C0
100
AcDbXrecord
280
     1
102
SHADEPLOT
 70
     0
102
SHADEPLOTRESLEVEL
 70
     2
102
SHADEPLOTCUSTOMDPI
 70
   300
  0
XRECORD
  5
26BD
102
{ACAD_REACTORS
330
26BC
102
}
330
26BC
100
AcDbXrecord
280
     1
102
SHADEPLOT
 70
     0
102
SHADEPLOTRESLEVEL
 70
     2
102
SHADEPLOTCUSTOMDPI
 70
   300
  0
XRECORD
  5
26C3
102
{ACAD_REACTORS
330
230F
102
}
330
230F
100
AcDbXrecord
280
     1
102
MATERIAL
148
0.0
149
0.0
149
0.0
 93
        0
 94
      127
282
     0
 72
     0
 77
     0
171
     0
175
     0
179
     0
273
     0
  0
XRECORD
  5
2311
102
{ACAD_REACTORS
330
230F
102
}
330
230F
100
AcDbXrecord
280
     1
270
     1
271
     1
  0
XRECORD
  5
2310
102
{ACAD_REACTORS
330
230F
102
}
330
230F
100
AcDbXrecord
280
     1
270
     1
271
     1
  0
XRECORD
  5
2314
102
{ACAD_REACTORS
330
230F
102
}
330
230F
100
AcDbXrecord
280
     1
270
     1
271
     1
  0
XRECORD
  5
2313
102
{ACAD_REACTORS
330
230F
102
}
330
230F
100
AcDbXrecord
280
     1
270
     1
271
     1
  0
XRECORD
  5
2315
102
{ACAD_REACTORS
330
230F
102
}
330
230F
100
AcDbXrecord
280
     1
270
     1
271
     1
  0
XRECORD
  5
2312
102
{ACAD_REACTORS
330
230F
102
}
330
230F
100
AcDbXrecord
280
     1
270
     1
271
     1
  0
XRECORD
  5
26C2
102
{ACAD_REACTORS
330
2307
102
}
330
2307
100
AcDbXrecord
280
     1
102
MATERIAL
148
0.0
149
0.0
149
0.0
 93
        0
 94
      127
282
     0
 72
     0
 77
     0
171
     0
175
     0
179
     0
273
     0
  0
XRECORD
  5
2309
102
{ACAD_REACTORS
330
2307
102
}
330
2307
100
AcDbXrecord
280
     1
270
     1
271
     1
  0
XRECORD
  5
2308
102
{ACAD_REACTORS
330
2307
102
}
330
2307
100
AcDbXrecord
280
     1
270
     1
271
     1
  0
XRECORD
  5
230C
102
{ACAD_REACTORS
330
2307
102
}
330
2307
100
AcDbXrecord
280
     1
270
     1
271
     1
  0
XRECORD
  5
230B
102
{ACAD_REACTORS
330
2307
102
}
330
2307
100
AcDbXrecord
280
     1
270
     1
271
     1
  0
XRECORD
  5
230D
102
{ACAD_REACTORS
330
2307
102
}
330
2307
100
AcDbXrecord
280
     1
270
     1
271
     1
  0
XRECORD
  5
230A
102
{ACAD_REACTORS
330
2307
102
}
330
2307
100
AcDbXrecord
280
     1
270
     1
271
     1
  0
XRECORD
  5
26C4
102
{ACAD_REACTORS
330
2317
102
}
330
2317
100
AcDbXrecord
280
     1
102
MATERIAL
148
0.0
149
0.0
149
0.0
 93
        0
 94
      127
282
     0
 72
     0
 77
     0
171
     0
175
     0
179
     0
273
     0
  0
XRECORD
  5
2319
102
{ACAD_REACTORS
330
2317
102
}
330
2317
100
AcDbXrecord
280
     1
270
     1
271
     1
  0
XRECORD
  5
2318
102
{ACAD_REACTORS
330
2317
102
}
330
2317
100
AcDbXrecord
280
     1
270
     1
271
     1
  0
XRECORD
  5
231C
102
{ACAD_REACTORS
330
2317
102
}
330
2317
100
AcDbXrecord
280
     1
270
     1
271
     1
  0
XRECORD
  5
231B
102
{ACAD_REACTORS
330
2317
102
}
330
2317
100
AcDbXrecord
280
     1
270
     1
271
     1
  0
XRECORD
  5
231D
102
{ACAD_REACTORS
330
2317
102
}
330
2317
100
AcDbXrecord
280
     1
270
     1
271
     1
  0
XRECORD
  5
231A
102
{ACAD_REACTORS
330
2317
102
}
330
2317
100
AcDbXrecord
280
     1
270
     1
271
     1
  0
XRECORD
  5
26F7
102
{ACAD_REACTORS
330
26F6
102
}
330
26F6
100
AcDbXrecord
280
     1
102
ACAD_ROUNDTRIP_2012_MLEADER_STYLE
298
     1
  0
XRECORD
  5
26F9
102
{ACAD_REACTORS
330
26F8
102
}
330
26F8
100
AcDbXrecord
280
     1
102
DISPLAYNAME
  1
Metric50
102
FLAGS
 90
        0
  0
CELLSTYLEMAP
  5
26B9
102
{ACAD_REACTORS
330
2371
102
}
330
2371
100
AcDbCellStyleMap
 90
        3
300
CELLSTYLE
  1
TABLEFORMAT_BEGIN
 90
        5
170
     1
 91
        0
 92
    32768
 62
   257
 93
        1
300
CONTENTFORMAT
  1
CONTENTFORMAT_BEGIN
 90
        0
 91
        0
 92
      512
 93
        0
300

 40
0.0
140
1.0
 94
        5
 62
     0
340
9
144
6.0
309
CONTENTFORMAT_END
171
     1
301
MARGIN
  1
CELLMARGIN_BEGIN
 40
1.5
 40
1.5
 40
1.5
 40
1.5
 40
4.5
 40
4.5
309
CELLMARGIN_END
 94
        6
 95
        1
302
GRIDFORMAT
  1
GRIDFORMAT_BEGIN
 90
        0
 91
        1
 62
     0
 92
       -2
340
0
 93
        0
 40
1.125
309
GRIDFORMAT_END
 95
        2
302
GRIDFORMAT
  1
GRIDFORMAT_BEGIN
 90
        0
 91
        1
 62
     0
 92
       -2
340
0
 93
        0
 40
1.125
309
GRIDFORMAT_END
 95
        4
302
GRIDFORMAT
  1
GRIDFORMAT_BEGIN
 90
        0
 91
        1
 62
     0
 92
       -2
340
0
 93
        0
 40
1.125
309
GRIDFORMAT_END
 95
        8
302
GRIDFORMAT
  1
GRIDFORMAT_BEGIN
 90
        0
 91
        1
 62
     0
 92
       -2
340
0
 93
        0
 40
1.125
309
GRIDFORMAT_END
 95
       16
302
GRIDFORMAT
  1
GRIDFORMAT_BEGIN
 90
        0
 91
        1
 62
     0
 92
       -2
340
0
 93
        0
 40
1.125
309
GRIDFORMAT_END
 95
       32
302
GRIDFORMAT
  1
GRIDFORMAT_BEGIN
 90
        0
 91
        1
 62
     0
 92
       -2
340
0
 93
        0
 40
1.125
309
GRIDFORMAT_END
309
TABLEFORMAT_END
  1
CELLSTYLE_BEGIN
 90
        1
 91
        1
300
_TITLE
309
CELLSTYLE_END
300
CELLSTYLE
  1
TABLEFORMAT_BEGIN
 90
        5
170
     1
 91
        0
 92
        0
 62
   257
 93
        1
300
CONTENTFORMAT
  1
CONTENTFORMAT_BEGIN
 90
        0
 91
        0
 92
      512
 93
        0
300

 40
0.0
140
1.0
 94
        5
 62
     0
340
9
144
4.5
309
CONTENTFORMAT_END
171
     1
301
MARGIN
  1
CELLMARGIN_BEGIN
 40
1.5
 40
1.5
 40
1.5
 40
1.5
 40
4.5
 40
4.5
309
CELLMARGIN_END
 94
        6
 95
        1
302
GRIDFORMAT
  1
GRIDFORMAT_BEGIN
 90
        0
 91
        1
 62
     0
 92
       -2
340
0
 93
        0
 40
1.125
309
GRIDFORMAT_END
 95
        2
302
GRIDFORMAT
  1
GRIDFORMAT_BEGIN
 90
        0
 91
        1
 62
     0
 92
       -2
340
0
 93
        0
 40
1.125
309
GRIDFORMAT_END
 95
        4
302
GRIDFORMAT
  1
GRIDFORMAT_BEGIN
 90
        0
 91
        1
 62
     0
 92
       -2
340
0
 93
        0
 40
1.125
309
GRIDFORMAT_END
 95
        8
302
GRIDFORMAT
  1
GRIDFORMAT_BEGIN
 90
        0
 91
        1
 62
     0
 92
       -2
340
0
 93
        0
 40
1.125
309
GRIDFORMAT_END
 95
       16
302
GRIDFORMAT
  1
GRIDFORMAT_BEGIN
 90
        0
 91
        1
 62
     0
 92
       -2
340
0
 93
        0
 40
1.125
309
GRIDFORMAT_END
 95
       32
302
GRIDFORMAT
  1
GRIDFORMAT_BEGIN
 90
        0
 91
        1
 62
     0
 92
       -2
340
0
 93
        0
 40
1.125
309
GRIDFORMAT_END
309
TABLEFORMAT_END
  1
CELLSTYLE_BEGIN
 90
        2
 91
        1
300
_HEADER
309
CELLSTYLE_END
300
CELLSTYLE
  1
TABLEFORMAT_BEGIN
 90
        5
170
     1
 91
        0
 92
        0
 62
   257
 93
        1
300
CONTENTFORMAT
  1
CONTENTFORMAT_BEGIN
 90
        0
 91
        0
 92
      512
 93
        0
300

 40
0.0
140
1.0
 94
        2
 62
     0
340
9
144
4.5
309
CONTENTFORMAT_END
171
     1
301
MARGIN
  1
CELLMARGIN_BEGIN
 40
1.5
 40
1.5
 40
1.5
 40
1.5
 40
4.5
 40
4.5
309
CELLMARGIN_END
 94
        6
 95
        1
302
GRIDFORMAT
  1
GRIDFORMAT_BEGIN
 90
        0
 91
        1
 62
     0
 92
       -2
340
0
 93
        0
 40
1.125
309
GRIDFORMAT_END
 95
        2
302
GRIDFORMAT
  1
GRIDFORMAT_BEGIN
 90
        0
 91
        1
 62
     0
 92
       -2
340
0
 93
        0
 40
1.125
309
GRIDFORMAT_END
 95
        4
302
GRIDFORMAT
  1
GRIDFORMAT_BEGIN
 90
        0
 91
        1
 62
     0
 92
       -2
340
0
 93
        0
 40
1.125
309
GRIDFORMAT_END
 95
        8
302
GRIDFORMAT
  1
GRIDFORMAT_BEGIN
 90
        0
 91
        1
 62
     0
 92
       -2
340
0
 93
        0
 40
1.125
309
GRIDFORMAT_END
 95
       16
302
GRIDFORMAT
  1
GRIDFORMAT_BEGIN
 90
        0
 91
        1
 62
     0
 92
       -2
340
0
 93
        0
 40
1.125
309
GRIDFORMAT_END
 95
       32
302
GRIDFORMAT
  1
GRIDFORMAT_BEGIN
 90
        0
 91
        1
 62
     0
 92
       -2
340
0
 93
        0
 40
1.125
309
GRIDFORMAT_END
309
TABLEFORMAT_END
  1
CELLSTYLE_BEGIN
 90
        3
 91
        2
300
_DATA
309
CELLSTYLE_END
  0
XRECORD
  5
26F5
102
{ACAD_REACTORS
330
2371
102
}
330
2371
100
AcDbXrecord
280
     1
102
ACAD_ROUNDTRIP_PRE2007_TABLESTYLE
 90
      512
 91
        0
  1

 92
      512
 93
        0
  2

 94
      512
 95
        0
  3

  0
XRECORD
  5
26D0
102
{ACAD_REACTORS
330
26CF
102
}
330
26CF
100
AcDbXrecord
280
     1
102
RTVSPost2010Prop28
280
     1
102
RTVSPost2010PropOp28
 70
     1
102
RTVSPost2010Prop29
280
     1
102
RTVSPost2010PropOp29
 70
     1
102
RTVSPost2010Prop30
280
     0
102
RTVSPost2010PropOp30
 70
     1
102
RTVSPost2010Prop31
280
     0
102
RTVSPost2010PropOp31
 70
     1
102
RTVSPost2010Prop32
280
     0
102
RTVSPost2010PropOp32
 70
     1
102
RTVSPost2010Prop33
280
     0
102
RTVSPost2010PropOp33
 70
     1
102
RTVSPost2010Prop34
280
     0
102
RTVSPost2010PropOp34
 70
     1
102
RTVSPost2010Prop35
280
     0
102
RTVSPost2010PropOp35
 70
     1
102
RTVSPost2010Prop36
280
     0
102
RTVSPost2010PropOp36
 70
     1
102
RTVSPost2010Prop37
 90
       50
102
RTVSPost2010PropOp37
 70
     1
102
RTVSPost2010Prop38
140
0.0
102
RTVSPost2010PropOp38
 70
     1
102
RTVSPost2010Prop39
140
1.0
102
RTVSPost2010PropOp39
 70
     1
102
RTVSPost2010Prop40
 90
        0
102
RTVSPost2010PropOp40
 70
     1
102
RTVSPost2010Prop41ColorIndex
 90
       18
102
RTVSPost2010Prop41ColorRGB
 90
        0
102
RTVSPost2010PropOp41
 70
     1
102
RTVSPost2010Prop42
 90
       50
102
RTVSPost2010PropOp42
 70
     1
102
RTVSPost2010Prop43
 90
        3
102
RTVSPost2010PropOp43
 70
     1
102
RTVSPost2010Prop44ColorIndex
 90
        5
102
RTVSPost2010Prop44ColorRGB
 90
      255
102
RTVSPost2010PropOp44
 70
     1
102
RTVSPost2010Prop45
280
     0
102
RTVSPost2010PropOp45
 70
     1
102
RTVSPost2010Prop46
 90
       50
102
RTVSPost2010PropOp46
 70
     1
102
RTVSPost2010Prop47
 90
       50
102
RTVSPost2010PropOp47
 70
     1
102
RTVSPost2010Prop48
 90
       50
102
RTVSPost2010PropOp48
 70
     1
102
RTVSPost2010Prop49
280
     0
102
RTVSPost2010PropOp49
 70
     1
102
RTVSPost2010Prop50
 90
       50
102
RTVSPost2010PropOp50
 70
     1
102
RTVSPost2010Prop51ColorIndex
 90
      256
102
RTVSPost2010Prop51ColorRGB
 90
-16777216
102
RTVSPost2010PropOp51
 70
     0
102
RTVSPost2010Prop52
140
1.0
102
RTVSPost2010PropOp52
 70
     0
102
RTVSPost2010Prop53
 90
        2
102
RTVSPost2010PropOp53
 70
     1
102
RTVSPost2010Prop54
  1
strokes_ogs.tif
102
RTVSPost2010PropOp54
 70
     1
102
RTVSPost2010Prop55
280
     0
102
RTVSPost2010PropOp55
 70
     1
102
RTVSPost2010Prop56
140
1.0
102
RTVSPost2010PropOp56
 70
     1
102
RTVSPost2010Prop57
140
1.0
102
RTVSPost2010PropOp57
 70
     1
102
RTVSPropertyOp0
 70
     1
102
RTVSPropertyOp1
 70
     1
102
RTVSPropertyOp2
 70
     1
102
RTVSPropertyOp3
 70
     1
102
RTVSPropertyOp4
 70
     1
102
RTVSPropertyOp5
 70
     1
102
RTVSPropertyOp6
 70
     1
102
RTVSPropertyOp7
 70
     1
102
RTVSPropertyOp8
 70
     1
102
RTVSPropertyOp9
 70
     1
102
RTVSPropertyOp10
 70
     1
102
RTVSPropertyOp11
 70
     1
102
RTVSPropertyOp12
 70
     1
102
RTVSPropertyOp13
 70
     1
102
RTVSPropertyOp14
 70
     1
102
RTVSPropertyOp15
 70
     1
102
RTVSPropertyOp16
 70
     1
102
RTVSPropertyOp17
 70
     1
102
RTVSPropertyOp18
 70
     1
102
RTVSPropertyOp19
 70
     1
102
RTVSPropertyOp20
 70
     1
102
RTVSPropertyOp21
 70
     1
102
RTVSPropertyOp22
 70
     1
102
RTVSPropertyOp23
 70
     1
102
RTVSPropertyOp24
 70
     1
102
RTVSPropertyOp25
 70
     1
102
RTVSPropertyOp26
 70
     1
102
RTVSPropertyOp27
 70
     1
102
RTVSPropertyOp28
 70
     1
102
RTVSPropertyOp29
 70
     1
102
RTVSPropertyOp30
 70
     1
102
RTVSPropertyOp31
 70
     1
102
RTVSPropertyOp32
 70
     1
102
RTVSPropertyOp33
 70
     1
102
RTVSPropertyOp34
 70
     1
102
RTVSPropertyOp35
 70
     1
102
RTVSPropertyOp36
 70
     1
102
RTVSPropertyOp37
 70
     1
102
RTVSPropertyOp38
 70
     1
102
RTVSPropertyOp39
 70
     1
102
RTVSPropertyOp40
 70
     1
102
RTVSPropertyOp41
 70
     1
102
RTVSPropertyOp42
 70
     1
102
RTVSPropertyOp43
 70
     1
102
RTVSPropertyOp44
 70
     1
102
RTVSPropertyOp45
 70
     1
102
RTVSPropertyOp46
 70
     1
102
RTVSPropertyOp47
 70
     1
102
RTVSPropertyOp48
 70
     1
102
RTVSPropertyOp49
 70
     1
102
RTVSPropertyOp50
 70
     1
102
RTVSPropertyOp51
 70
     0
102
RTVSPropertyOp52
 70
     0
102
RTVSPropertyOp53
 70
     1
102
RTVSPropertyOp54
 70
     1
102
RTVSPropertyOp55
 70
     1
102
RTVSPropertyOp56
 70
     1
102
RTVSPropertyOp57
 70
     1
102
RTVSPropertyOp58
 70
     1
102
RTVSPropertyOp59
 70
     1
102
RTVSPropertyOp60
 70
     1
102
RTVSPropertyOp61
 70
     1
102
RTVSPropertyOp62
 70
     1
  0
XRECORD
  5
26CE
102
{ACAD_REACTORS
330
26CD
102
}
330
26CD
100
AcDbXrecord
280
     1
102
RTVSPost2010Prop28
280
     0
102
RTVSPost2010PropOp28
 70
     1
102
RTVSPost2010Prop29
280
     1
102
RTVSPost2010PropOp29
 70
     1
102
RTVSPost2010Prop30
280
     1
102
RTVSPost2010PropOp30
 70
     1
102
RTVSPost2010Prop31
280
     0
102
RTVSPost2010PropOp31
 70
     1
102
RTVSPost2010Prop32
280
     0
102
RTVSPost2010PropOp32
 70
     1
102
RTVSPost2010Prop33
280
     0
102
RTVSPost2010PropOp33
 70
     1
102
RTVSPost2010Prop34
280
     0
102
RTVSPost2010PropOp34
 70
     1
102
RTVSPost2010Prop35
280
     0
102
RTVSPost2010PropOp35
 70
     1
102
RTVSPost2010Prop36
280
     0
102
RTVSPost2010PropOp36
 70
     1
102
RTVSPost2010Prop37
 90
       50
102
RTVSPost2010PropOp37
 70
     1
102
RTVSPost2010Prop38
140
0.0
102
RTVSPost2010PropOp38
 70
     1
102
RTVSPost2010Prop39
140
1.0
102
RTVSPost2010PropOp39
 70
     1
102
RTVSPost2010Prop40
 90
        0
102
RTVSPost2010PropOp40
 70
     1
102
RTVSPost2010Prop41ColorIndex
 90
       18
102
RTVSPost2010Prop41ColorRGB
 90
        0
102
RTVSPost2010PropOp41
 70
     1
102
RTVSPost2010Prop42
 90
       50
102
RTVSPost2010PropOp42
 70
     1
102
RTVSPost2010Prop43
 90
        3
102
RTVSPost2010PropOp43
 70
     1
102
RTVSPost2010Prop44ColorIndex
 90
        5
102
RTVSPost2010Prop44ColorRGB
 90
      255
102
RTVSPost2010PropOp44
 70
     1
102
RTVSPost2010Prop45
280
     0
102
RTVSPost2010PropOp45
 70
     1
102
RTVSPost2010Prop46
 90
       50
102
RTVSPost2010PropOp46
 70
     1
102
RTVSPost2010Prop47
 90
       50
102
RTVSPost2010PropOp47
 70
     1
102
RTVSPost2010Prop48
 90
       50
102
RTVSPost2010PropOp48
 70
     1
102
RTVSPost2010Prop49
280
     0
102
RTVSPost2010PropOp49
 70
     1
102
RTVSPost2010Prop50
 90
       50
102
RTVSPost2010PropOp50
 70
     1
102
RTVSPost2010Prop51ColorIndex
 90
      256
102
RTVSPost2010Prop51ColorRGB
 90
-16777216
102
RTVSPost2010PropOp51
 70
     0
102
RTVSPost2010Prop52
140
1.0
102
RTVSPost2010PropOp52
 70
     0
102
RTVSPost2010Prop53
 90
        2
102
RTVSPost2010PropOp53
 70
     1
102
RTVSPost2010Prop54
  1
strokes_ogs.tif
102
RTVSPost2010PropOp54
 70
     1
102
RTVSPost2010Prop55
280
     0
102
RTVSPost2010PropOp55
 70
     1
102
RTVSPost2010Prop56
140
1.0
102
RTVSPost2010PropOp56
 70
     1
102
RTVSPost2010Prop57
140
1.0
102
RTVSPost2010PropOp57
 70
     1
102
RTVSPropertyOp0
 70
     1
102
RTVSPropertyOp1
 70
     1
102
RTVSPropertyOp2
 70
     1
102
RTVSPropertyOp3
 70
     1
102
RTVSPropertyOp4
 70
     1
102
RTVSPropertyOp5
 70
     1
102
RTVSPropertyOp6
 70
     1
102
RTVSPropertyOp7
 70
     1
102
RTVSPropertyOp8
 70
     1
102
RTVSPropertyOp9
 70
     1
102
RTVSPropertyOp10
 70
     1
102
RTVSPropertyOp11
 70
     1
102
RTVSPropertyOp12
 70
     1
102
RTVSPropertyOp13
 70
     1
102
RTVSPropertyOp14
 70
     1
102
RTVSPropertyOp15
 70
     1
102
RTVSPropertyOp16
 70
     1
102
RTVSPropertyOp17
 70
     1
102
RTVSPropertyOp18
 70
     1
102
RTVSPropertyOp19
 70
     1
102
RTVSPropertyOp20
 70
     1
102
RTVSPropertyOp21
 70
     1
102
RTVSPropertyOp22
 70
     1
102
RTVSPropertyOp23
 70
     1
102
RTVSPropertyOp24
 70
     1
102
RTVSPropertyOp25
 70
     1
102
RTVSPropertyOp26
 70
     1
102
RTVSPropertyOp27
 70
     1
102
RTVSPropertyOp28
 70
     1
102
RTVSPropertyOp29
 70
     1
102
RTVSPropertyOp30
 70
     1
102
RTVSPropertyOp31
 70
     1
102
RTVSPropertyOp32
 70
     1
102
RTVSPropertyOp33
 70
     1
102
RTVSPropertyOp34
 70
     1
102
RTVSPropertyOp35
 70
     1
102
RTVSPropertyOp36
 70
     1
102
RTVSPropertyOp37
 70
     1
102
RTVSPropertyOp38
 70
     1
102
RTVSPropertyOp39
 70
     1
102
RTVSPropertyOp40
 70
     1
102
RTVSPropertyOp41
 70
     1
102
RTVSPropertyOp42
 70
     1
102
RTVSPropertyOp43
 70
     1
102
RTVSPropertyOp44
 70
     1
102
RTVSPropertyOp45
 70
     1
102
RTVSPropertyOp46
 70
     1
102
RTVSPropertyOp47
 70
     1
102
RTVSPropertyOp48
 70
     1
102
RTVSPropertyOp49
 70
     1
102
RTVSPropertyOp50
 70
     1
102
RTVSPropertyOp51
 70
     0
102
RTVSPropertyOp52
 70
     0
102
RTVSPropertyOp53
 70
     1
102
RTVSPropertyOp54
 70
     1
102
RTVSPropertyOp55
 70
     1
102
RTVSPropertyOp56
 70
     1
102
RTVSPropertyOp57
 70
     1
102
RTVSPropertyOp58
 70
     1
102
RTVSPropertyOp59
 70
     1
102
RTVSPropertyOp60
 70
     1
102
RTVSPropertyOp61
 70
     1
102
RTVSPropertyOp62
 70
     1
  0
XRECORD
  5
26DC
102
{ACAD_REACTORS
330
26DB
102
}
330
26DB
100
AcDbXrecord
280
     1
102
RTVSPost2010Prop28
280
     0
102
RTVSPost2010PropOp28
 70
     1
102
RTVSPost2010Prop29
280
     1
102
RTVSPost2010PropOp29
 70
     1
102
RTVSPost2010Prop30
280
     1
102
RTVSPost2010PropOp30
 70
     1
102
RTVSPost2010Prop31
280
     0
102
RTVSPost2010PropOp31
 70
     1
102
RTVSPost2010Prop32
280
     0
102
RTVSPost2010PropOp32
 70
     1
102
RTVSPost2010Prop33
280
     0
102
RTVSPost2010PropOp33
 70
     1
102
RTVSPost2010Prop34
280
     0
102
RTVSPost2010PropOp34
 70
     1
102
RTVSPost2010Prop35
280
     0
102
RTVSPost2010PropOp35
 70
     1
102
RTVSPost2010Prop36
280
     0
102
RTVSPost2010PropOp36
 70
     1
102
RTVSPost2010Prop37
 90
       50
102
RTVSPost2010PropOp37
 70
     1
102
RTVSPost2010Prop38
140
0.0
102
RTVSPost2010PropOp38
 70
     1
102
RTVSPost2010Prop39
140
1.0
102
RTVSPost2010PropOp39
 70
     1
102
RTVSPost2010Prop40
 90
        0
102
RTVSPost2010PropOp40
 70
     1
102
RTVSPost2010Prop41ColorIndex
 90
       18
102
RTVSPost2010Prop41ColorRGB
 90
        0
102
RTVSPost2010PropOp41
 70
     1
102
RTVSPost2010Prop42
 90
       50
102
RTVSPost2010PropOp42
 70
     1
102
RTVSPost2010Prop43
 90
        3
102
RTVSPost2010PropOp43
 70
     1
102
RTVSPost2010Prop44ColorIndex
 90
        5
102
RTVSPost2010Prop44ColorRGB
 90
      255
102
RTVSPost2010PropOp44
 70
     1
102
RTVSPost2010Prop45
280
     0
102
RTVSPost2010PropOp45
 70
     1
102
RTVSPost2010Prop46
 90
       50
102
RTVSPost2010PropOp46
 70
     1
102
RTVSPost2010Prop47
 90
       50
102
RTVSPost2010PropOp47
 70
     1
102
RTVSPost2010Prop48
 90
       50
102
RTVSPost2010PropOp48
 70
     1
102
RTVSPost2010Prop49
280
     0
102
RTVSPost2010PropOp49
 70
     1
102
RTVSPost2010Prop50
 90
       50
102
RTVSPost2010PropOp50
 70
     1
102
RTVSPost2010Prop51ColorIndex
 90
      256
102
RTVSPost2010Prop51ColorRGB
 90
-16777216
102
RTVSPost2010PropOp51
 70
     0
102
RTVSPost2010Prop52
140
1.0
102
RTVSPost2010PropOp52
 70
     0
102
RTVSPost2010Prop53
 90
        2
102
RTVSPost2010PropOp53
 70
     1
102
RTVSPost2010Prop54
  1
strokes_ogs.tif
102
RTVSPost2010PropOp54
 70
     1
102
RTVSPost2010Prop55
280
     0
102
RTVSPost2010PropOp55
 70
     1
102
RTVSPost2010Prop56
140
1.0
102
RTVSPost2010PropOp56
 70
     1
102
RTVSPost2010Prop57
140
1.0
102
RTVSPost2010PropOp57
 70
     1
102
RTVSPropertyOp0
 70
     1
102
RTVSPropertyOp1
 70
     1
102
RTVSPropertyOp2
 70
     1
102
RTVSPropertyOp3
 70
     1
102
RTVSPropertyOp4
 70
     1
102
RTVSPropertyOp5
 70
     1
102
RTVSPropertyOp6
 70
     1
102
RTVSPropertyOp7
 70
     1
102
RTVSPropertyOp8
 70
     1
102
RTVSPropertyOp9
 70
     1
102
RTVSPropertyOp10
 70
     1
102
RTVSPropertyOp11
 70
     1
102
RTVSPropertyOp12
 70
     1
102
RTVSPropertyOp13
 70
     1
102
RTVSPropertyOp14
 70
     1
102
RTVSPropertyOp15
 70
     1
102
RTVSPropertyOp16
 70
     1
102
RTVSPropertyOp17
 70
     1
102
RTVSPropertyOp18
 70
     1
102
RTVSPropertyOp19
 70
     1
102
RTVSPropertyOp20
 70
     1
102
RTVSPropertyOp21
 70
     1
102
RTVSPropertyOp22
 70
     1
102
RTVSPropertyOp23
 70
     1
102
RTVSPropertyOp24
 70
     1
102
RTVSPropertyOp25
 70
     1
102
RTVSPropertyOp26
 70
     1
102
RTVSPropertyOp27
 70
     1
102
RTVSPropertyOp28
 70
     1
102
RTVSPropertyOp29
 70
     1
102
RTVSPropertyOp30
 70
     1
102
RTVSPropertyOp31
 70
     1
102
RTVSPropertyOp32
 70
     1
102
RTVSPropertyOp33
 70
     1
102
RTVSPropertyOp34
 70
     1
102
RTVSPropertyOp35
 70
     1
102
RTVSPropertyOp36
 70
     1
102
RTVSPropertyOp37
 70
     1
102
RTVSPropertyOp38
 70
     1
102
RTVSPropertyOp39
 70
     1
102
RTVSPropertyOp40
 70
     1
102
RTVSPropertyOp41
 70
     1
102
RTVSPropertyOp42
 70
     1
102
RTVSPropertyOp43
 70
     1
102
RTVSPropertyOp44
 70
     1
102
RTVSPropertyOp45
 70
     1
102
RTVSPropertyOp46
 70
     1
102
RTVSPropertyOp47
 70
     1
102
RTVSPropertyOp48
 70
     1
102
RTVSPropertyOp49
 70
     1
102
RTVSPropertyOp50
 70
     1
102
RTVSPropertyOp51
 70
     0
102
RTVSPropertyOp52
 70
     0
102
RTVSPropertyOp53
 70
     1
102
RTVSPropertyOp54
 70
     1
102
RTVSPropertyOp55
 70
     1
102
RTVSPropertyOp56
 70
     1
102
RTVSPropertyOp57
 70
     1
102
RTVSPropertyOp58
 70
     1
102
RTVSPropertyOp59
 70
     1
102
RTVSPropertyOp60
 70
     1
102
RTVSPropertyOp61
 70
     1
102
RTVSPropertyOp62
 70
     1
  0
XRECORD
  5
26E4
102
{ACAD_REACTORS
330
26E3
102
}
330
26E3
100
AcDbXrecord
280
     1
102
RTVSPost2010Prop28
280
     0
102
RTVSPost2010PropOp28
 70
     1
102
RTVSPost2010Prop29
280
     1
102
RTVSPost2010PropOp29
 70
     1
102
RTVSPost2010Prop30
280
     1
102
RTVSPost2010PropOp30
 70
     1
102
RTVSPost2010Prop31
280
     0
102
RTVSPost2010PropOp31
 70
     1
102
RTVSPost2010Prop32
280
     0
102
RTVSPost2010PropOp32
 70
     1
102
RTVSPost2010Prop33
280
     0
102
RTVSPost2010PropOp33
 70
     1
102
RTVSPost2010Prop34
280
     0
102
RTVSPost2010PropOp34
 70
     1
102
RTVSPost2010Prop35
280
     0
102
RTVSPost2010PropOp35
 70
     1
102
RTVSPost2010Prop36
280
     0
102
RTVSPost2010PropOp36
 70
     1
102
RTVSPost2010Prop37
 90
       50
102
RTVSPost2010PropOp37
 70
     1
102
RTVSPost2010Prop38
140
0.0
102
RTVSPost2010PropOp38
 70
     1
102
RTVSPost2010Prop39
140
1.0
102
RTVSPost2010PropOp39
 70
     1
102
RTVSPost2010Prop40
 90
        0
102
RTVSPost2010PropOp40
 70
     1
102
RTVSPost2010Prop41ColorIndex
 90
       18
102
RTVSPost2010Prop41ColorRGB
 90
        0
102
RTVSPost2010PropOp41
 70
     1
102
RTVSPost2010Prop42
 90
       50
102
RTVSPost2010PropOp42
 70
     1
102
RTVSPost2010Prop43
 90
        3
102
RTVSPost2010PropOp43
 70
     1
102
RTVSPost2010Prop44ColorIndex
 90
        5
102
RTVSPost2010Prop44ColorRGB
 90
      255
102
RTVSPost2010PropOp44
 70
     1
102
RTVSPost2010Prop45
280
     0
102
RTVSPost2010PropOp45
 70
     1
102
RTVSPost2010Prop46
 90
       50
102
RTVSPost2010PropOp46
 70
     1
102
RTVSPost2010Prop47
 90
       50
102
RTVSPost2010PropOp47
 70
     1
102
RTVSPost2010Prop48
 90
       50
102
RTVSPost2010PropOp48
 70
     1
102
RTVSPost2010Prop49
280
     0
102
RTVSPost2010PropOp49
 70
     1
102
RTVSPost2010Prop50
 90
       50
102
RTVSPost2010PropOp50
 70
     1
102
RTVSPost2010Prop51ColorIndex
 90
      256
102
RTVSPost2010Prop51ColorRGB
 90
-16777216
102
RTVSPost2010PropOp51
 70
     0
102
RTVSPost2010Prop52
140
1.0
102
RTVSPost2010PropOp52
 70
     0
102
RTVSPost2010Prop53
 90
        2
102
RTVSPost2010PropOp53
 70
     1
102
RTVSPost2010Prop54
  1
strokes_ogs.tif
102
RTVSPost2010PropOp54
 70
     1
102
RTVSPost2010Prop55
280
     0
102
RTVSPost2010PropOp55
 70
     1
102
RTVSPost2010Prop56
140
1.0
102
RTVSPost2010PropOp56
 70
     1
102
RTVSPost2010Prop57
140
1.0
102
RTVSPost2010PropOp57
 70
     1
102
RTVSPropertyOp0
 70
     1
102
RTVSPropertyOp1
 70
     1
102
RTVSPropertyOp2
 70
     1
102
RTVSPropertyOp3
 70
     1
102
RTVSPropertyOp4
 70
     1
102
RTVSPropertyOp5
 70
     1
102
RTVSPropertyOp6
 70
     1
102
RTVSPropertyOp7
 70
     1
102
RTVSPropertyOp8
 70
     1
102
RTVSPropertyOp9
 70
     1
102
RTVSPropertyOp10
 70
     1
102
RTVSPropertyOp11
 70
     1
102
RTVSPropertyOp12
 70
     1
102
RTVSPropertyOp13
 70
     1
102
RTVSPropertyOp14
 70
     1
102
RTVSPropertyOp15
 70
     1
102
RTVSPropertyOp16
 70
     1
102
RTVSPropertyOp17
 70
     1
102
RTVSPropertyOp18
 70
     1
102
RTVSPropertyOp19
 70
     1
102
RTVSPropertyOp20
 70
     1
102
RTVSPropertyOp21
 70
     1
102
RTVSPropertyOp22
 70
     1
102
RTVSPropertyOp23
 70
     1
102
RTVSPropertyOp24
 70
     1
102
RTVSPropertyOp25
 70
     1
102
RTVSPropertyOp26
 70
     1
102
RTVSPropertyOp27
 70
     1
102
RTVSPropertyOp28
 70
     1
102
RTVSPropertyOp29
 70
     1
102
RTVSPropertyOp30
 70
     1
102
RTVSPropertyOp31
 70
     1
102
RTVSPropertyOp32
 70
     1
102
RTVSPropertyOp33
 70
     1
102
RTVSPropertyOp34
 70
     1
102
RTVSPropertyOp35
 70
     1
102
RTVSPropertyOp36
 70
     1
102
RTVSPropertyOp37
 70
     1
102
RTVSPropertyOp38
 70
     1
102
RTVSPropertyOp39
 70
     1
102
RTVSPropertyOp40
 70
     1
102
RTVSPropertyOp41
 70
     1
102
RTVSPropertyOp42
 70
     1
102
RTVSPropertyOp43
 70
     1
102
RTVSPropertyOp44
 70
     1
102
RTVSPropertyOp45
 70
     1
102
RTVSPropertyOp46
 70
     1
102
RTVSPropertyOp47
 70
     1
102
RTVSPropertyOp48
 70
     1
102
RTVSPropertyOp49
 70
     1
102
RTVSPropertyOp50
 70
     1
102
RTVSPropertyOp51
 70
     0
102
RTVSPropertyOp52
 70
     0
102
RTVSPropertyOp53
 70
     1
102
RTVSPropertyOp54
 70
     1
102
RTVSPropertyOp55
 70
     1
102
RTVSPropertyOp56
 70
     1
102
RTVSPropertyOp57
 70
     1
102
RTVSPropertyOp58
 70
     1
102
RTVSPropertyOp59
 70
     1
102
RTVSPropertyOp60
 70
     1
102
RTVSPropertyOp61
 70
     1
102
RTVSPropertyOp62
 70
     1
  0
XRECORD
  5
26D6
102
{ACAD_REACTORS
330
26D5
102
}
330
26D5
100
AcDbXrecord
280
     1
102
RTVSPost2010Prop28
280
     0
102
RTVSPost2010PropOp28
 70
     1
102
RTVSPost2010Prop29
280
     1
102
RTVSPost2010PropOp29
 70
     1
102
RTVSPost2010Prop30
280
     1
102
RTVSPost2010PropOp30
 70
     1
102
RTVSPost2010Prop31
280
     0
102
RTVSPost2010PropOp31
 70
     1
102
RTVSPost2010Prop32
280
     0
102
RTVSPost2010PropOp32
 70
     1
102
RTVSPost2010Prop33
280
     0
102
RTVSPost2010PropOp33
 70
     1
102
RTVSPost2010Prop34
280
     0
102
RTVSPost2010PropOp34
 70
     1
102
RTVSPost2010Prop35
280
     0
102
RTVSPost2010PropOp35
 70
     1
102
RTVSPost2010Prop36
280
     0
102
RTVSPost2010PropOp36
 70
     1
102
RTVSPost2010Prop37
 90
       50
102
RTVSPost2010PropOp37
 70
     1
102
RTVSPost2010Prop38
140
0.0
102
RTVSPost2010PropOp38
 70
     1
102
RTVSPost2010Prop39
140
1.0
102
RTVSPost2010PropOp39
 70
     1
102
RTVSPost2010Prop40
 90
        0
102
RTVSPost2010PropOp40
 70
     1
102
RTVSPost2010Prop41ColorIndex
 90
       18
102
RTVSPost2010Prop41ColorRGB
 90
        0
102
RTVSPost2010PropOp41
 70
     1
102
RTVSPost2010Prop42
 90
       50
102
RTVSPost2010PropOp42
 70
     1
102
RTVSPost2010Prop43
 90
        3
102
RTVSPost2010PropOp43
 70
     1
102
RTVSPost2010Prop44ColorIndex
 90
        5
102
RTVSPost2010Prop44ColorRGB
 90
      255
102
RTVSPost2010PropOp44
 70
     1
102
RTVSPost2010Prop45
280
     0
102
RTVSPost2010PropOp45
 70
     1
102
RTVSPost2010Prop46
 90
       50
102
RTVSPost2010PropOp46
 70
     1
102
RTVSPost2010Prop47
 90
       50
102
RTVSPost2010PropOp47
 70
     1
102
RTVSPost2010Prop48
 90
       50
102
RTVSPost2010PropOp48
 70
     1
102
RTVSPost2010Prop49
280
     0
102
RTVSPost2010PropOp49
 70
     1
102
RTVSPost2010Prop50
 90
       50
102
RTVSPost2010PropOp50
 70
     1
102
RTVSPost2010Prop51ColorIndex
 90
      256
102
RTVSPost2010Prop51ColorRGB
 90
-16777216
102
RTVSPost2010PropOp51
 70
     0
102
RTVSPost2010Prop52
140
1.0
102
RTVSPost2010PropOp52
 70
     0
102
RTVSPost2010Prop53
 90
        2
102
RTVSPost2010PropOp53
 70
     1
102
RTVSPost2010Prop54
  1
strokes_ogs.tif
102
RTVSPost2010PropOp54
 70
     1
102
RTVSPost2010Prop55
280
     0
102
RTVSPost2010PropOp55
 70
     1
102
RTVSPost2010Prop56
140
1.0
102
RTVSPost2010PropOp56
 70
     1
102
RTVSPost2010Prop57
140
1.0
102
RTVSPost2010PropOp57
 70
     1
102
RTVSPropertyOp0
 70
     1
102
RTVSPropertyOp1
 70
     1
102
RTVSPropertyOp2
 70
     1
102
RTVSPropertyOp3
 70
     1
102
RTVSPropertyOp4
 70
     1
102
RTVSPropertyOp5
 70
     1
102
RTVSPropertyOp6
 70
     1
102
RTVSPropertyOp7
 70
     1
102
RTVSPropertyOp8
 70
     1
102
RTVSPropertyOp9
 70
     1
102
RTVSPropertyOp10
 70
     1
102
RTVSPropertyOp11
 70
     1
102
RTVSPropertyOp12
 70
     1
102
RTVSPropertyOp13
 70
     1
102
RTVSPropertyOp14
 70
     1
102
RTVSPropertyOp15
 70
     1
102
RTVSPropertyOp16
 70
     1
102
RTVSPropertyOp17
 70
     1
102
RTVSPropertyOp18
 70
     1
102
RTVSPropertyOp19
 70
     1
102
RTVSPropertyOp20
 70
     1
102
RTVSPropertyOp21
 70
     1
102
RTVSPropertyOp22
 70
     1
102
RTVSPropertyOp23
 70
     1
102
RTVSPropertyOp24
 70
     1
102
RTVSPropertyOp25
 70
     1
102
RTVSPropertyOp26
 70
     1
102
RTVSPropertyOp27
 70
     1
102
RTVSPropertyOp28
 70
     1
102
RTVSPropertyOp29
 70
     1
102
RTVSPropertyOp30
 70
     1
102
RTVSPropertyOp31
 70
     1
102
RTVSPropertyOp32
 70
     1
102
RTVSPropertyOp33
 70
     1
102
RTVSPropertyOp34
 70
     1
102
RTVSPropertyOp35
 70
     1
102
RTVSPropertyOp36
 70
     1
102
RTVSPropertyOp37
 70
     1
102
RTVSPropertyOp38
 70
     1
102
RTVSPropertyOp39
 70
     1
102
RTVSPropertyOp40
 70
     1
102
RTVSPropertyOp41
 70
     1
102
RTVSPropertyOp42
 70
     1
102
RTVSPropertyOp43
 70
     1
102
RTVSPropertyOp44
 70
     1
102
RTVSPropertyOp45
 70
     1
102
RTVSPropertyOp46
 70
     1
102
RTVSPropertyOp47
 70
     1
102
RTVSPropertyOp48
 70
     1
102
RTVSPropertyOp49
 70
     1
102
RTVSPropertyOp50
 70
     1
102
RTVSPropertyOp51
 70
     0
102
RTVSPropertyOp52
 70
     0
102
RTVSPropertyOp53
 70
     1
102
RTVSPropertyOp54
 70
     1
102
RTVSPropertyOp55
 70
     1
102
RTVSPropertyOp56
 70
     1
102
RTVSPropertyOp57
 70
     1
102
RTVSPropertyOp58
 70
     1
102
RTVSPropertyOp59
 70
     1
102
RTVSPropertyOp60
 70
     1
102
RTVSPropertyOp61
 70
     1
102
RTVSPropertyOp62
 70
     1
  0
XRECORD
  5
26DA
102
{ACAD_REACTORS
330
26D9
102
}
330
26D9
100
AcDbXrecord
280
     1
102
RTVSPost2010Prop28
280
     0
102
RTVSPost2010PropOp28
 70
     1
102
RTVSPost2010Prop29
280
     1
102
RTVSPost2010PropOp29
 70
     1
102
RTVSPost2010Prop30
280
     1
102
RTVSPost2010PropOp30
 70
     1
102
RTVSPost2010Prop31
280
     0
102
RTVSPost2010PropOp31
 70
     1
102
RTVSPost2010Prop32
280
     0
102
RTVSPost2010PropOp32
 70
     1
102
RTVSPost2010Prop33
280
     0
102
RTVSPost2010PropOp33
 70
     1
102
RTVSPost2010Prop34
280
     0
102
RTVSPost2010PropOp34
 70
     1
102
RTVSPost2010Prop35
280
     0
102
RTVSPost2010PropOp35
 70
     1
102
RTVSPost2010Prop36
280
     0
102
RTVSPost2010PropOp36
 70
     1
102
RTVSPost2010Prop37
 90
       50
102
RTVSPost2010PropOp37
 70
     1
102
RTVSPost2010Prop38
140
0.0
102
RTVSPost2010PropOp38
 70
     1
102
RTVSPost2010Prop39
140
1.0
102
RTVSPost2010PropOp39
 70
     1
102
RTVSPost2010Prop40
 90
        0
102
RTVSPost2010PropOp40
 70
     1
102
RTVSPost2010Prop41ColorIndex
 90
       18
102
RTVSPost2010Prop41ColorRGB
 90
        0
102
RTVSPost2010PropOp41
 70
     1
102
RTVSPost2010Prop42
 90
       50
102
RTVSPost2010PropOp42
 70
     1
102
RTVSPost2010Prop43
 90
        3
102
RTVSPost2010PropOp43
 70
     1
102
RTVSPost2010Prop44ColorIndex
 90
        5
102
RTVSPost2010Prop44ColorRGB
 90
      255
102
RTVSPost2010PropOp44
 70
     1
102
RTVSPost2010Prop45
280
     0
102
RTVSPost2010PropOp45
 70
     1
102
RTVSPost2010Prop46
 90
       50
102
RTVSPost2010PropOp46
 70
     1
102
RTVSPost2010Prop47
 90
       50
102
RTVSPost2010PropOp47
 70
     1
102
RTVSPost2010Prop48
 90
       50
102
RTVSPost2010PropOp48
 70
     1
102
RTVSPost2010Prop49
280
     0
102
RTVSPost2010PropOp49
 70
     1
102
RTVSPost2010Prop50
 90
       50
102
RTVSPost2010PropOp50
 70
     1
102
RTVSPost2010Prop51ColorIndex
 90
      256
102
RTVSPost2010Prop51ColorRGB
 90
-16777216
102
RTVSPost2010PropOp51
 70
     0
102
RTVSPost2010Prop52
140
1.0
102
RTVSPost2010PropOp52
 70
     0
102
RTVSPost2010Prop53
 90
        2
102
RTVSPost2010PropOp53
 70
     1
102
RTVSPost2010Prop54
  1
strokes_ogs.tif
102
RTVSPost2010PropOp54
 70
     1
102
RTVSPost2010Prop55
280
     0
102
RTVSPost2010PropOp55
 70
     1
102
RTVSPost2010Prop56
140
1.0
102
RTVSPost2010PropOp56
 70
     1
102
RTVSPost2010Prop57
140
1.0
102
RTVSPost2010PropOp57
 70
     1
102
RTVSPropertyOp0
 70
     1
102
RTVSPropertyOp1
 70
     1
102
RTVSPropertyOp2
 70
     1
102
RTVSPropertyOp3
 70
     1
102
RTVSPropertyOp4
 70
     1
102
RTVSPropertyOp5
 70
     1
102
RTVSPropertyOp6
 70
     1
102
RTVSPropertyOp7
 70
     1
102
RTVSPropertyOp8
 70
     1
102
RTVSPropertyOp9
 70
     1
102
RTVSPropertyOp10
 70
     1
102
RTVSPropertyOp11
 70
     1
102
RTVSPropertyOp12
 70
     1
102
RTVSPropertyOp13
 70
     1
102
RTVSPropertyOp14
 70
     1
102
RTVSPropertyOp15
 70
     1
102
RTVSPropertyOp16
 70
     1
102
RTVSPropertyOp17
 70
     1
102
RTVSPropertyOp18
 70
     1
102
RTVSPropertyOp19
 70
     1
102
RTVSPropertyOp20
 70
     1
102
RTVSPropertyOp21
 70
     1
102
RTVSPropertyOp22
 70
     1
102
RTVSPropertyOp23
 70
     1
102
RTVSPropertyOp24
 70
     1
102
RTVSPropertyOp25
 70
     1
102
RTVSPropertyOp26
 70
     1
102
RTVSPropertyOp27
 70
     1
102
RTVSPropertyOp28
 70
     1
102
RTVSPropertyOp29
 70
     1
102
RTVSPropertyOp30
 70
     1
102
RTVSPropertyOp31
 70
     1
102
RTVSPropertyOp32
 70
     1
102
RTVSPropertyOp33
 70
     1
102
RTVSPropertyOp34
 70
     1
102
RTVSPropertyOp35
 70
     1
102
RTVSPropertyOp36
 70
     1
102
RTVSPropertyOp37
 70
     1
102
RTVSPropertyOp38
 70
     1
102
RTVSPropertyOp39
 70
     1
102
RTVSPropertyOp40
 70
     1
102
RTVSPropertyOp41
 70
     1
102
RTVSPropertyOp42
 70
     1
102
RTVSPropertyOp43
 70
     1
102
RTVSPropertyOp44
 70
     1
102
RTVSPropertyOp45
 70
     1
102
RTVSPropertyOp46
 70
     1
102
RTVSPropertyOp47
 70
     1
102
RTVSPropertyOp48
 70
     1
102
RTVSPropertyOp49
 70
     1
102
RTVSPropertyOp50
 70
     1
102
RTVSPropertyOp51
 70
     0
102
RTVSPropertyOp52
 70
     0
102
RTVSPropertyOp53
 70
     1
102
RTVSPropertyOp54
 70
     1
102
RTVSPropertyOp55
 70
     1
102
RTVSPropertyOp56
 70
     1
102
RTVSPropertyOp57
 70
     1
102
RTVSPropertyOp58
 70
     1
102
RTVSPropertyOp59
 70
     1
102
RTVSPropertyOp60
 70
     1
102
RTVSPropertyOp61
 70
     1
102
RTVSPropertyOp62
 70
     1
  0
XRECORD
  5
26F4
102
{ACAD_REACTORS
330
26F3
102
}
330
26F3
100
AcDbXrecord
280
     1
102
RTVSPost2010Prop28
280
     0
102
RTVSPost2010PropOp28
 70
     0
102
RTVSPost2010Prop29
280
     1
102
RTVSPost2010PropOp29
 70
     0
102
RTVSPost2010Prop30
280
     1
102
RTVSPost2010PropOp30
 70
     0
102
RTVSPost2010Prop31
280
     0
102
RTVSPost2010PropOp31
 70
     0
102
RTVSPost2010Prop32
280
     0
102
RTVSPost2010PropOp32
 70
     0
102
RTVSPost2010Prop33
280
     0
102
RTVSPost2010PropOp33
 70
     0
102
RTVSPost2010Prop34
280
     0
102
RTVSPost2010PropOp34
 70
     0
102
RTVSPost2010Prop35
280
     0
102
RTVSPost2010PropOp35
 70
     0
102
RTVSPost2010Prop36
280
     0
102
RTVSPost2010PropOp36
 70
     0
102
RTVSPost2010Prop37
 90
       50
102
RTVSPost2010PropOp37
 70
     0
102
RTVSPost2010Prop38
140
0.0
102
RTVSPost2010PropOp38
 70
     0
102
RTVSPost2010Prop39
140
1.0
102
RTVSPost2010PropOp39
 70
     0
102
RTVSPost2010Prop40
 90
        0
102
RTVSPost2010PropOp40
 70
     0
102
RTVSPost2010Prop41ColorIndex
 90
       18
102
RTVSPost2010Prop41ColorRGB
 90
        0
102
RTVSPost2010PropOp41
 70
     0
102
RTVSPost2010Prop42
 90
       50
102
RTVSPost2010PropOp42
 70
     0
102
RTVSPost2010Prop43
 90
        3
102
RTVSPost2010PropOp43
 70
     0
102
RTVSPost2010Prop44ColorIndex
 90
        5
102
RTVSPost2010Prop44ColorRGB
 90
      255
102
RTVSPost2010PropOp44
 70
     0
102
RTVSPost2010Prop45
280
     0
102
RTVSPost2010PropOp45
 70
     0
102
RTVSPost2010Prop46
 90
       50
102
RTVSPost2010PropOp46
 70
     0
102
RTVSPost2010Prop47
 90
       50
102
RTVSPost2010PropOp47
 70
     0
102
RTVSPost2010Prop48
 90
       50
102
RTVSPost2010PropOp48
 70
     0
102
RTVSPost2010Prop49
280
     0
102
RTVSPost2010PropOp49
 70
     0
102
RTVSPost2010Prop50
 90
       50
102
RTVSPost2010PropOp50
 70
     0
102
RTVSPost2010Prop51ColorIndex
 90
      256
102
RTVSPost2010Prop51ColorRGB
 90
-16777216
102
RTVSPost2010PropOp51
 70
     0
102
RTVSPost2010Prop52
140
1.0
102
RTVSPost2010PropOp52
 70
     0
102
RTVSPost2010Prop53
 90
        2
102
RTVSPost2010PropOp53
 70
     0
102
RTVSPost2010Prop54
  1
strokes_ogs.tif
102
RTVSPost2010PropOp54
 70
     0
102
RTVSPost2010Prop55
280
     0
102
RTVSPost2010PropOp55
 70
     0
102
RTVSPost2010Prop56
140
1.0
102
RTVSPost2010PropOp56
 70
     0
102
RTVSPost2010Prop57
140
1.0
102
RTVSPost2010PropOp57
 70
     0
102
RTVSPropertyOp0
 70
     0
102
RTVSPropertyOp1
 70
     0
102
RTVSPropertyOp2
 70
     0
102
RTVSPropertyOp3
 70
     0
102
RTVSPropertyOp4
 70
     0
102
RTVSPropertyOp5
 70
     0
102
RTVSPropertyOp6
 70
     0
102
RTVSPropertyOp7
 70
     0
102
RTVSPropertyOp8
 70
     0
102
RTVSPropertyOp9
 70
     0
102
RTVSPropertyOp10
 70
     0
102
RTVSPropertyOp11
 70
     0
102
RTVSPropertyOp12
 70
     0
102
RTVSPropertyOp13
 70
     0
102
RTVSPropertyOp14
 70
     2
102
RTVSPropertyOp15
 70
     0
102
RTVSPropertyOp16
 70
     0
102
RTVSPropertyOp17
 70
     0
102
RTVSPropertyOp18
 70
     0
102
RTVSPropertyOp19
 70
     0
102
RTVSPropertyOp20
 70
     0
102
RTVSPropertyOp21
 70
     0
102
RTVSPropertyOp22
 70
     0
102
RTVSPropertyOp23
 70
     0
102
RTVSPropertyOp24
 70
     0
102
RTVSPropertyOp25
 70
     0
102
RTVSPropertyOp26
 70
     0
102
RTVSPropertyOp27
 70
     0
102
RTVSPropertyOp28
 70
     0
102
RTVSPropertyOp29
 70
     0
102
RTVSPropertyOp30
 70
     0
102
RTVSPropertyOp31
 70
     0
102
RTVSPropertyOp32
 70
     0
102
RTVSPropertyOp33
 70
     0
102
RTVSPropertyOp34
 70
     0
102
RTVSPropertyOp35
 70
     0
102
RTVSPropertyOp36
 70
     0
102
RTVSPropertyOp37
 70
     0
102
RTVSPropertyOp38
 70
     0
102
RTVSPropertyOp39
 70
     0
102
RTVSPropertyOp40
 70
     0
102
RTVSPropertyOp41
 70
     0
102
RTVSPropertyOp42
 70
     0
102
RTVSPropertyOp43
 70
     0
102
RTVSPropertyOp44
 70
     0
102
RTVSPropertyOp45
 70
     0
102
RTVSPropertyOp46
 70
     0
102
RTVSPropertyOp47
 70
     0
102
RTVSPropertyOp48
 70
     0
102
RTVSPropertyOp49
 70
     0
102
RTVSPropertyOp50
 70
     0
102
RTVSPropertyOp51
 70
     0
102
RTVSPropertyOp52
 70
     0
102
RTVSPropertyOp53
 70
     0
102
RTVSPropertyOp54
 70
     0
102
RTVSPropertyOp55
 70
     0
102
RTVSPropertyOp56
 70
     0
102
RTVSPropertyOp57
 70
     0
102
RTVSPropertyOp58
 70
     0
102
RTVSPropertyOp59
 70
     0
102
RTVSPropertyOp60
 70
     0
102
RTVSPropertyOp61
 70
     0
102
RTVSPropertyOp62
 70
     0
  0
XRECORD
  5
26E2
102
{ACAD_REACTORS
330
26E1
102
}
330
26E1
100
AcDbXrecord
280
     1
102
RTVSPost2010Prop28
280
     0
102
RTVSPost2010PropOp28
 70
     1
102
RTVSPost2010Prop29
280
     1
102
RTVSPost2010PropOp29
 70
     1
102
RTVSPost2010Prop30
280
     1
102
RTVSPost2010PropOp30
 70
     1
102
RTVSPost2010Prop31
280
     0
102
RTVSPost2010PropOp31
 70
     1
102
RTVSPost2010Prop32
280
     0
102
RTVSPost2010PropOp32
 70
     1
102
RTVSPost2010Prop33
280
     0
102
RTVSPost2010PropOp33
 70
     1
102
RTVSPost2010Prop34
280
     0
102
RTVSPost2010PropOp34
 70
     1
102
RTVSPost2010Prop35
280
     0
102
RTVSPost2010PropOp35
 70
     1
102
RTVSPost2010Prop36
280
     0
102
RTVSPost2010PropOp36
 70
     1
102
RTVSPost2010Prop37
 90
       50
102
RTVSPost2010PropOp37
 70
     1
102
RTVSPost2010Prop38
140
0.0
102
RTVSPost2010PropOp38
 70
     1
102
RTVSPost2010Prop39
140
1.0
102
RTVSPost2010PropOp39
 70
     1
102
RTVSPost2010Prop40
 90
        0
102
RTVSPost2010PropOp40
 70
     1
102
RTVSPost2010Prop41ColorIndex
 90
       18
102
RTVSPost2010Prop41ColorRGB
 90
        0
102
RTVSPost2010PropOp41
 70
     1
102
RTVSPost2010Prop42
 90
       50
102
RTVSPost2010PropOp42
 70
     1
102
RTVSPost2010Prop43
 90
        3
102
RTVSPost2010PropOp43
 70
     1
102
RTVSPost2010Prop44ColorIndex
 90
        5
102
RTVSPost2010Prop44ColorRGB
 90
      255
102
RTVSPost2010PropOp44
 70
     1
102
RTVSPost2010Prop45
280
     0
102
RTVSPost2010PropOp45
 70
     1
102
RTVSPost2010Prop46
 90
       50
102
RTVSPost2010PropOp46
 70
     1
102
RTVSPost2010Prop47
 90
       50
102
RTVSPost2010PropOp47
 70
     1
102
RTVSPost2010Prop48
 90
       50
102
RTVSPost2010PropOp48
 70
     1
102
RTVSPost2010Prop49
280
     0
102
RTVSPost2010PropOp49
 70
     1
102
RTVSPost2010Prop50
 90
       50
102
RTVSPost2010PropOp50
 70
     1
102
RTVSPost2010Prop51ColorIndex
 90
      256
102
RTVSPost2010Prop51ColorRGB
 90
-16777216
102
RTVSPost2010PropOp51
 70
     0
102
RTVSPost2010Prop52
140
1.0
102
RTVSPost2010PropOp52
 70
     0
102
RTVSPost2010Prop53
 90
        2
102
RTVSPost2010PropOp53
 70
     1
102
RTVSPost2010Prop54
  1
strokes_ogs.tif
102
RTVSPost2010PropOp54
 70
     1
102
RTVSPost2010Prop55
280
     0
102
RTVSPost2010PropOp55
 70
     1
102
RTVSPost2010Prop56
140
1.0
102
RTVSPost2010PropOp56
 70
     1
102
RTVSPost2010Prop57
140
1.0
102
RTVSPost2010PropOp57
 70
     1
102
RTVSPropertyOp0
 70
     1
102
RTVSPropertyOp1
 70
     1
102
RTVSPropertyOp2
 70
     1
102
RTVSPropertyOp3
 70
     1
102
RTVSPropertyOp4
 70
     1
102
RTVSPropertyOp5
 70
     1
102
RTVSPropertyOp6
 70
     1
102
RTVSPropertyOp7
 70
     1
102
RTVSPropertyOp8
 70
     1
102
RTVSPropertyOp9
 70
     1
102
RTVSPropertyOp10
 70
     1
102
RTVSPropertyOp11
 70
     1
102
RTVSPropertyOp12
 70
     1
102
RTVSPropertyOp13
 70
     1
102
RTVSPropertyOp14
 70
     1
102
RTVSPropertyOp15
 70
     1
102
RTVSPropertyOp16
 70
     1
102
RTVSPropertyOp17
 70
     1
102
RTVSPropertyOp18
 70
     1
102
RTVSPropertyOp19
 70
     1
102
RTVSPropertyOp20
 70
     1
102
RTVSPropertyOp21
 70
     1
102
RTVSPropertyOp22
 70
     1
102
RTVSPropertyOp23
 70
     1
102
RTVSPropertyOp24
 70
     1
102
RTVSPropertyOp25
 70
     1
102
RTVSPropertyOp26
 70
     1
102
RTVSPropertyOp27
 70
     1
102
RTVSPropertyOp28
 70
     1
102
RTVSPropertyOp29
 70
     1
102
RTVSPropertyOp30
 70
     1
102
RTVSPropertyOp31
 70
     1
102
RTVSPropertyOp32
 70
     1
102
RTVSPropertyOp33
 70
     1
102
RTVSPropertyOp34
 70
     1
102
RTVSPropertyOp35
 70
     1
102
RTVSPropertyOp36
 70
     1
102
RTVSPropertyOp37
 70
     1
102
RTVSPropertyOp38
 70
     1
102
RTVSPropertyOp39
 70
     1
102
RTVSPropertyOp40
 70
     1
102
RTVSPropertyOp41
 70
     1
102
RTVSPropertyOp42
 70
     1
102
RTVSPropertyOp43
 70
     1
102
RTVSPropertyOp44
 70
     1
102
RTVSPropertyOp45
 70
     1
102
RTVSPropertyOp46
 70
     1
102
RTVSPropertyOp47
 70
     1
102
RTVSPropertyOp48
 70
     1
102
RTVSPropertyOp49
 70
     1
102
RTVSPropertyOp50
 70
     1
102
RTVSPropertyOp51
 70
     0
102
RTVSPropertyOp52
 70
     0
102
RTVSPropertyOp53
 70
     1
102
RTVSPropertyOp54
 70
     1
102
RTVSPropertyOp55
 70
     1
102
RTVSPropertyOp56
 70
     1
102
RTVSPropertyOp57
 70
     1
102
RTVSPropertyOp58
 70
     1
102
RTVSPropertyOp59
 70
     1
102
RTVSPropertyOp60
 70
     1
102
RTVSPropertyOp61
 70
     1
102
RTVSPropertyOp62
 70
     1
  0
XRECORD
  5
26C6
102
{ACAD_REACTORS
330
26C5
102
}
330
26C5
100
AcDbXrecord
280
     1
102
RTVSPost2010Prop28
280
     0
102
RTVSPost2010PropOp28
 70
     1
102
RTVSPost2010Prop29
280
     1
102
RTVSPost2010PropOp29
 70
     1
102
RTVSPost2010Prop30
280
     1
102
RTVSPost2010PropOp30
 70
     1
102
RTVSPost2010Prop31
280
     0
102
RTVSPost2010PropOp31
 70
     1
102
RTVSPost2010Prop32
280
     0
102
RTVSPost2010PropOp32
 70
     1
102
RTVSPost2010Prop33
280
     0
102
RTVSPost2010PropOp33
 70
     1
102
RTVSPost2010Prop34
280
     0
102
RTVSPost2010PropOp34
 70
     1
102
RTVSPost2010Prop35
280
     0
102
RTVSPost2010PropOp35
 70
     1
102
RTVSPost2010Prop36
280
     0
102
RTVSPost2010PropOp36
 70
     1
102
RTVSPost2010Prop37
 90
       50
102
RTVSPost2010PropOp37
 70
     1
102
RTVSPost2010Prop38
140
0.0
102
RTVSPost2010PropOp38
 70
     1
102
RTVSPost2010Prop39
140
1.0
102
RTVSPost2010PropOp39
 70
     1
102
RTVSPost2010Prop40
 90
        0
102
RTVSPost2010PropOp40
 70
     1
102
RTVSPost2010Prop41ColorIndex
 90
       18
102
RTVSPost2010Prop41ColorRGB
 90
        0
102
RTVSPost2010PropOp41
 70
     1
102
RTVSPost2010Prop42
 90
       50
102
RTVSPost2010PropOp42
 70
     1
102
RTVSPost2010Prop43
 90
        3
102
RTVSPost2010PropOp43
 70
     1
102
RTVSPost2010Prop44ColorIndex
 90
        5
102
RTVSPost2010Prop44ColorRGB
 90
      255
102
RTVSPost2010PropOp44
 70
     1
102
RTVSPost2010Prop45
280
     0
102
RTVSPost2010PropOp45
 70
     1
102
RTVSPost2010Prop46
 90
       50
102
RTVSPost2010PropOp46
 70
     1
102
RTVSPost2010Prop47
 90
       50
102
RTVSPost2010PropOp47
 70
     1
102
RTVSPost2010Prop48
 90
       50
102
RTVSPost2010PropOp48
 70
     1
102
RTVSPost2010Prop49
280
     0
102
RTVSPost2010PropOp49
 70
     1
102
RTVSPost2010Prop50
 90
       50
102
RTVSPost2010PropOp50
 70
     1
102
RTVSPost2010Prop51ColorIndex
 90
      256
102
RTVSPost2010Prop51ColorRGB
 90
-16777216
102
RTVSPost2010PropOp51
 70
     0
102
RTVSPost2010Prop52
140
1.0
102
RTVSPost2010PropOp52
 70
     0
102
RTVSPost2010Prop53
 90
        2
102
RTVSPost2010PropOp53
 70
     1
102
RTVSPost2010Prop54
  1
strokes_ogs.tif
102
RTVSPost2010PropOp54
 70
     1
102
RTVSPost2010Prop55
280
     0
102
RTVSPost2010PropOp55
 70
     1
102
RTVSPost2010Prop56
140
1.0
102
RTVSPost2010PropOp56
 70
     1
102
RTVSPost2010Prop57
140
1.0
102
RTVSPost2010PropOp57
 70
     1
102
RTVSPropertyOp0
 70
     1
102
RTVSPropertyOp1
 70
     1
102
RTVSPropertyOp2
 70
     1
102
RTVSPropertyOp3
 70
     1
102
RTVSPropertyOp4
 70
     1
102
RTVSPropertyOp5
 70
     1
102
RTVSPropertyOp6
 70
     1
102
RTVSPropertyOp7
 70
     1
102
RTVSPropertyOp8
 70
     1
102
RTVSPropertyOp9
 70
     1
102
RTVSPropertyOp10
 70
     1
102
RTVSPropertyOp11
 70
     1
102
RTVSPropertyOp12
 70
     1
102
RTVSPropertyOp13
 70
     1
102
RTVSPropertyOp14
 70
     1
102
RTVSPropertyOp15
 70
     1
102
RTVSPropertyOp16
 70
     1
102
RTVSPropertyOp17
 70
     1
102
RTVSPropertyOp18
 70
     1
102
RTVSPropertyOp19
 70
     1
102
RTVSPropertyOp20
 70
     1
102
RTVSPropertyOp21
 70
     1
102
RTVSPropertyOp22
 70
     1
102
RTVSPropertyOp23
 70
     1
102
RTVSPropertyOp24
 70
     1
102
RTVSPropertyOp25
 70
     1
102
RTVSPropertyOp26
 70
     1
102
RTVSPropertyOp27
 70
     1
102
RTVSPropertyOp28
 70
     1
102
RTVSPropertyOp29
 70
     1
102
RTVSPropertyOp30
 70
     1
102
RTVSPropertyOp31
 70
     1
102
RTVSPropertyOp32
 70
     1
102
RTVSPropertyOp33
 70
     1
102
RTVSPropertyOp34
 70
     1
102
RTVSPropertyOp35
 70
     1
102
RTVSPropertyOp36
 70
     1
102
RTVSPropertyOp37
 70
     1
102
RTVSPropertyOp38
 70
     1
102
RTVSPropertyOp39
 70
     1
102
RTVSPropertyOp40
 70
     1
102
RTVSPropertyOp41
 70
     1
102
RTVSPropertyOp42
 70
     1
102
RTVSPropertyOp43
 70
     1
102
RTVSPropertyOp44
 70
     1
102
RTVSPropertyOp45
 70
     1
102
RTVSPropertyOp46
 70
     1
102
RTVSPropertyOp47
 70
     1
102
RTVSPropertyOp48
 70
     1
102
RTVSPropertyOp49
 70
     1
102
RTVSPropertyOp50
 70
     1
102
RTVSPropertyOp51
 70
     0
102
RTVSPropertyOp52
 70
     0
102
RTVSPropertyOp53
 70
     1
102
RTVSPropertyOp54
 70
     1
102
RTVSPropertyOp55
 70
     1
102
RTVSPropertyOp56
 70
     1
102
RTVSPropertyOp57
 70
     1
102
RTVSPropertyOp58
 70
     1
102
RTVSPropertyOp59
 70
     1
102
RTVSPropertyOp60
 70
     1
102
RTVSPropertyOp61
 70
     1
102
RTVSPropertyOp62
 70
     1
  0
XRECORD
  5
26C8
102
{ACAD_REACTORS
330
26C7
102
}
330
26C7
100
AcDbXrecord
280
     1
102
RTVSPost2010Prop28
280
     0
102
RTVSPost2010PropOp28
 70
     1
102
RTVSPost2010Prop29
280
     1
102
RTVSPost2010PropOp29
 70
     1
102
RTVSPost2010Prop30
280
     1
102
RTVSPost2010PropOp30
 70
     1
102
RTVSPost2010Prop31
280
     0
102
RTVSPost2010PropOp31
 70
     1
102
RTVSPost2010Prop32
280
     0
102
RTVSPost2010PropOp32
 70
     1
102
RTVSPost2010Prop33
280
     0
102
RTVSPost2010PropOp33
 70
     1
102
RTVSPost2010Prop34
280
     0
102
RTVSPost2010PropOp34
 70
     1
102
RTVSPost2010Prop35
280
     0
102
RTVSPost2010PropOp35
 70
     1
102
RTVSPost2010Prop36
280
     0
102
RTVSPost2010PropOp36
 70
     1
102
RTVSPost2010Prop37
 90
       50
102
RTVSPost2010PropOp37
 70
     1
102
RTVSPost2010Prop38
140
0.0
102
RTVSPost2010PropOp38
 70
     1
102
RTVSPost2010Prop39
140
1.0
102
RTVSPost2010PropOp39
 70
     1
102
RTVSPost2010Prop40
 90
        0
102
RTVSPost2010PropOp40
 70
     1
102
RTVSPost2010Prop41ColorIndex
 90
       18
102
RTVSPost2010Prop41ColorRGB
 90
        0
102
RTVSPost2010PropOp41
 70
     1
102
RTVSPost2010Prop42
 90
       50
102
RTVSPost2010PropOp42
 70
     1
102
RTVSPost2010Prop43
 90
        3
102
RTVSPost2010PropOp43
 70
     1
102
RTVSPost2010Prop44ColorIndex
 90
        5
102
RTVSPost2010Prop44ColorRGB
 90
      255
102
RTVSPost2010PropOp44
 70
     1
102
RTVSPost2010Prop45
280
     0
102
RTVSPost2010PropOp45
 70
     1
102
RTVSPost2010Prop46
 90
       50
102
RTVSPost2010PropOp46
 70
     1
102
RTVSPost2010Prop47
 90
       50
102
RTVSPost2010PropOp47
 70
     1
102
RTVSPost2010Prop48
 90
       50
102
RTVSPost2010PropOp48
 70
     1
102
RTVSPost2010Prop49
280
     0
102
RTVSPost2010PropOp49
 70
     1
102
RTVSPost2010Prop50
 90
       50
102
RTVSPost2010PropOp50
 70
     1
102
RTVSPost2010Prop51ColorIndex
 90
      256
102
RTVSPost2010Prop51ColorRGB
 90
-16777216
102
RTVSPost2010PropOp51
 70
     0
102
RTVSPost2010Prop52
140
1.0
102
RTVSPost2010PropOp52
 70
     0
102
RTVSPost2010Prop53
 90
        2
102
RTVSPost2010PropOp53
 70
     1
102
RTVSPost2010Prop54
  1
strokes_ogs.tif
102
RTVSPost2010PropOp54
 70
     1
102
RTVSPost2010Prop55
280
     0
102
RTVSPost2010PropOp55
 70
     1
102
RTVSPost2010Prop56
140
1.0
102
RTVSPost2010PropOp56
 70
     1
102
RTVSPost2010Prop57
140
1.0
102
RTVSPost2010PropOp57
 70
     1
102
RTVSPropertyOp0
 70
     1
102
RTVSPropertyOp1
 70
     1
102
RTVSPropertyOp2
 70
     1
102
RTVSPropertyOp3
 70
     1
102
RTVSPropertyOp4
 70
     1
102
RTVSPropertyOp5
 70
     1
102
RTVSPropertyOp6
 70
     1
102
RTVSPropertyOp7
 70
     1
102
RTVSPropertyOp8
 70
     1
102
RTVSPropertyOp9
 70
     1
102
RTVSPropertyOp10
 70
     1
102
RTVSPropertyOp11
 70
     1
102
RTVSPropertyOp12
 70
     1
102
RTVSPropertyOp13
 70
     1
102
RTVSPropertyOp14
 70
     1
102
RTVSPropertyOp15
 70
     1
102
RTVSPropertyOp16
 70
     1
102
RTVSPropertyOp17
 70
     1
102
RTVSPropertyOp18
 70
     1
102
RTVSPropertyOp19
 70
     1
102
RTVSPropertyOp20
 70
     1
102
RTVSPropertyOp21
 70
     1
102
RTVSPropertyOp22
 70
     1
102
RTVSPropertyOp23
 70
     1
102
RTVSPropertyOp24
 70
     1
102
RTVSPropertyOp25
 70
     1
102
RTVSPropertyOp26
 70
     1
102
RTVSPropertyOp27
 70
     1
102
RTVSPropertyOp28
 70
     1
102
RTVSPropertyOp29
 70
     1
102
RTVSPropertyOp30
 70
     1
102
RTVSPropertyOp31
 70
     1
102
RTVSPropertyOp32
 70
     1
102
RTVSPropertyOp33
 70
     1
102
RTVSPropertyOp34
 70
     1
102
RTVSPropertyOp35
 70
     1
102
RTVSPropertyOp36
 70
     1
102
RTVSPropertyOp37
 70
     1
102
RTVSPropertyOp38
 70
     1
102
RTVSPropertyOp39
 70
     1
102
RTVSPropertyOp40
 70
     1
102
RTVSPropertyOp41
 70
     1
102
RTVSPropertyOp42
 70
     1
102
RTVSPropertyOp43
 70
     1
102
RTVSPropertyOp44
 70
     1
102
RTVSPropertyOp45
 70
     1
102
RTVSPropertyOp46
 70
     1
102
RTVSPropertyOp47
 70
     1
102
RTVSPropertyOp48
 70
     1
102
RTVSPropertyOp49
 70
     1
102
RTVSPropertyOp50
 70
     1
102
RTVSPropertyOp51
 70
     0
102
RTVSPropertyOp52
 70
     0
102
RTVSPropertyOp53
 70
     1
102
RTVSPropertyOp54
 70
     1
102
RTVSPropertyOp55
 70
     1
102
RTVSPropertyOp56
 70
     1
102
RTVSPropertyOp57
 70
     1
102
RTVSPropertyOp58
 70
     1
102
RTVSPropertyOp59
 70
     1
102
RTVSPropertyOp60
 70
     1
102
RTVSPropertyOp61
 70
     1
102
RTVSPropertyOp62
 70
     1
  0
XRECORD
  5
26CA
102
{ACAD_REACTORS
330
26C9
102
}
330
26C9
100
AcDbXrecord
280
     1
102
RTVSPost2010Prop28
280
     0
102
RTVSPost2010PropOp28
 70
     1
102
RTVSPost2010Prop29
280
     1
102
RTVSPost2010PropOp29
 70
     1
102
RTVSPost2010Prop30
280
     1
102
RTVSPost2010PropOp30
 70
     1
102
RTVSPost2010Prop31
280
     0
102
RTVSPost2010PropOp31
 70
     1
102
RTVSPost2010Prop32
280
     0
102
RTVSPost2010PropOp32
 70
     1
102
RTVSPost2010Prop33
280
     0
102
RTVSPost2010PropOp33
 70
     1
102
RTVSPost2010Prop34
280
     0
102
RTVSPost2010PropOp34
 70
     1
102
RTVSPost2010Prop35
280
     0
102
RTVSPost2010PropOp35
 70
     1
102
RTVSPost2010Prop36
280
     0
102
RTVSPost2010PropOp36
 70
     1
102
RTVSPost2010Prop37
 90
       50
102
RTVSPost2010PropOp37
 70
     1
102
RTVSPost2010Prop38
140
0.0
102
RTVSPost2010PropOp38
 70
     1
102
RTVSPost2010Prop39
140
1.0
102
RTVSPost2010PropOp39
 70
     1
102
RTVSPost2010Prop40
 90
        0
102
RTVSPost2010PropOp40
 70
     1
102
RTVSPost2010Prop41ColorIndex
 90
       18
102
RTVSPost2010Prop41ColorRGB
 90
        0
102
RTVSPost2010PropOp41
 70
     1
102
RTVSPost2010Prop42
 90
       50
102
RTVSPost2010PropOp42
 70
     1
102
RTVSPost2010Prop43
 90
        3
102
RTVSPost2010PropOp43
 70
     1
102
RTVSPost2010Prop44ColorIndex
 90
        5
102
RTVSPost2010Prop44ColorRGB
 90
      255
102
RTVSPost2010PropOp44
 70
     1
102
RTVSPost2010Prop45
280
     0
102
RTVSPost2010PropOp45
 70
     1
102
RTVSPost2010Prop46
 90
       50
102
RTVSPost2010PropOp46
 70
     1
102
RTVSPost2010Prop47
 90
       50
102
RTVSPost2010PropOp47
 70
     1
102
RTVSPost2010Prop48
 90
       50
102
RTVSPost2010PropOp48
 70
     1
102
RTVSPost2010Prop49
280
     0
102
RTVSPost2010PropOp49
 70
     1
102
RTVSPost2010Prop50
 90
       50
102
RTVSPost2010PropOp50
 70
     1
102
RTVSPost2010Prop51ColorIndex
 90
      256
102
RTVSPost2010Prop51ColorRGB
 90
-16777216
102
RTVSPost2010PropOp51
 70
     0
102
RTVSPost2010Prop52
140
1.0
102
RTVSPost2010PropOp52
 70
     0
102
RTVSPost2010Prop53
 90
        2
102
RTVSPost2010PropOp53
 70
     1
102
RTVSPost2010Prop54
  1
strokes_ogs.tif
102
RTVSPost2010PropOp54
 70
     1
102
RTVSPost2010Prop55
280
     0
102
RTVSPost2010PropOp55
 70
     1
102
RTVSPost2010Prop56
140
1.0
102
RTVSPost2010PropOp56
 70
     1
102
RTVSPost2010Prop57
140
1.0
102
RTVSPost2010PropOp57
 70
     1
102
RTVSPropertyOp0
 70
     1
102
RTVSPropertyOp1
 70
     1
102
RTVSPropertyOp2
 70
     1
102
RTVSPropertyOp3
 70
     1
102
RTVSPropertyOp4
 70
     1
102
RTVSPropertyOp5
 70
     1
102
RTVSPropertyOp6
 70
     1
102
RTVSPropertyOp7
 70
     1
102
RTVSPropertyOp8
 70
     1
102
RTVSPropertyOp9
 70
     1
102
RTVSPropertyOp10
 70
     1
102
RTVSPropertyOp11
 70
     1
102
RTVSPropertyOp12
 70
     1
102
RTVSPropertyOp13
 70
     1
102
RTVSPropertyOp14
 70
     1
102
RTVSPropertyOp15
 70
     1
102
RTVSPropertyOp16
 70
     1
102
RTVSPropertyOp17
 70
     1
102
RTVSPropertyOp18
 70
     1
102
RTVSPropertyOp19
 70
     1
102
RTVSPropertyOp20
 70
     1
102
RTVSPropertyOp21
 70
     1
102
RTVSPropertyOp22
 70
     1
102
RTVSPropertyOp23
 70
     1
102
RTVSPropertyOp24
 70
     1
102
RTVSPropertyOp25
 70
     1
102
RTVSPropertyOp26
 70
     1
102
RTVSPropertyOp27
 70
     1
102
RTVSPropertyOp28
 70
     1
102
RTVSPropertyOp29
 70
     1
102
RTVSPropertyOp30
 70
     1
102
RTVSPropertyOp31
 70
     1
102
RTVSPropertyOp32
 70
     1
102
RTVSPropertyOp33
 70
     1
102
RTVSPropertyOp34
 70
     1
102
RTVSPropertyOp35
 70
     1
102
RTVSPropertyOp36
 70
     1
102
RTVSPropertyOp37
 70
     1
102
RTVSPropertyOp38
 70
     1
102
RTVSPropertyOp39
 70
     1
102
RTVSPropertyOp40
 70
     1
102
RTVSPropertyOp41
 70
     1
102
RTVSPropertyOp42
 70
     1
102
RTVSPropertyOp43
 70
     1
102
RTVSPropertyOp44
 70
     1
102
RTVSPropertyOp45
 70
     1
102
RTVSPropertyOp46
 70
     1
102
RTVSPropertyOp47
 70
     1
102
RTVSPropertyOp48
 70
     1
102
RTVSPropertyOp49
 70
     1
102
RTVSPropertyOp50
 70
     1
102
RTVSPropertyOp51
 70
     0
102
RTVSPropertyOp52
 70
     0
102
RTVSPropertyOp53
 70
     1
102
RTVSPropertyOp54
 70
     1
102
RTVSPropertyOp55
 70
     1
102
RTVSPropertyOp56
 70
     1
102
RTVSPropertyOp57
 70
     1
102
RTVSPropertyOp58
 70
     1
102
RTVSPropertyOp59
 70
     1
102
RTVSPropertyOp60
 70
     1
102
RTVSPropertyOp61
 70
     1
102
RTVSPropertyOp62
 70
     1
  0
XRECORD
  5
26CC
102
{ACAD_REACTORS
330
26CB
102
}
330
26CB
100
AcDbXrecord
280
     1
102
RTVSPost2010Prop28
280
     0
102
RTVSPost2010PropOp28
 70
     1
102
RTVSPost2010Prop29
280
     1
102
RTVSPost2010PropOp29
 70
     1
102
RTVSPost2010Prop30
280
     1
102
RTVSPost2010PropOp30
 70
     1
102
RTVSPost2010Prop31
280
     0
102
RTVSPost2010PropOp31
 70
     1
102
RTVSPost2010Prop32
280
     0
102
RTVSPost2010PropOp32
 70
     1
102
RTVSPost2010Prop33
280
     0
102
RTVSPost2010PropOp33
 70
     1
102
RTVSPost2010Prop34
280
     0
102
RTVSPost2010PropOp34
 70
     1
102
RTVSPost2010Prop35
280
     0
102
RTVSPost2010PropOp35
 70
     1
102
RTVSPost2010Prop36
280
     0
102
RTVSPost2010PropOp36
 70
     1
102
RTVSPost2010Prop37
 90
       50
102
RTVSPost2010PropOp37
 70
     1
102
RTVSPost2010Prop38
140
0.0
102
RTVSPost2010PropOp38
 70
     1
102
RTVSPost2010Prop39
140
1.0
102
RTVSPost2010PropOp39
 70
     1
102
RTVSPost2010Prop40
 90
        0
102
RTVSPost2010PropOp40
 70
     1
102
RTVSPost2010Prop41ColorIndex
 90
       18
102
RTVSPost2010Prop41ColorRGB
 90
        0
102
RTVSPost2010PropOp41
 70
     1
102
RTVSPost2010Prop42
 90
       50
102
RTVSPost2010PropOp42
 70
     1
102
RTVSPost2010Prop43
 90
        3
102
RTVSPost2010PropOp43
 70
     1
102
RTVSPost2010Prop44ColorIndex
 90
        5
102
RTVSPost2010Prop44ColorRGB
 90
      255
102
RTVSPost2010PropOp44
 70
     1
102
RTVSPost2010Prop45
280
     0
102
RTVSPost2010PropOp45
 70
     1
102
RTVSPost2010Prop46
 90
       50
102
RTVSPost2010PropOp46
 70
     1
102
RTVSPost2010Prop47
 90
       50
102
RTVSPost2010PropOp47
 70
     1
102
RTVSPost2010Prop48
 90
       50
102
RTVSPost2010PropOp48
 70
     1
102
RTVSPost2010Prop49
280
     0
102
RTVSPost2010PropOp49
 70
     1
102
RTVSPost2010Prop50
 90
       50
102
RTVSPost2010PropOp50
 70
     1
102
RTVSPost2010Prop51ColorIndex
 90
      256
102
RTVSPost2010Prop51ColorRGB
 90
-16777216
102
RTVSPost2010PropOp51
 70
     0
102
RTVSPost2010Prop52
140
1.0
102
RTVSPost2010PropOp52
 70
     0
102
RTVSPost2010Prop53
 90
        2
102
RTVSPost2010PropOp53
 70
     1
102
RTVSPost2010Prop54
  1
strokes_ogs.tif
102
RTVSPost2010PropOp54
 70
     1
102
RTVSPost2010Prop55
280
     0
102
RTVSPost2010PropOp55
 70
     1
102
RTVSPost2010Prop56
140
1.0
102
RTVSPost2010PropOp56
 70
     1
102
RTVSPost2010Prop57
140
1.0
102
RTVSPost2010PropOp57
 70
     1
102
RTVSPropertyOp0
 70
     1
102
RTVSPropertyOp1
 70
     1
102
RTVSPropertyOp2
 70
     1
102
RTVSPropertyOp3
 70
     1
102
RTVSPropertyOp4
 70
     1
102
RTVSPropertyOp5
 70
     1
102
RTVSPropertyOp6
 70
     1
102
RTVSPropertyOp7
 70
     1
102
RTVSPropertyOp8
 70
     1
102
RTVSPropertyOp9
 70
     1
102
RTVSPropertyOp10
 70
     1
102
RTVSPropertyOp11
 70
     1
102
RTVSPropertyOp12
 70
     1
102
RTVSPropertyOp13
 70
     1
102
RTVSPropertyOp14
 70
     1
102
RTVSPropertyOp15
 70
     1
102
RTVSPropertyOp16
 70
     1
102
RTVSPropertyOp17
 70
     1
102
RTVSPropertyOp18
 70
     1
102
RTVSPropertyOp19
 70
     1
102
RTVSPropertyOp20
 70
     1
102
RTVSPropertyOp21
 70
     1
102
RTVSPropertyOp22
 70
     1
102
RTVSPropertyOp23
 70
     1
102
RTVSPropertyOp24
 70
     1
102
RTVSPropertyOp25
 70
     1
102
RTVSPropertyOp26
 70
     1
102
RTVSPropertyOp27
 70
     1
102
RTVSPropertyOp28
 70
     1
102
RTVSPropertyOp29
 70
     1
102
RTVSPropertyOp30
 70
     1
102
RTVSPropertyOp31
 70
     1
102
RTVSPropertyOp32
 70
     1
102
RTVSPropertyOp33
 70
     1
102
RTVSPropertyOp34
 70
     1
102
RTVSPropertyOp35
 70
     1
102
RTVSPropertyOp36
 70
     1
102
RTVSPropertyOp37
 70
     1
102
RTVSPropertyOp38
 70
     1
102
RTVSPropertyOp39
 70
     1
102
RTVSPropertyOp40
 70
     1
102
RTVSPropertyOp41
 70
     1
102
RTVSPropertyOp42
 70
     1
102
RTVSPropertyOp43
 70
     1
102
RTVSPropertyOp44
 70
     1
102
RTVSPropertyOp45
 70
     1
102
RTVSPropertyOp46
 70
     1
102
RTVSPropertyOp47
 70
     1
102
RTVSPropertyOp48
 70
     1
102
RTVSPropertyOp49
 70
     1
102
RTVSPropertyOp50
 70
     1
102
RTVSPropertyOp51
 70
     0
102
RTVSPropertyOp52
 70
     0
102
RTVSPropertyOp53
 70
     1
102
RTVSPropertyOp54
 70
     1
102
RTVSPropertyOp55
 70
     1
102
RTVSPropertyOp56
 70
     1
102
RTVSPropertyOp57
 70
     1
102
RTVSPropertyOp58
 70
     1
102
RTVSPropertyOp59
 70
     1
102
RTVSPropertyOp60
 70
     1
102
RTVSPropertyOp61
 70
     1
102
RTVSPropertyOp62
 70
     1
  0
XRECORD
  5
26D4
102
{ACAD_REACTORS
330
26D3
102
}
330
26D3
100
AcDbXrecord
280
     1
102
RTVSPost2010Prop28
280
     0
102
RTVSPost2010PropOp28
 70
     1
102
RTVSPost2010Prop29
280
     1
102
RTVSPost2010PropOp29
 70
     1
102
RTVSPost2010Prop30
280
     1
102
RTVSPost2010PropOp30
 70
     1
102
RTVSPost2010Prop31
280
     0
102
RTVSPost2010PropOp31
 70
     1
102
RTVSPost2010Prop32
280
     0
102
RTVSPost2010PropOp32
 70
     1
102
RTVSPost2010Prop33
280
     0
102
RTVSPost2010PropOp33
 70
     1
102
RTVSPost2010Prop34
280
     0
102
RTVSPost2010PropOp34
 70
     1
102
RTVSPost2010Prop35
280
     0
102
RTVSPost2010PropOp35
 70
     1
102
RTVSPost2010Prop36
280
     0
102
RTVSPost2010PropOp36
 70
     1
102
RTVSPost2010Prop37
 90
       50
102
RTVSPost2010PropOp37
 70
     1
102
RTVSPost2010Prop38
140
0.0
102
RTVSPost2010PropOp38
 70
     1
102
RTVSPost2010Prop39
140
1.0
102
RTVSPost2010PropOp39
 70
     1
102
RTVSPost2010Prop40
 90
        0
102
RTVSPost2010PropOp40
 70
     1
102
RTVSPost2010Prop41ColorIndex
 90
       18
102
RTVSPost2010Prop41ColorRGB
 90
        0
102
RTVSPost2010PropOp41
 70
     1
102
RTVSPost2010Prop42
 90
       50
102
RTVSPost2010PropOp42
 70
     1
102
RTVSPost2010Prop43
 90
        3
102
RTVSPost2010PropOp43
 70
     1
102
RTVSPost2010Prop44ColorIndex
 90
        5
102
RTVSPost2010Prop44ColorRGB
 90
      255
102
RTVSPost2010PropOp44
 70
     1
102
RTVSPost2010Prop45
280
     0
102
RTVSPost2010PropOp45
 70
     1
102
RTVSPost2010Prop46
 90
       50
102
RTVSPost2010PropOp46
 70
     1
102
RTVSPost2010Prop47
 90
       50
102
RTVSPost2010PropOp47
 70
     1
102
RTVSPost2010Prop48
 90
       50
102
RTVSPost2010PropOp48
 70
     1
102
RTVSPost2010Prop49
280
     0
102
RTVSPost2010PropOp49
 70
     1
102
RTVSPost2010Prop50
 90
       50
102
RTVSPost2010PropOp50
 70
     1
102
RTVSPost2010Prop51ColorIndex
 90
      256
102
RTVSPost2010Prop51ColorRGB
 90
-16777216
102
RTVSPost2010PropOp51
 70
     0
102
RTVSPost2010Prop52
140
1.0
102
RTVSPost2010PropOp52
 70
     0
102
RTVSPost2010Prop53
 90
        2
102
RTVSPost2010PropOp53
 70
     1
102
RTVSPost2010Prop54
  1
strokes_ogs.tif
102
RTVSPost2010PropOp54
 70
     1
102
RTVSPost2010Prop55
280
     0
102
RTVSPost2010PropOp55
 70
     1
102
RTVSPost2010Prop56
140
1.0
102
RTVSPost2010PropOp56
 70
     1
102
RTVSPost2010Prop57
140
1.0
102
RTVSPost2010PropOp57
 70
     1
102
RTVSPropertyOp0
 70
     1
102
RTVSPropertyOp1
 70
     1
102
RTVSPropertyOp2
 70
     1
102
RTVSPropertyOp3
 70
     1
102
RTVSPropertyOp4
 70
     1
102
RTVSPropertyOp5
 70
     1
102
RTVSPropertyOp6
 70
     1
102
RTVSPropertyOp7
 70
     1
102
RTVSPropertyOp8
 70
     1
102
RTVSPropertyOp9
 70
     1
102
RTVSPropertyOp10
 70
     1
102
RTVSPropertyOp11
 70
     1
102
RTVSPropertyOp12
 70
     1
102
RTVSPropertyOp13
 70
     1
102
RTVSPropertyOp14
 70
     1
102
RTVSPropertyOp15
 70
     1
102
RTVSPropertyOp16
 70
     1
102
RTVSPropertyOp17
 70
     1
102
RTVSPropertyOp18
 70
     1
102
RTVSPropertyOp19
 70
     1
102
RTVSPropertyOp20
 70
     1
102
RTVSPropertyOp21
 70
     1
102
RTVSPropertyOp22
 70
     1
102
RTVSPropertyOp23
 70
     1
102
RTVSPropertyOp24
 70
     1
102
RTVSPropertyOp25
 70
     1
102
RTVSPropertyOp26
 70
     1
102
RTVSPropertyOp27
 70
     1
102
RTVSPropertyOp28
 70
     1
102
RTVSPropertyOp29
 70
     1
102
RTVSPropertyOp30
 70
     1
102
RTVSPropertyOp31
 70
     1
102
RTVSPropertyOp32
 70
     1
102
RTVSPropertyOp33
 70
     1
102
RTVSPropertyOp34
 70
     1
102
RTVSPropertyOp35
 70
     1
102
RTVSPropertyOp36
 70
     1
102
RTVSPropertyOp37
 70
     1
102
RTVSPropertyOp38
 70
     1
102
RTVSPropertyOp39
 70
     1
102
RTVSPropertyOp40
 70
     1
102
RTVSPropertyOp41
 70
     1
102
RTVSPropertyOp42
 70
     1
102
RTVSPropertyOp43
 70
     1
102
RTVSPropertyOp44
 70
     1
102
RTVSPropertyOp45
 70
     1
102
RTVSPropertyOp46
 70
     1
102
RTVSPropertyOp47
 70
     1
102
RTVSPropertyOp48
 70
     1
102
RTVSPropertyOp49
 70
     1
102
RTVSPropertyOp50
 70
     1
102
RTVSPropertyOp51
 70
     0
102
RTVSPropertyOp52
 70
     0
102
RTVSPropertyOp53
 70
     1
102
RTVSPropertyOp54
 70
     1
102
RTVSPropertyOp55
 70
     1
102
RTVSPropertyOp56
 70
     1
102
RTVSPropertyOp57
 70
     1
102
RTVSPropertyOp58
 70
     1
102
RTVSPropertyOp59
 70
     1
102
RTVSPropertyOp60
 70
     1
102
RTVSPropertyOp61
 70
     1
102
RTVSPropertyOp62
 70
     1
  0
XRECORD
  5
26F0
102
{ACAD_REACTORS
330
26EF
102
}
330
26EF
100
AcDbXrecord
280
     1
102
RTVSPost2010Prop28
280
     0
102
RTVSPost2010PropOp28
 70
     0
102
RTVSPost2010Prop29
280
     1
102
RTVSPost2010PropOp29
 70
     0
102
RTVSPost2010Prop30
280
     1
102
RTVSPost2010PropOp30
 70
     0
102
RTVSPost2010Prop31
280
     0
102
RTVSPost2010PropOp31
 70
     0
102
RTVSPost2010Prop32
280
     0
102
RTVSPost2010PropOp32
 70
     0
102
RTVSPost2010Prop33
280
     0
102
RTVSPost2010PropOp33
 70
     0
102
RTVSPost2010Prop34
280
     0
102
RTVSPost2010PropOp34
 70
     0
102
RTVSPost2010Prop35
280
     0
102
RTVSPost2010PropOp35
 70
     0
102
RTVSPost2010Prop36
280
     0
102
RTVSPost2010PropOp36
 70
     0
102
RTVSPost2010Prop37
 90
       50
102
RTVSPost2010PropOp37
 70
     0
102
RTVSPost2010Prop38
140
0.0
102
RTVSPost2010PropOp38
 70
     0
102
RTVSPost2010Prop39
140
1.0
102
RTVSPost2010PropOp39
 70
     0
102
RTVSPost2010Prop40
 90
        0
102
RTVSPost2010PropOp40
 70
     0
102
RTVSPost2010Prop41ColorIndex
 90
       18
102
RTVSPost2010Prop41ColorRGB
 90
        0
102
RTVSPost2010PropOp41
 70
     0
102
RTVSPost2010Prop42
 90
       50
102
RTVSPost2010PropOp42
 70
     0
102
RTVSPost2010Prop43
 90
        3
102
RTVSPost2010PropOp43
 70
     0
102
RTVSPost2010Prop44ColorIndex
 90
        5
102
RTVSPost2010Prop44ColorRGB
 90
      255
102
RTVSPost2010PropOp44
 70
     0
102
RTVSPost2010Prop45
280
     0
102
RTVSPost2010PropOp45
 70
     0
102
RTVSPost2010Prop46
 90
       50
102
RTVSPost2010PropOp46
 70
     0
102
RTVSPost2010Prop47
 90
       50
102
RTVSPost2010PropOp47
 70
     0
102
RTVSPost2010Prop48
 90
       50
102
RTVSPost2010PropOp48
 70
     0
102
RTVSPost2010Prop49
280
     0
102
RTVSPost2010PropOp49
 70
     0
102
RTVSPost2010Prop50
 90
       50
102
RTVSPost2010PropOp50
 70
     0
102
RTVSPost2010Prop51ColorIndex
 90
      256
102
RTVSPost2010Prop51ColorRGB
 90
-16777216
102
RTVSPost2010PropOp51
 70
     0
102
RTVSPost2010Prop52
140
1.0
102
RTVSPost2010PropOp52
 70
     0
102
RTVSPost2010Prop53
 90
        2
102
RTVSPost2010PropOp53
 70
     0
102
RTVSPost2010Prop54
  1
strokes_ogs.tif
102
RTVSPost2010PropOp54
 70
     0
102
RTVSPost2010Prop55
280
     0
102
RTVSPost2010PropOp55
 70
     0
102
RTVSPost2010Prop56
140
1.0
102
RTVSPost2010PropOp56
 70
     0
102
RTVSPost2010Prop57
140
1.0
102
RTVSPost2010PropOp57
 70
     0
102
RTVSPropertyOp0
 70
     0
102
RTVSPropertyOp1
 70
     0
102
RTVSPropertyOp2
 70
     0
102
RTVSPropertyOp3
 70
     0
102
RTVSPropertyOp4
 70
     0
102
RTVSPropertyOp5
 70
     0
102
RTVSPropertyOp6
 70
     0
102
RTVSPropertyOp7
 70
     0
102
RTVSPropertyOp8
 70
     0
102
RTVSPropertyOp9
 70
     0
102
RTVSPropertyOp10
 70
     0
102
RTVSPropertyOp11
 70
     0
102
RTVSPropertyOp12
 70
     0
102
RTVSPropertyOp13
 70
     0
102
RTVSPropertyOp14
 70
     2
102
RTVSPropertyOp15
 70
     0
102
RTVSPropertyOp16
 70
     0
102
RTVSPropertyOp17
 70
     0
102
RTVSPropertyOp18
 70
     0
102
RTVSPropertyOp19
 70
     0
102
RTVSPropertyOp20
 70
     0
102
RTVSPropertyOp21
 70
     0
102
RTVSPropertyOp22
 70
     0
102
RTVSPropertyOp23
 70
     0
102
RTVSPropertyOp24
 70
     0
102
RTVSPropertyOp25
 70
     0
102
RTVSPropertyOp26
 70
     0
102
RTVSPropertyOp27
 70
     0
102
RTVSPropertyOp28
 70
     0
102
RTVSPropertyOp29
 70
     0
102
RTVSPropertyOp30
 70
     0
102
RTVSPropertyOp31
 70
     0
102
RTVSPropertyOp32
 70
     0
102
RTVSPropertyOp33
 70
     0
102
RTVSPropertyOp34
 70
     0
102
RTVSPropertyOp35
 70
     0
102
RTVSPropertyOp36
 70
     0
102
RTVSPropertyOp37
 70
     0
102
RTVSPropertyOp38
 70
     0
102
RTVSPropertyOp39
 70
     0
102
RTVSPropertyOp40
 70
     0
102
RTVSPropertyOp41
 70
     0
102
RTVSPropertyOp42
 70
     0
102
RTVSPropertyOp43
 70
     0
102
RTVSPropertyOp44
 70
     0
102
RTVSPropertyOp45
 70
     0
102
RTVSPropertyOp46
 70
     0
102
RTVSPropertyOp47
 70
     0
102
RTVSPropertyOp48
 70
     0
102
RTVSPropertyOp49
 70
     0
102
RTVSPropertyOp50
 70
     0
102
RTVSPropertyOp51
 70
     0
102
RTVSPropertyOp52
 70
     0
102
RTVSPropertyOp53
 70
     0
102
RTVSPropertyOp54
 70
     0
102
RTVSPropertyOp55
 70
     0
102
RTVSPropertyOp56
 70
     0
102
RTVSPropertyOp57
 70
     0
102
RTVSPropertyOp58
 70
     0
102
RTVSPropertyOp59
 70
     0
102
RTVSPropertyOp60
 70
     0
102
RTVSPropertyOp61
 70
     0
102
RTVSPropertyOp62
 70
     0
  0
XRECORD
  5
26E0
102
{ACAD_REACTORS
330
26DF
102
}
330
26DF
100
AcDbXrecord
280
     1
102
RTVSPost2010Prop28
280
     0
102
RTVSPost2010PropOp28
 70
     1
102
RTVSPost2010Prop29
280
     1
102
RTVSPost2010PropOp29
 70
     1
102
RTVSPost2010Prop30
280
     1
102
RTVSPost2010PropOp30
 70
     1
102
RTVSPost2010Prop31
280
     0
102
RTVSPost2010PropOp31
 70
     1
102
RTVSPost2010Prop32
280
     0
102
RTVSPost2010PropOp32
 70
     1
102
RTVSPost2010Prop33
280
     0
102
RTVSPost2010PropOp33
 70
     1
102
RTVSPost2010Prop34
280
     0
102
RTVSPost2010PropOp34
 70
     1
102
RTVSPost2010Prop35
280
     0
102
RTVSPost2010PropOp35
 70
     1
102
RTVSPost2010Prop36
280
     0
102
RTVSPost2010PropOp36
 70
     1
102
RTVSPost2010Prop37
 90
       50
102
RTVSPost2010PropOp37
 70
     1
102
RTVSPost2010Prop38
140
0.0
102
RTVSPost2010PropOp38
 70
     1
102
RTVSPost2010Prop39
140
1.0
102
RTVSPost2010PropOp39
 70
     1
102
RTVSPost2010Prop40
 90
        0
102
RTVSPost2010PropOp40
 70
     1
102
RTVSPost2010Prop41ColorIndex
 90
       18
102
RTVSPost2010Prop41ColorRGB
 90
        0
102
RTVSPost2010PropOp41
 70
     1
102
RTVSPost2010Prop42
 90
       50
102
RTVSPost2010PropOp42
 70
     1
102
RTVSPost2010Prop43
 90
        3
102
RTVSPost2010PropOp43
 70
     1
102
RTVSPost2010Prop44ColorIndex
 90
        5
102
RTVSPost2010Prop44ColorRGB
 90
      255
102
RTVSPost2010PropOp44
 70
     1
102
RTVSPost2010Prop45
280
     0
102
RTVSPost2010PropOp45
 70
     1
102
RTVSPost2010Prop46
 90
       50
102
RTVSPost2010PropOp46
 70
     1
102
RTVSPost2010Prop47
 90
       50
102
RTVSPost2010PropOp47
 70
     1
102
RTVSPost2010Prop48
 90
       50
102
RTVSPost2010PropOp48
 70
     1
102
RTVSPost2010Prop49
280
     0
102
RTVSPost2010PropOp49
 70
     1
102
RTVSPost2010Prop50
 90
       50
102
RTVSPost2010PropOp50
 70
     1
102
RTVSPost2010Prop51ColorIndex
 90
      256
102
RTVSPost2010Prop51ColorRGB
 90
-16777216
102
RTVSPost2010PropOp51
 70
     0
102
RTVSPost2010Prop52
140
1.0
102
RTVSPost2010PropOp52
 70
     0
102
RTVSPost2010Prop53
 90
        2
102
RTVSPost2010PropOp53
 70
     1
102
RTVSPost2010Prop54
  1
strokes_ogs.tif
102
RTVSPost2010PropOp54
 70
     1
102
RTVSPost2010Prop55
280
     0
102
RTVSPost2010PropOp55
 70
     1
102
RTVSPost2010Prop56
140
1.0
102
RTVSPost2010PropOp56
 70
     1
102
RTVSPost2010Prop57
140
1.0
102
RTVSPost2010PropOp57
 70
     1
102
RTVSPropertyOp0
 70
     1
102
RTVSPropertyOp1
 70
     1
102
RTVSPropertyOp2
 70
     1
102
RTVSPropertyOp3
 70
     1
102
RTVSPropertyOp4
 70
     1
102
RTVSPropertyOp5
 70
     1
102
RTVSPropertyOp6
 70
     1
102
RTVSPropertyOp7
 70
     1
102
RTVSPropertyOp8
 70
     1
102
RTVSPropertyOp9
 70
     1
102
RTVSPropertyOp10
 70
     1
102
RTVSPropertyOp11
 70
     1
102
RTVSPropertyOp12
 70
     1
102
RTVSPropertyOp13
 70
     1
102
RTVSPropertyOp14
 70
     1
102
RTVSPropertyOp15
 70
     1
102
RTVSPropertyOp16
 70
     1
102
RTVSPropertyOp17
 70
     1
102
RTVSPropertyOp18
 70
     1
102
RTVSPropertyOp19
 70
     1
102
RTVSPropertyOp20
 70
     1
102
RTVSPropertyOp21
 70
     1
102
RTVSPropertyOp22
 70
     1
102
RTVSPropertyOp23
 70
     1
102
RTVSPropertyOp24
 70
     1
102
RTVSPropertyOp25
 70
     1
102
RTVSPropertyOp26
 70
     1
102
RTVSPropertyOp27
 70
     1
102
RTVSPropertyOp28
 70
     1
102
RTVSPropertyOp29
 70
     1
102
RTVSPropertyOp30
 70
     1
102
RTVSPropertyOp31
 70
     1
102
RTVSPropertyOp32
 70
     1
102
RTVSPropertyOp33
 70
     1
102
RTVSPropertyOp34
 70
     1
102
RTVSPropertyOp35
 70
     1
102
RTVSPropertyOp36
 70
     1
102
RTVSPropertyOp37
 70
     1
102
RTVSPropertyOp38
 70
     1
102
RTVSPropertyOp39
 70
     1
102
RTVSPropertyOp40
 70
     1
102
RTVSPropertyOp41
 70
     1
102
RTVSPropertyOp42
 70
     1
102
RTVSPropertyOp43
 70
     1
102
RTVSPropertyOp44
 70
     1
102
RTVSPropertyOp45
 70
     1
102
RTVSPropertyOp46
 70
     1
102
RTVSPropertyOp47
 70
     1
102
RTVSPropertyOp48
 70
     1
102
RTVSPropertyOp49
 70
     1
102
RTVSPropertyOp50
 70
     1
102
RTVSPropertyOp51
 70
     0
102
RTVSPropertyOp52
 70
     0
102
RTVSPropertyOp53
 70
     1
102
RTVSPropertyOp54
 70
     1
102
RTVSPropertyOp55
 70
     1
102
RTVSPropertyOp56
 70
     1
102
RTVSPropertyOp57
 70
     1
102
RTVSPropertyOp58
 70
     1
102
RTVSPropertyOp59
 70
     1
102
RTVSPropertyOp60
 70
     1
102
RTVSPropertyOp61
 70
     1
102
RTVSPropertyOp62
 70
     1
  0
XRECORD
  5
26F2
102
{ACAD_REACTORS
330
26F1
102
}
330
26F1
100
AcDbXrecord
280
     1
102
RTVSPost2010Prop28
280
     0
102
RTVSPost2010PropOp28
 70
     0
102
RTVSPost2010Prop29
280
     1
102
RTVSPost2010PropOp29
 70
     0
102
RTVSPost2010Prop30
280
     1
102
RTVSPost2010PropOp30
 70
     0
102
RTVSPost2010Prop31
280
     0
102
RTVSPost2010PropOp31
 70
     0
102
RTVSPost2010Prop32
280
     0
102
RTVSPost2010PropOp32
 70
     0
102
RTVSPost2010Prop33
280
     0
102
RTVSPost2010PropOp33
 70
     0
102
RTVSPost2010Prop34
280
     0
102
RTVSPost2010PropOp34
 70
     0
102
RTVSPost2010Prop35
280
     0
102
RTVSPost2010PropOp35
 70
     0
102
RTVSPost2010Prop36
280
     0
102
RTVSPost2010PropOp36
 70
     0
102
RTVSPost2010Prop37
 90
       50
102
RTVSPost2010PropOp37
 70
     0
102
RTVSPost2010Prop38
140
0.0
102
RTVSPost2010PropOp38
 70
     0
102
RTVSPost2010Prop39
140
1.0
102
RTVSPost2010PropOp39
 70
     0
102
RTVSPost2010Prop40
 90
        0
102
RTVSPost2010PropOp40
 70
     0
102
RTVSPost2010Prop41ColorIndex
 90
       18
102
RTVSPost2010Prop41ColorRGB
 90
        0
102
RTVSPost2010PropOp41
 70
     0
102
RTVSPost2010Prop42
 90
       50
102
RTVSPost2010PropOp42
 70
     0
102
RTVSPost2010Prop43
 90
        3
102
RTVSPost2010PropOp43
 70
     0
102
RTVSPost2010Prop44ColorIndex
 90
        5
102
RTVSPost2010Prop44ColorRGB
 90
      255
102
RTVSPost2010PropOp44
 70
     0
102
RTVSPost2010Prop45
280
     0
102
RTVSPost2010PropOp45
 70
     0
102
RTVSPost2010Prop46
 90
       50
102
RTVSPost2010PropOp46
 70
     0
102
RTVSPost2010Prop47
 90
       50
102
RTVSPost2010PropOp47
 70
     0
102
RTVSPost2010Prop48
 90
       50
102
RTVSPost2010PropOp48
 70
     0
102
RTVSPost2010Prop49
280
     0
102
RTVSPost2010PropOp49
 70
     0
102
RTVSPost2010Prop50
 90
       50
102
RTVSPost2010PropOp50
 70
     0
102
RTVSPost2010Prop51ColorIndex
 90
      256
102
RTVSPost2010Prop51ColorRGB
 90
-16777216
102
RTVSPost2010PropOp51
 70
     0
102
RTVSPost2010Prop52
140
1.0
102
RTVSPost2010PropOp52
 70
     0
102
RTVSPost2010Prop53
 90
        2
102
RTVSPost2010PropOp53
 70
     0
102
RTVSPost2010Prop54
  1
strokes_ogs.tif
102
RTVSPost2010PropOp54
 70
     0
102
RTVSPost2010Prop55
280
     0
102
RTVSPost2010PropOp55
 70
     0
102
RTVSPost2010Prop56
140
1.0
102
RTVSPost2010PropOp56
 70
     0
102
RTVSPost2010Prop57
140
1.0
102
RTVSPost2010PropOp57
 70
     0
102
RTVSPropertyOp0
 70
     0
102
RTVSPropertyOp1
 70
     0
102
RTVSPropertyOp2
 70
     0
102
RTVSPropertyOp3
 70
     0
102
RTVSPropertyOp4
 70
     0
102
RTVSPropertyOp5
 70
     0
102
RTVSPropertyOp6
 70
     0
102
RTVSPropertyOp7
 70
     0
102
RTVSPropertyOp8
 70
     0
102
RTVSPropertyOp9
 70
     0
102
RTVSPropertyOp10
 70
     0
102
RTVSPropertyOp11
 70
     0
102
RTVSPropertyOp12
 70
     0
102
RTVSPropertyOp13
 70
     0
102
RTVSPropertyOp14
 70
     2
102
RTVSPropertyOp15
 70
     0
102
RTVSPropertyOp16
 70
     0
102
RTVSPropertyOp17
 70
     0
102
RTVSPropertyOp18
 70
     0
102
RTVSPropertyOp19
 70
     0
102
RTVSPropertyOp20
 70
     0
102
RTVSPropertyOp21
 70
     0
102
RTVSPropertyOp22
 70
     0
102
RTVSPropertyOp23
 70
     0
102
RTVSPropertyOp24
 70
     0
102
RTVSPropertyOp25
 70
     0
102
RTVSPropertyOp26
 70
     0
102
RTVSPropertyOp27
 70
     0
102
RTVSPropertyOp28
 70
     0
102
RTVSPropertyOp29
 70
     0
102
RTVSPropertyOp30
 70
     0
102
RTVSPropertyOp31
 70
     0
102
RTVSPropertyOp32
 70
     0
102
RTVSPropertyOp33
 70
     0
102
RTVSPropertyOp34
 70
     0
102
RTVSPropertyOp35
 70
     0
102
RTVSPropertyOp36
 70
     0
102
RTVSPropertyOp37
 70
     0
102
RTVSPropertyOp38
 70
     0
102
RTVSPropertyOp39
 70
     0
102
RTVSPropertyOp40
 70
     0
102
RTVSPropertyOp41
 70
     0
102
RTVSPropertyOp42
 70
     0
102
RTVSPropertyOp43
 70
     0
102
RTVSPropertyOp44
 70
     0
102
RTVSPropertyOp45
 70
     0
102
RTVSPropertyOp46
 70
     0
102
RTVSPropertyOp47
 70
     0
102
RTVSPropertyOp48
 70
     0
102
RTVSPropertyOp49
 70
     0
102
RTVSPropertyOp50
 70
     0
102
RTVSPropertyOp51
 70
     0
102
RTVSPropertyOp52
 70
     0
102
RTVSPropertyOp53
 70
     0
102
RTVSPropertyOp54
 70
     0
102
RTVSPropertyOp55
 70
     0
102
RTVSPropertyOp56
 70
     0
102
RTVSPropertyOp57
 70
     0
102
RTVSPropertyOp58
 70
     0
102
RTVSPropertyOp59
 70
     0
102
RTVSPropertyOp60
 70
     0
102
RTVSPropertyOp61
 70
     0
102
RTVSPropertyOp62
 70
     0
  0
XRECORD
  5
26D8
102
{ACAD_REACTORS
330
26D7
102
}
330
26D7
100
AcDbXrecord
280
     1
102
RTVSPost2010Prop28
280
     0
102
RTVSPost2010PropOp28
 70
     1
102
RTVSPost2010Prop29
280
     1
102
RTVSPost2010PropOp29
 70
     1
102
RTVSPost2010Prop30
280
     1
102
RTVSPost2010PropOp30
 70
     1
102
RTVSPost2010Prop31
280
     0
102
RTVSPost2010PropOp31
 70
     1
102
RTVSPost2010Prop32
280
     0
102
RTVSPost2010PropOp32
 70
     1
102
RTVSPost2010Prop33
280
     0
102
RTVSPost2010PropOp33
 70
     1
102
RTVSPost2010Prop34
280
     0
102
RTVSPost2010PropOp34
 70
     1
102
RTVSPost2010Prop35
280
     0
102
RTVSPost2010PropOp35
 70
     1
102
RTVSPost2010Prop36
280
     0
102
RTVSPost2010PropOp36
 70
     1
102
RTVSPost2010Prop37
 90
       50
102
RTVSPost2010PropOp37
 70
     1
102
RTVSPost2010Prop38
140
0.0
102
RTVSPost2010PropOp38
 70
     1
102
RTVSPost2010Prop39
140
1.0
102
RTVSPost2010PropOp39
 70
     1
102
RTVSPost2010Prop40
 90
        0
102
RTVSPost2010PropOp40
 70
     1
102
RTVSPost2010Prop41ColorIndex
 90
       18
102
RTVSPost2010Prop41ColorRGB
 90
        0
102
RTVSPost2010PropOp41
 70
     1
102
RTVSPost2010Prop42
 90
       50
102
RTVSPost2010PropOp42
 70
     1
102
RTVSPost2010Prop43
 90
        3
102
RTVSPost2010PropOp43
 70
     1
102
RTVSPost2010Prop44ColorIndex
 90
        5
102
RTVSPost2010Prop44ColorRGB
 90
      255
102
RTVSPost2010PropOp44
 70
     1
102
RTVSPost2010Prop45
280
     0
102
RTVSPost2010PropOp45
 70
     1
102
RTVSPost2010Prop46
 90
       50
102
RTVSPost2010PropOp46
 70
     1
102
RTVSPost2010Prop47
 90
       50
102
RTVSPost2010PropOp47
 70
     1
102
RTVSPost2010Prop48
 90
       50
102
RTVSPost2010PropOp48
 70
     1
102
RTVSPost2010Prop49
280
     0
102
RTVSPost2010PropOp49
 70
     1
102
RTVSPost2010Prop50
 90
       50
102
RTVSPost2010PropOp50
 70
     1
102
RTVSPost2010Prop51ColorIndex
 90
      256
102
RTVSPost2010Prop51ColorRGB
 90
-16777216
102
RTVSPost2010PropOp51
 70
     0
102
RTVSPost2010Prop52
140
1.0
102
RTVSPost2010PropOp52
 70
     0
102
RTVSPost2010Prop53
 90
        2
102
RTVSPost2010PropOp53
 70
     1
102
RTVSPost2010Prop54
  1
strokes_ogs.tif
102
RTVSPost2010PropOp54
 70
     1
102
RTVSPost2010Prop55
280
     0
102
RTVSPost2010PropOp55
 70
     1
102
RTVSPost2010Prop56
140
1.0
102
RTVSPost2010PropOp56
 70
     1
102
RTVSPost2010Prop57
140
1.0
102
RTVSPost2010PropOp57
 70
     1
102
RTVSPropertyOp0
 70
     1
102
RTVSPropertyOp1
 70
     1
102
RTVSPropertyOp2
 70
     1
102
RTVSPropertyOp3
 70
     1
102
RTVSPropertyOp4
 70
     1
102
RTVSPropertyOp5
 70
     1
102
RTVSPropertyOp6
 70
     1
102
RTVSPropertyOp7
 70
     1
102
RTVSPropertyOp8
 70
     1
102
RTVSPropertyOp9
 70
     1
102
RTVSPropertyOp10
 70
     1
102
RTVSPropertyOp11
 70
     1
102
RTVSPropertyOp12
 70
     1
102
RTVSPropertyOp13
 70
     1
102
RTVSPropertyOp14
 70
     1
102
RTVSPropertyOp15
 70
     1
102
RTVSPropertyOp16
 70
     1
102
RTVSPropertyOp17
 70
     1
102
RTVSPropertyOp18
 70
     1
102
RTVSPropertyOp19
 70
     1
102
RTVSPropertyOp20
 70
     1
102
RTVSPropertyOp21
 70
     1
102
RTVSPropertyOp22
 70
     1
102
RTVSPropertyOp23
 70
     1
102
RTVSPropertyOp24
 70
     1
102
RTVSPropertyOp25
 70
     1
102
RTVSPropertyOp26
 70
     1
102
RTVSPropertyOp27
 70
     1
102
RTVSPropertyOp28
 70
     1
102
RTVSPropertyOp29
 70
     1
102
RTVSPropertyOp30
 70
     1
102
RTVSPropertyOp31
 70
     1
102
RTVSPropertyOp32
 70
     1
102
RTVSPropertyOp33
 70
     1
102
RTVSPropertyOp34
 70
     1
102
RTVSPropertyOp35
 70
     1
102
RTVSPropertyOp36
 70
     1
102
RTVSPropertyOp37
 70
     1
102
RTVSPropertyOp38
 70
     1
102
RTVSPropertyOp39
 70
     1
102
RTVSPropertyOp40
 70
     1
102
RTVSPropertyOp41
 70
     1
102
RTVSPropertyOp42
 70
     1
102
RTVSPropertyOp43
 70
     1
102
RTVSPropertyOp44
 70
     1
102
RTVSPropertyOp45
 70
     1
102
RTVSPropertyOp46
 70
     1
102
RTVSPropertyOp47
 70
     1
102
RTVSPropertyOp48
 70
     1
102
RTVSPropertyOp49
 70
     1
102
RTVSPropertyOp50
 70
     1
102
RTVSPropertyOp51
 70
     0
102
RTVSPropertyOp52
 70
     0
102
RTVSPropertyOp53
 70
     1
102
RTVSPropertyOp54
 70
     1
102
RTVSPropertyOp55
 70
     1
102
RTVSPropertyOp56
 70
     1
102
RTVSPropertyOp57
 70
     1
102
RTVSPropertyOp58
 70
     1
102
RTVSPropertyOp59
 70
     1
102
RTVSPropertyOp60
 70
     1
102
RTVSPropertyOp61
 70
     1
102
RTVSPropertyOp62
 70
     1
  0
XRECORD
  5
26EE
102
{ACAD_REACTORS
330
26ED
102
}
330
26ED
100
AcDbXrecord
280
     1
102
RTVSPost2010Prop28
280
     0
102
RTVSPost2010PropOp28
 70
     1
102
RTVSPost2010Prop29
280
     1
102
RTVSPost2010PropOp29
 70
     1
102
RTVSPost2010Prop30
280
     1
102
RTVSPost2010PropOp30
 70
     1
102
RTVSPost2010Prop31
280
     0
102
RTVSPost2010PropOp31
 70
     1
102
RTVSPost2010Prop32
280
     0
102
RTVSPost2010PropOp32
 70
     1
102
RTVSPost2010Prop33
280
     0
102
RTVSPost2010PropOp33
 70
     1
102
RTVSPost2010Prop34
280
     0
102
RTVSPost2010PropOp34
 70
     1
102
RTVSPost2010Prop35
280
     0
102
RTVSPost2010PropOp35
 70
     1
102
RTVSPost2010Prop36
280
     0
102
RTVSPost2010PropOp36
 70
     1
102
RTVSPost2010Prop37
 90
       50
102
RTVSPost2010PropOp37
 70
     1
102
RTVSPost2010Prop38
140
0.0
102
RTVSPost2010PropOp38
 70
     1
102
RTVSPost2010Prop39
140
1.0
102
RTVSPost2010PropOp39
 70
     1
102
RTVSPost2010Prop40
 90
        0
102
RTVSPost2010PropOp40
 70
     1
102
RTVSPost2010Prop41ColorIndex
 90
       18
102
RTVSPost2010Prop41ColorRGB
 90
        0
102
RTVSPost2010PropOp41
 70
     1
102
RTVSPost2010Prop42
 90
       50
102
RTVSPost2010PropOp42
 70
     1
102
RTVSPost2010Prop43
 90
        3
102
RTVSPost2010PropOp43
 70
     1
102
RTVSPost2010Prop44ColorIndex
 90
        5
102
RTVSPost2010Prop44ColorRGB
 90
      255
102
RTVSPost2010PropOp44
 70
     1
102
RTVSPost2010Prop45
280
     0
102
RTVSPost2010PropOp45
 70
     1
102
RTVSPost2010Prop46
 90
       50
102
RTVSPost2010PropOp46
 70
     1
102
RTVSPost2010Prop47
 90
       50
102
RTVSPost2010PropOp47
 70
     1
102
RTVSPost2010Prop48
 90
       50
102
RTVSPost2010PropOp48
 70
     1
102
RTVSPost2010Prop49
280
     0
102
RTVSPost2010PropOp49
 70
     1
102
RTVSPost2010Prop50
 90
       50
102
RTVSPost2010PropOp50
 70
     1
102
RTVSPost2010Prop51ColorIndex
 90
      256
102
RTVSPost2010Prop51ColorRGB
 90
-16777216
102
RTVSPost2010PropOp51
 70
     0
102
RTVSPost2010Prop52
140
1.0
102
RTVSPost2010PropOp52
 70
     0
102
RTVSPost2010Prop53
 90
        2
102
RTVSPost2010PropOp53
 70
     1
102
RTVSPost2010Prop54
  1
strokes_ogs.tif
102
RTVSPost2010PropOp54
 70
     1
102
RTVSPost2010Prop55
280
     0
102
RTVSPost2010PropOp55
 70
     1
102
RTVSPost2010Prop56
140
1.0
102
RTVSPost2010PropOp56
 70
     1
102
RTVSPost2010Prop57
140
1.0
102
RTVSPost2010PropOp57
 70
     1
102
RTVSPropertyOp0
 70
     1
102
RTVSPropertyOp1
 70
     1
102
RTVSPropertyOp2
 70
     1
102
RTVSPropertyOp3
 70
     1
102
RTVSPropertyOp4
 70
     1
102
RTVSPropertyOp5
 70
     1
102
RTVSPropertyOp6
 70
     1
102
RTVSPropertyOp7
 70
     1
102
RTVSPropertyOp8
 70
     1
102
RTVSPropertyOp9
 70
     1
102
RTVSPropertyOp10
 70
     1
102
RTVSPropertyOp11
 70
     1
102
RTVSPropertyOp12
 70
     1
102
RTVSPropertyOp13
 70
     1
102
RTVSPropertyOp14
 70
     1
102
RTVSPropertyOp15
 70
     1
102
RTVSPropertyOp16
 70
     1
102
RTVSPropertyOp17
 70
     1
102
RTVSPropertyOp18
 70
     1
102
RTVSPropertyOp19
 70
     1
102
RTVSPropertyOp20
 70
     1
102
RTVSPropertyOp21
 70
     1
102
RTVSPropertyOp22
 70
     1
102
RTVSPropertyOp23
 70
     1
102
RTVSPropertyOp24
 70
     1
102
RTVSPropertyOp25
 70
     1
102
RTVSPropertyOp26
 70
     1
102
RTVSPropertyOp27
 70
     1
102
RTVSPropertyOp28
 70
     1
102
RTVSPropertyOp29
 70
     1
102
RTVSPropertyOp30
 70
     1
102
RTVSPropertyOp31
 70
     1
102
RTVSPropertyOp32
 70
     1
102
RTVSPropertyOp33
 70
     1
102
RTVSPropertyOp34
 70
     1
102
RTVSPropertyOp35
 70
     1
102
RTVSPropertyOp36
 70
     1
102
RTVSPropertyOp37
 70
     1
102
RTVSPropertyOp38
 70
     1
102
RTVSPropertyOp39
 70
     1
102
RTVSPropertyOp40
 70
     1
102
RTVSPropertyOp41
 70
     1
102
RTVSPropertyOp42
 70
     1
102
RTVSPropertyOp43
 70
     1
102
RTVSPropertyOp44
 70
     1
102
RTVSPropertyOp45
 70
     1
102
RTVSPropertyOp46
 70
     1
102
RTVSPropertyOp47
 70
     1
102
RTVSPropertyOp48
 70
     1
102
RTVSPropertyOp49
 70
     1
102
RTVSPropertyOp50
 70
     1
102
RTVSPropertyOp51
 70
     0
102
RTVSPropertyOp52
 70
     0
102
RTVSPropertyOp53
 70
     1
102
RTVSPropertyOp54
 70
     1
102
RTVSPropertyOp55
 70
     1
102
RTVSPropertyOp56
 70
     1
102
RTVSPropertyOp57
 70
     1
102
RTVSPropertyOp58
 70
     1
102
RTVSPropertyOp59
 70
     1
102
RTVSPropertyOp60
 70
     1
102
RTVSPropertyOp61
 70
     1
102
RTVSPropertyOp62
 70
     1
  0
XRECORD
  5
26EC
102
{ACAD_REACTORS
330
26EB
102
}
330
26EB
100
AcDbXrecord
280
     1
102
RTVSPost2010Prop28
280
     0
102
RTVSPost2010PropOp28
 70
     1
102
RTVSPost2010Prop29
280
     1
102
RTVSPost2010PropOp29
 70
     1
102
RTVSPost2010Prop30
280
     1
102
RTVSPost2010PropOp30
 70
     1
102
RTVSPost2010Prop31
280
     0
102
RTVSPost2010PropOp31
 70
     1
102
RTVSPost2010Prop32
280
     0
102
RTVSPost2010PropOp32
 70
     1
102
RTVSPost2010Prop33
280
     0
102
RTVSPost2010PropOp33
 70
     1
102
RTVSPost2010Prop34
280
     0
102
RTVSPost2010PropOp34
 70
     1
102
RTVSPost2010Prop35
280
     0
102
RTVSPost2010PropOp35
 70
     1
102
RTVSPost2010Prop36
280
     0
102
RTVSPost2010PropOp36
 70
     1
102
RTVSPost2010Prop37
 90
       50
102
RTVSPost2010PropOp37
 70
     1
102
RTVSPost2010Prop38
140
0.0
102
RTVSPost2010PropOp38
 70
     1
102
RTVSPost2010Prop39
140
1.0
102
RTVSPost2010PropOp39
 70
     1
102
RTVSPost2010Prop40
 90
        0
102
RTVSPost2010PropOp40
 70
     1
102
RTVSPost2010Prop41ColorIndex
 90
       18
102
RTVSPost2010Prop41ColorRGB
 90
        0
102
RTVSPost2010PropOp41
 70
     1
102
RTVSPost2010Prop42
 90
       50
102
RTVSPost2010PropOp42
 70
     1
102
RTVSPost2010Prop43
 90
        3
102
RTVSPost2010PropOp43
 70
     1
102
RTVSPost2010Prop44ColorIndex
 90
        5
102
RTVSPost2010Prop44ColorRGB
 90
      255
102
RTVSPost2010PropOp44
 70
     1
102
RTVSPost2010Prop45
280
     0
102
RTVSPost2010PropOp45
 70
     1
102
RTVSPost2010Prop46
 90
       50
102
RTVSPost2010PropOp46
 70
     1
102
RTVSPost2010Prop47
 90
       50
102
RTVSPost2010PropOp47
 70
     1
102
RTVSPost2010Prop48
 90
       50
102
RTVSPost2010PropOp48
 70
     1
102
RTVSPost2010Prop49
280
     0
102
RTVSPost2010PropOp49
 70
     1
102
RTVSPost2010Prop50
 90
       50
102
RTVSPost2010PropOp50
 70
     1
102
RTVSPost2010Prop51ColorIndex
 90
      256
102
RTVSPost2010Prop51ColorRGB
 90
-16777216
102
RTVSPost2010PropOp51
 70
     0
102
RTVSPost2010Prop52
140
1.0
102
RTVSPost2010PropOp52
 70
     0
102
RTVSPost2010Prop53
 90
        2
102
RTVSPost2010PropOp53
 70
     1
102
RTVSPost2010Prop54
  1
strokes_ogs.tif
102
RTVSPost2010PropOp54
 70
     1
102
RTVSPost2010Prop55
280
     0
102
RTVSPost2010PropOp55
 70
     1
102
RTVSPost2010Prop56
140
1.0
102
RTVSPost2010PropOp56
 70
     1
102
RTVSPost2010Prop57
140
1.0
102
RTVSPost2010PropOp57
 70
     1
102
RTVSPropertyOp0
 70
     1
102
RTVSPropertyOp1
 70
     1
102
RTVSPropertyOp2
 70
     1
102
RTVSPropertyOp3
 70
     1
102
RTVSPropertyOp4
 70
     1
102
RTVSPropertyOp5
 70
     1
102
RTVSPropertyOp6
 70
     1
102
RTVSPropertyOp7
 70
     1
102
RTVSPropertyOp8
 70
     1
102
RTVSPropertyOp9
 70
     1
102
RTVSPropertyOp10
 70
     1
102
RTVSPropertyOp11
 70
     1
102
RTVSPropertyOp12
 70
     1
102
RTVSPropertyOp13
 70
     1
102
RTVSPropertyOp14
 70
     1
102
RTVSPropertyOp15
 70
     1
102
RTVSPropertyOp16
 70
     1
102
RTVSPropertyOp17
 70
     1
102
RTVSPropertyOp18
 70
     1
102
RTVSPropertyOp19
 70
     1
102
RTVSPropertyOp20
 70
     1
102
RTVSPropertyOp21
 70
     1
102
RTVSPropertyOp22
 70
     1
102
RTVSPropertyOp23
 70
     1
102
RTVSPropertyOp24
 70
     1
102
RTVSPropertyOp25
 70
     1
102
RTVSPropertyOp26
 70
     1
102
RTVSPropertyOp27
 70
     1
102
RTVSPropertyOp28
 70
     1
102
RTVSPropertyOp29
 70
     1
102
RTVSPropertyOp30
 70
     1
102
RTVSPropertyOp31
 70
     1
102
RTVSPropertyOp32
 70
     1
102
RTVSPropertyOp33
 70
     1
102
RTVSPropertyOp34
 70
     1
102
RTVSPropertyOp35
 70
     1
102
RTVSPropertyOp36
 70
     1
102
RTVSPropertyOp37
 70
     1
102
RTVSPropertyOp38
 70
     1
102
RTVSPropertyOp39
 70
     1
102
RTVSPropertyOp40
 70
     1
102
RTVSPropertyOp41
 70
     1
102
RTVSPropertyOp42
 70
     1
102
RTVSPropertyOp43
 70
     1
102
RTVSPropertyOp44
 70
     1
102
RTVSPropertyOp45
 70
     1
102
RTVSPropertyOp46
 70
     1
102
RTVSPropertyOp47
 70
     1
102
RTVSPropertyOp48
 70
     1
102
RTVSPropertyOp49
 70
     1
102
RTVSPropertyOp50
 70
     1
102
RTVSPropertyOp51
 70
     0
102
RTVSPropertyOp52
 70
     0
102
RTVSPropertyOp53
 70
     1
102
RTVSPropertyOp54
 70
     1
102
RTVSPropertyOp55
 70
     1
102
RTVSPropertyOp56
 70
     1
102
RTVSPropertyOp57
 70
     1
102
RTVSPropertyOp58
 70
     1
102
RTVSPropertyOp59
 70
     1
102
RTVSPropertyOp60
 70
     1
102
RTVSPropertyOp61
 70
     1
102
RTVSPropertyOp62
 70
     1
  0
XRECORD
  5
26E6
102
{ACAD_REACTORS
330
26E5
102
}
330
26E5
100
AcDbXrecord
280
     1
102
RTVSPost2010Prop28
280
     0
102
RTVSPost2010PropOp28
 70
     1
102
RTVSPost2010Prop29
280
     1
102
RTVSPost2010PropOp29
 70
     1
102
RTVSPost2010Prop30
280
     1
102
RTVSPost2010PropOp30
 70
     1
102
RTVSPost2010Prop31
280
     0
102
RTVSPost2010PropOp31
 70
     1
102
RTVSPost2010Prop32
280
     0
102
RTVSPost2010PropOp32
 70
     1
102
RTVSPost2010Prop33
280
     0
102
RTVSPost2010PropOp33
 70
     1
102
RTVSPost2010Prop34
280
     0
102
RTVSPost2010PropOp34
 70
     1
102
RTVSPost2010Prop35
280
     0
102
RTVSPost2010PropOp35
 70
     1
102
RTVSPost2010Prop36
280
     0
102
RTVSPost2010PropOp36
 70
     1
102
RTVSPost2010Prop37
 90
       50
102
RTVSPost2010PropOp37
 70
     1
102
RTVSPost2010Prop38
140
0.0
102
RTVSPost2010PropOp38
 70
     1
102
RTVSPost2010Prop39
140
1.0
102
RTVSPost2010PropOp39
 70
     1
102
RTVSPost2010Prop40
 90
        0
102
RTVSPost2010PropOp40
 70
     1
102
RTVSPost2010Prop41ColorIndex
 90
       18
102
RTVSPost2010Prop41ColorRGB
 90
        0
102
RTVSPost2010PropOp41
 70
     1
102
RTVSPost2010Prop42
 90
       50
102
RTVSPost2010PropOp42
 70
     1
102
RTVSPost2010Prop43
 90
        3
102
RTVSPost2010PropOp43
 70
     1
102
RTVSPost2010Prop44ColorIndex
 90
        5
102
RTVSPost2010Prop44ColorRGB
 90
      255
102
RTVSPost2010PropOp44
 70
     1
102
RTVSPost2010Prop45
280
     0
102
RTVSPost2010PropOp45
 70
     1
102
RTVSPost2010Prop46
 90
       50
102
RTVSPost2010PropOp46
 70
     1
102
RTVSPost2010Prop47
 90
       50
102
RTVSPost2010PropOp47
 70
     1
102
RTVSPost2010Prop48
 90
       50
102
RTVSPost2010PropOp48
 70
     1
102
RTVSPost2010Prop49
280
     0
102
RTVSPost2010PropOp49
 70
     1
102
RTVSPost2010Prop50
 90
       50
102
RTVSPost2010PropOp50
 70
     1
102
RTVSPost2010Prop51ColorIndex
 90
      256
102
RTVSPost2010Prop51ColorRGB
 90
-16777216
102
RTVSPost2010PropOp51
 70
     0
102
RTVSPost2010Prop52
140
1.0
102
RTVSPost2010PropOp52
 70
     0
102
RTVSPost2010Prop53
 90
        2
102
RTVSPost2010PropOp53
 70
     1
102
RTVSPost2010Prop54
  1
strokes_ogs.tif
102
RTVSPost2010PropOp54
 70
     1
102
RTVSPost2010Prop55
280
     0
102
RTVSPost2010PropOp55
 70
     1
102
RTVSPost2010Prop56
140
1.0
102
RTVSPost2010PropOp56
 70
     1
102
RTVSPost2010Prop57
140
1.0
102
RTVSPost2010PropOp57
 70
     1
102
RTVSPropertyOp0
 70
     1
102
RTVSPropertyOp1
 70
     1
102
RTVSPropertyOp2
 70
     1
102
RTVSPropertyOp3
 70
     1
102
RTVSPropertyOp4
 70
     1
102
RTVSPropertyOp5
 70
     1
102
RTVSPropertyOp6
 70
     1
102
RTVSPropertyOp7
 70
     1
102
RTVSPropertyOp8
 70
     1
102
RTVSPropertyOp9
 70
     1
102
RTVSPropertyOp10
 70
     1
102
RTVSPropertyOp11
 70
     1
102
RTVSPropertyOp12
 70
     1
102
RTVSPropertyOp13
 70
     1
102
RTVSPropertyOp14
 70
     1
102
RTVSPropertyOp15
 70
     1
102
RTVSPropertyOp16
 70
     1
102
RTVSPropertyOp17
 70
     1
102
RTVSPropertyOp18
 70
     1
102
RTVSPropertyOp19
 70
     1
102
RTVSPropertyOp20
 70
     1
102
RTVSPropertyOp21
 70
     1
102
RTVSPropertyOp22
 70
     1
102
RTVSPropertyOp23
 70
     1
102
RTVSPropertyOp24
 70
     1
102
RTVSPropertyOp25
 70
     1
102
RTVSPropertyOp26
 70
     1
102
RTVSPropertyOp27
 70
     1
102
RTVSPropertyOp28
 70
     1
102
RTVSPropertyOp29
 70
     1
102
RTVSPropertyOp30
 70
     1
102
RTVSPropertyOp31
 70
     1
102
RTVSPropertyOp32
 70
     1
102
RTVSPropertyOp33
 70
     1
102
RTVSPropertyOp34
 70
     1
102
RTVSPropertyOp35
 70
     1
102
RTVSPropertyOp36
 70
     1
102
RTVSPropertyOp37
 70
     1
102
RTVSPropertyOp38
 70
     1
102
RTVSPropertyOp39
 70
     1
102
RTVSPropertyOp40
 70
     1
102
RTVSPropertyOp41
 70
     1
102
RTVSPropertyOp42
 70
     1
102
RTVSPropertyOp43
 70
     1
102
RTVSPropertyOp44
 70
     1
102
RTVSPropertyOp45
 70
     1
102
RTVSPropertyOp46
 70
     1
102
RTVSPropertyOp47
 70
     1
102
RTVSPropertyOp48
 70
     1
102
RTVSPropertyOp49
 70
     1
102
RTVSPropertyOp50
 70
     1
102
RTVSPropertyOp51
 70
     0
102
RTVSPropertyOp52
 70
     0
102
RTVSPropertyOp53
 70
     1
102
RTVSPropertyOp54
 70
     1
102
RTVSPropertyOp55
 70
     1
102
RTVSPropertyOp56
 70
     1
102
RTVSPropertyOp57
 70
     1
102
RTVSPropertyOp58
 70
     1
102
RTVSPropertyOp59
 70
     1
102
RTVSPropertyOp60
 70
     1
102
RTVSPropertyOp61
 70
     1
102
RTVSPropertyOp62
 70
     1
  0
XRECORD
  5
26E8
102
{ACAD_REACTORS
330
26E7
102
}
330
26E7
100
AcDbXrecord
280
     1
102
RTVSPost2010Prop28
280
     0
102
RTVSPost2010PropOp28
 70
     1
102
RTVSPost2010Prop29
280
     1
102
RTVSPost2010PropOp29
 70
     1
102
RTVSPost2010Prop30
280
     1
102
RTVSPost2010PropOp30
 70
     1
102
RTVSPost2010Prop31
280
     0
102
RTVSPost2010PropOp31
 70
     1
102
RTVSPost2010Prop32
280
     0
102
RTVSPost2010PropOp32
 70
     1
102
RTVSPost2010Prop33
280
     0
102
RTVSPost2010PropOp33
 70
     1
102
RTVSPost2010Prop34
280
     0
102
RTVSPost2010PropOp34
 70
     1
102
RTVSPost2010Prop35
280
     0
102
RTVSPost2010PropOp35
 70
     1
102
RTVSPost2010Prop36
280
     0
102
RTVSPost2010PropOp36
 70
     1
102
RTVSPost2010Prop37
 90
       50
102
RTVSPost2010PropOp37
 70
     1
102
RTVSPost2010Prop38
140
0.0
102
RTVSPost2010PropOp38
 70
     1
102
RTVSPost2010Prop39
140
1.0
102
RTVSPost2010PropOp39
 70
     1
102
RTVSPost2010Prop40
 90
        0
102
RTVSPost2010PropOp40
 70
     1
102
RTVSPost2010Prop41ColorIndex
 90
       18
102
RTVSPost2010Prop41ColorRGB
 90
        0
102
RTVSPost2010PropOp41
 70
     1
102
RTVSPost2010Prop42
 90
       50
102
RTVSPost2010PropOp42
 70
     1
102
RTVSPost2010Prop43
 90
        3
102
RTVSPost2010PropOp43
 70
     1
102
RTVSPost2010Prop44ColorIndex
 90
        5
102
RTVSPost2010Prop44ColorRGB
 90
      255
102
RTVSPost2010PropOp44
 70
     1
102
RTVSPost2010Prop45
280
     0
102
RTVSPost2010PropOp45
 70
     1
102
RTVSPost2010Prop46
 90
       50
102
RTVSPost2010PropOp46
 70
     1
102
RTVSPost2010Prop47
 90
       50
102
RTVSPost2010PropOp47
 70
     1
102
RTVSPost2010Prop48
 90
       50
102
RTVSPost2010PropOp48
 70
     1
102
RTVSPost2010Prop49
280
     0
102
RTVSPost2010PropOp49
 70
     1
102
RTVSPost2010Prop50
 90
       50
102
RTVSPost2010PropOp50
 70
     1
102
RTVSPost2010Prop51ColorIndex
 90
      256
102
RTVSPost2010Prop51ColorRGB
 90
-16777216
102
RTVSPost2010PropOp51
 70
     0
102
RTVSPost2010Prop52
140
1.0
102
RTVSPost2010PropOp52
 70
     0
102
RTVSPost2010Prop53
 90
        2
102
RTVSPost2010PropOp53
 70
     1
102
RTVSPost2010Prop54
  1
strokes_ogs.tif
102
RTVSPost2010PropOp54
 70
     1
102
RTVSPost2010Prop55
280
     0
102
RTVSPost2010PropOp55
 70
     1
102
RTVSPost2010Prop56
140
1.0
102
RTVSPost2010PropOp56
 70
     1
102
RTVSPost2010Prop57
140
1.0
102
RTVSPost2010PropOp57
 70
     1
102
RTVSPropertyOp0
 70
     1
102
RTVSPropertyOp1
 70
     1
102
RTVSPropertyOp2
 70
     1
102
RTVSPropertyOp3
 70
     1
102
RTVSPropertyOp4
 70
     1
102
RTVSPropertyOp5
 70
     1
102
RTVSPropertyOp6
 70
     1
102
RTVSPropertyOp7
 70
     1
102
RTVSPropertyOp8
 70
     1
102
RTVSPropertyOp9
 70
     1
102
RTVSPropertyOp10
 70
     1
102
RTVSPropertyOp11
 70
     1
102
RTVSPropertyOp12
 70
     1
102
RTVSPropertyOp13
 70
     1
102
RTVSPropertyOp14
 70
     1
102
RTVSPropertyOp15
 70
     1
102
RTVSPropertyOp16
 70
     1
102
RTVSPropertyOp17
 70
     1
102
RTVSPropertyOp18
 70
     1
102
RTVSPropertyOp19
 70
     1
102
RTVSPropertyOp20
 70
     1
102
RTVSPropertyOp21
 70
     1
102
RTVSPropertyOp22
 70
     1
102
RTVSPropertyOp23
 70
     1
102
RTVSPropertyOp24
 70
     1
102
RTVSPropertyOp25
 70
     1
102
RTVSPropertyOp26
 70
     1
102
RTVSPropertyOp27
 70
     1
102
RTVSPropertyOp28
 70
     1
102
RTVSPropertyOp29
 70
     1
102
RTVSPropertyOp30
 70
     1
102
RTVSPropertyOp31
 70
     1
102
RTVSPropertyOp32
 70
     1
102
RTVSPropertyOp33
 70
     1
102
RTVSPropertyOp34
 70
     1
102
RTVSPropertyOp35
 70
     1
102
RTVSPropertyOp36
 70
     1
102
RTVSPropertyOp37
 70
     1
102
RTVSPropertyOp38
 70
     1
102
RTVSPropertyOp39
 70
     1
102
RTVSPropertyOp40
 70
     1
102
RTVSPropertyOp41
 70
     1
102
RTVSPropertyOp42
 70
     1
102
RTVSPropertyOp43
 70
     1
102
RTVSPropertyOp44
 70
     1
102
RTVSPropertyOp45
 70
     1
102
RTVSPropertyOp46
 70
     1
102
RTVSPropertyOp47
 70
     1
102
RTVSPropertyOp48
 70
     1
102
RTVSPropertyOp49
 70
     1
102
RTVSPropertyOp50
 70
     1
102
RTVSPropertyOp51
 70
     0
102
RTVSPropertyOp52
 70
     0
102
RTVSPropertyOp53
 70
     1
102
RTVSPropertyOp54
 70
     1
102
RTVSPropertyOp55
 70
     1
102
RTVSPropertyOp56
 70
     1
102
RTVSPropertyOp57
 70
     1
102
RTVSPropertyOp58
 70
     1
102
RTVSPropertyOp59
 70
     1
102
RTVSPropertyOp60
 70
     1
102
RTVSPropertyOp61
 70
     1
102
RTVSPropertyOp62
 70
     1
  0
XRECORD
  5
26DE
102
{ACAD_REACTORS
330
26DD
102
}
330
26DD
100
AcDbXrecord
280
     1
102
RTVSPost2010Prop28
280
     0
102
RTVSPost2010PropOp28
 70
     1
102
RTVSPost2010Prop29
280
     1
102
RTVSPost2010PropOp29
 70
     1
102
RTVSPost2010Prop30
280
     1
102
RTVSPost2010PropOp30
 70
     1
102
RTVSPost2010Prop31
280
     0
102
RTVSPost2010PropOp31
 70
     1
102
RTVSPost2010Prop32
280
     0
102
RTVSPost2010PropOp32
 70
     1
102
RTVSPost2010Prop33
280
     0
102
RTVSPost2010PropOp33
 70
     1
102
RTVSPost2010Prop34
280
     0
102
RTVSPost2010PropOp34
 70
     1
102
RTVSPost2010Prop35
280
     0
102
RTVSPost2010PropOp35
 70
     1
102
RTVSPost2010Prop36
280
     0
102
RTVSPost2010PropOp36
 70
     1
102
RTVSPost2010Prop37
 90
       50
102
RTVSPost2010PropOp37
 70
     1
102
RTVSPost2010Prop38
140
0.0
102
RTVSPost2010PropOp38
 70
     1
102
RTVSPost2010Prop39
140
1.0
102
RTVSPost2010PropOp39
 70
     1
102
RTVSPost2010Prop40
 90
        0
102
RTVSPost2010PropOp40
 70
     1
102
RTVSPost2010Prop41ColorIndex
 90
       18
102
RTVSPost2010Prop41ColorRGB
 90
        0
102
RTVSPost2010PropOp41
 70
     1
102
RTVSPost2010Prop42
 90
       50
102
RTVSPost2010PropOp42
 70
     1
102
RTVSPost2010Prop43
 90
        3
102
RTVSPost2010PropOp43
 70
     1
102
RTVSPost2010Prop44ColorIndex
 90
        5
102
RTVSPost2010Prop44ColorRGB
 90
      255
102
RTVSPost2010PropOp44
 70
     1
102
RTVSPost2010Prop45
280
     0
102
RTVSPost2010PropOp45
 70
     1
102
RTVSPost2010Prop46
 90
       50
102
RTVSPost2010PropOp46
 70
     1
102
RTVSPost2010Prop47
 90
       50
102
RTVSPost2010PropOp47
 70
     1
102
RTVSPost2010Prop48
 90
       50
102
RTVSPost2010PropOp48
 70
     1
102
RTVSPost2010Prop49
280
     0
102
RTVSPost2010PropOp49
 70
     1
102
RTVSPost2010Prop50
 90
       50
102
RTVSPost2010PropOp50
 70
     1
102
RTVSPost2010Prop51ColorIndex
 90
      256
102
RTVSPost2010Prop51ColorRGB
 90
-16777216
102
RTVSPost2010PropOp51
 70
     0
102
RTVSPost2010Prop52
140
1.0
102
RTVSPost2010PropOp52
 70
     0
102
RTVSPost2010Prop53
 90
        2
102
RTVSPost2010PropOp53
 70
     1
102
RTVSPost2010Prop54
  1
strokes_ogs.tif
102
RTVSPost2010PropOp54
 70
     1
102
RTVSPost2010Prop55
280
     0
102
RTVSPost2010PropOp55
 70
     1
102
RTVSPost2010Prop56
140
1.0
102
RTVSPost2010PropOp56
 70
     1
102
RTVSPost2010Prop57
140
1.0
102
RTVSPost2010PropOp57
 70
     1
102
RTVSPropertyOp0
 70
     1
102
RTVSPropertyOp1
 70
     1
102
RTVSPropertyOp2
 70
     1
102
RTVSPropertyOp3
 70
     1
102
RTVSPropertyOp4
 70
     1
102
RTVSPropertyOp5
 70
     1
102
RTVSPropertyOp6
 70
     1
102
RTVSPropertyOp7
 70
     1
102
RTVSPropertyOp8
 70
     1
102
RTVSPropertyOp9
 70
     1
102
RTVSPropertyOp10
 70
     1
102
RTVSPropertyOp11
 70
     1
102
RTVSPropertyOp12
 70
     1
102
RTVSPropertyOp13
 70
     1
102
RTVSPropertyOp14
 70
     1
102
RTVSPropertyOp15
 70
     1
102
RTVSPropertyOp16
 70
     1
102
RTVSPropertyOp17
 70
     1
102
RTVSPropertyOp18
 70
     1
102
RTVSPropertyOp19
 70
     1
102
RTVSPropertyOp20
 70
     1
102
RTVSPropertyOp21
 70
     1
102
RTVSPropertyOp22
 70
     1
102
RTVSPropertyOp23
 70
     1
102
RTVSPropertyOp24
 70
     1
102
RTVSPropertyOp25
 70
     1
102
RTVSPropertyOp26
 70
     1
102
RTVSPropertyOp27
 70
     1
102
RTVSPropertyOp28
 70
     1
102
RTVSPropertyOp29
 70
     1
102
RTVSPropertyOp30
 70
     1
102
RTVSPropertyOp31
 70
     1
102
RTVSPropertyOp32
 70
     1
102
RTVSPropertyOp33
 70
     1
102
RTVSPropertyOp34
 70
     1
102
RTVSPropertyOp35
 70
     1
102
RTVSPropertyOp36
 70
     1
102
RTVSPropertyOp37
 70
     1
102
RTVSPropertyOp38
 70
     1
102
RTVSPropertyOp39
 70
     1
102
RTVSPropertyOp40
 70
     1
102
RTVSPropertyOp41
 70
     1
102
RTVSPropertyOp42
 70
     1
102
RTVSPropertyOp43
 70
     1
102
RTVSPropertyOp44
 70
     1
102
RTVSPropertyOp45
 70
     1
102
RTVSPropertyOp46
 70
     1
102
RTVSPropertyOp47
 70
     1
102
RTVSPropertyOp48
 70
     1
102
RTVSPropertyOp49
 70
     1
102
RTVSPropertyOp50
 70
     1
102
RTVSPropertyOp51
 70
     0
102
RTVSPropertyOp52
 70
     0
102
RTVSPropertyOp53
 70
     1
102
RTVSPropertyOp54
 70
     1
102
RTVSPropertyOp55
 70
     1
102
RTVSPropertyOp56
 70
     1
102
RTVSPropertyOp57
 70
     1
102
RTVSPropertyOp58
 70
     1
102
RTVSPropertyOp59
 70
     1
102
RTVSPropertyOp60
 70
     1
102
RTVSPropertyOp61
 70
     1
102
RTVSPropertyOp62
 70
     1
  0
XRECORD
  5
26D2
102
{ACAD_REACTORS
330
26D1
102
}
330
26D1
100
AcDbXrecord
280
     1
102
RTVSPost2010Prop28
280
     0
102
RTVSPost2010PropOp28
 70
     1
102
RTVSPost2010Prop29
280
     1
102
RTVSPost2010PropOp29
 70
     1
102
RTVSPost2010Prop30
280
     1
102
RTVSPost2010PropOp30
 70
     1
102
RTVSPost2010Prop31
280
     0
102
RTVSPost2010PropOp31
 70
     1
102
RTVSPost2010Prop32
280
     0
102
RTVSPost2010PropOp32
 70
     1
102
RTVSPost2010Prop33
280
     0
102
RTVSPost2010PropOp33
 70
     1
102
RTVSPost2010Prop34
280
     0
102
RTVSPost2010PropOp34
 70
     1
102
RTVSPost2010Prop35
280
     0
102
RTVSPost2010PropOp35
 70
     1
102
RTVSPost2010Prop36
280
     0
102
RTVSPost2010PropOp36
 70
     1
102
RTVSPost2010Prop37
 90
       50
102
RTVSPost2010PropOp37
 70
     1
102
RTVSPost2010Prop38
140
0.0
102
RTVSPost2010PropOp38
 70
     1
102
RTVSPost2010Prop39
140
1.0
102
RTVSPost2010PropOp39
 70
     1
102
RTVSPost2010Prop40
 90
        0
102
RTVSPost2010PropOp40
 70
     1
102
RTVSPost2010Prop41ColorIndex
 90
       18
102
RTVSPost2010Prop41ColorRGB
 90
        0
102
RTVSPost2010PropOp41
 70
     1
102
RTVSPost2010Prop42
 90
       50
102
RTVSPost2010PropOp42
 70
     1
102
RTVSPost2010Prop43
 90
        3
102
RTVSPost2010PropOp43
 70
     1
102
RTVSPost2010Prop44ColorIndex
 90
        5
102
RTVSPost2010Prop44ColorRGB
 90
      255
102
RTVSPost2010PropOp44
 70
     1
102
RTVSPost2010Prop45
280
     0
102
RTVSPost2010PropOp45
 70
     1
102
RTVSPost2010Prop46
 90
       50
102
RTVSPost2010PropOp46
 70
     1
102
RTVSPost2010Prop47
 90
       50
102
RTVSPost2010PropOp47
 70
     1
102
RTVSPost2010Prop48
 90
       50
102
RTVSPost2010PropOp48
 70
     1
102
RTVSPost2010Prop49
280
     0
102
RTVSPost2010PropOp49
 70
     1
102
RTVSPost2010Prop50
 90
       50
102
RTVSPost2010PropOp50
 70
     1
102
RTVSPost2010Prop51ColorIndex
 90
      256
102
RTVSPost2010Prop51ColorRGB
 90
-16777216
102
RTVSPost2010PropOp51
 70
     0
102
RTVSPost2010Prop52
140
1.0
102
RTVSPost2010PropOp52
 70
     0
102
RTVSPost2010Prop53
 90
        2
102
RTVSPost2010PropOp53
 70
     1
102
RTVSPost2010Prop54
  1
strokes_ogs.tif
102
RTVSPost2010PropOp54
 70
     1
102
RTVSPost2010Prop55
280
     0
102
RTVSPost2010PropOp55
 70
     1
102
RTVSPost2010Prop56
140
1.0
102
RTVSPost2010PropOp56
 70
     1
102
RTVSPost2010Prop57
140
1.0
102
RTVSPost2010PropOp57
 70
     1
102
RTVSPropertyOp0
 70
     1
102
RTVSPropertyOp1
 70
     1
102
RTVSPropertyOp2
 70
     1
102
RTVSPropertyOp3
 70
     1
102
RTVSPropertyOp4
 70
     1
102
RTVSPropertyOp5
 70
     1
102
RTVSPropertyOp6
 70
     1
102
RTVSPropertyOp7
 70
     1
102
RTVSPropertyOp8
 70
     1
102
RTVSPropertyOp9
 70
     1
102
RTVSPropertyOp10
 70
     1
102
RTVSPropertyOp11
 70
     1
102
RTVSPropertyOp12
 70
     1
102
RTVSPropertyOp13
 70
     1
102
RTVSPropertyOp14
 70
     1
102
RTVSPropertyOp15
 70
     1
102
RTVSPropertyOp16
 70
     1
102
RTVSPropertyOp17
 70
     1
102
RTVSPropertyOp18
 70
     1
102
RTVSPropertyOp19
 70
     1
102
RTVSPropertyOp20
 70
     1
102
RTVSPropertyOp21
 70
     1
102
RTVSPropertyOp22
 70
     1
102
RTVSPropertyOp23
 70
     1
102
RTVSPropertyOp24
 70
     1
102
RTVSPropertyOp25
 70
     1
102
RTVSPropertyOp26
 70
     1
102
RTVSPropertyOp27
 70
     1
102
RTVSPropertyOp28
 70
     1
102
RTVSPropertyOp29
 70
     1
102
RTVSPropertyOp30
 70
     1
102
RTVSPropertyOp31
 70
     1
102
RTVSPropertyOp32
 70
     1
102
RTVSPropertyOp33
 70
     1
102
RTVSPropertyOp34
 70
     1
102
RTVSPropertyOp35
 70
     1
102
RTVSPropertyOp36
 70
     1
102
RTVSPropertyOp37
 70
     1
102
RTVSPropertyOp38
 70
     1
102
RTVSPropertyOp39
 70
     1
102
RTVSPropertyOp40
 70
     1
102
RTVSPropertyOp41
 70
     1
102
RTVSPropertyOp42
 70
     1
102
RTVSPropertyOp43
 70
     1
102
RTVSPropertyOp44
 70
     1
102
RTVSPropertyOp45
 70
     1
102
RTVSPropertyOp46
 70
     1
102
RTVSPropertyOp47
 70
     1
102
RTVSPropertyOp48
 70
     1
102
RTVSPropertyOp49
 70
     1
102
RTVSPropertyOp50
 70
     1
102
RTVSPropertyOp51
 70
     0
102
RTVSPropertyOp52
 70
     0
102
RTVSPropertyOp53
 70
     1
102
RTVSPropertyOp54
 70
     1
102
RTVSPropertyOp55
 70
     1
102
RTVSPropertyOp56
 70
     1
102
RTVSPropertyOp57
 70
     1
102
RTVSPropertyOp58
 70
     1
102
RTVSPropertyOp59
 70
     1
102
RTVSPropertyOp60
 70
     1
102
RTVSPropertyOp61
 70
     1
102
RTVSPropertyOp62
 70
     1
  0
XRECORD
  5
26EA
102
{ACAD_REACTORS
330
26E9
102
}
330
26E9
100
AcDbXrecord
280
     1
102
RTVSPost2010Prop28
280
     0
102
RTVSPost2010PropOp28
 70
     1
102
RTVSPost2010Prop29
280
     1
102
RTVSPost2010PropOp29
 70
     1
102
RTVSPost2010Prop30
280
     1
102
RTVSPost2010PropOp30
 70
     1
102
RTVSPost2010Prop31
280
     0
102
RTVSPost2010PropOp31
 70
     1
102
RTVSPost2010Prop32
280
     0
102
RTVSPost2010PropOp32
 70
     1
102
RTVSPost2010Prop33
280
     0
102
RTVSPost2010PropOp33
 70
     1
102
RTVSPost2010Prop34
280
     0
102
RTVSPost2010PropOp34
 70
     1
102
RTVSPost2010Prop35
280
     0
102
RTVSPost2010PropOp35
 70
     1
102
RTVSPost2010Prop36
280
     0
102
RTVSPost2010PropOp36
 70
     1
102
RTVSPost2010Prop37
 90
       50
102
RTVSPost2010PropOp37
 70
     1
102
RTVSPost2010Prop38
140
0.0
102
RTVSPost2010PropOp38
 70
     1
102
RTVSPost2010Prop39
140
1.0
102
RTVSPost2010PropOp39
 70
     1
102
RTVSPost2010Prop40
 90
        0
102
RTVSPost2010PropOp40
 70
     1
102
RTVSPost2010Prop41ColorIndex
 90
       18
102
RTVSPost2010Prop41ColorRGB
 90
        0
102
RTVSPost2010PropOp41
 70
     1
102
RTVSPost2010Prop42
 90
       50
102
RTVSPost2010PropOp42
 70
     1
102
RTVSPost2010Prop43
 90
        3
102
RTVSPost2010PropOp43
 70
     1
102
RTVSPost2010Prop44ColorIndex
 90
        5
102
RTVSPost2010Prop44ColorRGB
 90
      255
102
RTVSPost2010PropOp44
 70
     1
102
RTVSPost2010Prop45
280
     0
102
RTVSPost2010PropOp45
 70
     1
102
RTVSPost2010Prop46
 90
       50
102
RTVSPost2010PropOp46
 70
     1
102
RTVSPost2010Prop47
 90
       50
102
RTVSPost2010PropOp47
 70
     1
102
RTVSPost2010Prop48
 90
       50
102
RTVSPost2010PropOp48
 70
     1
102
RTVSPost2010Prop49
280
     0
102
RTVSPost2010PropOp49
 70
     1
102
RTVSPost2010Prop50
 90
       50
102
RTVSPost2010PropOp50
 70
     1
102
RTVSPost2010Prop51ColorIndex
 90
      256
102
RTVSPost2010Prop51ColorRGB
 90
-16777216
102
RTVSPost2010PropOp51
 70
     0
102
RTVSPost2010Prop52
140
1.0
102
RTVSPost2010PropOp52
 70
     0
102
RTVSPost2010Prop53
 90
        2
102
RTVSPost2010PropOp53
 70
     1
102
RTVSPost2010Prop54
  1
strokes_ogs.tif
102
RTVSPost2010PropOp54
 70
     1
102
RTVSPost2010Prop55
280
     0
102
RTVSPost2010PropOp55
 70
     1
102
RTVSPost2010Prop56
140
1.0
102
RTVSPost2010PropOp56
 70
     1
102
RTVSPost2010Prop57
140
1.0
102
RTVSPost2010PropOp57
 70
     1
102
RTVSPropertyOp0
 70
     1
102
RTVSPropertyOp1
 70
     1
102
RTVSPropertyOp2
 70
     1
102
RTVSPropertyOp3
 70
     1
102
RTVSPropertyOp4
 70
     1
102
RTVSPropertyOp5
 70
     1
102
RTVSPropertyOp6
 70
     1
102
RTVSPropertyOp7
 70
     1
102
RTVSPropertyOp8
 70
     1
102
RTVSPropertyOp9
 70
     1
102
RTVSPropertyOp10
 70
     1
102
RTVSPropertyOp11
 70
     1
102
RTVSPropertyOp12
 70
     1
102
RTVSPropertyOp13
 70
     1
102
RTVSPropertyOp14
 70
     1
102
RTVSPropertyOp15
 70
     1
102
RTVSPropertyOp16
 70
     1
102
RTVSPropertyOp17
 70
     1
102
RTVSPropertyOp18
 70
     1
102
RTVSPropertyOp19
 70
     1
102
RTVSPropertyOp20
 70
     1
102
RTVSPropertyOp21
 70
     1
102
RTVSPropertyOp22
 70
     1
102
RTVSPropertyOp23
 70
     1
102
RTVSPropertyOp24
 70
     1
102
RTVSPropertyOp25
 70
     1
102
RTVSPropertyOp26
 70
     1
102
RTVSPropertyOp27
 70
     1
102
RTVSPropertyOp28
 70
     1
102
RTVSPropertyOp29
 70
     1
102
RTVSPropertyOp30
 70
     1
102
RTVSPropertyOp31
 70
     1
102
RTVSPropertyOp32
 70
     1
102
RTVSPropertyOp33
 70
     1
102
RTVSPropertyOp34
 70
     1
102
RTVSPropertyOp35
 70
     1
102
RTVSPropertyOp36
 70
     1
102
RTVSPropertyOp37
 70
     1
102
RTVSPropertyOp38
 70
     1
102
RTVSPropertyOp39
 70
     1
102
RTVSPropertyOp40
 70
     1
102
RTVSPropertyOp41
 70
     1
102
RTVSPropertyOp42
 70
     1
102
RTVSPropertyOp43
 70
     1
102
RTVSPropertyOp44
 70
     1
102
RTVSPropertyOp45
 70
     1
102
RTVSPropertyOp46
 70
     1
102
RTVSPropertyOp47
 70
     1
102
RTVSPropertyOp48
 70
     1
102
RTVSPropertyOp49
 70
     1
102
RTVSPropertyOp50
 70
     1
102
RTVSPropertyOp51
 70
     0
102
RTVSPropertyOp52
 70
     0
102
RTVSPropertyOp53
 70
     1
102
RTVSPropertyOp54
 70
     1
102
RTVSPropertyOp55
 70
     1
102
RTVSPropertyOp56
 70
     1
102
RTVSPropertyOp57
 70
     1
102
RTVSPropertyOp58
 70
     1
102
RTVSPropertyOp59
 70
     1
102
RTVSPropertyOp60
 70
     1
102
RTVSPropertyOp61
 70
     1
102
RTVSPropertyOp62
 70
     1
  0
XRECORD
  5
2481
102
{ACAD_REACTORS
330
2480
102
}
330
2480
100
AcDbXrecord
280
     1
330
233B
  0
ACDBASSOCARRAYACTIONBODY
  5
2496
330
2495
100
AcDbAssocActionBody
 90
        1
100
AcDbAssocParamBasedActionBody
 90
        0
 90
        0
 90
        3
360
2497
360
2498
360
249C
 90
        0
 90
        9
 90
        0
  1
AlignItems
 90
        0
 90
        1
 90
        0
330
0
330
0
 90
        0
  1
AxesAngle
 90
        2
 90
        1
 40
1.570796326794896
330
0
330
0
 90
        0
  1
ItemSpacing
 90
        1
 90
        1
 40
12.55692
330
0
330
0
 90
        0
  1
Items
 90
        0
 90
        1
 90
       78
330
0
330
0
 90
        0
  1
LevelSpacing
 90
        1
 90
        1
 40
1.0
330
0
330
0
 90
        0
  1
Levels
 90
        0
 90
        1
 90
        1
330
0
330
0
 90
        0
  1
RowElevation
 90
        1
 90
        1
 40
0.0
330
0
330
0
 90
        0
  1
RowSpacing
 90
        1
 90
        1
 40
48.0
330
0
330
0
 90
        0
  1
Rows
 90
        0
 90
        1
 90
        1
330
0
330
0
100
AcDbAssocArrayActionBody
 90
        1
  1
AcDbAssocArrayRectangularParameters
 90
        0
 90
       78
  1
AcDbAssocArrayItem
100
AcDbAssocArrayItem
 90
        0
 90
        0
 90
        0
 90
        0
 90
        8
 11
0.0
 21
0.0
 31
0.0
330
249E
100
AcDbAssocArrayItem
 90
        0
 90
        1
 90
        0
 90
        0
 90
        8
 11
12.55692
 21
0.0
 31
0.0
330
249F
100
AcDbAssocArrayItem
 90
        0
 90
        2
 90
        0
 90
        0
 90
        8
 11
25.11384000000001
 21
0.0
 31
0.0
330
24A0
100
AcDbAssocArrayItem
 90
        0
 90
        3
 90
        0
 90
        0
 90
        8
 11
37.67076000000001
 21
0.0
 31
0.0
330
24A1
100
AcDbAssocArrayItem
 90
        0
 90
        4
 90
        0
 90
        0
 90
        8
 11
50.22768000000001
 21
0.0
 31
0.0
330
24A2
100
AcDbAssocArrayItem
 90
        0
 90
        5
 90
        0
 90
        0
 90
        8
 11
62.78460000000002
 21
0.0
 31
0.0
330
24A3
100
AcDbAssocArrayItem
 90
        0
 90
        6
 90
        0
 90
        0
 90
        8
 11
75.34152000000002
 21
0.0
 31
0.0
330
24A4
100
AcDbAssocArrayItem
 90
        0
 90
        7
 90
        0
 90
        0
 90
        8
 11
87.89844000000002
 21
0.0
 31
0.0
330
24A5
100
AcDbAssocArrayItem
 90
        0
 90
        8
 90
        0
 90
        0
 90
        8
 11
100.45536
 21
0.0
 31
0.0
330
24A6
100
AcDbAssocArrayItem
 90
        0
 90
        9
 90
        0
 90
        0
 90
        8
 11
113.01228
 21
0.0
 31
0.0
330
24A7
100
AcDbAssocArrayItem
 90
        0
 90
       10
 90
        0
 90
        0
 90
        8
 11
125.5692
 21
0.0
 31
0.0
330
24A8
100
AcDbAssocArrayItem
 90
        0
 90
       11
 90
        0
 90
        0
 90
        8
 11
138.12612
 21
0.0
 31
0.0
330
24A9
100
AcDbAssocArrayItem
 90
        0
 90
       12
 90
        0
 90
        0
 90
        8
 11
150.68304
 21
0.0
 31
0.0
330
24AA
100
AcDbAssocArrayItem
 90
        0
 90
       13
 90
        0
 90
        0
 90
        8
 11
163.23996
 21
0.0
 31
0.0
330
24AB
100
AcDbAssocArrayItem
 90
        0
 90
       14
 90
        0
 90
        0
 90
        8
 11
175.79688
 21
0.0
 31
0.0
330
24AC
100
AcDbAssocArrayItem
 90
        0
 90
       15
 90
        0
 90
        0
 90
        8
 11
188.3538
 21
0.0
 31
0.0
330
24AD
100
AcDbAssocArrayItem
 90
        0
 90
       16
 90
        0
 90
        0
 90
        8
 11
200.9107200000001
 21
0.0
 31
0.0
330
24AE
100
AcDbAssocArrayItem
 90
        0
 90
       17
 90
        0
 90
        0
 90
        8
 11
213.46764
 21
0.0
 31
0.0
330
24AF
100
AcDbAssocArrayItem
 90
        0
 90
       18
 90
        0
 90
        0
 90
        8
 11
226.0245600000001
 21
0.0
 31
0.0
330
24B0
100
AcDbAssocArrayItem
 90
        0
 90
       19
 90
        0
 90
        0
 90
        8
 11
238.5814800000001
 21
0.0
 31
0.0
330
24B1
100
AcDbAssocArrayItem
 90
        0
 90
       20
 90
        0
 90
        0
 90
        8
 11
251.1384000000001
 21
0.0
 31
0.0
330
24B2
100
AcDbAssocArrayItem
 90
        0
 90
       21
 90
        0
 90
        0
 90
        8
 11
263.6953200000001
 21
0.0
 31
0.0
330
24B3
100
AcDbAssocArrayItem
 90
        0
 90
       22
 90
        0
 90
        0
 90
        8
 11
276.2522400000001
 21
0.0
 31
0.0
330
24B4
100
AcDbAssocArrayItem
 90
        0
 90
       23
 90
        0
 90
        0
 90
        8
 11
288.8091600000001
 21
0.0
 31
0.0
330
24B5
100
AcDbAssocArrayItem
 90
        0
 90
       24
 90
        0
 90
        0
 90
        8
 11
301.3660800000001
 21
0.0
 31
0.0
330
24B6
100
AcDbAssocArrayItem
 90
        0
 90
       25
 90
        0
 90
        0
 90
        8
 11
313.9230000000001
 21
0.0
 31
0.0
330
24B7
100
AcDbAssocArrayItem
 90
        0
 90
       26
 90
        0
 90
        0
 90
        8
 11
326.4799200000001
 21
0.0
 31
0.0
330
24B8
100
AcDbAssocArrayItem
 90
        0
 90
       27
 90
        0
 90
        0
 90
        8
 11
339.0368400000001
 21
0.0
 31
0.0
330
24B9
100
AcDbAssocArrayItem
 90
        0
 90
       28
 90
        0
 90
        0
 90
        8
 11
351.5937600000001
 21
0.0
 31
0.0
330
24BA
100
AcDbAssocArrayItem
 90
        0
 90
       29
 90
        0
 90
        0
 90
        8
 11
364.1506800000001
 21
0.0
 31
0.0
330
24BB
100
AcDbAssocArrayItem
 90
        0
 90
       30
 90
        0
 90
        0
 90
        8
 11
376.7076000000001
 21
0.0
 31
0.0
330
24BC
100
AcDbAssocArrayItem
 90
        0
 90
       31
 90
        0
 90
        0
 90
        8
 11
389.2645200000001
 21
0.0
 31
0.0
330
24BD
100
AcDbAssocArrayItem
 90
        0
 90
       32
 90
        0
 90
        0
 90
        8
 11
401.8214400000001
 21
0.0
 31
0.0
330
24BE
100
AcDbAssocArrayItem
 90
        0
 90
       33
 90
        0
 90
        0
 90
        8
 11
414.37836
 21
0.0
 31
0.0
330
24BF
100
AcDbAssocArrayItem
 90
        0
 90
       34
 90
        0
 90
        0
 90
        8
 11
426.93528
 21
0.0
 31
0.0
330
24C0
100
AcDbAssocArrayItem
 90
        0
 90
       35
 90
        0
 90
        0
 90
        8
 11
439.4922000000001
 21
0.0
 31
0.0
330
24C1
100
AcDbAssocArrayItem
 90
        0
 90
       36
 90
        0
 90
        0
 90
        8
 11
452.0491200000001
 21
0.0
 31
0.0
330
24C2
100
AcDbAssocArrayItem
 90
        0
 90
       37
 90
        0
 90
        0
 90
        8
 11
464.6060400000001
 21
0.0
 31
0.0
330
24C3
100
AcDbAssocArrayItem
 90
        0
 90
       38
 90
        0
 90
        0
 90
        8
 11
477.1629600000001
 21
0.0
 31
0.0
330
24C4
100
AcDbAssocArrayItem
 90
        0
 90
       39
 90
        0
 90
        0
 90
        8
 11
489.7198800000001
 21
0.0
 31
0.0
330
24C5
100
AcDbAssocArrayItem
 90
        0
 90
       40
 90
        0
 90
        0
 90
        8
 11
502.2768000000001
 21
0.0
 31
0.0
330
24C6
100
AcDbAssocArrayItem
 90
        0
 90
       41
 90
        0
 90
        0
 90
        8
 11
514.8337200000001
 21
0.0
 31
0.0
330
24C7
100
AcDbAssocArrayItem
 90
        0
 90
       42
 90
        0
 90
        0
 90
        8
 11
527.3906400000002
 21
0.0
 31
0.0
330
24C8
100
AcDbAssocArrayItem
 90
        0
 90
       43
 90
        0
 90
        0
 90
        8
 11
539.9475600000001
 21
0.0
 31
0.0
330
24C9
100
AcDbAssocArrayItem
 90
        0
 90
       44
 90
        0
 90
        0
 90
        8
 11
552.5044800000001
 21
0.0
 31
0.0
330
24CA
100
AcDbAssocArrayItem
 90
        0
 90
       45
 90
        0
 90
        0
 90
        8
 11
565.0614000000001
 21
0.0
 31
0.0
330
24CB
100
AcDbAssocArrayItem
 90
        0
 90
       46
 90
        0
 90
        0
 90
        8
 11
577.6183200000001
 21
0.0
 31
0.0
330
24CC
100
AcDbAssocArrayItem
 90
        0
 90
       47
 90
        0
 90
        0
 90
        8
 11
590.1752400000001
 21
0.0
 31
0.0
330
24CD
100
AcDbAssocArrayItem
 90
        0
 90
       48
 90
        0
 90
        0
 90
        8
 11
602.7321600000001
 21
0.0
 31
0.0
330
24CE
100
AcDbAssocArrayItem
 90
        0
 90
       49
 90
        0
 90
        0
 90
        8
 11
615.2890800000001
 21
0.0
 31
0.0
330
24CF
100
AcDbAssocArrayItem
 90
        0
 90
       50
 90
        0
 90
        0
 90
        8
 11
627.8460000000001
 21
0.0
 31
0.0
330
24D0
100
AcDbAssocArrayItem
 90
        0
 90
       51
 90
        0
 90
        0
 90
        8
 11
640.4029200000002
 21
0.0
 31
0.0
330
24D1
100
AcDbAssocArrayItem
 90
        0
 90
       52
 90
        0
 90
        0
 90
        8
 11
652.9598400000002
 21
0.0
 31
0.0
330
24D2
100
AcDbAssocArrayItem
 90
        0
 90
       53
 90
        0
 90
        0
 90
        8
 11
665.5167600000002
 21
0.0
 31
0.0
330
24D3
100
AcDbAssocArrayItem
 90
        0
 90
       54
 90
        0
 90
        0
 90
        8
 11
678.0736800000002
 21
0.0
 31
0.0
330
24D4
100
AcDbAssocArrayItem
 90
        0
 90
       55
 90
        0
 90
        0
 90
        8
 11
690.6306000000001
 21
0.0
 31
0.0
330
24D5
100
AcDbAssocArrayItem
 90
        0
 90
       56
 90
        0
 90
        0
 90
        8
 11
703.1875200000001
 21
0.0
 31
0.0
330
24D6
100
AcDbAssocArrayItem
 90
        0
 90
       57
 90
        0
 90
        0
 90
        8
 11
715.7444400000001
 21
0.0
 31
0.0
330
24D7
100
AcDbAssocArrayItem
 90
        0
 90
       58
 90
        0
 90
        0
 90
        8
 11
728.3013600000002
 21
0.0
 31
0.0
330
24D8
100
AcDbAssocArrayItem
 90
        0
 90
       59
 90
        0
 90
        0
 90
        8
 11
740.8582800000001
 21
0.0
 31
0.0
330
24D9
100
AcDbAssocArrayItem
 90
        0
 90
       60
 90
        0
 90
        0
 90
        8
 11
753.4152000000002
 21
0.0
 31
0.0
330
24DA
100
AcDbAssocArrayItem
 90
        0
 90
       61
 90
        0
 90
        0
 90
        8
 11
765.9721200000002
 21
0.0
 31
0.0
330
24DB
100
AcDbAssocArrayItem
 90
        0
 90
       62
 90
        0
 90
        0
 90
        8
 11
778.5290400000002
 21
0.0
 31
0.0
330
24DC
100
AcDbAssocArrayItem
 90
        0
 90
       63
 90
        0
 90
        0
 90
        8
 11
791.0859600000002
 21
0.0
 31
0.0
330
24DD
100
AcDbAssocArrayItem
 90
        0
 90
       64
 90
        0
 90
        0
 90
        8
 11
803.6428800000003
 21
0.0
 31
0.0
330
24DE
100
AcDbAssocArrayItem
 90
        0
 90
       65
 90
        0
 90
        0
 90
        8
 11
816.1998000000002
 21
0.0
 31
0.0
330
24DF
100
AcDbAssocArrayItem
 90
        0
 90
       66
 90
        0
 90
        0
 90
        8
 11
828.7567200000001
 21
0.0
 31
0.0
330
24E0
100
AcDbAssocArrayItem
 90
        0
 90
       67
 90
        0
 90
        0
 90
        8
 11
841.3136400000002
 21
0.0
 31
0.0
330
24E1
100
AcDbAssocArrayItem
 90
        0
 90
       68
 90
        0
 90
        0
 90
        8
 11
853.8705600000001
 21
0.0
 31
0.0
330
24E2
100
AcDbAssocArrayItem
 90
        0
 90
       69
 90
        0
 90
        0
 90
        8
 11
866.4274800000002
 21
0.0
 31
0.0
330
24E3
100
AcDbAssocArrayItem
 90
        0
 90
       70
 90
        0
 90
        0
 90
        8
 11
878.9844000000002
 21
0.0
 31
0.0
330
24E4
100
AcDbAssocArrayItem
 90
        0
 90
       71
 90
        0
 90
        0
 90
        8
 11
891.5413200000003
 21
0.0
 31
0.0
330
24E5
100
AcDbAssocArrayItem
 90
        0
 90
       72
 90
        0
 90
        0
 90
        8
 11
904.0982400000002
 21
0.0
 31
0.0
330
24E6
100
AcDbAssocArrayItem
 90
        0
 90
       73
 90
        0
 90
        0
 90
        8
 11
916.6551600000003
 21
0.0
 31
0.0
330
24E7
100
AcDbAssocArrayItem
 90
        0
 90
       74
 90
        0
 90
        0
 90
        8
 11
929.2120800000002
 21
0.0
 31
0.0
330
24E8
100
AcDbAssocArrayItem
 90
        0
 90
       75
 90
        0
 90
        0
 90
        8
 11
941.7690000000002
 21
0.0
 31
0.0
330
24E9
100
AcDbAssocArrayItem
 90
        0
 90
       76
 90
        0
 90
        0
 90
        8
 11
954.3259200000003
 21
0.0
 31
0.0
330
24EA
100
AcDbAssocArrayItem
 90
        0
 90
       77
 90
        0
 90
        0
 90
        8
 11
966.8828400000002
 21
0.0
 31
0.0
330
24EB
 40
1.0
 40
0.0
 40
0.0
 40
466.8097097266564
 40
0.0
 40
1.0
 40
0.0
 40
731.3437350377721
 40
0.0
 40
0.0
 40
1.0
 40
0.0
 40
0.0
 40
0.0
 40
0.0
 40
1.0
  0
ACDBASSOCDEPENDENCY
  5
2499
330
2495
100
AcDbAssocDependency
 90
        2
 90
        1
290
     0
290
     1
290
     1
290
     1
 90
        0
330
2487
290
     0
330
0
330
0
360
0
 90
        1
  0
ACDBASSOCDEPENDENCY
  5
249A
330
2495
100
AcDbAssocDependency
 90
        2
 90
        1
290
     1
290
     0
290
     1
290
     1
 90
        0
330
2484
290
     0
330
0
330
0
360
0
 90
        2
  0
ACDBASSOCDEPENDENCY
  5
249B
330
2495
100
AcDbAssocDependency
 90
        2
 90
        0
290
     1
290
     1
290
     1
290
     1
 90
-2147483648
330
248A
290
     0
330
0
330
0
360
0
 90
        3
  0
ACDBASSOCARRAYACTIONBODY
  5
2612
330
2611
100
AcDbAssocActionBody
 90
        1
100
AcDbAssocParamBasedActionBody
 90
        0
 90
        0
 90
        3
360
2613
360
2614
360
2618
 90
        0
 90
        9
 90
        0
  1
AlignItems
 90
        0
 90
        1
 90
        0
330
0
330
0
 90
        0
  1
AxesAngle
 90
        2
 90
        1
 40
1.570796326794896
330
0
330
0
 90
        0
  1
ItemSpacing
 90
        1
 90
        1
 40
12.5569
330
0
330
0
 90
        0
  1
Items
 90
        0
 90
        1
 90
       78
330
0
330
0
 90
        0
  1
LevelSpacing
 90
        1
 90
        1
 40
1.0
330
0
330
0
 90
        0
  1
Levels
 90
        0
 90
        1
 90
        1
330
0
330
0
 90
        0
  1
RowElevation
 90
        1
 90
        1
 40
0.0
330
0
330
0
 90
        0
  1
RowSpacing
 90
        1
 90
        1
 40
526.4999999999999
330
0
330
0
 90
        0
  1
Rows
 90
        0
 90
        1
 90
        1
330
0
330
0
100
AcDbAssocArrayActionBody
 90
        1
  1
AcDbAssocArrayRectangularParameters
 90
        0
 90
       78
  1
AcDbAssocArrayItem
100
AcDbAssocArrayItem
 90
        0
 90
        0
 90
        0
 90
        0
 90
        8
 11
0.0
 21
0.0
 31
0.0
330
261A
100
AcDbAssocArrayItem
 90
        0
 90
        1
 90
        0
 90
        0
 90
        8
 11
12.5569
 21
0.0
 31
0.0
330
261B
100
AcDbAssocArrayItem
 90
        0
 90
        2
 90
        0
 90
        0
 90
        8
 11
25.1138
 21
0.0
 31
0.0
330
261C
100
AcDbAssocArrayItem
 90
        0
 90
        3
 90
        0
 90
        0
 90
        8
 11
37.6707
 21
0.0
 31
0.0
330
261D
100
AcDbAssocArrayItem
 90
        0
 90
        4
 90
        0
 90
        0
 90
        8
 11
50.2276
 21
0.0
 31
0.0
330
261E
100
AcDbAssocArrayItem
 90
        0
 90
        5
 90
        0
 90
        0
 90
        8
 11
62.7845
 21
0.0
 31
0.0
330
261F
100
AcDbAssocArrayItem
 90
        0
 90
        6
 90
        0
 90
        0
 90
        8
 11
75.3414
 21
0.0
 31
0.0
330
2620
100
AcDbAssocArrayItem
 90
        0
 90
        7
 90
        0
 90
        0
 90
        8
 11
87.8983
 21
0.0
 31
0.0
330
2621
100
AcDbAssocArrayItem
 90
        0
 90
        8
 90
        0
 90
        0
 90
        8
 11
100.4552
 21
0.0
 31
0.0
330
2622
100
AcDbAssocArrayItem
 90
        0
 90
        9
 90
        0
 90
        0
 90
        8
 11
113.0121
 21
0.0
 31
0.0
330
2623
100
AcDbAssocArrayItem
 90
        0
 90
       10
 90
        0
 90
        0
 90
        8
 11
125.569
 21
0.0
 31
0.0
330
2624
100
AcDbAssocArrayItem
 90
        0
 90
       11
 90
        0
 90
        0
 90
        8
 11
138.1259
 21
0.0
 31
0.0
330
2625
100
AcDbAssocArrayItem
 90
        0
 90
       12
 90
        0
 90
        0
 90
        8
 11
150.6828
 21
0.0
 31
0.0
330
2626
100
AcDbAssocArrayItem
 90
        0
 90
       13
 90
        0
 90
        0
 90
        8
 11
163.2397
 21
0.0
 31
0.0
330
2627
100
AcDbAssocArrayItem
 90
        0
 90
       14
 90
        0
 90
        0
 90
        8
 11
175.7966
 21
0.0
 31
0.0
330
2628
100
AcDbAssocArrayItem
 90
        0
 90
       15
 90
        0
 90
        0
 90
        8
 11
188.3535
 21
0.0
 31
0.0
330
2629
100
AcDbAssocArrayItem
 90
        0
 90
       16
 90
        0
 90
        0
 90
        8
 11
200.9104
 21
0.0
 31
0.0
330
262A
100
AcDbAssocArrayItem
 90
        0
 90
       17
 90
        0
 90
        0
 90
        8
 11
213.4673
 21
0.0
 31
0.0
330
262B
100
AcDbAssocArrayItem
 90
        0
 90
       18
 90
        0
 90
        0
 90
        8
 11
226.0242
 21
0.0
 31
0.0
330
262C
100
AcDbAssocArrayItem
 90
        0
 90
       19
 90
        0
 90
        0
 90
        8
 11
238.5811
 21
0.0
 31
0.0
330
262D
100
AcDbAssocArrayItem
 90
        0
 90
       20
 90
        0
 90
        0
 90
        8
 11
251.138
 21
0.0
 31
0.0
330
262E
100
AcDbAssocArrayItem
 90
        0
 90
       21
 90
        0
 90
        0
 90
        8
 11
263.6949
 21
0.0
 31
0.0
330
262F
100
AcDbAssocArrayItem
 90
        0
 90
       22
 90
        0
 90
        0
 90
        8
 11
276.2518
 21
0.0
 31
0.0
330
2630
100
AcDbAssocArrayItem
 90
        0
 90
       23
 90
        0
 90
        0
 90
        8
 11
288.8087
 21
0.0
 31
0.0
330
2631
100
AcDbAssocArrayItem
 90
        0
 90
       24
 90
        0
 90
        0
 90
        8
 11
301.3656000000001
 21
0.0
 31
0.0
330
2632
100
AcDbAssocArrayItem
 90
        0
 90
       25
 90
        0
 90
        0
 90
        8
 11
313.9225
 21
0.0
 31
0.0
330
2633
100
AcDbAssocArrayItem
 90
        0
 90
       26
 90
        0
 90
        0
 90
        8
 11
326.4794
 21
0.0
 31
0.0
330
2634
100
AcDbAssocArrayItem
 90
        0
 90
       27
 90
        0
 90
        0
 90
        8
 11
339.0363000000001
 21
0.0
 31
0.0
330
2635
100
AcDbAssocArrayItem
 90
        0
 90
       28
 90
        0
 90
        0
 90
        8
 11
351.5932
 21
0.0
 31
0.0
330
2636
100
AcDbAssocArrayItem
 90
        0
 90
       29
 90
        0
 90
        0
 90
        8
 11
364.1501
 21
0.0
 31
0.0
330
2637
100
AcDbAssocArrayItem
 90
        0
 90
       30
 90
        0
 90
        0
 90
        8
 11
376.707
 21
0.0
 31
0.0
330
2638
100
AcDbAssocArrayItem
 90
        0
 90
       31
 90
        0
 90
        0
 90
        8
 11
389.2639
 21
0.0
 31
0.0
330
2639
100
AcDbAssocArrayItem
 90
        0
 90
       32
 90
        0
 90
        0
 90
        8
 11
401.8208
 21
0.0
 31
0.0
330
263A
100
AcDbAssocArrayItem
 90
        0
 90
       33
 90
        0
 90
        0
 90
        8
 11
414.3777
 21
0.0
 31
0.0
330
263B
100
AcDbAssocArrayItem
 90
        0
 90
       34
 90
        0
 90
        0
 90
        8
 11
426.9346
 21
0.0
 31
0.0
330
263C
100
AcDbAssocArrayItem
 90
        0
 90
       35
 90
        0
 90
        0
 90
        8
 11
439.4915
 21
0.0
 31
0.0
330
263D
100
AcDbAssocArrayItem
 90
        0
 90
       36
 90
        0
 90
        0
 90
        8
 11
452.0484
 21
0.0
 31
0.0
330
263E
100
AcDbAssocArrayItem
 90
        0
 90
       37
 90
        0
 90
        0
 90
        8
 11
464.6053
 21
0.0
 31
0.0
330
263F
100
AcDbAssocArrayItem
 90
        0
 90
       38
 90
        0
 90
        0
 90
        8
 11
477.1622
 21
0.0
 31
0.0
330
2640
100
AcDbAssocArrayItem
 90
        0
 90
       39
 90
        0
 90
        0
 90
        8
 11
489.7191
 21
0.0
 31
0.0
330
2641
100
AcDbAssocArrayItem
 90
        0
 90
       40
 90
        0
 90
        0
 90
        8
 11
502.2759999999999
 21
0.0
 31
0.0
330
2642
100
AcDbAssocArrayItem
 90
        0
 90
       41
 90
        0
 90
        0
 90
        8
 11
514.8329
 21
0.0
 31
0.0
330
2643
100
AcDbAssocArrayItem
 90
        0
 90
       42
 90
        0
 90
        0
 90
        8
 11
527.3898
 21
0.0
 31
0.0
330
2644
100
AcDbAssocArrayItem
 90
        0
 90
       43
 90
        0
 90
        0
 90
        8
 11
539.9467
 21
0.0
 31
0.0
330
2645
100
AcDbAssocArrayItem
 90
        0
 90
       44
 90
        0
 90
        0
 90
        8
 11
552.5036
 21
0.0
 31
0.0
330
2646
100
AcDbAssocArrayItem
 90
        0
 90
       45
 90
        0
 90
        0
 90
        8
 11
565.0605
 21
0.0
 31
0.0
330
2647
100
AcDbAssocArrayItem
 90
        0
 90
       46
 90
        0
 90
        0
 90
        8
 11
577.6174
 21
0.0
 31
0.0
330
2648
100
AcDbAssocArrayItem
 90
        0
 90
       47
 90
        0
 90
        0
 90
        8
 11
590.1743
 21
0.0
 31
0.0
330
2649
100
AcDbAssocArrayItem
 90
        0
 90
       48
 90
        0
 90
        0
 90
        8
 11
602.7312000000001
 21
0.0
 31
0.0
330
264A
100
AcDbAssocArrayItem
 90
        0
 90
       49
 90
        0
 90
        0
 90
        8
 11
615.2880999999999
 21
0.0
 31
0.0
330
264B
100
AcDbAssocArrayItem
 90
        0
 90
       50
 90
        0
 90
        0
 90
        8
 11
627.845
 21
0.0
 31
0.0
330
264C
100
AcDbAssocArrayItem
 90
        0
 90
       51
 90
        0
 90
        0
 90
        8
 11
640.4019
 21
0.0
 31
0.0
330
264D
100
AcDbAssocArrayItem
 90
        0
 90
       52
 90
        0
 90
        0
 90
        8
 11
652.9588
 21
0.0
 31
0.0
330
264E
100
AcDbAssocArrayItem
 90
        0
 90
       53
 90
        0
 90
        0
 90
        8
 11
665.5157
 21
0.0
 31
0.0
330
264F
100
AcDbAssocArrayItem
 90
        0
 90
       54
 90
        0
 90
        0
 90
        8
 11
678.0726000000001
 21
0.0
 31
0.0
330
2650
100
AcDbAssocArrayItem
 90
        0
 90
       55
 90
        0
 90
        0
 90
        8
 11
690.6295
 21
0.0
 31
0.0
330
2651
100
AcDbAssocArrayItem
 90
        0
 90
       56
 90
        0
 90
        0
 90
        8
 11
703.1864
 21
0.0
 31
0.0
330
2652
100
AcDbAssocArrayItem
 90
        0
 90
       57
 90
        0
 90
        0
 90
        8
 11
715.7433000000001
 21
0.0
 31
0.0
330
2653
100
AcDbAssocArrayItem
 90
        0
 90
       58
 90
        0
 90
        0
 90
        8
 11
728.3002
 21
0.0
 31
0.0
330
2654
100
AcDbAssocArrayItem
 90
        0
 90
       59
 90
        0
 90
        0
 90
        8
 11
740.8571000000001
 21
0.0
 31
0.0
330
2655
100
AcDbAssocArrayItem
 90
        0
 90
       60
 90
        0
 90
        0
 90
        8
 11
753.4139999999999
 21
0.0
 31
0.0
330
2656
100
AcDbAssocArrayItem
 90
        0
 90
       61
 90
        0
 90
        0
 90
        8
 11
765.9709
 21
0.0
 31
0.0
330
2657
100
AcDbAssocArrayItem
 90
        0
 90
       62
 90
        0
 90
        0
 90
        8
 11
778.5278
 21
0.0
 31
0.0
330
2658
100
AcDbAssocArrayItem
 90
        0
 90
       63
 90
        0
 90
        0
 90
        8
 11
791.0847
 21
0.0
 31
0.0
330
2659
100
AcDbAssocArrayItem
 90
        0
 90
       64
 90
        0
 90
        0
 90
        8
 11
803.6416
 21
0.0
 31
0.0
330
265A
100
AcDbAssocArrayItem
 90
        0
 90
       65
 90
        0
 90
        0
 90
        8
 11
816.1985000000001
 21
0.0
 31
0.0
330
265B
100
AcDbAssocArrayItem
 90
        0
 90
       66
 90
        0
 90
        0
 90
        8
 11
828.7554
 21
0.0
 31
0.0
330
265C
100
AcDbAssocArrayItem
 90
        0
 90
       67
 90
        0
 90
        0
 90
        8
 11
841.3123
 21
0.0
 31
0.0
330
265D
100
AcDbAssocArrayItem
 90
        0
 90
       68
 90
        0
 90
        0
 90
        8
 11
853.8692000000001
 21
0.0
 31
0.0
330
265E
100
AcDbAssocArrayItem
 90
        0
 90
       69
 90
        0
 90
        0
 90
        8
 11
866.4260999999999
 21
0.0
 31
0.0
330
265F
100
AcDbAssocArrayItem
 90
        0
 90
       70
 90
        0
 90
        0
 90
        8
 11
878.983
 21
0.0
 31
0.0
330
2660
100
AcDbAssocArrayItem
 90
        0
 90
       71
 90
        0
 90
        0
 90
        8
 11
891.5399
 21
0.0
 31
0.0
330
2661
100
AcDbAssocArrayItem
 90
        0
 90
       72
 90
        0
 90
        0
 90
        8
 11
904.0968000000001
 21
0.0
 31
0.0
330
2662
100
AcDbAssocArrayItem
 90
        0
 90
       73
 90
        0
 90
        0
 90
        8
 11
916.6537000000001
 21
0.0
 31
0.0
330
2663
100
AcDbAssocArrayItem
 90
        0
 90
       74
 90
        0
 90
        0
 90
        8
 11
929.2106
 21
0.0
 31
0.0
330
2664
100
AcDbAssocArrayItem
 90
        0
 90
       75
 90
        0
 90
        0
 90
        8
 11
941.7675
 21
0.0
 31
0.0
330
2665
100
AcDbAssocArrayItem
 90
        0
 90
       76
 90
        0
 90
        0
 90
        8
 11
954.3244000000001
 21
0.0
 31
0.0
330
2666
100
AcDbAssocArrayItem
 90
        0
 90
       77
 90
        0
 90
        0
 90
        8
 11
966.8813
 21
0.0
 31
0.0
330
2667
 40
1.0
 40
0.0
 40
0.0
 40
459.0312503266564
 40
0.0
 40
1.0
 40
0.0
 40
1477.734273794808
 40
0.0
 40
0.0
 40
1.0
 40
0.0
 40
0.0
 40
0.0
 40
0.0
 40
1.0
  0
ACDBASSOCDEPENDENCY
  5
2615
330
2611
100
AcDbAssocDependency
 90
        2
 90
        1
290
     0
290
     1
290
     1
290
     1
 90
        0
330
25B2
290
     0
330
0
330
0
360
0
 90
        1
  0
ACDBASSOCDEPENDENCY
  5
2616
330
2611
100
AcDbAssocDependency
 90
        2
 90
        1
290
     1
290
     0
290
     1
290
     1
 90
        0
330
25AF
290
     0
330
0
330
0
360
0
 90
        2
  0
ACDBASSOCDEPENDENCY
  5
2617
330
2611
100
AcDbAssocDependency
 90
        2
 90
        0
290
     1
290
     1
290
     1
290
     1
 90
-2147483648
330
25B5
290
     0
330
0
330
0
360
0
 90
        3
  0
ACDBASSOCVERTEXACTIONPARAM
  5
2497
330
2496
100
AcDbAssocActionParam
 90
        0
  1
BaseNormal
100
AcDbAssocSingleDependencyActionParam
 90
        0
330
0
100
AcDbAssocVertexActionParam
 90
        0
 10
0.0
 20
0.0
 30
1.0
  0
ACDBASSOCVERTEXACTIONPARAM
  5
2498
330
2496
100
AcDbAssocActionParam
 90
        0
  1
Origin
100
AcDbAssocSingleDependencyActionParam
 90
        0
330
0
100
AcDbAssocVertexActionParam
 90
        0
 10
0.0
 20
0.0
 30
0.0
  0
ACDBASSOCVERTEXACTIONPARAM
  5
249C
330
2496
100
AcDbAssocActionParam
 90
        0
  1
basePoint
100
AcDbAssocSingleDependencyActionParam
 90
        0
330
0
100
AcDbAssocVertexActionParam
 90
        0
 10
0.0
 20
0.0
 30
0.0
  0
ACDBASSOCVERTEXACTIONPARAM
  5
2613
330
2612
100
AcDbAssocActionParam
 90
        0
  1
BaseNormal
100
AcDbAssocSingleDependencyActionParam
 90
        0
330
0
100
AcDbAssocVertexActionParam
 90
        0
 10
0.0
 20
0.0
 30
1.0
  0
ACDBASSOCVERTEXACTIONPARAM
  5
2614
330
2612
100
AcDbAssocActionParam
 90
        0
  1
Origin
100
AcDbAssocSingleDependencyActionParam
 90
        0
330
0
100
AcDbAssocVertexActionParam
 90
        0
 10
0.0
 20
0.0
 30
0.0
  0
ACDBASSOCVERTEXACTIONPARAM
  5
2618
330
2612
100
AcDbAssocActionParam
 90
        0
  1
basePoint
100
AcDbAssocSingleDependencyActionParam
 90
        0
330
0
100
AcDbAssocVertexActionParam
 90
        0
 10
0.0
 20
0.0
 30
0.0
  0
ENDSEC
  0
EOF
