  0
SECTION
  2
HEADER
  9
$ACADVER
  1
AC1015
  9
$ACADMAINTVER
 70
    20
  9
$DWGCODEPAGE
  3
ANSI_932
  9
$INSBASE
 10
0.0
 20
0.0
 30
0.0
  9
$EXTMIN
 10
0.0
 20
0.0
 30
0.0
  9
$EXTMAX
 10
2789.511161023071
 20
1973.26911249564
 30
0.0
  9
$LIMMIN
 10
0.0
 20
0.0
  9
$LIMMAX
 10
297.0
 20
209.0
  9
$ORTHOMODE
 70
     1
  9
$REGENMODE
 70
     1
  9
$FILLMODE
 70
     1
  9
$QTEXTMODE
 70
     0
  9
$MIRRTEXT
 70
     1
  9
$LTSCALE
 40
1.0
  9
$ATTMODE
 70
     1
  9
$TEXTSIZE
 40
2.5
  9
$TRACEWID
 40
1.0
  9
$TEXTSTYLE
  7
Standard
  9
$CLAYER
  8
寸法線
  9
$CELTYPE
  6
ByLayer
  9
$CECOLOR
 62
   256
  9
$CELTSCALE
 40
3.0
  9
$DISPSILH
 70
     0
  9
$DIMSCALE
 40
10.0
  9
$DIMASZ
 40
1.5
  9
$DIMEXO
 40
2.0
  9
$DIMDLI
 40
3.75
  9
$DIMRND
 40
0.0
  9
$DIMDLE
 40
0.0
  9
$DIMEXE
 40
1.5
  9
$DIMTP
 40
0.0
  9
$DIMTM
 40
0.0
  9
$DIMTXT
 40
3.0
  9
$DIMCEN
 40
2.5
  9
$DIMTSZ
 40
0.0
  9
$DIMTOL
 70
     0
  9
$DIMLIM
 70
     0
  9
$DIMTIH
 70
     0
  9
$DIMTOH
 70
     0
  9
$DIMSE1
 70
     0
  9
$DIMSE2
 70
     0
  9
$DIMTAD
 70
     1
  9
$DIMZIN
 70
     8
  9
$DIMBLK
  1
Open30
  9
$DIMASO
 70
     1
  9
$DIMSHO
 70
     1
  9
$DIMPOST
  1

  9
$DIMAPOST
  1

  9
$DIMALT
 70
     0
  9
$DIMALTD
 70
     3
  9
$DIMALTF
 40
0.03937007874016
  9
$DIMLFAC
 40
1.0
  9
$DIMTOFL
 70
     1
  9
$DIMTVP
 40
0.0
  9
$DIMTIX
 70
     0
  9
$DIMSOXD
 70
     0
  9
$DIMSAH
 70
     0
  9
$DIMBLK1
  1

  9
$DIMBLK2
  1

  9
$DIMSTYLE
  2
ISO-25
  9
$DIMCLRD
 70
     0
  9
$DIMCLRE
 70
     0
  9
$DIMCLRT
 70
     0
  9
$DIMTFAC
 40
1.0
  9
$DIMGAP
 40
0.5
  9
$DIMJUST
 70
     0
  9
$DIMSD1
 70
     0
  9
$DIMSD2
 70
     0
  9
$DIMTOLJ
 70
     0
  9
$DIMTZIN
 70
     8
  9
$DIMALTZ
 70
     0
  9
$DIMALTTZ
 70
     0
  9
$DIMUPT
 70
     0
  9
$DIMDEC
 70
     2
  9
$DIMTDEC
 70
     2
  9
$DIMALTU
 70
     2
  9
$DIMALTTD
 70
     3
  9
$DIMTXSTY
  7
Standard
  9
$DIMAUNIT
 70
     0
  9
$DIMADEC
 70
     0
  9
$DIMALTRND
 40
0.0
  9
$DIMAZIN
 70
     0
  9
$DIMDSEP
 70
    46
  9
$DIMATFIT
 70
     0
  9
$DIMFRAC
 70
     0
  9
$DIMLDRBLK
  1
Open30
  9
$DIMLUNIT
 70
     2
  9
$DIMLWD
 70
    -2
  9
$DIMLWE
 70
    -2
  9
$DIMTMOVE
 70
     0
  9
$LUNITS
 70
     2
  9
$LUPREC
 70
     4
  9
$SKETCHINC
 40
1.0
  9
$FILLETRAD
 40
9.9
  9
$AUNITS
 70
     0
  9
$AUPREC
 70
     0
  9
$MENU
  1
.
  9
$ELEVATION
 40
0.0
  9
$PELEVATION
 40
0.0
  9
$THICKNESS
 40
0.0
  9
$LIMCHECK
 70
     0
  9
$CHAMFERA
 40
10.0
  9
$CHAMFERB
 40
10.0
  9
$CHAMFERC
 40
20.0
  9
$CHAMFERD
 40
0.0
  9
$SKPOLY
 70
     0
  9
$TDCREATE
 40
2453510.558637211
  9
$TDUCREATE
 40
2453510.183637211
  9
$TDUPDATE
 40
2457565.390264202
  9
$TDUUPDATE
 40
2457565.015264202
  9
$TDINDWG
 40
0.0997812616
  9
$TDUSRTIMER
 40
0.0997812616
  9
$USRTIMER
 70
     1
  9
$ANGBASE
 50
0.0
  9
$ANGDIR
 70
     0
  9
$PDMODE
 70
     0
  9
$PDSIZE
 40
0.0
  9
$PLINEWID
 40
0.0
  9
$SPLFRAME
 70
     0
  9
$SPLINETYPE
 70
     6
  9
$SPLINESEGS
 70
     8
  9
$HANDSEED
  5
148D
  9
$SURFTAB1
 70
     6
  9
$SURFTAB2
 70
     6
  9
$SURFTYPE
 70
     6
  9
$SURFU
 70
     6
  9
$SURFV
 70
     6
  9
$UCSBASE
  2

  9
$UCSNAME
  2

  9
$UCSORG
 10
0.0
 20
0.0
 30
0.0
  9
$UCSXDIR
 10
1.0
 20
0.0
 30
0.0
  9
$UCSYDIR
 10
0.0
 20
1.0
 30
0.0
  9
$UCSORTHOREF
  2

  9
$UCSORTHOVIEW
 70
     0
  9
$UCSORGTOP
 10
0.0
 20
0.0
 30
0.0
  9
$UCSORGBOTTOM
 10
0.0
 20
0.0
 30
0.0
  9
$UCSORGLEFT
 10
0.0
 20
0.0
 30
0.0
  9
$UCSORGRIGHT
 10
0.0
 20
0.0
 30
0.0
  9
$UCSORGFRONT
 10
0.0
 20
0.0
 30
0.0
  9
$UCSORGBACK
 10
0.0
 20
0.0
 30
0.0
  9
$PUCSBASE
  2

  9
$PUCSNAME
  2

  9
$PUCSORG
 10
0.0
 20
0.0
 30
0.0
  9
$PUCSXDIR
 10
1.0
 20
0.0
 30
0.0
  9
$PUCSYDIR
 10
0.0
 20
1.0
 30
0.0
  9
$PUCSORTHOREF
  2

  9
$PUCSORTHOVIEW
 70
     0
  9
$PUCSORGTOP
 10
0.0
 20
0.0
 30
0.0
  9
$PUCSORGBOTTOM
 10
0.0
 20
0.0
 30
0.0
  9
$PUCSORGLEFT
 10
0.0
 20
0.0
 30
0.0
  9
$PUCSORGRIGHT
 10
0.0
 20
0.0
 30
0.0
  9
$PUCSORGFRONT
 10
0.0
 20
0.0
 30
0.0
  9
$PUCSORGBACK
 10
0.0
 20
0.0
 30
0.0
  9
$USERI1
 70
     0
  9
$USERI2
 70
     0
  9
$USERI3
 70
     0
  9
$USERI4
 70
     0
  9
$USERI5
 70
     0
  9
$USERR1
 40
0.0
  9
$USERR2
 40
0.0
  9
$USERR3
 40
0.0
  9
$USERR4
 40
0.0
  9
$USERR5
 40
0.0
  9
$WORLDVIEW
 70
     1
  9
$SHADEDGE
 70
     3
  9
$SHADEDIF
 70
    70
  9
$TILEMODE
 70
     1
  9
$MAXACTVP
 70
    48
  9
$PINSBASE
 10
0.0
 20
0.0
 30
0.0
  9
$PLIMCHECK
 70
     0
  9
$PEXTMIN
 10
0.0
 20
0.0
 30
0.0
  9
$PEXTMAX
 10
0.0
 20
0.0
 30
0.0
  9
$PLIMMIN
 10
0.0
 20
0.0
  9
$PLIMMAX
 10
12.0
 20
9.0
  9
$UNITMODE
 70
     0
  9
$VISRETAIN
 70
     1
  9
$PLINEGEN
 70
     0
  9
$PSLTSCALE
 70
     1
  9
$TREEDEPTH
 70
  3020
  9
$CMLSTYLE
  2
Standard
  9
$CMLJUST
 70
     0
  9
$CMLSCALE
 40
20.0
  9
$PROXYGRAPHICS
 70
     1
  9
$MEASUREMENT
 70
     1
  9
$CELWEIGHT
370
    -1
  9
$ENDCAPS
280
     0
  9
$JOINSTYLE
280
     0
  9
$LWDISPLAY
290
     0
  9
$INSUNITS
 70
     4
  9
$HYPERLINKBASE
  1

  9
$STYLESHEET
  1
monochrome.ctb
  9
$XEDIT
290
     1
  9
$CEPSNTYPE
380
     0
  9
$PSTYLEMODE
290
     1
  9
$FINGERPRINTGUID
  2

  9
$VERSIONGUID
  2
{BFF7B77F-38FC-4C91-98DB-790D11333E1F}
  9
$EXTNAMES
290
     1
  9
$PSVPSCALE
 40
0.0
  9
$OLESTARTUP
290
     0
  0
ENDSEC
  0
SECTION
  2
CLASSES
  0
CLASS
  1
ACDBDICTIONARYWDFLT
  2
AcDbDictionaryWithDefault
  3
ObjectDBX Classes
 90
        0
280
     0
281
     0
  0
CLASS
  1
ACDBPLACEHOLDER
  2
AcDbPlaceHolder
  3
ObjectDBX Classes
 90
        0
280
     0
281
     0
  0
CLASS
  1
LAYOUT
  2
AcDbLayout
  3
ObjectDBX Classes
 90
        0
280
     0
281
     0
  0
CLASS
  1
DICTIONARYVAR
  2
AcDbDictionaryVar
  3
ObjectDBX Classes
 90
        0
280
     0
281
     0
  0
CLASS
  1
MATERIAL
  2
AcDbMaterial
  3
ObjectDBX Classes
 90
     1153
280
     0
281
     0
  0
CLASS
  1
VISUALSTYLE
  2
AcDbVisualStyle
  3
ObjectDBX Classes
 90
     4095
280
     0
281
     0
  0
CLASS
  1
TABLESTYLE
  2
AcDbTableStyle
  3
ObjectDBX Classes
 90
     4095
280
     0
281
     0
  0
CLASS
  1
SCALE
  2
AcDbScale
  3
ObjectDBX Classes
 90
     1153
280
     0
281
     0
  0
CLASS
  1
MLEADERSTYLE
  2
AcDbMLeaderStyle
  3
ACDB_MLEADERSTYLE_CLASS
 90
     4095
280
     0
281
     0
  0
CLASS
  1
ACDBSECTIONVIEWSTYLE
  2
AcDbSectionViewStyle
  3
ObjectDBX Classes
 90
     1025
280
     0
281
     0
  0
CLASS
  1
ACDBDETAILVIEWSTYLE
  2
AcDbDetailViewStyle
  3
ObjectDBX Classes
 90
     1025
280
     0
281
     0
  0
CLASS
  1
CELLSTYLEMAP
  2
AcDbCellStyleMap
  3
ObjectDBX Classes
 90
     1152
280
     0
281
     0
  0
CLASS
  1
ACARRAYJIGENTITY
  2
AcArrayJigEntity
  3
ACAD_ARRAY
 90
      129
280
     0
281
     1
  0
CLASS
  1
ACDBASSOCNETWORK
  2
AcDbAssocNetwork
  3
ObjectDBX Classes
 90
     1025
280
     0
281
     0
  0
CLASS
  1
ACDBASSOCACTION
  2
AcDbAssocAction
  3
ObjectDBX Classes
 90
     1025
280
     0
281
     0
  0
CLASS
  1
ACDBASSOCARRAYACTIONBODY
  2
AcDbAssocArrayActionBody
  3
ObjectDBX Classes
 90
     1025
280
     0
281
     0
  0
CLASS
  1
ACDBASSOCVERTEXACTIONPARAM
  2
AcDbAssocVertexActionParam
  3
ObjectDBX Classes
 90
     1025
280
     0
281
     0
  0
CLASS
  1
ACDBASSOCDEPENDENCY
  2
AcDbAssocDependency
  3
ObjectDBX Classes
 90
     1025
280
     0
281
     0
  0
CLASS
  1
ACDBASSOCARRAYRECTANGULARPARAMETERS
  2
AcDbAssocArrayRectangularParameters
  3
ObjectDBX Classes
 90
    33793
280
     0
281
     0
  0
ENDSEC
  0
SECTION
  2
TABLES
  0
TABLE
  2
VPORT
  5
5A4
102
{ACAD_XDICTIONARY
360
1186
102
}
330
0
100
AcDbSymbolTable
 70
     1
  0
VPORT
  5
1112
330
5A4
100
AcDbSymbolTableRecord
100
AcDbViewportTableRecord
  2
*Active
 70
     0
 10
0.0
 20
0.0
 11
1.0
 21
1.0
 12
1394.755580511535
 22
986.6345562478199
 13
0.0
 23
0.0
 14
10.0
 24
10.0
 15
10.0
 25
10.0
 16
0.0
 26
0.0
 36
1.0
 17
0.0
 27
0.0
 37
0.0
 40
1992.427065044141
 41
3.006482982171799
 42
50.0
 43
0.0
 44
0.0
 50
0.0
 51
0.0
 71
     0
 72
   100
 73
     1
 74
     3
 75
     0
 76
     0
 77
     0
 78
     0
281
     0
 65
     1
110
0.0
120
0.0
130
0.0
111
1.0
121
0.0
131
0.0
112
0.0
122
1.0
132
0.0
 79
     0
146
0.0
1001
ACAD_NAV_VCDISPLAY
1070
     3
  0
ENDTAB
  0
TABLE
  2
LTYPE
  5
59F
330
0
100
AcDbSymbolTable
 70
     7
  0
LTYPE
  5
5A0
330
59F
100
AcDbSymbolTableRecord
100
AcDbLinetypeTableRecord
  2
ByBlock
 70
     0
  3

 72
    65
 73
     0
 40
0.0
  0
LTYPE
  5
5A1
330
59F
100
AcDbSymbolTableRecord
100
AcDbLinetypeTableRecord
  2
ByLayer
 70
     0
  3

 72
    65
 73
     0
 40
0.0
  0
LTYPE
  5
8
330
59F
100
AcDbSymbolTableRecord
100
AcDbLinetypeTableRecord
  2
Continuous
 70
     0
  3
Solid line
 72
    65
 73
     0
 40
0.0
  0
LTYPE
  5
22F
330
59F
100
AcDbSymbolTableRecord
100
AcDbLinetypeTableRecord
  2
HIDDEN
 70
     0
  3
Hidden __ __ __ __ __ __ __ __ __ __ __ __ __ _
 72
    65
 73
     2
 40
9.524999999999998
 49
6.349999999999999
 74
     0
 49
-3.174999999999999
 74
     0
  0
LTYPE
  5
1D2
330
59F
100
AcDbSymbolTableRecord
100
AcDbLinetypeTableRecord
  2
CENTER
 70
     0
  3
------ - ------ - ----
 72
    65
 73
     4
 40
10.0
 49
6.25
 74
     0
 49
-1.25
 74
     0
 49
1.25
 74
     0
 49
-1.25
 74
     0
  0
ENDTAB
  0
TABLE
  2
LAYER
  5
59C
102
{ACAD_XDICTIONARY
360
12C6
102
}
330
0
100
AcDbSymbolTable
 70
    10
  0
LAYER
  5
64
102
{ACAD_XDICTIONARY
360
1169
102
}
330
59C
100
AcDbSymbolTableRecord
100
AcDbLayerTableRecord
  2
0
 70
     0
 62
     7
  6
Continuous
370
    -3
390
5
  0
LAYER
  5
6A
102
{ACAD_XDICTIONARY
360
116B
102
}
330
59C
100
AcDbSymbolTableRecord
100
AcDbLayerTableRecord
  2
本体
 70
     0
 62
     7
  6
Continuous
370
    13
390
5
  0
LAYER
  5
4
102
{ACAD_XDICTIONARY
360
116D
102
}
330
59C
100
AcDbSymbolTableRecord
100
AcDbLayerTableRecord
  2
寸法線
 70
     0
 62
     2
  6
Continuous
370
     9
390
5
  0
LAYER
  5
67
102
{ACAD_XDICTIONARY
360
1171
102
}
330
59C
100
AcDbSymbolTableRecord
100
AcDbLayerTableRecord
  2
エンボス
 70
     0
 62
     4
  6
Continuous
370
     5
390
5
  0
LAYER
  5
11
102
{ACAD_XDICTIONARY
360
1173
102
}
330
59C
100
AcDbSymbolTableRecord
100
AcDbLayerTableRecord
  2
外枠
 70
     0
 62
     7
  6
Continuous
370
    -3
390
5
  0
LAYER
  5
1EF
330
59C
100
AcDbSymbolTableRecord
100
AcDbLayerTableRecord
  2
Defpoints
 70
     0
 62
     7
  6
Continuous
290
     0
370
    -3
390
5
  0
LAYER
  5
1061
102
{ACAD_XDICTIONARY
360
1177
102
}
330
59C
100
AcDbSymbolTableRecord
100
AcDbLayerTableRecord
  2
嵩上断面
 70
     0
 62
   112
  6
Continuous
370
    13
390
5
  0
LAYER
  5
107B
102
{ACAD_XDICTIONARY
360
1179
102
}
330
59C
100
AcDbSymbolTableRecord
100
AcDbLayerTableRecord
  2
中心線
 70
     0
 62
     1
  6
CENTER
370
     5
390
5
  0
ENDTAB
  0
TABLE
  2
STYLE
  5
59D
330
0
100
AcDbSymbolTable
 70
     4
  0
STYLE
  5
9
330
59D
100
AcDbSymbolTableRecord
100
AcDbTextStyleTableRecord
  2
Standard
 70
     0
 40
0.0
 41
1.0
 50
0.0
 71
     0
 42
2.5
  3

  4

1001
ACAD
1000
MS Gothic
1071
    32817
  0
ENDTAB
  0
TABLE
  2
VIEW
  5
5A2
330
0
100
AcDbSymbolTable
 70
     0
  0
ENDTAB
  0
TABLE
  2
UCS
  5
5A3
330
0
100
AcDbSymbolTable
 70
     0
  0
ENDTAB
  0
TABLE
  2
APPID
  5
5A6
330
0
100
AcDbSymbolTable
 70
     5
  0
APPID
  5
A
330
5A6
100
AcDbSymbolTableRecord
100
AcDbRegAppTableRecord
  2
ACAD
 70
     0
  0
APPID
  5
117B
330
5A6
100
AcDbSymbolTableRecord
100
AcDbRegAppTableRecord
  2
ACAD_NAV_VCDISPLAY
 70
     0
  0
APPID
  5
11BC
330
5A6
100
AcDbSymbolTableRecord
100
AcDbRegAppTableRecord
  2
ACAD_MLEADERVER
 70
     0
  0
APPID
  5
11D5
330
5A6
100
AcDbSymbolTableRecord
100
AcDbRegAppTableRecord
  2
ACAD_EXEMPT_FROM_CAD_STANDARDS
 70
     0
  0
APPID
  5
12CB
330
5A6
100
AcDbSymbolTableRecord
100
AcDbRegAppTableRecord
  2
AcLayerTools
 70
     0
  0
ENDTAB
  0
TABLE
  2
DIMSTYLE
  5
5A7
330
0
100
AcDbSymbolTable
 70
     3
100
AcDbDimStyleTable
 71
     1
340
1E1
  0
DIMSTYLE
105
1E1
102
{ACAD_REACTORS
330
57D
330
1E4
330
1F4
330
20E
330
21B
330
231
330
23E
330
5C1
330
D3A
102
}
330
5A7
100
AcDbSymbolTableRecord
100
AcDbDimStyleTableRecord
  2
ISO-25
 70
     0
 40
10.0
 41
1.5
 42
2.0
 43
3.75
 44
1.5
 73
     0
 74
     0
 77
     1
 78
     8
140
3.0
141
2.5
143
0.03937007874016
147
0.5
171
     3
172
     1
271
     2
272
     2
274
     3
283
     0
284
     8
289
     0
340
9
341
1DA
342
1DA
  0
DIMSTYLE
105
1064
330
5A7
100
AcDbSymbolTableRecord
100
AcDbDimStyleTableRecord
  2
Standard
 70
     0
340
9
  0
ENDTAB
  0
TABLE
  2
BLOCK_RECORD
  5
1
330
0
100
AcDbSymbolTable
 70
    34
  0
BLOCK_RECORD
  5
2
102
{ACAD_XDICTIONARY
360
58A
102
}
330
1
100
AcDbSymbolTableRecord
100
AcDbBlockTableRecord
  2
*Model_Space
340
58E
  0
BLOCK_RECORD
  5
590
102
{ACAD_XDICTIONARY
360
591
102
}
330
1
100
AcDbSymbolTableRecord
100
AcDbBlockTableRecord
  2
*Paper_Space
340
595
  0
BLOCK_RECORD
  5
596
102
{ACAD_XDICTIONARY
360
597
102
}
330
1
100
AcDbSymbolTableRecord
100
AcDbBlockTableRecord
  2
*Paper_Space0
340
59B
  0
BLOCK_RECORD
  5
1DA
330
1
100
AcDbSymbolTableRecord
100
AcDbBlockTableRecord
  2
_Open30
340
0
102
{BLKREFS
331
108B
331
108C
331
1094
331
1095
331
109D
331
109E
331
10A6
331
10A7
331
10B1
331
10B2
331
10BA
331
10BB
331
10DB
331
10DC
331
10EF
331
10F0
331
10F8
331
10F9
102
}
  0
BLOCK_RECORD
  5
65
330
1
100
AcDbSymbolTableRecord
100
AcDbBlockTableRecord
  2
GIB詳細
340
0
102
{BLKREFS
331
63
102
}
1001
ACAD
1000
DesignCenter Data
1002
{
1070
     1
1070
     4
1002
}
  0
BLOCK_RECORD
  5
3B6
330
1
100
AcDbSymbolTableRecord
100
AcDbBlockTableRecord
  2
IB7x4x50
340
0
102
{BLKREFS
331
3C9
331
44C
331
12CF
331
12E2
102
}
  0
BLOCK_RECORD
  5
1CF
330
1
100
AcDbSymbolTableRecord
100
AcDbBlockTableRecord
  2
TB8
340
0
102
{BLKREFS
331
5BE
331
5BF
331
5C0
331
3B2
331
1CE
331
1D7
331
1D8
102
}
1001
ACAD
1000
DesignCenter Data
1002
{
1070
     1
1070
     4
1002
}
  0
BLOCK_RECORD
  5
36D
330
1
100
AcDbSymbolTableRecord
100
AcDbBlockTableRecord
  2
7mm部材エンボス4
340
0
102
{BLKREFS
331
131B
331
131C
331
1357
331
1358
331
1398
331
1399
102
}
1001
ACAD
1000
DesignCenter Data
1002
{
1070
     1
1070
     4
1002
}
  0
BLOCK_RECORD
  5
57E
330
1
100
AcDbSymbolTableRecord
100
AcDbBlockTableRecord
  2
*D8
340
0
  0
BLOCK_RECORD
  5
1E5
330
1
100
AcDbSymbolTableRecord
100
AcDbBlockTableRecord
  2
*D9
340
0
  0
BLOCK_RECORD
  5
1F5
330
1
100
AcDbSymbolTableRecord
100
AcDbBlockTableRecord
  2
*D10
340
0
  0
BLOCK_RECORD
  5
20F
330
1
100
AcDbSymbolTableRecord
100
AcDbBlockTableRecord
  2
*D11
340
0
  0
BLOCK_RECORD
  5
21C
330
1
100
AcDbSymbolTableRecord
100
AcDbBlockTableRecord
  2
*D12
340
0
  0
BLOCK_RECORD
  5
232
330
1
100
AcDbSymbolTableRecord
100
AcDbBlockTableRecord
  2
*D13
340
0
  0
BLOCK_RECORD
  5
23F
330
1
100
AcDbSymbolTableRecord
100
AcDbBlockTableRecord
  2
*D14
340
0
  0
BLOCK_RECORD
  5
5C2
330
1
100
AcDbSymbolTableRecord
100
AcDbBlockTableRecord
  2
*D15
340
0
  0
BLOCK_RECORD
  5
D3B
330
1
100
AcDbSymbolTableRecord
100
AcDbBlockTableRecord
  2
*D16
340
0
  0
BLOCK_RECORD
  5
1065
330
1
100
AcDbSymbolTableRecord
100
AcDbBlockTableRecord
  2
P-H45
340
0
102
{BLKREFS
331
1073
331
1074
102
}
  0
BLOCK_RECORD
  5
11D6
102
{ACAD_XDICTIONARY
360
11DA
102
}
330
1
100
AcDbSymbolTableRecord
100
AcDbBlockTableRecord
  2
鎌下
340
0
102
{BLKREFS
331
11DD
102
}
1001
ACAD
1000
DesignCenter Data
1002
{
1070
     1
1070
     4
1002
}
  0
BLOCK_RECORD
  5
12D7
102
{ACAD_REACTORS
330
12ED
102
}
330
1
100
AcDbSymbolTableRecord
100
AcDbBlockTableRecord
  2
*U30
340
0
102
{BLKREFS
331
12F1
331
12F2
331
12F3
331
12F4
331
12F5
331
12F6
331
12F7
331
12F8
331
12F9
331
12FA
331
12FB
331
12FC
331
12FD
331
12FE
331
12FF
331
1300
331
1301
331
1302
331
1303
331
1304
331
1305
331
1306
331
1307
331
1308
331
1309
331
130A
102
}
  0
BLOCK_RECORD
  5
12DA
102
{ACAD_XDICTIONARY
360
1487
102
}
102
{ACAD_REACTORS
330
12EC
102
}
330
1
100
AcDbSymbolTableRecord
100
AcDbBlockTableRecord
  2
*U31
340
0
102
{BLKREFS
331
12DD
102
}
  0
BLOCK_RECORD
  5
138A
102
{ACAD_REACTORS
330
13D4
102
}
330
1
100
AcDbSymbolTableRecord
100
AcDbBlockTableRecord
  2
*U32
340
0
102
{BLKREFS
331
13D8
331
13D9
331
13DA
331
13DB
331
13DC
331
13DD
331
13DE
331
13DF
331
13E0
331
13E1
331
13E2
331
13E3
331
13E4
331
13E5
331
13E6
331
13E7
331
13E8
331
13E9
331
13EA
331
13EB
331
13EC
331
13ED
331
13EE
331
13EF
331
13F0
331
13F1
331
13F2
102
}
  0
BLOCK_RECORD
  5
138D
102
{ACAD_XDICTIONARY
360
148A
102
}
102
{ACAD_REACTORS
330
13D3
102
}
330
1
100
AcDbSymbolTableRecord
100
AcDbBlockTableRecord
  2
*U33
340
0
102
{BLKREFS
331
1390
102
}
  0
ENDTAB
  0
ENDSEC
  0
SECTION
  2
BLOCKS
  0
BLOCK
  5
58C
330
2
100
AcDbEntity
  8
0
100
AcDbBlockBegin
  2
*Model_Space
 70
     0
 10
0.0
 20
0.0
 30
0.0
  3
*Model_Space
  1

  0
ENDBLK
  5
58D
330
2
100
AcDbEntity
  8
0
100
AcDbBlockEnd
  0
BLOCK
  5
593
330
590
100
AcDbEntity
 67
     1
  8
0
100
AcDbBlockBegin
  2
*Paper_Space
 70
     0
 10
0.0
 20
0.0
 30
0.0
  3
*Paper_Space
  1

  0
ENDBLK
  5
594
330
590
100
AcDbEntity
 67
     1
  8
0
100
AcDbBlockEnd
  0
BLOCK
  5
599
330
596
100
AcDbEntity
 67
     1
  8
0
100
AcDbBlockBegin
  2
*Paper_Space0
 70
     0
 10
0.0
 20
0.0
 30
0.0
  3
*Paper_Space0
  1

  0
ENDBLK
  5
59A
330
596
100
AcDbEntity
 67
     1
  8
0
100
AcDbBlockEnd
  0
BLOCK
  5
1DE
330
1DA
100
AcDbEntity
  8
0
100
AcDbBlockBegin
  2
_Open30
 70
     0
 10
0.0
 20
0.0
 30
0.0
  3
_Open30
  1

  0
LINE
  5
1DB
330
1DA
100
AcDbEntity
  8
0
  6
ByBlock
 62
     0
370
    -2
100
AcDbLine
 10
-1.0
 20
0.26794919
 30
0.0
 11
0.0
 21
0.0
 31
0.0
  0
LINE
  5
1DC
330
1DA
100
AcDbEntity
  8
0
  6
ByBlock
 62
     0
370
    -2
100
AcDbLine
 10
0.0
 20
0.0
 30
0.0
 11
-1.0
 21
-0.26794919
 31
0.0
  0
LINE
  5
1DD
330
1DA
100
AcDbEntity
  8
0
  6
ByBlock
 62
     0
370
    -2
100
AcDbLine
 10
0.0
 20
0.0
 30
0.0
 11
-1.0
 21
0.0
 31
0.0
  0
ENDBLK
  5
1DF
330
1DA
100
AcDbEntity
  8
0
100
AcDbBlockEnd
  0
BLOCK
  5
A9
330
65
100
AcDbEntity
  8
0
100
AcDbBlockBegin
  2
GIB詳細
 70
     0
 10
0.0
 20
0.0
 30
0.0
  3
GIB詳細
  1

  0
LINE
  5
66
330
65
100
AcDbEntity
  8
エンボス
  6
Continuous
370
     0
100
AcDbLine
 10
26.66967878750091
 20
-77.78386766485943
 30
0.0
 11
26.66967878750109
 21
-100.7518676648589
 31
0.0
  0
LINE
  5
68
330
65
100
AcDbEntity
  8
エンボス
  6
Continuous
370
     0
100
AcDbLine
 10
20.62167878750051
 20
-97.43986766485926
 30
0.0
 11
20.62167878750057
 21
-100.7518676648589
 31
0.0
  0
LINE
  5
69
330
65
100
AcDbEntity
  8
本体
370
     0
100
AcDbLine
 10
37.90167878750151
 20
79.24813233514118
 30
0.0
 11
37.90167878750151
 21
-100.7518676648589
 31
0.0
  0
LINE
  5
6B
330
65
100
AcDbEntity
  8
エンボス
370
     0
100
AcDbLine
 10
26.66967878750091
 20
38.64013233514075
 30
0.0
 11
26.66967878750091
 21
12.93613233514055
 31
0.0
  0
LINE
  5
6C
330
65
100
AcDbEntity
  8
エンボス
370
     0
100
AcDbLine
 10
26.66967878750091
 20
40.15213233514034
 30
0.0
 11
26.66967878750091
 21
12.93613233514055
 31
0.0
  0
LINE
  5
6D
330
65
100
AcDbEntity
  8
エンボス
370
     0
100
AcDbLine
 10
20.62167878750051
 20
59.80813233514115
 30
0.0
 11
20.62167878750051
 21
32.59213233514036
 31
0.0
  0
LINE
  5
6E
330
65
100
AcDbEntity
  8
エンボス
  6
Continuous
370
     0
100
AcDbLine
 10
8.525678787500737
 20
26.54413233514095
 30
0.0
 11
20.62167878750051
 21
20.49613233514056
 31
0.0
  0
LINE
  5
6F
330
65
100
AcDbEntity
  8
エンボス
  6
Continuous
370
     0
100
AcDbLine
 10
8.525678787500737
 20
26.54413233514095
 30
0.0
 11
20.62167878750051
 21
32.59213233514036
 31
0.0
  0
LINE
  5
70
330
65
100
AcDbEntity
  8
エンボス
  6
Continuous
370
     0
100
AcDbLine
 10
8.525678787500737
 20
-91.39186766485886
 30
0.0
 11
20.62167878750051
 21
-85.34386766485942
 31
0.0
  0
LINE
  5
71
330
65
100
AcDbEntity
  8
エンボス
  6
Continuous
370
     0
100
AcDbLine
 10
8.525678787500737
 20
-91.39186766485886
 30
0.0
 11
20.62167878750051
 21
-97.43986766485926
 31
0.0
  0
LINE
  5
72
330
65
100
AcDbEntity
  8
エンボス
  6
Continuous
370
     0
100
AcDbLine
 10
8.525678787500737
 20
-52.07986766485925
 30
0.0
 11
20.62167878750051
 21
-58.12786766485965
 31
0.0
  0
LINE
  5
73
330
65
100
AcDbEntity
  8
エンボス
  6
Continuous
370
     0
100
AcDbLine
 10
8.525678787500737
 20
-52.07986766485925
 30
0.0
 11
20.62167878750051
 21
-46.03186766485886
 31
0.0
  0
LINE
  5
74
330
65
100
AcDbEntity
  8
エンボス
  6
Continuous
370
     0
100
AcDbLine
 10
8.525678787500737
 20
-12.76786766485964
 30
0.0
 11
20.62167878750051
 21
-6.719867664859251
 31
0.0
  0
LINE
  5
75
330
65
100
AcDbEntity
  8
エンボス
  6
Continuous
370
     0
100
AcDbLine
 10
8.525678787500737
 20
-12.76786766485964
 30
0.0
 11
20.62167878750051
 21
-18.81586766485905
 31
0.0
  0
LINE
  5
76
330
65
100
AcDbEntity
  8
エンボス
  6
Continuous
370
     0
100
AcDbLine
 10
38.76567878750075
 20
6.888132335141136
 30
0.0
 11
26.66967878750091
 21
12.93613233514055
 31
0.0
  0
LINE
  5
77
330
65
100
AcDbEntity
  8
エンボス
  6
Continuous
370
     0
100
AcDbLine
 10
38.76567878750075
 20
-32.42386766485945
 30
0.0
 11
26.66967878750091
 21
-26.37586766485906
 31
0.0
  0
LINE
  5
78
330
65
100
AcDbEntity
  8
エンボス
  6
Continuous
370
     0
100
AcDbLine
 10
38.76567878750075
 20
-32.42386766485945
 30
0.0
 11
26.66967878750091
 21
-26.37586766485906
 31
0.0
  0
LINE
  5
79
330
65
100
AcDbEntity
  8
エンボス
  6
Continuous
370
     0
100
AcDbLine
 10
38.76567878750075
 20
-71.73586766485906
 30
0.0
 11
26.66967878750091
 21
-77.78386766485943
 31
0.0
  0
LINE
  5
7A
330
65
100
AcDbEntity
  8
エンボス
  6
Continuous
370
     0
100
AcDbLine
 10
38.76567878750075
 20
-71.73586766485906
 30
0.0
 11
26.66967878750091
 21
-77.78386766485943
 31
0.0
  0
LINE
  5
7B
330
65
100
AcDbEntity
  8
エンボス
  6
Continuous
370
     0
100
AcDbLine
 10
38.76567878750075
 20
-71.73586766485906
 30
0.0
 11
26.66967878750091
 21
-77.78386766485943
 31
0.0
  0
LINE
  5
7C
330
65
100
AcDbEntity
  8
エンボス
  6
Continuous
370
     0
100
AcDbLine
 10
38.76567878750075
 20
-32.42386766485945
 30
0.0
 11
26.66967878750091
 21
-38.47186766485886
 31
0.0
  0
LINE
  5
7D
330
65
100
AcDbEntity
  8
エンボス
  6
Continuous
370
     0
100
AcDbLine
 10
38.76567878750075
 20
-32.42386766485945
 30
0.0
 11
26.66967878750091
 21
-38.47186766485886
 31
0.0
  0
LINE
  5
7E
330
65
100
AcDbEntity
  8
エンボス
  6
Continuous
370
     0
100
AcDbLine
 10
38.76567878750075
 20
-71.73586766485906
 30
0.0
 11
26.66967878750091
 21
-65.68786766485965
 31
0.0
  0
LINE
  5
7F
330
65
100
AcDbEntity
  8
エンボス
  6
Continuous
370
     0
100
AcDbLine
 10
38.76567878750075
 20
-71.73586766485906
 30
0.0
 11
26.66967878750091
 21
-65.68786766485965
 31
0.0
  0
LINE
  5
80
330
65
100
AcDbEntity
  8
エンボス
  6
Continuous
370
     0
100
AcDbLine
 10
38.76567878750075
 20
-71.73586766485906
 30
0.0
 11
26.66967878750091
 21
-65.68786766485965
 31
0.0
  0
LINE
  5
81
330
65
100
AcDbEntity
  8
エンボス
  6
Continuous
370
     0
100
AcDbLine
 10
26.66967878750091
 20
-38.47186766485886
 30
0.0
 11
26.66967878750091
 21
-65.68786766485965
 31
0.0
  0
LINE
  5
82
330
65
100
AcDbEntity
  8
エンボス
  6
Continuous
370
     0
100
AcDbLine
 10
26.66967878750091
 20
0.8401323351407512
 30
0.0
 11
26.66967878750091
 21
-26.37586766485906
 31
0.0
  0
LINE
  5
83
330
65
100
AcDbEntity
  8
エンボス
  6
Continuous
370
     0
100
AcDbLine
 10
20.62167878750051
 20
-18.81586766485905
 30
0.0
 11
20.62167878750051
 21
-46.03186766485886
 31
0.0
  0
LINE
  5
84
330
65
100
AcDbEntity
  8
エンボス
  6
Continuous
370
     0
100
AcDbLine
 10
20.62167878750051
 20
-58.12786766485965
 30
0.0
 11
20.62167878750051
 21
-85.34386766485942
 31
0.0
  0
LINE
  5
85
330
65
100
AcDbEntity
  8
エンボス
  6
Continuous
370
     0
100
AcDbLine
 10
20.62167878750051
 20
20.49613233514056
 30
0.0
 11
20.62167878750051
 21
-6.719867664859251
 31
0.0
  0
LINE
  5
86
330
65
100
AcDbEntity
  8
エンボス
  6
Continuous
370
     0
100
AcDbLine
 10
38.76567878750075
 20
6.888132335141136
 30
0.0
 11
26.66967878750091
 21
0.8401323351407512
 31
0.0
  0
LINE
  5
87
330
65
100
AcDbEntity
  8
エンボス
  6
Continuous
370
     0
100
AcDbLine
 10
8.525678787500737
 20
73.20013233514075
 30
0.0
 11
20.62167878750051
 21
79.24813233514118
 31
0.0
  0
LINE
  5
88
330
65
100
AcDbEntity
  8
エンボス
  6
Continuous
370
     0
100
AcDbLine
 10
8.525678787500737
 20
73.20013233514075
 30
0.0
 11
20.62167878750051
 21
59.80813233514115
 31
0.0
  0
LINE
  5
89
330
65
100
AcDbEntity
  8
エンボス
370
     0
100
AcDbLine
 10
26.66967878750091
 20
79.24813233514118
 30
0.0
 11
26.66967878750091
 21
52.24813233514115
 31
0.0
  0
LINE
  5
8A
330
65
100
AcDbEntity
  8
エンボス
  6
Continuous
370
     0
100
AcDbLine
 10
38.76567878750075
 20
46.20013233514074
 30
0.0
 11
26.66967878750091
 21
52.24813233514115
 31
0.0
  0
LINE
  5
8B
330
65
100
AcDbEntity
  8
エンボス
  6
Continuous
370
     0
100
AcDbLine
 10
38.76567878750075
 20
46.20013233514074
 30
0.0
 11
26.66967878750091
 21
40.15213233514034
 31
0.0
  0
LINE
  5
8C
330
65
100
AcDbEntity
  8
本体
370
     0
100
AcDbLine
 10
7.6616787875015
 20
79.24813233514118
 30
0.0
 11
7.6616787875015
 21
-100.7518676648589
 31
0.0
  0
MTEXT
  5
8D
330
65
100
AcDbEntity
  8
本体
  6
Continuous
370
     0
100
AcDbMText
 10
-96.91195000051369
 20
158.2682376554469
 30
0.0
 40
30.0
 41
252.8401
 71
     1
 72
     5
  1
GIB形状詳細
 73
     1
 44
1.0
1001
ACAD
1000
MTEXTBEGIN
1070
    73
1070
     1
1070
    44
1040
1.0
1070
    74
1070
     0
1000
MTEXTEND
  0
MTEXT
  5
8E
330
65
100
AcDbEntity
  8
寸法線
  6
Continuous
100
AcDbMText
 10
-147.3028652710904
 20
1772.180188660315
 30
0.0
 40
20.0
 41
17.2146
 71
     7
 72
     1
  1

 73
     1
 44
1.0
1001
ACAD
1000
MTEXTBEGIN
1070
    73
1070
     1
1070
    44
1040
1.0
1070
    74
1070
     0
1000
MTEXTEND
  0
MTEXT
  5
8F
330
65
100
AcDbEntity
  8
寸法線
  6
Continuous
100
AcDbMText
 10
125.7829597280838
 20
3773.683923873501
 30
0.0
 40
30.0
 41
17.2146
 71
     7
 72
     1
  1

 73
     1
 44
1.0
1001
ACAD
1000
MTEXTBEGIN
1070
    73
1070
     1
1070
    44
1040
1.0
1070
    74
1070
     0
1000
MTEXTEND
  0
MTEXT
  5
90
330
65
100
AcDbEntity
  8
寸法線
  6
Continuous
100
AcDbMText
 10
-609.4758544225992
 20
3746.116575025764
 30
0.0
 40
20.0
 41
17.2146
 71
     7
 72
     1
  1

 73
     1
 44
1.0
1001
ACAD
1000
MTEXTBEGIN
1070
    73
1070
     1
1070
    44
1040
1.0
1070
    74
1070
     0
1000
MTEXTEND
  0
MTEXT
  5
91
330
65
100
AcDbEntity
  8
寸法線
  6
Continuous
100
AcDbMText
 10
-147.3028652710904
 20
1754.680188660315
 30
0.0
 40
20.0
 41
17.2146
 71
     7
 72
     1
  1

 73
     1
 44
1.0
1001
ACAD
1000
MTEXTBEGIN
1070
    73
1070
     1
1070
    44
1040
1.0
1070
    74
1070
     0
1000
MTEXTEND
  0
MTEXT
  5
92
330
65
100
AcDbEntity
  8
寸法線
  6
Continuous
100
AcDbMText
 10
125.7829597280838
 20
3756.183923873501
 30
0.0
 40
30.0
 41
17.2146
 71
     7
 72
     1
  1

 73
     1
 44
1.0
1001
ACAD
1000
MTEXTBEGIN
1070
    73
1070
     1
1070
    44
1040
1.0
1070
    74
1070
     0
1000
MTEXTEND
  0
MTEXT
  5
93
330
65
100
AcDbEntity
  8
寸法線
  6
Continuous
100
AcDbMText
 10
-609.4758544225992
 20
3728.616575025763
 30
0.0
 40
20.0
 41
17.2146
 71
     7
 72
     1
  1

 73
     1
 44
1.0
1001
ACAD
1000
MTEXTBEGIN
1070
    73
1070
     1
1070
    44
1040
1.0
1070
    74
1070
     0
1000
MTEXTEND
  0
MTEXT
  5
94
330
65
100
AcDbEntity
  8
寸法線
  6
Continuous
100
AcDbMText
 10
-147.3028652710904
 20
1704.680188660315
 30
0.0
 40
20.0
 41
17.2146
 71
     7
 72
     1
  1

 73
     1
 44
1.0
1001
ACAD
1000
MTEXTBEGIN
1070
    73
1070
     1
1070
    44
1040
1.0
1070
    74
1070
     0
1000
MTEXTEND
  0
MTEXT
  5
95
330
65
100
AcDbEntity
  8
寸法線
  6
Continuous
100
AcDbMText
 10
125.7829597280838
 20
3706.183923873501
 30
0.0
 40
30.0
 41
17.2146
 71
     7
 72
     1
  1

 73
     1
 44
1.0
1001
ACAD
1000
MTEXTBEGIN
1070
    73
1070
     1
1070
    44
1040
1.0
1070
    74
1070
     0
1000
MTEXTEND
  0
MTEXT
  5
96
330
65
100
AcDbEntity
  8
寸法線
  6
Continuous
100
AcDbMText
 10
-609.4758544225992
 20
3678.616575025763
 30
0.0
 40
20.0
 41
17.2146
 71
     7
 72
     1
  1

 73
     1
 44
1.0
1001
ACAD
1000
MTEXTBEGIN
1070
    73
1070
     1
1070
    44
1040
1.0
1070
    74
1070
     0
1000
MTEXTEND
  0
MTEXT
  5
97
330
65
100
AcDbEntity
  8
寸法線
  6
Continuous
100
AcDbMText
 10
-147.3028652710904
 20
1654.680188660315
 30
0.0
 40
20.0
 41
17.2146
 71
     7
 72
     1
  1

 73
     1
 44
1.0
1001
ACAD
1000
MTEXTBEGIN
1070
    73
1070
     1
1070
    44
1040
1.0
1070
    74
1070
     0
1000
MTEXTEND
  0
MTEXT
  5
98
330
65
100
AcDbEntity
  8
寸法線
  6
Continuous
100
AcDbMText
 10
125.7829597280838
 20
3656.183923873501
 30
0.0
 40
30.0
 41
17.2146
 71
     7
 72
     1
  1

 73
     1
 44
1.0
1001
ACAD
1000
MTEXTBEGIN
1070
    73
1070
     1
1070
    44
1040
1.0
1070
    74
1070
     0
1000
MTEXTEND
  0
MTEXT
  5
99
330
65
100
AcDbEntity
  8
寸法線
  6
Continuous
100
AcDbMText
 10
-609.4758544225992
 20
3628.616575025763
 30
0.0
 40
20.0
 41
17.2146
 71
     7
 72
     1
  1

 73
     1
 44
1.0
1001
ACAD
1000
MTEXTBEGIN
1070
    73
1070
     1
1070
    44
1040
1.0
1070
    74
1070
     0
1000
MTEXTEND
  0
MTEXT
  5
9A
330
65
100
AcDbEntity
  8
寸法線
  6
Continuous
100
AcDbMText
 10
-147.3028652710904
 20
1604.680188660315
 30
0.0
 40
20.0
 41
17.2146
 71
     7
 72
     1
  1

 73
     1
 44
1.0
1001
ACAD
1000
MTEXTBEGIN
1070
    73
1070
     1
1070
    44
1040
1.0
1070
    74
1070
     0
1000
MTEXTEND
  0
MTEXT
  5
9B
330
65
100
AcDbEntity
  8
寸法線
  6
Continuous
100
AcDbMText
 10
125.7829597280838
 20
3606.183923873501
 30
0.0
 40
30.0
 41
17.2146
 71
     7
 72
     1
  1

 73
     1
 44
1.0
1001
ACAD
1000
MTEXTBEGIN
1070
    73
1070
     1
1070
    44
1040
1.0
1070
    74
1070
     0
1000
MTEXTEND
  0
MTEXT
  5
9C
330
65
100
AcDbEntity
  8
寸法線
  6
Continuous
100
AcDbMText
 10
-609.4758544225992
 20
3578.616575025763
 30
0.0
 40
20.0
 41
17.2146
 71
     7
 72
     1
  1

 73
     1
 44
1.0
1001
ACAD
1000
MTEXTBEGIN
1070
    73
1070
     1
1070
    44
1040
1.0
1070
    74
1070
     0
1000
MTEXTEND
  0
MTEXT
  5
9D
330
65
100
AcDbEntity
  8
寸法線
  6
Continuous
100
AcDbMText
 10
-147.3028652710904
 20
1554.680188660315
 30
0.0
 40
20.0
 41
17.2146
 71
     7
 72
     1
  1

 73
     1
 44
1.0
1001
ACAD
1000
MTEXTBEGIN
1070
    73
1070
     1
1070
    44
1040
1.0
1070
    74
1070
     0
1000
MTEXTEND
  0
MTEXT
  5
9E
330
65
100
AcDbEntity
  8
寸法線
  6
Continuous
100
AcDbMText
 10
125.7829597280838
 20
3556.183923873501
 30
0.0
 40
30.0
 41
17.2146
 71
     7
 72
     1
  1

 73
     1
 44
1.0
1001
ACAD
1000
MTEXTBEGIN
1070
    73
1070
     1
1070
    44
1040
1.0
1070
    74
1070
     0
1000
MTEXTEND
  0
MTEXT
  5
9F
330
65
100
AcDbEntity
  8
寸法線
  6
Continuous
100
AcDbMText
 10
-609.4758544225992
 20
3528.616575025763
 30
0.0
 40
20.0
 41
17.2146
 71
     7
 72
     1
  1

 73
     1
 44
1.0
1001
ACAD
1000
MTEXTBEGIN
1070
    73
1070
     1
1070
    44
1040
1.0
1070
    74
1070
     0
1000
MTEXTEND
  0
MTEXT
  5
A0
330
65
100
AcDbEntity
  8
寸法線
  6
Continuous
100
AcDbMText
 10
-147.3028652710904
 20
1504.680188660315
 30
0.0
 40
20.0
 41
17.2146
 71
     7
 72
     1
  1

 73
     1
 44
1.0
1001
ACAD
1000
MTEXTBEGIN
1070
    73
1070
     1
1070
    44
1040
1.0
1070
    74
1070
     0
1000
MTEXTEND
  0
MTEXT
  5
A1
330
65
100
AcDbEntity
  8
寸法線
  6
Continuous
100
AcDbMText
 10
125.7829597280838
 20
3506.183923873501
 30
0.0
 40
30.0
 41
17.2146
 71
     7
 72
     1
  1

 73
     1
 44
1.0
1001
ACAD
1000
MTEXTBEGIN
1070
    73
1070
     1
1070
    44
1040
1.0
1070
    74
1070
     0
1000
MTEXTEND
  0
MTEXT
  5
A2
330
65
100
AcDbEntity
  8
寸法線
  6
Continuous
100
AcDbMText
 10
-609.4758544225992
 20
3478.616575025763
 30
0.0
 40
20.0
 41
17.2146
 71
     7
 72
     1
  1

 73
     1
 44
1.0
1001
ACAD
1000
MTEXTBEGIN
1070
    73
1070
     1
1070
    44
1040
1.0
1070
    74
1070
     0
1000
MTEXTEND
  0
MTEXT
  5
A3
330
65
100
AcDbEntity
  8
寸法線
  6
Continuous
100
AcDbMText
 10
-147.3028652710904
 20
1454.680188660315
 30
0.0
 40
20.0
 41
17.2146
 71
     7
 72
     1
  1

 73
     1
 44
1.0
1001
ACAD
1000
MTEXTBEGIN
1070
    73
1070
     1
1070
    44
1040
1.0
1070
    74
1070
     0
1000
MTEXTEND
  0
MTEXT
  5
A4
330
65
100
AcDbEntity
  8
寸法線
  6
Continuous
100
AcDbMText
 10
125.7829597280838
 20
3456.183923873501
 30
0.0
 40
30.0
 41
17.2146
 71
     7
 72
     1
  1

 73
     1
 44
1.0
1001
ACAD
1000
MTEXTBEGIN
1070
    73
1070
     1
1070
    44
1040
1.0
1070
    74
1070
     0
1000
MTEXTEND
  0
MTEXT
  5
A5
330
65
100
AcDbEntity
  8
寸法線
  6
Continuous
100
AcDbMText
 10
-609.4758544225992
 20
3428.616575025763
 30
0.0
 40
20.0
 41
17.2146
 71
     7
 72
     1
  1

 73
     1
 44
1.0
1001
ACAD
1000
MTEXTBEGIN
1070
    73
1070
     1
1070
    44
1040
1.0
1070
    74
1070
     0
1000
MTEXTEND
  0
LWPOLYLINE
  5
A6
330
65
100
AcDbEntity
  8
本体
  6
Continuous
100
AcDbPolyline
 90
        4
 70
     1
 43
0.0
 10
-139.6145379512674
 20
168.6157088891093
 10
194.701175139303
 20
168.6157088891093
 10
194.701175139303
 20
-117.6274822929807
 10
-139.6145379512674
 20
-117.6274822929807
  0
HATCH
  5
A7
330
65
100
AcDbEntity
  8
エンボス
  6
Continuous
100
AcDbHatch
 10
0.0
 20
0.0
 30
0.0
210
0.0
220
0.0
230
1.0
  2
ANSI31
 70
     0
 71
     0
 91
        1
 92
        7
 72
     0
 73
     1
 93
       34
 10
26.66967878750092
 20
40.15213233514035
 10
37.90167878750151
 20
45.76813233514108
 10
37.90167878750151
 20
46.63213233514041
 10
26.66967878750092
 20
52.24813233514115
 10
26.66967878750091
 20
79.24813233514116
 10
20.62167878750047
 20
79.24813233514116
 10
8.525678787500744
 20
73.20013233514076
 10
20.62167878750051
 20
59.80813233514115
 10
20.62167878750051
 20
32.59213233514036
 10
8.525678787500737
 20
26.54413233514094
 10
20.62167878750051
 20
20.49613233514056
 10
20.62167878750051
 20
-6.719867664859251
 10
8.525678787500737
 20
-12.76786766485964
 10
20.62167878750051
 20
-18.81586766485905
 10
20.62167878750051
 20
-46.03186766485887
 10
8.525678787500737
 20
-52.07986766485925
 10
20.62167878750051
 20
-58.12786766485965
 10
20.62167878750051
 20
-85.34386766485944
 10
8.525678787500737
 20
-91.39186766485885
 10
20.62167878750051
 20
-97.43986766485924
 10
20.62167878750057
 20
-100.7518676648588
 10
26.66967878750109
 20
-100.7518676648589
 10
26.66967878750091
 20
-77.78386766485944
 10
37.90167878750151
 20
-72.16786766485872
 10
37.90167878750151
 20
-71.30386766485948
 10
26.66967878750091
 20
-65.68786766485963
 10
26.66967878750091
 20
-38.47186766485886
 10
37.90167878750151
 20
-32.85586766485902
 10
37.90167878750151
 20
-31.99186766485979
 10
26.66967878750091
 20
-26.37586766485906
 10
26.66967878750091
 20
0.8401323351407494
 10
37.90167878750151
 20
6.456132335141482
 10
37.90167878750151
 20
7.320132335140719
 10
26.66967878750091
 20
12.93613233514056
 97
        0
 75
     0
 76
     1
 52
0.0
 41
0.5
 77
     0
 78
     1
 53
45.0
 43
8.525678787500737
 44
-12.76786766485964
 45
-1.122532015133643
 46
1.122532015133644
 79
     0
 47
0.5074757335946297
 98
        1
 10
23.11907519037527
 20
30.63971558616095
  0
MTEXT
  5
A8
330
65
100
AcDbEntity
  8
本体
  6
Continuous
100
AcDbMText
 10
-79.8847425412946
 20
110.9530386434795
 30
0.0
 40
15.0
 41
230.6957
 71
     1
 72
     5
  1
※塗りつぶし部分突起
 73
     1
 44
1.0
1001
ACAD
1000
MTEXTBEGIN
1070
    73
1070
     1
1070
    44
1040
1.0
1070
    74
1070
     0
1000
MTEXTEND
  0
ENDBLK
  5
AA
330
65
100
AcDbEntity
  8
0
100
AcDbBlockEnd
  0
BLOCK
  5
3C3
330
3B6
100
AcDbEntity
  8
0
100
AcDbBlockBegin
  2
IB7x4x50
 70
     0
 10
0.0
 20
0.0
 30
0.0
  3
IB7x4x50
  1

  0
LINE
  5
3B7
330
3B6
100
AcDbEntity
  8
0
100
AcDbLine
 10
0.0
 20
0.0
 30
0.0
 11
7.0
 21
0.0
 31
0.0
  0
LINE
  5
3B8
330
3B6
100
AcDbEntity
  8
0
100
AcDbLine
 10
0.0
 20
0.0
 30
0.0
 11
0.0
 21
-10.0
 31
0.0
  0
LINE
  5
3B9
330
3B6
100
AcDbEntity
  8
0
100
AcDbLine
 10
0.0
 20
-10.0
 30
0.0
 11
1.5
 21
-11.0
 31
0.0
  0
LINE
  5
3BA
330
3B6
100
AcDbEntity
  8
0
100
AcDbLine
 10
7.0
 20
0.0
 30
0.0
 11
7.0
 21
-10.0
 31
0.0
  0
LINE
  5
3BB
330
3B6
100
AcDbEntity
  8
0
100
AcDbLine
 10
7.0
 20
-10.0
 30
0.0
 11
5.5
 21
-11.0
 31
0.0
  0
LINE
  5
3BC
330
3B6
100
AcDbEntity
  8
0
100
AcDbLine
 10
0.0
 20
-50.0
 30
0.0
 11
7.0
 21
-50.0
 31
0.0
  0
LINE
  5
3BD
330
3B6
100
AcDbEntity
  8
0
100
AcDbLine
 10
0.0
 20
-50.0
 30
0.0
 11
0.0
 21
-40.0
 31
0.0
  0
LINE
  5
3BE
330
3B6
100
AcDbEntity
  8
0
100
AcDbLine
 10
0.0
 20
-40.0
 30
0.0
 11
1.5
 21
-39.0
 31
0.0
  0
LINE
  5
3BF
330
3B6
100
AcDbEntity
  8
0
100
AcDbLine
 10
7.0
 20
-50.0
 30
0.0
 11
7.0
 21
-40.0
 31
0.0
  0
LINE
  5
3C0
330
3B6
100
AcDbEntity
  8
0
100
AcDbLine
 10
7.0
 20
-40.0
 30
0.0
 11
5.5
 21
-39.0
 31
0.0
  0
LINE
  5
3C1
330
3B6
100
AcDbEntity
  8
0
100
AcDbLine
 10
1.5
 20
-11.0
 30
0.0
 11
1.5
 21
-39.0
 31
0.0
  0
LINE
  5
3C2
330
3B6
100
AcDbEntity
  8
0
100
AcDbLine
 10
5.5
 20
-11.0
 30
0.0
 11
5.5
 21
-39.0
 31
0.0
  0
ENDBLK
  5
3C4
330
3B6
100
AcDbEntity
  8
0
100
AcDbBlockEnd
  0
BLOCK
  5
1D5
330
1CF
100
AcDbEntity
  8
0
100
AcDbBlockBegin
  2
TB8
 70
     0
 10
0.0
 20
0.0
 30
0.0
  3
TB8
  1

  0
MTEXT
  5
1D0
330
1CF
100
AcDbEntity
  8
寸法線
  6
Continuous
100
AcDbMText
 10
917.3216494432054
 20
235.349302881973
 30
0.0
 40
20.0
 41
17.2146
 71
     7
 72
     1
  1

 73
     1
 44
1.0
1001
ACAD
1000
MTEXTBEGIN
1070
    73
1070
     1
1070
    44
1040
1.0
1070
    74
1070
     0
1000
MTEXTEND
  0
LINE
  5
1D1
330
1CF
100
AcDbEntity
  8
本体
  6
CENTER
 62
     1
 48
0.3
100
AcDbLine
 10
10.0
 20
0.0
 30
0.0
 11
-2.0
 21
0.0
 31
0.0
  0
LINE
  5
1D3
330
1CF
100
AcDbEntity
  8
本体
  6
CENTER
 62
     1
 48
0.3
100
AcDbLine
 10
4.0
 20
6.0
 30
0.0
 11
4.0
 21
-6.0
 31
0.0
  0
CIRCLE
  5
1D4
330
1CF
100
AcDbEntity
  8
本体
  6
Continuous
 62
     0
100
AcDbCircle
 10
4.0
 20
0.0
 30
0.0
 40
4.0
  0
ENDBLK
  5
1D6
330
1CF
100
AcDbEntity
  8
0
100
AcDbBlockEnd
  0
BLOCK
  5
377
330
36D
100
AcDbEntity
  8
0
100
AcDbBlockBegin
  2
7mm部材エンボス4
 70
     0
 10
0.0
 20
0.0
 30
0.0
  3
7mm部材エンボス4
  1

  0
MTEXT
  5
36E
330
36D
100
AcDbEntity
  8
寸法線
  6
Continuous
100
AcDbMText
 10
917.3216494432054
 20
235.349302881973
 30
0.0
 40
20.0
 41
17.2146
 71
     7
 72
     1
  1

 73
     1
 44
1.0
1001
ACAD
1000
MTEXTBEGIN
1070
    73
1070
     1
1070
    44
1040
1.0
1070
    74
1070
     0
1000
MTEXTEND
  0
MTEXT
  5
36F
330
36D
100
AcDbEntity
  8
0
100
AcDbMText
 10
2327.749997480685
 20
659.5642887207104
 30
0.0
 40
25.0
 41
224.7356
 71
     1
 72
     5
  1

 73
     1
 44
1.0
1001
ACAD
1000
MTEXTBEGIN
1070
    73
1070
     1
1070
    44
1040
1.0
1070
    74
1070
     0
1000
MTEXTEND
  0
MTEXT
  5
370
330
36D
100
AcDbEntity
  8
0
100
AcDbMText
 10
2703.230485829543
 20
524.4532996843136
 30
0.0
 40
28.0
 41
603.8372
 71
     1
 72
     5
  1

 73
     1
 44
1.0
1001
ACAD
1000
MTEXTBEGIN
1070
    73
1070
     1
1070
    44
1040
1.0
1070
    74
1070
     0
1000
MTEXTEND
  0
LINE
  5
371
330
36D
100
AcDbEntity
  8
0
  6
Continuous
100
AcDbLine
 10
7.000000000000001
 20
15.300094
 30
0.0
 11
0.0
 21
13.300094
 31
0.0
  0
LINE
  5
372
330
36D
100
AcDbEntity
  8
0
  6
Continuous
100
AcDbLine
 10
0.0
 20
20.300094
 30
0.0
 11
7.000000000000001
 21
18.300094
 31
0.0
  0
LINE
  5
373
330
36D
100
AcDbEntity
  8
0
  6
Continuous
100
AcDbLine
 10
-0.0000000000000018
 20
32.30009400000005
 30
0.0
 11
7.0
 21
34.30009400000005
 31
0.0
  0
LINE
  5
374
330
36D
100
AcDbEntity
  8
0
  6
Continuous
100
AcDbLine
 10
7.0
 20
27.30009400000003
 30
0.0
 11
-0.0000000000000018
 21
29.30009400000005
 31
0.0
  0
LINE
  5
375
330
36D
100
AcDbEntity
  8
0
  6
Continuous
100
AcDbLine
 10
0.0000000000000009
 20
48.300094
 30
0.0
 11
7.000000000000003
 21
46.300094
 31
0.0
  0
LINE
  5
376
330
36D
100
AcDbEntity
  8
0
  6
Continuous
100
AcDbLine
 10
7.000000000000003
 20
43.300094
 30
0.0
 11
0.0000000000000009
 21
41.300094
 31
0.0
  0
ENDBLK
  5
378
330
36D
100
AcDbEntity
  8
0
100
AcDbBlockEnd
  0
BLOCK
  5
588
330
57E
100
AcDbEntity
  8
0
 48
3.0
100
AcDbBlockBegin
  2
*D8
 70
     1
 10
0.0
 20
0.0
 30
0.0
  3
*D8
  1

  0
LINE
  5
10B7
330
57E
100
AcDbEntity
  8
寸法線
  6
Continuous
 62
     0
 48
3.0
370
    -2
100
AcDbLine
 10
426.7752334948782
 20
592.7299929925266
 30
0.0
 11
426.7752334948782
 21
517.7299929925266
 31
0.0
  0
LINE
  5
10B8
330
57E
100
AcDbEntity
  8
寸法線
  6
Continuous
 62
     0
 48
3.0
370
    -2
100
AcDbLine
 10
1401.775233494878
 20
592.7299929925266
 30
0.0
 11
1401.775233494878
 21
517.7299929925266
 31
0.0
  0
LINE
  5
10B9
330
57E
100
AcDbEntity
  8
寸法線
  6
Continuous
 62
     0
 48
3.0
370
    -2
100
AcDbLine
 10
441.7752334948781
 20
532.7299929925266
 30
0.0
 11
1386.775233494878
 21
532.7299929925266
 31
0.0
  0
INSERT
  5
10BA
330
57E
100
AcDbEntity
  8
寸法線
  6
Continuous
 62
     0
 48
3.0
370
    -2
100
AcDbBlockReference
  2
_Open30
 10
426.7752334948782
 20
532.7299929925266
 30
0.0
 41
15.0
 42
15.0
 43
15.0
 50
180.0
  0
INSERT
  5
10BB
330
57E
100
AcDbEntity
  8
寸法線
  6
Continuous
 62
     0
 48
3.0
370
    -2
100
AcDbBlockReference
  2
_Open30
 10
1401.775233494878
 20
532.7299929925266
 30
0.0
 41
15.0
 42
15.0
 43
15.0
  0
MTEXT
  5
10BC
330
57E
100
AcDbEntity
  8
寸法線
  6
Continuous
 62
     0
 48
3.0
100
AcDbMText
 10
914.2752334948781
 20
552.7299929925265
 30
0.0
 40
30.0
 41
0.0
 71
     5
 72
     1
  1
975
 73
     1
 44
1.0
1001
ACAD
1000
MTEXTBEGIN
1070
    73
1070
     1
1070
    44
1040
1.0
1070
    74
1070
     0
1000
MTEXTEND
  0
POINT
  5
10BD
330
57E
100
AcDbEntity
  8
Defpoints
  6
Continuous
 62
     0
 48
3.0
100
AcDbPoint
 10
426.7752334948782
 20
612.7299929925266
 30
0.0
  0
POINT
  5
10BE
330
57E
100
AcDbEntity
  8
Defpoints
  6
Continuous
 62
     0
 48
3.0
100
AcDbPoint
 10
1401.775233494878
 20
612.7299929925266
 30
0.0
  0
POINT
  5
10BF
330
57E
100
AcDbEntity
  8
Defpoints
  6
Continuous
 62
     0
 48
3.0
100
AcDbPoint
 10
1401.775233494878
 20
532.7299929925266
 30
0.0
  0
ENDBLK
  5
589
330
57E
100
AcDbEntity
  8
0
 48
3.0
100
AcDbBlockEnd
  0
BLOCK
  5
1F2
330
1E5
100
AcDbEntity
  8
0
 48
3.0
100
AcDbBlockBegin
  2
*D9
 70
     1
 10
0.0
 20
0.0
 30
0.0
  3
*D9
  1

  0
LINE
  5
10AC
330
1E5
100
AcDbEntity
  8
寸法線
  6
Continuous
 62
     0
 48
3.0
370
    -2
100
AcDbLine
 10
1161.575233494878
 20
727.7299929925265
 30
0.0
 11
1161.575233494878
 21
802.7299929925266
 31
0.0
  0
LINE
  5
10AD
330
1E5
100
AcDbEntity
  8
寸法線
  6
Continuous
 62
     0
 48
3.0
370
    -2
100
AcDbLine
 10
1196.875233494878
 20
727.7299929925265
 30
0.0
 11
1196.875233494878
 21
802.7299929925266
 31
0.0
  0
LINE
  5
10AE
330
1E5
100
AcDbEntity
  8
寸法線
  6
Continuous
 62
     0
 48
3.0
370
    -2
100
AcDbLine
 10
1146.575233494878
 20
787.7299929925266
 30
0.0
 11
1131.575233494878
 21
787.7299929925266
 31
0.0
  0
LINE
  5
10AF
330
1E5
100
AcDbEntity
  8
寸法線
  6
Continuous
 62
     0
 48
3.0
370
    -2
100
AcDbLine
 10
1211.875233494878
 20
787.7299929925266
 30
0.0
 11
1310.885385779142
 21
787.7299929925266
 31
0.0
  0
LINE
  5
10B0
330
1E5
100
AcDbEntity
  8
寸法線
  6
Continuous
 62
     0
 48
3.0
370
    -2
100
AcDbLine
 10
1161.575233494878
 20
787.7299929925266
 30
0.0
 11
1196.875233494878
 21
787.7299929925266
 31
0.0
  0
INSERT
  5
10B1
330
1E5
100
AcDbEntity
  8
寸法線
  6
Continuous
 62
     0
 48
3.0
370
    -2
100
AcDbBlockReference
  2
_Open30
 10
1161.575233494878
 20
787.7299929925266
 30
0.0
 41
15.0
 42
15.0
 43
15.0
  0
INSERT
  5
10B2
330
1E5
100
AcDbEntity
  8
寸法線
  6
Continuous
 62
     0
 48
3.0
370
    -2
100
AcDbBlockReference
  2
_Open30
 10
1196.875233494878
 20
787.7299929925266
 30
0.0
 41
15.0
 42
15.0
 43
15.0
 50
180.0
  0
MTEXT
  5
10B3
330
1E5
100
AcDbEntity
  8
寸法線
  6
Continuous
 62
     0
 48
3.0
100
AcDbMText
 10
1268.88030963701
 20
807.7299929925265
 30
0.0
 40
30.0
 41
0.0
 71
     5
 72
     1
  1
35.3
 73
     1
 44
1.0
1001
ACAD
1000
MTEXTBEGIN
1070
    73
1070
     1
1070
    44
1040
1.0
1070
    74
1070
     0
1000
MTEXTEND
  0
POINT
  5
10B4
330
1E5
100
AcDbEntity
  8
Defpoints
  6
Continuous
 62
     0
 48
3.0
100
AcDbPoint
 10
1161.575233494878
 20
707.7299929925266
 30
0.0
  0
POINT
  5
10B5
330
1E5
100
AcDbEntity
  8
Defpoints
  6
Continuous
 62
     0
 48
3.0
100
AcDbPoint
 10
1196.875233494878
 20
707.7299929925266
 30
0.0
  0
POINT
  5
10B6
330
1E5
100
AcDbEntity
  8
Defpoints
  6
Continuous
 62
     0
 48
3.0
100
AcDbPoint
 10
1196.875233494878
 20
787.7299929925266
 30
0.0
  0
ENDBLK
  5
1F3
330
1E5
100
AcDbEntity
  8
0
 48
3.0
100
AcDbBlockEnd
  0
BLOCK
  5
1FF
330
1F5
100
AcDbEntity
  8
0
 48
3.0
100
AcDbBlockBegin
  2
*D10
 70
     1
 10
0.0
 20
0.0
 30
0.0
  3
*D10
  1

  0
LINE
  5
10A3
330
1F5
100
AcDbEntity
  8
寸法線
  6
Continuous
 62
     0
 48
3.0
370
    -2
100
AcDbLine
 10
416.7752334948781
 20
727.7299929925265
 30
0.0
 11
416.7752334948781
 21
882.7299929925265
 31
0.0
  0
LINE
  5
10A4
330
1F5
100
AcDbEntity
  8
寸法線
  6
Continuous
 62
     0
 48
3.0
370
    -2
100
AcDbLine
 10
1411.775233494878
 20
727.7299929925265
 30
0.0
 11
1411.775233494878
 21
882.7299929925265
 31
0.0
  0
LINE
  5
10A5
330
1F5
100
AcDbEntity
  8
寸法線
  6
Continuous
 62
     0
 48
3.0
370
    -2
100
AcDbLine
 10
431.7752334948782
 20
867.7299929925267
 30
0.0
 11
1396.775233494878
 21
867.7299929925267
 31
0.0
  0
INSERT
  5
10A6
330
1F5
100
AcDbEntity
  8
寸法線
  6
Continuous
 62
     0
 48
3.0
370
    -2
100
AcDbBlockReference
  2
_Open30
 10
416.7752334948781
 20
867.7299929925267
 30
0.0
 41
15.0
 42
15.0
 43
15.0
 50
180.0
  0
INSERT
  5
10A7
330
1F5
100
AcDbEntity
  8
寸法線
  6
Continuous
 62
     0
 48
3.0
370
    -2
100
AcDbBlockReference
  2
_Open30
 10
1411.775233494878
 20
867.7299929925267
 30
0.0
 41
15.0
 42
15.0
 43
15.0
  0
MTEXT
  5
10A8
330
1F5
100
AcDbEntity
  8
寸法線
  6
Continuous
 62
     0
 48
3.0
100
AcDbMText
 10
914.2752334948781
 20
887.7299929925266
 30
0.0
 40
30.0
 41
0.0
 71
     5
 72
     1
  1
995
 73
     1
 44
1.0
1001
ACAD
1000
MTEXTBEGIN
1070
    73
1070
     1
1070
    44
1040
1.0
1070
    74
1070
     0
1000
MTEXTEND
  0
POINT
  5
10A9
330
1F5
100
AcDbEntity
  8
Defpoints
  6
Continuous
 62
     0
 48
3.0
100
AcDbPoint
 10
416.7752334948781
 20
707.7299929925266
 30
0.0
  0
POINT
  5
10AA
330
1F5
100
AcDbEntity
  8
Defpoints
  6
Continuous
 62
     0
 48
3.0
100
AcDbPoint
 10
1411.775233494878
 20
707.7299929925266
 30
0.0
  0
POINT
  5
10AB
330
1F5
100
AcDbEntity
  8
Defpoints
  6
Continuous
 62
     0
 48
3.0
100
AcDbPoint
 10
1411.775233494878
 20
867.7299929925267
 30
0.0
  0
ENDBLK
  5
200
330
1F5
100
AcDbEntity
  8
0
 48
3.0
100
AcDbBlockEnd
  0
BLOCK
  5
219
330
20F
100
AcDbEntity
  8
0
 48
3.0
100
AcDbBlockBegin
  2
*D11
 70
     1
 10
0.0
 20
0.0
 30
0.0
  3
*D11
  1

  0
LINE
  5
109A
330
20F
100
AcDbEntity
  8
寸法線
  6
Continuous
 62
     0
 48
3.0
370
    -2
100
AcDbLine
 10
1872.085703995211
 20
1589.620531749562
 30
0.0
 11
1717.085703995212
 21
1589.620531749562
 31
0.0
  0
LINE
  5
109B
330
20F
100
AcDbEntity
  8
寸法線
  6
Continuous
 62
     0
 48
3.0
370
    -2
100
AcDbLine
 10
1872.085703995211
 20
1194.620531749562
 30
0.0
 11
1717.085703995212
 21
1194.620531749562
 31
0.0
  0
LINE
  5
109C
330
20F
100
AcDbEntity
  8
寸法線
  6
Continuous
 62
     0
 48
3.0
370
    -2
100
AcDbLine
 10
1732.085703995212
 20
1574.620531749562
 30
0.0
 11
1732.085703995212
 21
1209.620531749562
 31
0.0
  0
INSERT
  5
109D
330
20F
100
AcDbEntity
  8
寸法線
  6
Continuous
 62
     0
 48
3.0
370
    -2
100
AcDbBlockReference
  2
_Open30
 10
1732.085703995212
 20
1589.620531749562
 30
0.0
 41
15.0
 42
15.0
 43
15.0
 50
90.0
  0
INSERT
  5
109E
330
20F
100
AcDbEntity
  8
寸法線
  6
Continuous
 62
     0
 48
3.0
370
    -2
100
AcDbBlockReference
  2
_Open30
 10
1732.085703995212
 20
1194.620531749562
 30
0.0
 41
15.0
 42
15.0
 43
15.0
 50
270.0
  0
MTEXT
  5
109F
330
20F
100
AcDbEntity
  8
寸法線
  6
Continuous
 62
     0
 48
3.0
100
AcDbMText
 10
1712.085703995211
 20
1392.120531749563
 30
0.0
 40
30.0
 41
0.0
 71
     5
 72
     1
  1
395
 11
0.0000000000000001
 21
1.0
 31
0.0
 73
     1
 44
1.0
1001
ACAD
1000
MTEXTBEGIN
1070
    73
1070
     1
1070
    44
1040
1.0
1070
    74
1070
     0
1000
MTEXTEND
  0
POINT
  5
10A0
330
20F
100
AcDbEntity
  8
Defpoints
  6
Continuous
 62
     0
 48
3.0
100
AcDbPoint
 10
1892.085703995212
 20
1589.620531749562
 30
0.0
  0
POINT
  5
10A1
330
20F
100
AcDbEntity
  8
Defpoints
  6
Continuous
 62
     0
 48
3.0
100
AcDbPoint
 10
1892.085703995212
 20
1194.620531749562
 30
0.0
  0
POINT
  5
10A2
330
20F
100
AcDbEntity
  8
Defpoints
  6
Continuous
 62
     0
 48
3.0
100
AcDbPoint
 10
1732.085703995212
 20
1194.620531749562
 30
0.0
  0
ENDBLK
  5
21A
330
20F
100
AcDbEntity
  8
0
 48
3.0
100
AcDbBlockEnd
  0
BLOCK
  5
226
330
21C
100
AcDbEntity
  8
0
 48
3.0
100
AcDbBlockBegin
  2
*D12
 70
     1
 10
0.0
 20
0.0
 30
0.0
  3
*D12
  1

  0
LINE
  5
1088
330
21C
100
AcDbEntity
  8
寸法線
  6
Continuous
 62
     0
 48
3.0
370
    -2
100
AcDbLine
 10
2004.085700995211
 20
1579.620532749562
 30
0.0
 11
2082.086622503089
 21
1579.620532749562
 31
0.0
  0
LINE
  5
1089
330
21C
100
AcDbEntity
  8
寸法線
  6
Continuous
 62
     0
 48
3.0
370
    -2
100
AcDbLine
 10
2004.085700995211
 20
1204.620530749562
 30
0.0
 11
2082.086622503089
 21
1204.620530749562
 31
0.0
  0
LINE
  5
108A
330
21C
100
AcDbEntity
  8
寸法線
  6
Continuous
 62
     0
 48
3.0
370
    -2
100
AcDbLine
 10
2067.086622503089
 20
1564.620532749562
 30
0.0
 11
2067.086622503089
 21
1219.620530749562
 31
0.0
  0
INSERT
  5
108B
330
21C
100
AcDbEntity
  8
寸法線
  6
Continuous
 62
     0
 48
3.0
370
    -2
100
AcDbBlockReference
  2
_Open30
 10
2067.086622503089
 20
1579.620532749562
 30
0.0
 41
15.0
 42
15.0
 43
15.0
 50
90.0
  0
INSERT
  5
108C
330
21C
100
AcDbEntity
  8
寸法線
  6
Continuous
 62
     0
 48
3.0
370
    -2
100
AcDbBlockReference
  2
_Open30
 10
2067.086622503089
 20
1204.620530749562
 30
0.0
 41
15.0
 42
15.0
 43
15.0
 50
270.0
  0
MTEXT
  5
108D
330
21C
100
AcDbEntity
  8
寸法線
  6
Continuous
 62
     0
 48
3.0
100
AcDbMText
 10
2047.086622503089
 20
1392.120531749563
 30
0.0
 40
30.0
 41
0.0
 71
     5
 72
     1
  1
375
 11
0.0000000000000001
 21
1.0
 31
0.0
 73
     1
 44
1.0
1001
ACAD
1000
MTEXTBEGIN
1070
    73
1070
     1
1070
    44
1040
1.0
1070
    74
1070
     0
1000
MTEXTEND
  0
POINT
  5
108E
330
21C
100
AcDbEntity
  8
Defpoints
  6
Continuous
 62
     0
 48
3.0
100
AcDbPoint
 10
1984.085700995211
 20
1579.620532749562
 30
0.0
  0
POINT
  5
108F
330
21C
100
AcDbEntity
  8
Defpoints
  6
Continuous
 62
     0
 48
3.0
100
AcDbPoint
 10
1984.085700995211
 20
1204.620530749562
 30
0.0
  0
POINT
  5
1090
330
21C
100
AcDbEntity
  8
Defpoints
  6
Continuous
 62
     0
 48
3.0
100
AcDbPoint
 10
2067.086622503089
 20
1204.620530749562
 30
0.0
  0
ENDBLK
  5
227
330
21C
100
AcDbEntity
  8
0
 48
3.0
100
AcDbBlockEnd
  0
BLOCK
  5
23C
330
232
100
AcDbEntity
  8
0
 48
3.0
100
AcDbBlockBegin
  2
*D13
 70
     1
 10
0.0
 20
0.0
 30
0.0
  3
*D13
  1

  0
LINE
  5
10D8
330
232
100
AcDbEntity
  8
寸法線
  6
Continuous
 62
     0
 48
3.0
370
    -2
100
AcDbLine
 10
1424.275233494878
 20
657.7299929925266
 30
0.0
 11
1536.779857418642
 21
657.7299929925266
 31
0.0
  0
LINE
  5
10D9
330
232
100
AcDbEntity
  8
寸法線
  6
Continuous
 62
     0
 48
3.0
370
    -2
100
AcDbLine
 10
1429.275233494878
 20
707.7299929925266
 30
0.0
 11
1536.779857418642
 21
707.7299929925266
 31
0.0
  0
LINE
  5
10DA
330
232
100
AcDbEntity
  8
寸法線
  6
Continuous
 62
     0
 48
3.0
370
    -2
100
AcDbLine
 10
1521.779857418642
 20
672.7299929925266
 30
0.0
 11
1521.779857418642
 21
692.7299929925266
 31
0.0
  0
INSERT
  5
10DB
330
232
100
AcDbEntity
  8
寸法線
  6
Continuous
 62
     0
 48
3.0
370
    -2
100
AcDbBlockReference
  2
_Open30
 10
1521.779857418642
 20
657.7299929925266
 30
0.0
 41
15.0
 42
15.0
 43
15.0
 50
270.0
  0
INSERT
  5
10DC
330
232
100
AcDbEntity
  8
寸法線
  6
Continuous
 62
     0
 48
3.0
370
    -2
100
AcDbBlockReference
  2
_Open30
 10
1521.779857418642
 20
707.7299929925266
 30
0.0
 41
15.0
 42
15.0
 43
15.0
 50
90.0
  0
MTEXT
  5
10DD
330
232
100
AcDbEntity
  8
寸法線
  6
Continuous
 62
     0
 48
3.0
100
AcDbMText
 10
1501.779857418642
 20
682.7299929925268
 30
0.0
 40
30.0
 41
0.0
 71
     5
 72
     1
  1
50
 11
0.0000000000000001
 21
1.0
 31
0.0
 73
     1
 44
1.0
1001
ACAD
1000
MTEXTBEGIN
1070
    73
1070
     1
1070
    44
1040
1.0
1070
    74
1070
     0
1000
MTEXTEND
  0
POINT
  5
10DE
330
232
100
AcDbEntity
  8
Defpoints
  6
Continuous
 62
     0
 48
3.0
100
AcDbPoint
 10
1404.275233494878
 20
657.7299929925266
 30
0.0
  0
POINT
  5
10DF
330
232
100
AcDbEntity
  8
Defpoints
  6
Continuous
 62
     0
 48
3.0
100
AcDbPoint
 10
1409.275233494878
 20
707.7299929925266
 30
0.0
  0
POINT
  5
10E0
330
232
100
AcDbEntity
  8
Defpoints
  6
Continuous
 62
     0
 48
3.0
100
AcDbPoint
 10
1521.779857418642
 20
707.7299929925266
 30
0.0
  0
ENDBLK
  5
23D
330
232
100
AcDbEntity
  8
0
 48
3.0
100
AcDbBlockEnd
  0
BLOCK
  5
249
330
23F
100
AcDbEntity
  8
0
 48
3.0
100
AcDbBlockBegin
  2
*D14
 70
     1
 10
0.0
 20
0.0
 30
0.0
  3
*D14
  1

  0
LINE
  5
10F5
330
23F
100
AcDbEntity
  8
寸法線
  6
Continuous
 62
     0
 48
3.0
370
    -2
100
AcDbLine
 10
1424.275233494878
 20
612.7299929925266
 30
0.0
 11
1616.781980184355
 21
612.7299929925266
 31
0.0
  0
LINE
  5
10F6
330
23F
100
AcDbEntity
  8
寸法線
  6
Continuous
 62
     0
 48
3.0
370
    -2
100
AcDbLine
 10
1429.275233494878
 20
707.7299929925266
 30
0.0
 11
1616.781980184355
 21
707.7299929925266
 31
0.0
  0
LINE
  5
10F7
330
23F
100
AcDbEntity
  8
寸法線
  6
Continuous
 62
     0
 48
3.0
370
    -2
100
AcDbLine
 10
1601.781980184355
 20
627.7299929925265
 30
0.0
 11
1601.781980184355
 21
692.7299929925266
 31
0.0
  0
INSERT
  5
10F8
330
23F
100
AcDbEntity
  8
寸法線
  6
Continuous
 62
     0
 48
3.0
370
    -2
100
AcDbBlockReference
  2
_Open30
 10
1601.781980184355
 20
612.7299929925266
 30
0.0
 41
15.0
 42
15.0
 43
15.0
 50
270.0
  0
INSERT
  5
10F9
330
23F
100
AcDbEntity
  8
寸法線
  6
Continuous
 62
     0
 48
3.0
370
    -2
100
AcDbBlockReference
  2
_Open30
 10
1601.781980184355
 20
707.7299929925266
 30
0.0
 41
15.0
 42
15.0
 43
15.0
 50
90.0
  0
MTEXT
  5
10FA
330
23F
100
AcDbEntity
  8
寸法線
  6
Continuous
 62
     0
 48
3.0
100
AcDbMText
 10
1581.781980184355
 20
660.2299929925268
 30
0.0
 40
30.0
 41
0.0
 71
     5
 72
     1
  1
95
 11
0.0000000000000001
 21
1.0
 31
0.0
 73
     1
 44
1.0
1001
ACAD
1000
MTEXTBEGIN
1070
    73
1070
     1
1070
    44
1040
1.0
1070
    74
1070
     0
1000
MTEXTEND
  0
POINT
  5
10FB
330
23F
100
AcDbEntity
  8
Defpoints
  6
Continuous
 62
     0
 48
3.0
100
AcDbPoint
 10
1404.275233494878
 20
612.7299929925266
 30
0.0
  0
POINT
  5
10FC
330
23F
100
AcDbEntity
  8
Defpoints
  6
Continuous
 62
     0
 48
3.0
100
AcDbPoint
 10
1409.275233494878
 20
707.7299929925266
 30
0.0
  0
POINT
  5
10FD
330
23F
100
AcDbEntity
  8
Defpoints
  6
Continuous
 62
     0
 48
3.0
100
AcDbPoint
 10
1601.781980184355
 20
707.7299929925266
 30
0.0
  0
ENDBLK
  5
24A
330
23F
100
AcDbEntity
  8
0
 48
3.0
100
AcDbBlockEnd
  0
BLOCK
  5
5CC
330
5C2
100
AcDbEntity
  8
0
 48
3.0
100
AcDbBlockBegin
  2
*D15
 70
     1
 10
0.0
 20
0.0
 30
0.0
  3
*D15
  1

  0
LINE
  5
1091
330
5C2
100
AcDbEntity
  8
寸法線
 62
     0
 48
3.0
370
    -2
100
AcDbLine
 10
1870.085703995211
 20
1542.120531749562
 30
0.0
 11
1797.085703995212
 21
1542.120531749562
 31
0.0
  0
LINE
  5
1092
330
5C2
100
AcDbEntity
  8
寸法線
 62
     0
 48
3.0
370
    -2
100
AcDbLine
 10
1870.085703995211
 20
1492.120531749562
 30
0.0
 11
1797.085703995211
 21
1492.120531749562
 31
0.0
  0
LINE
  5
1093
330
5C2
100
AcDbEntity
  8
寸法線
 62
     0
 48
3.0
370
    -2
100
AcDbLine
 10
1812.085703995212
 20
1527.120531749562
 30
0.0
 11
1812.085703995212
 21
1507.120531749562
 31
0.0
  0
INSERT
  5
1094
330
5C2
100
AcDbEntity
  8
寸法線
 62
     0
 48
3.0
370
    -2
100
AcDbBlockReference
  2
_Open30
 10
1812.085703995212
 20
1542.120531749562
 30
0.0
 41
15.0
 42
15.0
 43
15.0
 50
90.0
  0
INSERT
  5
1095
330
5C2
100
AcDbEntity
  8
寸法線
 62
     0
 48
3.0
370
    -2
100
AcDbBlockReference
  2
_Open30
 10
1812.085703995212
 20
1492.120531749562
 30
0.0
 41
15.0
 42
15.0
 43
15.0
 50
270.0
  0
MTEXT
  5
1096
330
5C2
100
AcDbEntity
  8
寸法線
 62
     0
 48
3.0
100
AcDbMText
 10
1792.085703995211
 20
1517.120531749563
 30
0.0
 40
30.0
 41
0.0
 71
     5
 72
     1
  1
50
 11
0.0000000000000001
 21
1.0
 31
0.0
 73
     1
 44
1.0
1001
ACAD
1000
MTEXTBEGIN
1070
    73
1070
     1
1070
    44
1040
1.0
1070
    74
1070
     0
1000
MTEXTEND
  0
POINT
  5
1097
330
5C2
100
AcDbEntity
  8
Defpoints
 62
     0
 48
3.0
100
AcDbPoint
 10
1890.085703995211
 20
1542.120531749562
 30
0.0
  0
POINT
  5
1098
330
5C2
100
AcDbEntity
  8
Defpoints
 62
     0
 48
3.0
100
AcDbPoint
 10
1890.085703995211
 20
1492.120531749562
 30
0.0
  0
POINT
  5
1099
330
5C2
100
AcDbEntity
  8
Defpoints
 62
     0
 48
3.0
100
AcDbPoint
 10
1812.085703995212
 20
1492.120531749562
 30
0.0
  0
ENDBLK
  5
5CD
330
5C2
100
AcDbEntity
  8
0
 48
3.0
100
AcDbBlockEnd
  0
BLOCK
  5
D47
330
D3B
100
AcDbEntity
  8
0
 48
3.0
100
AcDbBlockBegin
  2
*D16
 70
     1
 10
0.0
 20
0.0
 30
0.0
  3
*D16
  1

  0
LINE
  5
10EA
330
D3B
100
AcDbEntity
  8
寸法線
 62
     0
 48
3.0
370
    -2
100
AcDbLine
 10
1421.775233494878
 20
657.7299929925266
 30
0.0
 11
1536.779857418642
 21
657.7299929925266
 31
0.0
  0
LINE
  5
10EB
330
D3B
100
AcDbEntity
  8
寸法線
 62
     0
 48
3.0
370
    -2
100
AcDbLine
 10
1421.775233494878
 20
612.7299929925266
 30
0.0
 11
1536.779857418642
 21
612.7299929925266
 31
0.0
  0
LINE
  5
10EC
330
D3B
100
AcDbEntity
  8
寸法線
 62
     0
 48
3.0
370
    -2
100
AcDbLine
 10
1521.779857418642
 20
672.7299929925266
 30
0.0
 11
1521.779857418642
 21
687.7299929925266
 31
0.0
  0
LINE
  5
10ED
330
D3B
100
AcDbEntity
  8
寸法線
 62
     0
 48
3.0
370
    -2
100
AcDbLine
 10
1521.779857418642
 20
597.7299929925266
 30
0.0
 11
1521.779857418642
 21
537.2477594899885
 31
0.0
  0
LINE
  5
10EE
330
D3B
100
AcDbEntity
  8
寸法線
 62
     0
 48
3.0
370
    -2
100
AcDbLine
 10
1521.779857418642
 20
657.7299929925266
 30
0.0
 11
1521.779857418642
 21
612.7299929925266
 31
0.0
  0
INSERT
  5
10EF
330
D3B
100
AcDbEntity
  8
寸法線
 62
     0
 48
3.0
370
    -2
100
AcDbBlockReference
  2
_Open30
 10
1521.779857418642
 20
657.7299929925266
 30
0.0
 41
15.0
 42
15.0
 43
15.0
 50
270.0
  0
INSERT
  5
10F0
330
D3B
100
AcDbEntity
  8
寸法線
 62
     0
 48
3.0
370
    -2
100
AcDbBlockReference
  2
_Open30
 10
1521.779857418642
 20
612.7299929925266
 30
0.0
 41
15.0
 42
15.0
 43
15.0
 50
90.0
  0
MTEXT
  5
10F1
330
D3B
100
AcDbEntity
  8
寸法線
 62
     0
 48
3.0
100
AcDbMText
 10
1501.779857418642
 20
559.9888762412578
 30
0.0
 40
30.0
 41
0.0
 71
     5
 72
     1
  1
45
 11
0.0000000000000001
 21
1.0
 31
0.0
 73
     1
 44
1.0
1001
ACAD
1000
MTEXTBEGIN
1070
    73
1070
     1
1070
    44
1040
1.0
1070
    74
1070
     0
1000
MTEXTEND
  0
POINT
  5
10F2
330
D3B
100
AcDbEntity
  8
Defpoints
 62
     0
 48
3.0
100
AcDbPoint
 10
1401.775233494878
 20
657.7299929925266
 30
0.0
  0
POINT
  5
10F3
330
D3B
100
AcDbEntity
  8
Defpoints
 62
     0
 48
3.0
100
AcDbPoint
 10
1401.775233494878
 20
612.7299929925266
 30
0.0
  0
POINT
  5
10F4
330
D3B
100
AcDbEntity
  8
Defpoints
 62
     0
 48
3.0
100
AcDbPoint
 10
1521.779857418642
 20
612.7299929925266
 30
0.0
  0
ENDBLK
  5
D48
330
D3B
100
AcDbEntity
  8
0
 48
3.0
100
AcDbBlockEnd
  0
BLOCK
  5
106F
330
1065
100
AcDbEntity
  8
0
 48
3.0
100
AcDbBlockBegin
  2
P-H45
 70
     0
 10
0.0
 20
0.0
 30
0.0
  3
P-H45
  1

  0
LINE
  5
1066
330
1065
100
AcDbEntity
  8
嵩上断面
100
AcDbLine
 10
2.999997
 20
0.000001
 30
0.0
 11
41.999997
 21
0.000001
 31
0.0
  0
LINE
  5
1067
330
1065
100
AcDbEntity
  8
嵩上断面
100
AcDbLine
 10
-0.000003
 20
-2.999999
 30
0.0
 11
-0.000003
 21
-36.999999
 31
0.0
  0
LINE
  5
1068
330
1065
100
AcDbEntity
  8
嵩上断面
100
AcDbLine
 10
2.999997
 20
-39.999999
 30
0.0
 11
41.999997
 21
-39.999999
 31
0.0
  0
ARC
  5
1069
330
1065
100
AcDbEntity
  8
嵩上断面
100
AcDbCircle
 10
2.999997
 20
-36.999999
 30
0.0
 40
3.0
100
AcDbArc
 50
180.0
 51
270.0
  0
ARC
  5
106A
330
1065
100
AcDbEntity
  8
嵩上断面
100
AcDbCircle
 10
2.999997
 20
-2.999999
 30
0.0
 40
3.0
100
AcDbArc
 50
90.0
 51
180.0
  0
LINE
  5
106B
330
1065
100
AcDbEntity
  8
嵩上断面
100
AcDbLine
 10
44.999997
 20
-36.999999
 30
0.0
 11
44.999997
 21
-2.999999
 31
0.0
  0
ARC
  5
106C
330
1065
100
AcDbEntity
  8
嵩上断面
100
AcDbCircle
 10
41.999997
 20
-2.999999
 30
0.0
 40
3.0
100
AcDbArc
 50
0.0
 51
90.0
  0
ARC
  5
106D
330
1065
100
AcDbEntity
  8
嵩上断面
100
AcDbCircle
 10
41.999997
 20
-36.999999
 30
0.0
 40
3.0
100
AcDbArc
 50
270.0
 51
0.0
  0
LWPOLYLINE
  5
106E
330
1065
100
AcDbEntity
  8
嵩上断面
  6
Continuous
100
AcDbPolyline
 90
        4
 70
     1
 43
0.0
 10
2.299996999999999
 20
-37.69999900000001
 10
42.699997
 20
-37.69999900000001
 10
42.699997
 20
-2.299998999999999
 10
2.299996999999999
 20
-2.299998999999999
  0
ENDBLK
  5
1070
330
1065
100
AcDbEntity
  8
0
 48
3.0
100
AcDbBlockEnd
  0
BLOCK
  5
11DB
330
11D6
100
AcDbEntity
  8
0
 48
3.0
100
AcDbBlockBegin
  2
鎌下
 70
     0
 10
0.0
 20
0.0
 30
0.0
  3
鎌下
  1

  0
MTEXT
  5
11D7
330
11D6
100
AcDbEntity
  8
外枠
  6
Continuous
100
AcDbMText
 10
40.55333581259037
 20
-88.14888116777728
 30
0.0
 40
28.17460800000001
 41
43.8527
 71
     1
 72
     5
  1
{\fHGSeikaishotaiPRO|b0|i0|c128|p65;下}
 73
     1
 44
1.0
1001
ACAD
1000
MTEXTBEGIN
1070
    73
1070
     1
1070
    44
1040
1.0
1070
    74
1070
     0
1000
MTEXTEND
  0
MTEXT
  5
11D8
330
11D6
100
AcDbEntity
  8
外枠
  6
Continuous
100
AcDbMText
 10
40.55333581259037
 20
-45.61885629864991
 30
0.0
 40
28.17460800000001
 41
43.8527
 71
     1
 72
     5
  1
{\fHGSeikaishotaiPRO|b0|i0|c128|p65;鎌}
 73
     1
 44
1.0
1001
ACAD
1000
MTEXTBEGIN
1070
    73
1070
     1
1070
    44
1040
1.0
1070
    74
1070
     0
1000
MTEXTEND
  0
ELLIPSE
  5
11D9
330
11D6
100
AcDbEntity
  8
外枠
  6
Continuous
100
AcDbEllipse
 10
61.68068686355036
 20
-84.59863033186412
 30
0.0
 11
0.0
 21
-47.8594442149426
 31
0.0
210
0.0
220
0.0
230
1.0
 40
0.7999999999999857
 41
0.0
 42
6.283185307179586
  0
ENDBLK
  5
11DC
330
11D6
100
AcDbEntity
  8
0
 48
3.0
100
AcDbBlockEnd
  0
BLOCK
  5
12D8
330
12D7
100
AcDbEntity
  8
0
 48
3.0
100
AcDbBlockBegin
  2
*U30
 70
     1
 10
0.0
 20
0.0
 30
0.0
  3
*U30
  1

  0
LINE
  5
12DE
330
12D7
100
AcDbEntity
  8
本体
  6
Continuous
100
AcDbLine
 10
-17.65000000000009
 20
25.0
 30
0.0
 11
10.65000000000009
 21
25.0
 31
0.0
  0
LINE
  5
12DF
330
12D7
100
AcDbEntity
  8
本体
  6
Continuous
100
AcDbLine
 10
-17.65000000000009
 20
17.0
 30
0.0
 11
10.65000000000009
 21
17.0
 31
0.0
  0
LINE
  5
12E0
330
12D7
100
AcDbEntity
  8
本体
  6
Continuous
100
AcDbLine
 10
-17.65000000000009
 20
17.0
 30
0.0
 11
10.65000000000009
 21
25.0
 31
0.0
  0
LINE
  5
12E1
330
12D7
100
AcDbEntity
  8
本体
  6
Continuous
100
AcDbLine
 10
-17.65000000000009
 20
-19.0
 30
0.0
 11
10.65000000000009
 21
-19.0
 31
0.0
  0
INSERT
  5
12E2
330
12D7
100
AcDbEntity
  8
本体
  6
Continuous
100
AcDbBlockReference
  2
IB7x4x50
 10
10.65000000000009
 20
25.0
 30
0.0
  0
ENDBLK
  5
12D9
330
12D7
100
AcDbEntity
  8
0
 48
3.0
100
AcDbBlockEnd
  0
BLOCK
  5
12DB
330
12DA
100
AcDbEntity
  8
0
 48
3.0
100
AcDbBlockBegin
  2
*U31
 70
     1
 10
0.0
 20
0.0
 30
0.0
  3
*U31
  1

  0
INSERT
  5
12F1
330
12DA
100
AcDbEntity
  8
本体
  6
ByBlock
 62
     0
370
    -2
380
     1
100
AcDbBlockReference
  2
*U30
 10
0.0
 20
0.0
 30
0.0
  0
INSERT
  5
12F2
330
12DA
100
AcDbEntity
  8
本体
  6
ByBlock
 62
     0
370
    -2
380
     1
100
AcDbBlockReference
  2
*U30
 10
35.3
 20
0.0
 30
0.0
  0
INSERT
  5
12F3
330
12DA
100
AcDbEntity
  8
本体
  6
ByBlock
 62
     0
370
    -2
380
     1
100
AcDbBlockReference
  2
*U30
 10
70.59999999999999
 20
0.0
 30
0.0
  0
INSERT
  5
12F4
330
12DA
100
AcDbEntity
  8
本体
  6
ByBlock
 62
     0
370
    -2
380
     1
100
AcDbBlockReference
  2
*U30
 10
105.9
 20
0.0
 30
0.0
  0
INSERT
  5
12F5
330
12DA
100
AcDbEntity
  8
本体
  6
ByBlock
 62
     0
370
    -2
380
     1
100
AcDbBlockReference
  2
*U30
 10
141.2
 20
0.0
 30
0.0
  0
INSERT
  5
12F6
330
12DA
100
AcDbEntity
  8
本体
  6
ByBlock
 62
     0
370
    -2
380
     1
100
AcDbBlockReference
  2
*U30
 10
176.5
 20
0.0
 30
0.0
  0
INSERT
  5
12F7
330
12DA
100
AcDbEntity
  8
本体
  6
ByBlock
 62
     0
370
    -2
380
     1
100
AcDbBlockReference
  2
*U30
 10
211.8
 20
0.0
 30
0.0
  0
INSERT
  5
12F8
330
12DA
100
AcDbEntity
  8
本体
  6
ByBlock
 62
     0
370
    -2
380
     1
100
AcDbBlockReference
  2
*U30
 10
247.1
 20
0.0
 30
0.0
  0
INSERT
  5
12F9
330
12DA
100
AcDbEntity
  8
本体
  6
ByBlock
 62
     0
370
    -2
380
     1
100
AcDbBlockReference
  2
*U30
 10
282.4
 20
0.0
 30
0.0
  0
INSERT
  5
12FA
330
12DA
100
AcDbEntity
  8
本体
  6
ByBlock
 62
     0
370
    -2
380
     1
100
AcDbBlockReference
  2
*U30
 10
317.7
 20
0.0
 30
0.0
  0
INSERT
  5
12FB
330
12DA
100
AcDbEntity
  8
本体
  6
ByBlock
 62
     0
370
    -2
380
     1
100
AcDbBlockReference
  2
*U30
 10
353.0
 20
0.0
 30
0.0
  0
INSERT
  5
12FC
330
12DA
100
AcDbEntity
  8
本体
  6
ByBlock
 62
     0
370
    -2
380
     1
100
AcDbBlockReference
  2
*U30
 10
388.3
 20
0.0
 30
0.0
  0
INSERT
  5
12FD
330
12DA
100
AcDbEntity
  8
本体
  6
ByBlock
 62
     0
370
    -2
380
     1
100
AcDbBlockReference
  2
*U30
 10
423.5999999999999
 20
0.0
 30
0.0
  0
INSERT
  5
12FE
330
12DA
100
AcDbEntity
  8
本体
  6
ByBlock
 62
     0
370
    -2
380
     1
100
AcDbBlockReference
  2
*U30
 10
458.8999999999999
 20
0.0
 30
0.0
  0
INSERT
  5
12FF
330
12DA
100
AcDbEntity
  8
本体
  6
ByBlock
 62
     0
370
    -2
380
     1
100
AcDbBlockReference
  2
*U30
 10
494.1999999999999
 20
0.0
 30
0.0
  0
INSERT
  5
1300
330
12DA
100
AcDbEntity
  8
本体
  6
ByBlock
 62
     0
370
    -2
380
     1
100
AcDbBlockReference
  2
*U30
 10
529.4999999999999
 20
0.0
 30
0.0
  0
INSERT
  5
1301
330
12DA
100
AcDbEntity
  8
本体
  6
ByBlock
 62
     0
370
    -2
380
     1
100
AcDbBlockReference
  2
*U30
 10
564.7999999999999
 20
0.0
 30
0.0
  0
INSERT
  5
1302
330
12DA
100
AcDbEntity
  8
本体
  6
ByBlock
 62
     0
370
    -2
380
     1
100
AcDbBlockReference
  2
*U30
 10
600.0999999999999
 20
0.0
 30
0.0
  0
INSERT
  5
1303
330
12DA
100
AcDbEntity
  8
本体
  6
ByBlock
 62
     0
370
    -2
380
     1
100
AcDbBlockReference
  2
*U30
 10
635.4
 20
0.0
 30
0.0
  0
INSERT
  5
1304
330
12DA
100
AcDbEntity
  8
本体
  6
ByBlock
 62
     0
370
    -2
380
     1
100
AcDbBlockReference
  2
*U30
 10
670.6999999999999
 20
0.0
 30
0.0
  0
INSERT
  5
1305
330
12DA
100
AcDbEntity
  8
本体
  6
ByBlock
 62
     0
370
    -2
380
     1
100
AcDbBlockReference
  2
*U30
 10
706.0
 20
0.0
 30
0.0
  0
INSERT
  5
1306
330
12DA
100
AcDbEntity
  8
本体
  6
ByBlock
 62
     0
370
    -2
380
     1
100
AcDbBlockReference
  2
*U30
 10
741.2999999999999
 20
0.0
 30
0.0
  0
INSERT
  5
1307
330
12DA
100
AcDbEntity
  8
本体
  6
ByBlock
 62
     0
370
    -2
380
     1
100
AcDbBlockReference
  2
*U30
 10
776.5999999999999
 20
0.0
 30
0.0
  0
INSERT
  5
1308
330
12DA
100
AcDbEntity
  8
本体
  6
ByBlock
 62
     0
370
    -2
380
     1
100
AcDbBlockReference
  2
*U30
 10
811.8999999999999
 20
0.0
 30
0.0
  0
INSERT
  5
1309
330
12DA
100
AcDbEntity
  8
本体
  6
ByBlock
 62
     0
370
    -2
380
     1
100
AcDbBlockReference
  2
*U30
 10
847.1999999999999
 20
0.0
 30
0.0
  0
INSERT
  5
130A
330
12DA
100
AcDbEntity
  8
本体
  6
ByBlock
 62
     0
370
    -2
380
     1
100
AcDbBlockReference
  2
*U30
 10
882.4999999999999
 20
0.0
 30
0.0
  0
ENDBLK
  5
12DC
330
12DA
100
AcDbEntity
  8
0
 48
3.0
100
AcDbBlockEnd
  0
BLOCK
  5
138B
330
138A
100
AcDbEntity
  8
0
 48
3.0
100
AcDbBlockBegin
  2
*U32
 70
     1
 10
0.0
 20
0.0
 30
0.0
  3
*U32
  1

  0
LINE
  5
1391
330
138A
100
AcDbEntity
  8
本体
  6
Continuous
100
AcDbLine
 10
-1628.883842914771
 20
-114.0321443603552
 30
0.0
 11
-1628.883842914771
 21
-151.5321443603552
 31
0.0
  0
LINE
  5
1392
330
138A
100
AcDbEntity
  8
本体
  6
Continuous
100
AcDbLine
 10
-1635.883842914771
 20
-114.0321443603552
 30
0.0
 11
-1635.883842914771
 21
-151.5321443603552
 31
0.0
  0
LINE
  5
1393
330
138A
100
AcDbEntity
  8
本体
  6
Continuous
100
AcDbLine
 10
-1671.183842914771
 20
-159.5321443603552
 30
0.0
 11
-1635.883842914771
 21
-151.5321443603552
 31
0.0
  0
LINE
  5
1394
330
138A
100
AcDbEntity
  8
本体
  6
Continuous
100
AcDbLine
 10
-1635.883842914771
 20
-497.0321443603552
 30
0.0
 11
-1635.883842914771
 21
-459.5321443603552
 31
0.0
  0
LINE
  5
1395
330
138A
100
AcDbEntity
  8
本体
  6
Continuous
100
AcDbLine
 10
-1628.883842914771
 20
-497.0321443603552
 30
0.0
 11
-1628.883842914771
 21
-459.5321443603552
 31
0.0
  0
LINE
  5
1396
330
138A
100
AcDbEntity
  8
本体
  6
Continuous
100
AcDbLine
 10
-1628.883842914771
 20
-159.5321443603552
 30
0.0
 11
-1628.883842914771
 21
-201.5321443603552
 31
0.0
  0
LINE
  5
1397
330
138A
100
AcDbEntity
  8
本体
  6
Continuous
100
AcDbLine
 10
-1635.883842914771
 20
-159.5321443603552
 30
0.0
 11
-1635.883842914771
 21
-201.5321443603552
 31
0.0
  0
INSERT
  5
1398
330
138A
100
AcDbEntity
  8
エンボス
  6
Continuous
100
AcDbBlockReference
  2
7mm部材エンボス4
 10
-1635.883842914771
 20
-508.0321443603552
 30
0.0
  0
INSERT
  5
1399
330
138A
100
AcDbEntity
  8
エンボス
  6
Continuous
100
AcDbBlockReference
  2
7mm部材エンボス4
 10
-1635.883842914771
 20
-162.5321443603552
 30
0.0
  0
LINE
  5
139A
330
138A
100
AcDbEntity
  8
エンボス
  6
Continuous
100
AcDbLine
 10
-1635.883842914771
 20
-190.0321443603552
 30
0.0
 11
-1628.883842914771
 21
-188.0321443603552
 31
0.0
  0
LINE
  5
139B
330
138A
100
AcDbEntity
  8
エンボス
  6
Continuous
100
AcDbLine
 10
-1628.883842914771
 20
-195.0321443603552
 30
0.0
 11
-1635.883842914771
 21
-193.0321443603552
 31
0.0
  0
LINE
  5
139C
330
138A
100
AcDbEntity
  8
エンボス
  6
Continuous
100
AcDbLine
 10
-1628.883842914771
 20
-179.0321443603552
 30
0.0
 11
-1635.883842914771
 21
-181.0321443603552
 31
0.0
  0
LINE
  5
139D
330
138A
100
AcDbEntity
  8
エンボス
  6
Continuous
100
AcDbLine
 10
-1635.883842914771
 20
-174.0321443603552
 30
0.0
 11
-1628.883842914771
 21
-176.0321443603552
 31
0.0
  0
LINE
  5
139E
330
138A
100
AcDbEntity
  8
エンボス
  6
Continuous
100
AcDbLine
 10
-1635.883842914771
 20
-162.0321443603552
 30
0.0
 11
-1628.883842914771
 21
-160.0321443603552
 31
0.0
  0
LINE
  5
139F
330
138A
100
AcDbEntity
  8
エンボス
  6
Continuous
100
AcDbLine
 10
-1628.883842914771
 20
-167.0321443603552
 30
0.0
 11
-1635.883842914771
 21
-165.0321443603552
 31
0.0
  0
LINE
  5
13A0
330
138A
100
AcDbEntity
  8
本体
  6
Continuous
100
AcDbLine
 10
-1628.883842914771
 20
-209.5321443603552
 30
0.0
 11
-1628.883842914771
 21
-251.5321443603552
 31
0.0
  0
LINE
  5
13A1
330
138A
100
AcDbEntity
  8
本体
  6
Continuous
100
AcDbLine
 10
-1635.883842914771
 20
-209.5321443603552
 30
0.0
 11
-1635.883842914771
 21
-251.5321443603552
 31
0.0
  0
LINE
  5
13A2
330
138A
100
AcDbEntity
  8
エンボス
  6
Continuous
100
AcDbLine
 10
-1628.883842914771
 20
-245.0321443603552
 30
0.0
 11
-1635.883842914771
 21
-243.0321443603552
 31
0.0
  0
LINE
  5
13A3
330
138A
100
AcDbEntity
  8
エンボス
  6
Continuous
100
AcDbLine
 10
-1635.883842914771
 20
-240.0321443603552
 30
0.0
 11
-1628.883842914771
 21
-238.0321443603552
 31
0.0
  0
LINE
  5
13A4
330
138A
100
AcDbEntity
  8
本体
  6
Continuous
100
AcDbLine
 10
-1671.183842914771
 20
-209.5321443603552
 30
0.0
 11
-1635.883842914771
 21
-201.5321443603552
 31
0.0
  0
LINE
  5
13A5
330
138A
100
AcDbEntity
  8
エンボス
  6
Continuous
100
AcDbLine
 10
-1628.883842914771
 20
-217.0321443603552
 30
0.0
 11
-1635.883842914771
 21
-215.0321443603552
 31
0.0
  0
LINE
  5
13A6
330
138A
100
AcDbEntity
  8
エンボス
  6
Continuous
100
AcDbLine
 10
-1635.883842914771
 20
-212.0321443603552
 30
0.0
 11
-1628.883842914771
 21
-210.0321443603552
 31
0.0
  0
LINE
  5
13A7
330
138A
100
AcDbEntity
  8
エンボス
  6
Continuous
100
AcDbLine
 10
-1635.883842914771
 20
-224.0321443603552
 30
0.0
 11
-1628.883842914771
 21
-226.0321443603552
 31
0.0
  0
LINE
  5
13A8
330
138A
100
AcDbEntity
  8
エンボス
  6
Continuous
100
AcDbLine
 10
-1628.883842914771
 20
-229.0321443603552
 30
0.0
 11
-1635.883842914771
 21
-231.0321443603552
 31
0.0
  0
LINE
  5
13A9
330
138A
100
AcDbEntity
  8
本体
  6
Continuous
100
AcDbLine
 10
-1628.883842914771
 20
-259.5321443603552
 30
0.0
 11
-1628.883842914771
 21
-301.5321443603552
 31
0.0
  0
LINE
  5
13AA
330
138A
100
AcDbEntity
  8
本体
  6
Continuous
100
AcDbLine
 10
-1635.883842914771
 20
-259.5321443603552
 30
0.0
 11
-1635.883842914771
 21
-301.5321443603552
 31
0.0
  0
LINE
  5
13AB
330
138A
100
AcDbEntity
  8
エンボス
  6
Continuous
100
AcDbLine
 10
-1628.883842914771
 20
-295.0321443603552
 30
0.0
 11
-1635.883842914771
 21
-293.0321443603552
 31
0.0
  0
LINE
  5
13AC
330
138A
100
AcDbEntity
  8
エンボス
  6
Continuous
100
AcDbLine
 10
-1635.883842914771
 20
-290.0321443603552
 30
0.0
 11
-1628.883842914771
 21
-288.0321443603552
 31
0.0
  0
LINE
  5
13AD
330
138A
100
AcDbEntity
  8
本体
  6
Continuous
100
AcDbLine
 10
-1671.183842914771
 20
-259.5321443603552
 30
0.0
 11
-1635.883842914771
 21
-251.5321443603552
 31
0.0
  0
LINE
  5
13AE
330
138A
100
AcDbEntity
  8
エンボス
  6
Continuous
100
AcDbLine
 10
-1628.883842914771
 20
-267.0321443603552
 30
0.0
 11
-1635.883842914771
 21
-265.0321443603552
 31
0.0
  0
LINE
  5
13AF
330
138A
100
AcDbEntity
  8
エンボス
  6
Continuous
100
AcDbLine
 10
-1635.883842914771
 20
-262.0321443603552
 30
0.0
 11
-1628.883842914771
 21
-260.0321443603552
 31
0.0
  0
LINE
  5
13B0
330
138A
100
AcDbEntity
  8
エンボス
  6
Continuous
100
AcDbLine
 10
-1635.883842914771
 20
-274.0321443603552
 30
0.0
 11
-1628.883842914771
 21
-276.0321443603552
 31
0.0
  0
LINE
  5
13B1
330
138A
100
AcDbEntity
  8
エンボス
  6
Continuous
100
AcDbLine
 10
-1628.883842914771
 20
-279.0321443603552
 30
0.0
 11
-1635.883842914771
 21
-281.0321443603552
 31
0.0
  0
LINE
  5
13B2
330
138A
100
AcDbEntity
  8
本体
  6
Continuous
100
AcDbLine
 10
-1628.883842914771
 20
-309.5321443603552
 30
0.0
 11
-1628.883842914771
 21
-351.5321443603552
 31
0.0
  0
LINE
  5
13B3
330
138A
100
AcDbEntity
  8
本体
  6
Continuous
100
AcDbLine
 10
-1635.883842914771
 20
-309.5321443603552
 30
0.0
 11
-1635.883842914771
 21
-351.5321443603552
 31
0.0
  0
LINE
  5
13B4
330
138A
100
AcDbEntity
  8
エンボス
  6
Continuous
100
AcDbLine
 10
-1628.883842914771
 20
-345.0321443603552
 30
0.0
 11
-1635.883842914771
 21
-343.0321443603552
 31
0.0
  0
LINE
  5
13B5
330
138A
100
AcDbEntity
  8
エンボス
  6
Continuous
100
AcDbLine
 10
-1635.883842914771
 20
-340.0321443603552
 30
0.0
 11
-1628.883842914771
 21
-338.0321443603552
 31
0.0
  0
LINE
  5
13B6
330
138A
100
AcDbEntity
  8
本体
  6
Continuous
100
AcDbLine
 10
-1671.183842914771
 20
-309.5321443603552
 30
0.0
 11
-1635.883842914771
 21
-301.5321443603552
 31
0.0
  0
LINE
  5
13B7
330
138A
100
AcDbEntity
  8
エンボス
  6
Continuous
100
AcDbLine
 10
-1628.883842914771
 20
-317.0321443603552
 30
0.0
 11
-1635.883842914771
 21
-315.0321443603552
 31
0.0
  0
LINE
  5
13B8
330
138A
100
AcDbEntity
  8
エンボス
  6
Continuous
100
AcDbLine
 10
-1635.883842914771
 20
-312.0321443603552
 30
0.0
 11
-1628.883842914771
 21
-310.0321443603552
 31
0.0
  0
LINE
  5
13B9
330
138A
100
AcDbEntity
  8
エンボス
  6
Continuous
100
AcDbLine
 10
-1635.883842914771
 20
-324.0321443603552
 30
0.0
 11
-1628.883842914771
 21
-326.0321443603552
 31
0.0
  0
LINE
  5
13BA
330
138A
100
AcDbEntity
  8
エンボス
  6
Continuous
100
AcDbLine
 10
-1628.883842914771
 20
-329.0321443603553
 30
0.0
 11
-1635.883842914771
 21
-331.0321443603552
 31
0.0
  0
LINE
  5
13BB
330
138A
100
AcDbEntity
  8
本体
  6
Continuous
100
AcDbLine
 10
-1628.883842914771
 20
-359.5321443603552
 30
0.0
 11
-1628.883842914771
 21
-401.5321443603552
 31
0.0
  0
LINE
  5
13BC
330
138A
100
AcDbEntity
  8
本体
  6
Continuous
100
AcDbLine
 10
-1635.883842914771
 20
-359.5321443603552
 30
0.0
 11
-1635.883842914771
 21
-401.5321443603552
 31
0.0
  0
LINE
  5
13BD
330
138A
100
AcDbEntity
  8
エンボス
  6
Continuous
100
AcDbLine
 10
-1628.883842914771
 20
-395.0321443603552
 30
0.0
 11
-1635.883842914771
 21
-393.0321443603552
 31
0.0
  0
LINE
  5
13BE
330
138A
100
AcDbEntity
  8
エンボス
  6
Continuous
100
AcDbLine
 10
-1635.883842914771
 20
-390.0321443603552
 30
0.0
 11
-1628.883842914771
 21
-388.0321443603552
 31
0.0
  0
LINE
  5
13BF
330
138A
100
AcDbEntity
  8
本体
  6
Continuous
100
AcDbLine
 10
-1671.183842914771
 20
-359.5321443603552
 30
0.0
 11
-1635.883842914771
 21
-351.5321443603552
 31
0.0
  0
LINE
  5
13C0
330
138A
100
AcDbEntity
  8
エンボス
  6
Continuous
100
AcDbLine
 10
-1628.883842914771
 20
-367.0321443603552
 30
0.0
 11
-1635.883842914771
 21
-365.0321443603552
 31
0.0
  0
LINE
  5
13C1
330
138A
100
AcDbEntity
  8
エンボス
  6
Continuous
100
AcDbLine
 10
-1635.883842914771
 20
-362.0321443603552
 30
0.0
 11
-1628.883842914771
 21
-360.0321443603552
 31
0.0
  0
LINE
  5
13C2
330
138A
100
AcDbEntity
  8
エンボス
  6
Continuous
100
AcDbLine
 10
-1635.883842914771
 20
-374.0321443603552
 30
0.0
 11
-1628.883842914771
 21
-376.0321443603552
 31
0.0
  0
LINE
  5
13C3
330
138A
100
AcDbEntity
  8
エンボス
  6
Continuous
100
AcDbLine
 10
-1628.883842914771
 20
-379.0321443603553
 30
0.0
 11
-1635.883842914771
 21
-381.0321443603552
 31
0.0
  0
LINE
  5
13C4
330
138A
100
AcDbEntity
  8
本体
  6
Continuous
100
AcDbLine
 10
-1628.883842914771
 20
-409.5321443603552
 30
0.0
 11
-1628.883842914771
 21
-451.5321443603552
 31
0.0
  0
LINE
  5
13C5
330
138A
100
AcDbEntity
  8
本体
  6
Continuous
100
AcDbLine
 10
-1635.883842914771
 20
-409.5321443603552
 30
0.0
 11
-1635.883842914771
 21
-451.5321443603552
 31
0.0
  0
LINE
  5
13C6
330
138A
100
AcDbEntity
  8
エンボス
  6
Continuous
100
AcDbLine
 10
-1628.883842914771
 20
-445.0321443603552
 30
0.0
 11
-1635.883842914771
 21
-443.0321443603552
 31
0.0
  0
LINE
  5
13C7
330
138A
100
AcDbEntity
  8
エンボス
  6
Continuous
100
AcDbLine
 10
-1635.883842914771
 20
-440.0321443603552
 30
0.0
 11
-1628.883842914771
 21
-438.0321443603552
 31
0.0
  0
LINE
  5
13C8
330
138A
100
AcDbEntity
  8
本体
  6
Continuous
100
AcDbLine
 10
-1671.183842914771
 20
-409.5321443603552
 30
0.0
 11
-1635.883842914771
 21
-401.5321443603552
 31
0.0
  0
LINE
  5
13C9
330
138A
100
AcDbEntity
  8
エンボス
  6
Continuous
100
AcDbLine
 10
-1628.883842914771
 20
-417.0321443603552
 30
0.0
 11
-1635.883842914771
 21
-415.0321443603552
 31
0.0
  0
LINE
  5
13CA
330
138A
100
AcDbEntity
  8
エンボス
  6
Continuous
100
AcDbLine
 10
-1635.883842914771
 20
-412.0321443603552
 30
0.0
 11
-1628.883842914771
 21
-410.0321443603552
 31
0.0
  0
LINE
  5
13CB
330
138A
100
AcDbEntity
  8
エンボス
  6
Continuous
100
AcDbLine
 10
-1635.883842914771
 20
-424.0321443603552
 30
0.0
 11
-1628.883842914771
 21
-426.0321443603552
 31
0.0
  0
LINE
  5
13CC
330
138A
100
AcDbEntity
  8
エンボス
  6
Continuous
100
AcDbLine
 10
-1628.883842914771
 20
-429.0321443603552
 30
0.0
 11
-1635.883842914771
 21
-431.0321443603552
 31
0.0
  0
LINE
  5
13CD
330
138A
100
AcDbEntity
  8
本体
  6
Continuous
100
AcDbLine
 10
-1671.183842914771
 20
-459.5321443603552
 30
0.0
 11
-1635.883842914771
 21
-451.5321443603552
 31
0.0
  0
ENDBLK
  5
138C
330
138A
100
AcDbEntity
  8
0
 48
3.0
100
AcDbBlockEnd
  0
BLOCK
  5
138E
330
138D
100
AcDbEntity
  8
0
 48
3.0
100
AcDbBlockBegin
  2
*U33
 70
     1
 10
0.0
 20
0.0
 30
0.0
  3
*U33
  1

  0
INSERT
  5
13D8
330
138D
100
AcDbEntity
  8
本体
  6
ByBlock
 62
     0
370
    -2
380
     1
100
AcDbBlockReference
  2
*U32
 10
0.0
 20
0.0
 30
0.0
  0
INSERT
  5
13D9
330
138D
100
AcDbEntity
  8
本体
  6
ByBlock
 62
     0
370
    -2
380
     1
100
AcDbBlockReference
  2
*U32
 10
35.3
 20
0.0
 30
0.0
  0
INSERT
  5
13DA
330
138D
100
AcDbEntity
  8
本体
  6
ByBlock
 62
     0
370
    -2
380
     1
100
AcDbBlockReference
  2
*U32
 10
70.59999999999999
 20
0.0
 30
0.0
  0
INSERT
  5
13DB
330
138D
100
AcDbEntity
  8
本体
  6
ByBlock
 62
     0
370
    -2
380
     1
100
AcDbBlockReference
  2
*U32
 10
105.9
 20
0.0
 30
0.0
  0
INSERT
  5
13DC
330
138D
100
AcDbEntity
  8
本体
  6
ByBlock
 62
     0
370
    -2
380
     1
100
AcDbBlockReference
  2
*U32
 10
141.2
 20
0.0
 30
0.0
  0
INSERT
  5
13DD
330
138D
100
AcDbEntity
  8
本体
  6
ByBlock
 62
     0
370
    -2
380
     1
100
AcDbBlockReference
  2
*U32
 10
176.5
 20
0.0
 30
0.0
  0
INSERT
  5
13DE
330
138D
100
AcDbEntity
  8
本体
  6
ByBlock
 62
     0
370
    -2
380
     1
100
AcDbBlockReference
  2
*U32
 10
211.8
 20
0.0
 30
0.0
  0
INSERT
  5
13DF
330
138D
100
AcDbEntity
  8
本体
  6
ByBlock
 62
     0
370
    -2
380
     1
100
AcDbBlockReference
  2
*U32
 10
247.1
 20
0.0
 30
0.0
  0
INSERT
  5
13E0
330
138D
100
AcDbEntity
  8
本体
  6
ByBlock
 62
     0
370
    -2
380
     1
100
AcDbBlockReference
  2
*U32
 10
282.4
 20
0.0
 30
0.0
  0
INSERT
  5
13E1
330
138D
100
AcDbEntity
  8
本体
  6
ByBlock
 62
     0
370
    -2
380
     1
100
AcDbBlockReference
  2
*U32
 10
317.7
 20
0.0
 30
0.0
  0
INSERT
  5
13E2
330
138D
100
AcDbEntity
  8
本体
  6
ByBlock
 62
     0
370
    -2
380
     1
100
AcDbBlockReference
  2
*U32
 10
353.0
 20
0.0
 30
0.0
  0
INSERT
  5
13E3
330
138D
100
AcDbEntity
  8
本体
  6
ByBlock
 62
     0
370
    -2
380
     1
100
AcDbBlockReference
  2
*U32
 10
388.3
 20
0.0
 30
0.0
  0
INSERT
  5
13E4
330
138D
100
AcDbEntity
  8
本体
  6
ByBlock
 62
     0
370
    -2
380
     1
100
AcDbBlockReference
  2
*U32
 10
423.5999999999999
 20
0.0
 30
0.0
  0
INSERT
  5
13E5
330
138D
100
AcDbEntity
  8
本体
  6
ByBlock
 62
     0
370
    -2
380
     1
100
AcDbBlockReference
  2
*U32
 10
458.8999999999999
 20
0.0
 30
0.0
  0
INSERT
  5
13E6
330
138D
100
AcDbEntity
  8
本体
  6
ByBlock
 62
     0
370
    -2
380
     1
100
AcDbBlockReference
  2
*U32
 10
494.1999999999999
 20
0.0
 30
0.0
  0
INSERT
  5
13E7
330
138D
100
AcDbEntity
  8
本体
  6
ByBlock
 62
     0
370
    -2
380
     1
100
AcDbBlockReference
  2
*U32
 10
529.4999999999999
 20
0.0
 30
0.0
  0
INSERT
  5
13E8
330
138D
100
AcDbEntity
  8
本体
  6
ByBlock
 62
     0
370
    -2
380
     1
100
AcDbBlockReference
  2
*U32
 10
564.7999999999999
 20
0.0
 30
0.0
  0
INSERT
  5
13E9
330
138D
100
AcDbEntity
  8
本体
  6
ByBlock
 62
     0
370
    -2
380
     1
100
AcDbBlockReference
  2
*U32
 10
600.0999999999999
 20
0.0
 30
0.0
  0
INSERT
  5
13EA
330
138D
100
AcDbEntity
  8
本体
  6
ByBlock
 62
     0
370
    -2
380
     1
100
AcDbBlockReference
  2
*U32
 10
635.4
 20
0.0
 30
0.0
  0
INSERT
  5
13EB
330
138D
100
AcDbEntity
  8
本体
  6
ByBlock
 62
     0
370
    -2
380
     1
100
AcDbBlockReference
  2
*U32
 10
670.6999999999999
 20
0.0
 30
0.0
  0
INSERT
  5
13EC
330
138D
100
AcDbEntity
  8
本体
  6
ByBlock
 62
     0
370
    -2
380
     1
100
AcDbBlockReference
  2
*U32
 10
706.0
 20
0.0
 30
0.0
  0
INSERT
  5
13ED
330
138D
100
AcDbEntity
  8
本体
  6
ByBlock
 62
     0
370
    -2
380
     1
100
AcDbBlockReference
  2
*U32
 10
741.2999999999999
 20
0.0
 30
0.0
  0
INSERT
  5
13EE
330
138D
100
AcDbEntity
  8
本体
  6
ByBlock
 62
     0
370
    -2
380
     1
100
AcDbBlockReference
  2
*U32
 10
776.5999999999999
 20
0.0
 30
0.0
  0
INSERT
  5
13EF
330
138D
100
AcDbEntity
  8
本体
  6
ByBlock
 62
     0
370
    -2
380
     1
100
AcDbBlockReference
  2
*U32
 10
811.8999999999999
 20
0.0
 30
0.0
  0
INSERT
  5
13F0
330
138D
100
AcDbEntity
  8
本体
  6
ByBlock
 62
     0
370
    -2
380
     1
100
AcDbBlockReference
  2
*U32
 10
847.1999999999999
 20
0.0
 30
0.0
  0
INSERT
  5
13F1
330
138D
100
AcDbEntity
  8
本体
  6
ByBlock
 62
     0
370
    -2
380
     1
100
AcDbBlockReference
  2
*U32
 10
882.4999999999999
 20
0.0
 30
0.0
  0
INSERT
  5
13F2
330
138D
100
AcDbEntity
  8
本体
  6
ByBlock
 62
     0
370
    -2
380
     1
100
AcDbBlockReference
  2
*U32
 10
917.7999999999999
 20
0.0
 30
0.0
  0
ENDBLK
  5
138F
330
138D
100
AcDbEntity
  8
0
 48
3.0
100
AcDbBlockEnd
  0
ENDSEC
  0
SECTION
  2
ENTITIES
  0
LINE
  5
12
330
2
100
AcDbEntity
  8
外枠
 48
80.0
370
     9
100
AcDbLine
 10
0.0
 20
0.0
 30
0.0
 11
2789.511161023067
 21
0.0
 31
0.0
  0
LINE
  5
13
330
2
100
AcDbEntity
  8
外枠
 48
80.0
370
     9
100
AcDbLine
 10
2789.511161023071
 20
1973.26911249564
 30
0.0
 11
0.0
 21
1973.26911249564
 31
0.0
  0
LINE
  5
14
330
2
100
AcDbEntity
  8
外枠
 48
100.0
370
     9
100
AcDbLine
 10
10.0
 20
10.0
 30
0.0
 11
2780.119625023061
 21
10.0
 31
0.0
  0
LINE
  5
17
330
2
100
AcDbEntity
  8
外枠
  6
Continuous
 48
100.0
370
     9
100
AcDbLine
 10
9.999999999996362
 20
155.3992728208031
 30
0.0
 11
2780.119625023061
 21
155.3992728207995
 31
0.0
  0
LINE
  5
18
330
2
100
AcDbEntity
  8
外枠
  6
Continuous
 48
100.0
370
     9
100
AcDbLine
 10
9.999999999996362
 20
160.0950408208045
 30
0.0
 11
2780.119625023061
 21
160.0950408207973
 31
0.0
  0
LINE
  5
19
330
2
100
AcDbEntity
  8
外枠
 48
100.0
370
     9
100
AcDbLine
 10
10.0
 20
1963.877576495633
 30
0.0
 11
2780.119625023053
 21
1963.877576495637
 31
0.0
  0
LINE
  5
1A
330
2
100
AcDbEntity
  8
外枠
 48
80.0
370
     9
100
AcDbLine
 10
0.0
 20
0.0
 30
0.0
 11
0.0
 21
1973.26911249564
 31
0.0
  0
LINE
  5
1B
330
2
100
AcDbEntity
  8
外枠
 48
100.0
370
     9
100
AcDbLine
 10
10.0
 20
1963.877576495633
 30
0.0
 11
10.0
 21
10.0
 31
0.0
  0
LINE
  5
1C
330
2
100
AcDbEntity
  8
外枠
  6
Continuous
 48
100.0
370
     9
100
AcDbLine
 10
10.0
 20
82.69963641040158
 30
0.0
 11
1153.530108552004
 21
82.69963641039794
 31
0.0
  0
MTEXT
  5
1D
330
2
100
AcDbEntity
  8
外枠
  6
Continuous
 48
100.0
370
     9
100
AcDbMText
 10
555.6000408682721
 20
136.1535564242149
 30
0.0
 40
29.0
 41
664.6118999999999
 71
     1
 72
     5
  1
自由勾配側溝用グレーチング
 73
     1
 44
1.0
1001
ACAD
1000
MTEXTBEGIN
1070
    73
1070
     1
1070
    44
1040
1.0
1070
    74
1070
     0
1000
MTEXTEND
  0
MTEXT
  5
1E
330
2
100
AcDbEntity
  8
外枠
  6
Continuous
 48
100.0
370
     9
100
AcDbMText
 10
246.8574963386418
 20
64.81814764649607
 30
0.0
 40
35.0
 41
532.9183
 71
     1
 72
     5
  1
395\U+00D7995\U+00D750/95
 73
     1
 44
1.0
1001
ACAD
1000
MTEXTBEGIN
1070
    73
1070
     1
1070
    44
1040
1.0
1070
    74
1070
     0
1000
MTEXTEND
  0
MTEXT
  5
1F
330
2
100
AcDbEntity
  8
外枠
  6
Continuous
 48
100.0
370
     9
100
AcDbMText
 10
73.47653388609796
 20
137.3760680266387
 30
0.0
 40
30.0
 41
126.3036
 71
     1
 72
     5
  1
T-20
 73
     1
 44
1.0
1001
ACAD
1000
MTEXTBEGIN
1070
    73
1070
     1
1070
    44
1040
1.0
1070
    74
1070
     0
1000
MTEXTEND
  0
MTEXT
  5
20
330
2
100
AcDbEntity
  8
外枠
  6
Continuous
 48
100.0
370
     9
100
AcDbMText
 10
68.92783543177666
 20
59.95966632915224
 30
0.0
 40
35.0
 41
88.86979999999999
 71
     1
 72
     5
  1
TFVP
 73
     1
 44
1.0
1001
ACAD
1000
MTEXTBEGIN
1070
    73
1070
     1
1070
    44
1040
1.0
1070
    74
1070
     0
1000
MTEXTEND
  0
LINE
  5
21
330
2
100
AcDbEntity
  8
外枠
 48
100.0
370
     9
100
AcDbLine
 10
45.0
 20
155.3992728208031
 30
0.0
 11
45.0
 21
10.0
 31
0.0
  0
MTEXT
  5
22
330
2
100
AcDbEntity
  8
外枠
  6
Continuous
 48
100.0
370
     9
100
AcDbMText
 10
15.05670849094895
 20
75.82038473524153
 30
0.0
 40
20.0
 41
23.52947333656417
 71
     1
 72
     5
  1
品\P番
 73
     1
 44
1.0
1001
ACAD
1000
MTEXTBEGIN
1070
    73
1070
     1
1070
    44
1040
1.0
1070
    74
1070
     0
1000
MTEXTEND
  0
MTEXT
  5
23
330
2
100
AcDbEntity
  8
外枠
  6
Continuous
 48
100.0
370
     9
100
AcDbMText
 10
14.92010060012399
 20
149.3317229429121
 30
0.0
 40
20.0
 41
30.07989939987533
 71
     1
 72
     5
  1
荷\P重
 73
     1
 44
1.0
1001
ACAD
1000
MTEXTBEGIN
1070
    73
1070
     1
1070
    44
1040
1.0
1070
    74
1070
     0
1000
MTEXTEND
  0
LINE
  5
24
330
2
100
AcDbEntity
  8
外枠
 48
100.0
370
     9
100
AcDbLine
 10
179.1040495562847
 20
155.3992728208031
 30
0.0
 11
179.1040495562847
 21
10.0
 31
0.0
  0
MTEXT
  5
25
330
2
100
AcDbEntity
  8
外枠
  6
Continuous
 48
100.0
370
     9
100
AcDbMText
 10
268.9341625605839
 20
133.8572910967996
 30
0.0
 40
30.0
 41
163.9045
 71
     1
 72
     5
  1
VS300用
 73
     1
 44
1.0
1001
ACAD
1000
MTEXTBEGIN
1070
    73
1070
     1
1070
    44
1040
1.0
1070
    74
1070
     0
1000
MTEXTEND
  0
MTEXT
  5
26
330
2
100
AcDbEntity
  8
外枠
  6
Continuous
 48
100.0
370
     9
100
AcDbMText
 10
184.4346535744698
 20
149.3074501239389
 30
0.0
 40
20.0
 41
29.6694
 71
     1
 72
     5
  1
溝幅
 73
     1
 44
1.0
1001
ACAD
1000
MTEXTBEGIN
1070
    73
1070
     1
1070
    44
1040
1.0
1070
    74
1070
     0
1000
MTEXTEND
  0
LINE
  5
27
330
2
100
AcDbEntity
  8
外枠
 48
100.0
370
     9
100
AcDbLine
 10
214.1040495562847
 20
155.3992728208031
 30
0.0
 11
214.1040495562847
 21
82.69963641040158
 31
0.0
  0
MTEXT
  5
28
330
2
100
AcDbEntity
  8
外枠
  6
Continuous
 48
100.0
370
     9
100
AcDbMText
 10
477.8955451146976
 20
149.3074501239389
 30
0.0
 40
20.0
 41
29.6694
 71
     1
 72
     5
  1
品名
 73
     1
 44
1.0
1001
ACAD
1000
MTEXTBEGIN
1070
    73
1070
     1
1070
    44
1040
1.0
1070
    74
1070
     0
1000
MTEXTEND
  0
LINE
  5
29
330
2
100
AcDbEntity
  8
外枠
 48
100.0
370
     9
100
AcDbLine
 10
472.5649410965124
 20
155.3992728208031
 30
0.0
 11
472.5649410965124
 21
82.69963641040158
 31
0.0
  0
LINE
  5
2A
330
2
100
AcDbEntity
  8
外枠
 48
100.0
370
     9
100
AcDbLine
 10
507.5649410965125
 20
155.3992728208031
 30
0.0
 11
507.5649410965125
 21
82.69963641040158
 31
0.0
  0
MTEXT
  5
2B
330
2
100
AcDbEntity
  8
外枠
  6
Continuous
 48
100.0
370
     9
100
AcDbMText
 10
728.477887653953
 20
76.92551173516403
 30
0.0
 40
20.0
 41
664.6118999999999
 71
     1
 72
     5
  1
摘\P要
 73
     1
 44
1.0
1001
ACAD
1000
MTEXTBEGIN
1070
    73
1070
     1
1070
    44
1040
1.0
1070
    74
1070
     0
1000
MTEXTEND
  0
LINE
  5
2C
330
2
100
AcDbEntity
  8
外枠
 48
100.0
370
     9
100
AcDbLine
 10
723.8282373115871
 20
82.6996364103943
 30
0.0
 11
723.8282373115871
 21
9.999999999992724
 31
0.0
  0
LINE
  5
2F
330
2
100
AcDbEntity
  8
外枠
 48
100.0
370
     9
100
AcDbLine
 10
758.8282373115871
 20
82.6996364103943
 30
0.0
 11
758.8282373115871
 21
9.999999999992724
 31
0.0
  0
LINE
  5
31
330
2
100
AcDbEntity
  8
外枠
 48
100.0
370
     9
100
AcDbLine
 10
974.9513069700951
 20
82.6996364103943
 30
0.0
 11
974.9513069700951
 21
9.999999999992724
 31
0.0
  0
MTEXT
  5
32
330
2
100
AcDbEntity
  8
外枠
  6
Continuous
 48
100.0
370
     9
100
AcDbMText
 10
979.7329598959768
 20
74.84825461820583
 30
0.0
 40
20.0
 41
31.38947761565365
 71
     1
 72
     5
  1
材\P質
 73
     1
 44
1.0
1001
ACAD
1000
MTEXTBEGIN
1070
    73
1070
     1
1070
    44
1040
1.0
1070
    74
1070
     0
1000
MTEXTEND
  0
LINE
  5
33
330
2
100
AcDbEntity
  8
外枠
 48
100.0
370
     9
100
AcDbLine
 10
1009.951306970095
 20
82.6996364103943
 30
0.0
 11
1009.951306970095
 21
9.999999999992724
 31
0.0
  0
LINE
  5
37
330
2
100
AcDbEntity
  8
外枠
 48
80.0
370
     9
100
AcDbLine
 10
2789.511161023067
 20
0.0
 30
0.0
 11
2789.511161023071
 21
1973.26911249564
 31
0.0
  0
LINE
  5
38
330
2
100
AcDbEntity
  8
外枠
 48
100.0
370
     9
100
AcDbLine
 10
2780.119625023053
 20
1963.877576495637
 30
0.0
 11
2780.119625023061
 21
10.0
 31
0.0
  0
LINE
  5
3A
330
2
100
AcDbEntity
  8
外枠
 48
3.0
100
AcDbLine
 10
1607.072254912545
 20
61.67068719952067
 30
0.0
 11
2262.173600934632
 21
61.67068719952067
 31
0.0
  0
MTEXT
  5
3B
330
2
100
AcDbEntity
  8
外枠
  6
Continuous
 48
100.0
370
     9
100
AcDbMText
 10
1683.622173868318
 20
50.71504764095289
 30
0.0
 40
30.00024
 41
539.4827578564582
 71
     1
 72
     5
  1
T A K A R A   G R A T I N G
 73
     1
 44
1.0
1001
ACAD
1000
MTEXTBEGIN
1070
    73
1070
     1
1070
    44
1040
1.0
1070
    74
1070
     0
1000
MTEXTEND
  0
MTEXT
  5
3C
330
2
100
AcDbEntity
  8
外枠
  6
Continuous
 48
100.0
370
     9
100
AcDbMText
 10
1728.02061463669
 20
127.1672938476838
 30
0.0
 40
30.0
 41
282.8297
 71
     1
 72
     5
  1
株 式 会 社
 73
     1
 44
1.0
1001
ACAD
1000
MTEXTBEGIN
1070
    73
1070
     1
1070
    44
1040
1.0
1070
    74
1070
     0
1000
MTEXTEND
  0
LINE
  5
3D
330
2
100
AcDbEntity
  8
外枠
  6
Continuous
 48
100.0
370
     9
100
AcDbLine
 10
1508.680137877982
 20
155.3992728208068
 30
0.0
 11
1508.680137877982
 21
10.00000000000364
 31
0.0
  0
LINE
  5
3E
330
2
100
AcDbEntity
  8
外枠
  6
Continuous
 48
100.0
370
     9
100
AcDbLine
 10
1593.95141853916
 20
155.3992728207995
 30
0.0
 11
1593.95141853916
 21
9.999999999996362
 31
0.0
  0
LINE
  5
3F
330
2
100
AcDbEntity
  8
外枠
  6
Continuous
 48
100.0
370
     9
100
AcDbLine
 10
1616.777813337499
 20
106.634063069062
 30
0.0
 11
1612.463999974505
 21
110.08511375945
 31
0.0
  0
LINE
  5
40
330
2
100
AcDbEntity
  8
外枠
  6
Continuous
 48
100.0
370
     9
100
AcDbLine
 10
1616.777813337499
 20
106.634063069062
 30
0.0
 11
1612.463999974505
 21
103.183012378663
 31
0.0
  0
LINE
  5
41
330
2
100
AcDbEntity
  8
外枠
  6
Continuous
 48
100.0
370
     9
100
AcDbLine
 10
1616.777813337505
 20
113.5361644498489
 30
0.0
 11
1612.463999974505
 21
110.08511375945
 31
0.0
  0
LINE
  5
42
330
2
100
AcDbEntity
  8
外枠
  6
Continuous
 48
100.0
370
     9
100
AcDbLine
 10
1616.777813337499
 20
99.73196168827508
 30
0.0
 11
1612.463999974505
 21
103.183012378663
 31
0.0
  0
MTEXT
  5
43
330
2
100
AcDbEntity
  8
外枠
  6
Continuous
 48
100.0
370
     9
100
AcDbMText
 10
1520.476936402745
 20
137.4995509975779
 30
0.0
 40
20.0
 41
1015.1375
 71
     1
 72
     5
  1
34.1
 73
     1
 44
1.0
1001
ACAD
1000
MTEXTBEGIN
1070
    73
1070
     1
1070
    44
1040
1.0
1070
    74
1070
     0
1000
MTEXTEND
  0
MTEXT
  5
44
330
2
100
AcDbEntity
  8
外枠
  6
Continuous
 48
100.0
370
     9
100
AcDbMText
 10
1568.464698185987
 20
108.4136993179927
 30
0.0
 40
18.0
 41
25.456
 71
     1
 72
     5
  1
kg
 73
     1
 44
1.0
1001
ACAD
1000
MTEXTBEGIN
1070
    73
1070
     1
1070
    44
1040
1.0
1070
    74
1070
     0
1000
MTEXTEND
  0
LINE
  5
45
330
2
100
AcDbEntity
  8
外枠
  6
Continuous
 48
100.0
370
     9
100
AcDbLine
 10
1649.122643507042
 20
139.4120285854742
 30
0.0
 11
1653.436456870031
 21
135.9609778950862
 31
0.0
  0
LINE
  5
46
330
2
100
AcDbEntity
  8
外枠
  6
Continuous
 48
100.0
370
     9
100
AcDbLine
 10
1666.377896959009
 20
139.4120285854742
 30
0.0
 11
1662.06408359602
 21
135.9609778950862
 31
0.0
  0
MTEXT
  5
47
330
2
100
AcDbEntity
  8
外枠
  6
Continuous
 48
100.0
370
     9
100
AcDbMText
 10
1642.840555134189
 20
120.8184913847756
 30
0.0
 40
23.95393639053264
 41
23.85059431815661
 71
     1
 72
     5
  1
{\fＭＳ ゴシック|b0|i0|c128|p49;宝}
 73
     1
 44
1.0
1001
ACAD
1000
MTEXTBEGIN
1070
    73
1070
     1
1070
    44
1040
1.0
1070
    74
1070
     0
1000
MTEXTEND
  0
LINE
  5
48
330
2
100
AcDbEntity
  8
外枠
  6
Continuous
 48
100.0
370
     9
100
AcDbLine
 10
1662.06408359602
 20
135.9609778950862
 30
0.0
 11
1694.408913765557
 21
110.08511375945
 31
0.0
  0
LINE
  5
49
330
2
100
AcDbEntity
  8
外枠
  6
Continuous
 48
100.0
370
     9
100
AcDbLine
 10
1657.750270233026
 20
132.5099272046927
 30
0.0
 11
1690.095100402563
 21
106.634063069062
 31
0.0
  0
LINE
  5
4A
330
2
100
AcDbEntity
  8
外枠
  6
Continuous
 48
100.0
370
     9
100
AcDbLine
 10
1690.095100402563
 20
106.634063069062
 30
0.0
 11
1657.750270233026
 21
80.75819893343123
 31
0.0
  0
LINE
  5
4B
330
2
100
AcDbEntity
  8
外枠
  6
Continuous
 48
100.0
370
     9
100
AcDbLine
 10
1694.408913765557
 20
103.183012378663
 30
0.0
 11
1662.06408359602
 21
77.30714824303777
 31
0.0
  0
LINE
  5
4C
330
2
100
AcDbEntity
  8
外枠
  6
Continuous
 48
100.0
370
     9
100
AcDbLine
 10
1657.750270233026
 20
80.75819893342577
 30
0.0
 11
1625.405440063488
 21
106.634063069062
 31
0.0
  0
LINE
  5
4D
330
2
100
AcDbEntity
  8
外枠
  6
Continuous
 48
100.0
370
     9
100
AcDbLine
 10
1653.436456870031
 20
77.30714824303777
 30
0.0
 11
1621.0916267005
 21
103.183012378663
 31
0.0
  0
LINE
  5
4E
330
2
100
AcDbEntity
  8
外枠
  6
Continuous
 48
100.0
370
     9
100
AcDbLine
 10
1621.0916267005
 20
103.183012378663
 30
0.0
 11
1616.777813337505
 21
99.73196168827508
 31
0.0
  0
LINE
  5
4F
330
2
100
AcDbEntity
  8
外枠
  6
Continuous
 48
100.0
370
     9
100
AcDbLine
 10
1653.436456870031
 20
77.30714824303777
 30
0.0
 11
1649.122643507042
 21
73.85609755263885
 31
0.0
  0
LINE
  5
50
330
2
100
AcDbEntity
  8
外枠
  6
Continuous
 48
100.0
370
     9
100
AcDbLine
 10
1653.436456870031
 20
70.4050468622454
 30
0.0
 11
1649.122643507042
 21
73.85609755263885
 31
0.0
  0
LINE
  5
51
330
2
100
AcDbEntity
  8
外枠
  6
Continuous
 48
100.0
370
     9
100
AcDbLine
 10
1657.750270233026
 20
73.85609755263885
 30
0.0
 11
1653.436456870031
 21
70.4050468622454
 31
0.0
  0
LINE
  5
52
330
2
100
AcDbEntity
  8
外枠
  6
Continuous
 48
100.0
370
     9
100
AcDbLine
 10
1666.377896959009
 20
73.85609755263885
 30
0.0
 11
1662.06408359602
 21
70.4050468622454
 31
0.0
  0
LINE
  5
53
330
2
100
AcDbEntity
  8
外枠
  6
Continuous
 48
100.0
370
     9
100
AcDbLine
 10
1662.06408359602
 20
70.4050468622454
 30
0.0
 11
1657.750270233026
 21
73.85609755263885
 31
0.0
  0
LINE
  5
54
330
2
100
AcDbEntity
  8
外枠
  6
Continuous
 48
100.0
370
     9
100
AcDbLine
 10
1666.377896959009
 20
73.85609755263885
 30
0.0
 11
1662.06408359602
 21
77.30714824303777
 31
0.0
  0
LINE
  5
55
330
2
100
AcDbEntity
  8
外枠
  6
Continuous
 48
100.0
370
     9
100
AcDbLine
 10
1657.750270233026
 20
132.5099272046927
 30
0.0
 11
1625.405440063483
 21
106.634063069062
 31
0.0
  0
LINE
  5
56
330
2
100
AcDbEntity
  8
外枠
  6
Continuous
 48
100.0
370
     9
100
AcDbLine
 10
1653.436456870031
 20
135.9609778950862
 30
0.0
 11
1621.0916267005
 21
110.08511375945
 31
0.0
  0
LINE
  5
57
330
2
100
AcDbEntity
  8
外枠
  6
Continuous
 48
100.0
370
     9
100
AcDbLine
 10
1621.0916267005
 20
110.08511375945
 30
0.0
 11
1616.777813337505
 21
113.5361644498489
 31
0.0
  0
LINE
  5
58
330
2
100
AcDbEntity
  8
外枠
  6
Continuous
 48
100.0
370
     9
100
AcDbLine
 10
1694.408913765557
 20
103.183012378663
 30
0.0
 11
1698.722727128541
 21
99.73196168827508
 31
0.0
  0
LINE
  5
59
330
2
100
AcDbEntity
  8
外枠
  6
Continuous
 48
100.0
370
     9
100
AcDbLine
 10
1703.036540491541
 20
103.183012378663
 30
0.0
 11
1698.722727128541
 21
99.73196168827508
 31
0.0
  0
LINE
  5
5A
330
2
100
AcDbEntity
  8
外枠
  6
Continuous
 48
100.0
370
     9
100
AcDbLine
 10
1698.722727128541
 20
113.5361644498489
 30
0.0
 11
1694.408913765557
 21
110.08511375945
 31
0.0
  0
LINE
  5
5B
330
2
100
AcDbEntity
  8
外枠
  6
Continuous
 48
100.0
370
     9
100
AcDbLine
 10
1698.722727128541
 20
106.634063069062
 30
0.0
 11
1703.036540491541
 21
103.183012378663
 31
0.0
  0
LINE
  5
5C
330
2
100
AcDbEntity
  8
外枠
  6
Continuous
 48
100.0
370
     9
100
AcDbLine
 10
1698.722727128541
 20
113.5361644498489
 30
0.0
 11
1703.036540491541
 21
110.08511375945
 31
0.0
  0
LINE
  5
5D
330
2
100
AcDbEntity
  8
外枠
  6
Continuous
 48
100.0
370
     9
100
AcDbLine
 10
1703.036540491541
 20
110.08511375945
 30
0.0
 11
1698.722727128541
 21
106.634063069062
 31
0.0
  0
LINE
  5
5E
330
2
100
AcDbEntity
  8
外枠
  6
Continuous
 48
100.0
370
     9
100
AcDbLine
 10
1653.436456870031
 20
142.8630792758676
 30
0.0
 11
1649.122643507042
 21
139.4120285854742
 31
0.0
  0
LINE
  5
5F
330
2
100
AcDbEntity
  8
外枠
  6
Continuous
 48
100.0
370
     9
100
AcDbLine
 10
1662.06408359602
 20
142.8630792758676
 30
0.0
 11
1666.377896959009
 21
139.4120285854742
 31
0.0
  0
LINE
  5
60
330
2
100
AcDbEntity
  8
外枠
  6
Continuous
 48
100.0
370
     9
100
AcDbLine
 10
1653.436456870031
 20
142.8630792758676
 30
0.0
 11
1657.750270233026
 21
139.4120285854742
 31
0.0
  0
LINE
  5
61
330
2
100
AcDbEntity
  8
外枠
  6
Continuous
 48
100.0
370
     9
100
AcDbLine
 10
1662.06408359602
 20
142.8630792758676
 30
0.0
 11
1657.750270233026
 21
139.4120285854742
 31
0.0
  0
MTEXT
  5
62
330
2
100
AcDbEntity
  8
外枠
  6
Continuous
 48
100.0
370
     9
100
AcDbMText
 10
1982.246612759803
 20
141.5312822365363
 30
0.0
 40
50.0
 41
269.1378
 71
     1
 72
     5
  1
宝 機 材
 73
     1
 44
1.0
1001
ACAD
1000
MTEXTBEGIN
1070
    73
1070
     1
1070
    44
1040
1.0
1070
    74
1070
     0
1000
MTEXTEND
  0
INSERT
  5
63
330
2
100
AcDbEntity
  8
0
100
AcDbBlockReference
  2
GIB詳細
 10
2565.418449883758
 20
297.7225231137781
 30
0.0
  0
LINE
  5
AB
330
2
100
AcDbEntity
  8
外枠
  6
Continuous
 48
100.0
370
     9
100
AcDbLine
 10
2694.775480668144
 20
78.59726492113622
 30
0.0
 11
2729.639779322774
 21
43.73296626650699
 31
0.0
  0
LINE
  5
AC
330
2
100
AcDbEntity
  8
外枠
  6
Continuous
 48
100.0
370
     9
100
AcDbLine
 10
2729.639779322774
 20
113.4615635757691
 30
0.0
 11
2694.775480668144
 21
78.59726492113622
 31
0.0
  0
LINE
  5
AE
330
2
100
AcDbEntity
  8
外枠
  6
Continuous
 48
100.0
370
     9
100
AcDbLine
 10
2271.730765417811
 20
155.3992728207995
 30
0.0
 11
2271.730765417811
 21
10.0
 31
0.0
  0
LINE
  5
AF
330
2
100
AcDbEntity
  8
外枠
  6
Continuous
 48
100.0
370
     9
100
AcDbLine
 10
2387.385592047314
 20
155.3992728207995
 30
0.0
 11
2387.385592047314
 21
9.999999999996362
 31
0.0
  0
MTEXT
  5
B0
330
2
100
AcDbEntity
  8
外枠
  6
Continuous
 48
100.0
370
     9
100
AcDbMText
 10
2518.897970034654
 20
80.52451510381798
 30
0.0
 40
16.435188
 41
274.138099993296
 71
     1
 72
     5
  1
縮尺（A4用紙)
 73
     1
 44
1.0
1001
ACAD
1000
MTEXTBEGIN
1070
    73
1070
     1
1070
    44
1040
1.0
1070
    74
1070
     0
1000
MTEXTEND
  0
LINE
  5
B1
330
2
100
AcDbEntity
  8
外枠
  6
Continuous
 48
100.0
370
     9
100
AcDbLine
 10
2503.04041867681
 20
155.3992728207995
 30
0.0
 11
2503.04041867681
 21
9.999999999996362
 31
0.0
  0
LINE
  5
B2
330
2
100
AcDbEntity
  8
外枠
  6
Continuous
 48
100.0
370
     9
100
AcDbLine
 10
2676.662359028593
 20
155.3992728207995
 30
0.0
 11
2676.662359028593
 21
10.0
 31
0.0
  0
MTEXT
  5
B3
330
2
100
AcDbEntity
  8
外枠
  6
Continuous
 48
100.0
370
     9
100
AcDbMText
 10
2557.587330290393
 20
42.24161905183791
 30
0.0
 40
23.47884
 41
274.138099993296
 71
     1
 72
     5
  1
1：10
 73
     1
 44
1.0
1001
ACAD
1000
MTEXTBEGIN
1070
    73
1070
     1
1070
    44
1040
1.0
1070
    74
1070
     0
1000
MTEXTEND
  0
MTEXT
  5
B4
330
2
100
AcDbEntity
  8
外枠
  6
Continuous
 48
100.0
370
     9
100
AcDbMText
 10
2280.290404386422
 20
149.5129012429788
 30
0.0
 40
18.783072
 41
274.13809060176
 71
     1
 72
     5
  1
Check
 73
     1
 44
1.0
1001
ACAD
1000
MTEXTBEGIN
1070
    73
1070
     1
1070
    44
1040
1.0
1070
    74
1070
     0
1000
MTEXTEND
  0
MTEXT
  5
B5
330
2
100
AcDbEntity
  8
外枠
  6
Continuous
 48
100.0
370
     9
100
AcDbMText
 10
2398.03460165154
 20
149.5129012429788
 30
0.0
 40
18.783072
 41
274.13809060176
 71
     1
 72
     5
  1
Draw
 73
     1
 44
1.0
1001
ACAD
1000
MTEXTBEGIN
1070
    73
1070
     1
1070
    44
1040
1.0
1070
    74
1070
     0
1000
MTEXTEND
  0
LINE
  5
B7
330
2
100
AcDbEntity
  8
外枠
  6
Continuous
 48
100.0
370
     9
100
AcDbLine
 10
2676.662359028593
 20
85.04752041039683
 30
0.0
 11
2503.04041867681
 21
85.04752041039683
 31
0.0
  0
MTEXT
  5
B8
330
2
100
AcDbEntity
  8
外枠
  6
Continuous
 48
100.0
370
     9
100
AcDbMText
 10
2518.897970034654
 20
153.7304166203976
 30
0.0
 40
16.435188
 41
274.138099993296
 71
     1
 72
     5
  1
図面作成日
 73
     1
 44
1.0
1001
ACAD
1000
MTEXTBEGIN
1070
    73
1070
     1
1070
    44
1040
1.0
1070
    74
1070
     0
1000
MTEXTEND
  0
LINE
  5
BA
330
2
100
AcDbEntity
  8
外枠
  6
Continuous
 48
100.0
370
     9
100
AcDbLine
 10
2729.639779322774
 20
43.73296626650699
 30
0.0
 11
2764.504077977396
 21
78.59726492113622
 31
0.0
  0
LINE
  5
BB
330
2
100
AcDbEntity
  8
外枠
  6
Continuous
 48
100.0
370
     9
100
AcDbLine
 10
2764.504077977396
 20
78.59726492113622
 30
0.0
 11
2729.639779322774
 21
113.4615635757691
 31
0.0
  0
LINE
  5
C6
330
2
100
AcDbEntity
  8
本体
  6
Continuous
100
AcDbLine
 10
416.7752334948781
 20
1589.620531749562
 30
0.0
 11
1411.775233494878
 21
1589.620531749562
 31
0.0
  0
LINE
  5
C7
330
2
100
AcDbEntity
  8
本体
  6
Continuous
100
AcDbLine
 10
416.7752334948781
 20
1583.620531749562
 30
0.0
 11
1411.775233494878
 21
1583.620531749562
 31
0.0
  0
LINE
  5
C8
330
2
100
AcDbEntity
  8
本体
  6
Continuous
100
AcDbLine
 10
416.7752334948781
 20
1546.120531749562
 30
0.0
 11
1411.775233494878
 21
1546.120531749562
 31
0.0
  0
LINE
  5
C9
330
2
100
AcDbEntity
  8
本体
  6
Continuous
100
AcDbLine
 10
416.7752334948781
 20
1538.120531749562
 30
0.0
 11
1411.775233494878
 21
1538.120531749562
 31
0.0
  0
LINE
  5
108
330
2
100
AcDbEntity
  8
本体
  6
Continuous
100
AcDbLine
 10
423.771255528874
 20
707.7299929925266
 30
0.0
 11
452.0752334948779
 21
707.7299929925266
 31
0.0
  0
LINE
  5
109
330
2
100
AcDbEntity
  8
本体
  6
Continuous
100
AcDbLine
 10
424.9843751650606
 20
699.7299929925266
 30
0.0
 11
452.0752334948779
 21
699.7299929925266
 31
0.0
  0
LINE
  5
10A
330
2
100
AcDbEntity
  8
本体
  6
Continuous
100
AcDbLine
 10
429.8682921092746
 20
663.7299929925266
 30
0.0
 11
452.0752334948784
 21
663.7299929925266
 31
0.0
  0
LINE
  5
10B
330
2
100
AcDbEntity
  8
本体
  6
Continuous
100
AcDbLine
 10
424.9346740991918
 20
700.0577500538168
 30
0.0
 11
452.0752334948779
 21
707.7299929925266
 31
0.0
  0
LINE
  5
184
330
2
100
AcDbEntity
  8
本体
  6
Continuous
100
AcDbLine
 10
416.7752334948781
 20
1200.620531749562
 30
0.0
 11
1411.775233494878
 21
1200.620531749562
 31
0.0
  0
LINE
  5
185
330
2
100
AcDbEntity
  8
本体
  6
Continuous
100
AcDbLine
 10
416.7752334948781
 20
1194.620531749562
 30
0.0
 11
1411.775233494878
 21
1194.620531749562
 31
0.0
  0
LINE
  5
1C2
330
2
100
AcDbEntity
  8
本体
  6
Continuous
100
AcDbLine
 10
1892.085703995212
 20
1589.620531749562
 30
0.0
 11
1892.085703995212
 21
1583.620531749562
 31
0.0
  0
LINE
  5
1C3
330
2
100
AcDbEntity
  8
本体
  6
Continuous
100
AcDbLine
 10
1892.085703995212
 20
1583.620531749562
 30
0.0
 11
1942.085703995212
 21
1583.620531749562
 31
0.0
  0
LINE
  5
1C4
330
2
100
AcDbEntity
  8
本体
  6
Continuous
100
AcDbLine
 10
1936.085703995211
 20
1583.620531749562
 30
0.0
 11
1936.085703995211
 21
1586.620531749562
 31
0.0
  0
LINE
  5
1C5
330
2
100
AcDbEntity
  8
本体
  6
Continuous
100
AcDbLine
 10
1936.085703995211
 20
1586.620531749562
 30
0.0
 11
1892.085703995212
 21
1589.620531749562
 31
0.0
  0
LINE
  5
1C6
330
2
100
AcDbEntity
  8
本体
  6
Continuous
100
AcDbLine
 10
1892.085703995212
 20
1200.620531749562
 30
0.0
 11
1942.085703995212
 21
1200.620531749562
 31
0.0
  0
LINE
  5
1C7
330
2
100
AcDbEntity
  8
本体
  6
Continuous
100
AcDbLine
 10
1936.085703995211
 20
1197.620531749562
 30
0.0
 11
1892.085703995212
 21
1194.620531749562
 31
0.0
  0
LINE
  5
1C8
330
2
100
AcDbEntity
  8
本体
  6
Continuous
100
AcDbLine
 10
1892.085703995212
 20
1194.620531749562
 30
0.0
 11
1892.085703995212
 21
1200.620531749562
 31
0.0
  0
LINE
  5
1C9
330
2
100
AcDbEntity
  8
本体
  6
Continuous
100
AcDbLine
 10
1936.085703995211
 20
1200.620531749562
 30
0.0
 11
1936.085703995211
 21
1197.620531749562
 31
0.0
  0
LINE
  5
1CA
330
2
100
AcDbEntity
  8
本体
  6
Continuous
100
AcDbLine
 10
1892.085703995212
 20
1583.620531749562
 30
0.0
 11
1892.085703995212
 21
1200.620531749562
 31
0.0
  0
LINE
  5
1CB
330
2
100
AcDbEntity
  8
本体
  6
Continuous
100
AcDbLine
 10
1942.085703995212
 20
1583.620531749562
 30
0.0
 11
1942.085703995212
 21
1200.620531749562
 31
0.0
  0
LINE
  5
1CC
330
2
100
AcDbEntity
  8
本体
  6
Continuous
100
AcDbLine
 10
1900.085703995211
 20
1583.620531749562
 30
0.0
 11
1900.085703995211
 21
1200.620531749562
 31
0.0
  0
LINE
  5
1CD
330
2
100
AcDbEntity
  8
本体
  6
Continuous
100
AcDbLine
 10
1934.085703995211
 20
1583.620531749562
 30
0.0
 11
1934.085703995211
 21
1200.620531749562
 31
0.0
  0
INSERT
  5
1CE
330
2
100
AcDbEntity
  8
本体
  6
Continuous
100
AcDbBlockReference
  2
TB8
 10
1892.085703995212
 20
1542.120531749562
 30
0.0
  0
INSERT
  5
1D7
330
2
100
AcDbEntity
  8
本体
  6
Continuous
100
AcDbBlockReference
  2
TB8
 10
1892.085703995212
 20
1442.120531749562
 30
0.0
  0
INSERT
  5
1D8
330
2
100
AcDbEntity
  8
本体
  6
Continuous
100
AcDbBlockReference
  2
TB8
 10
1892.085703995212
 20
1242.120531749562
 30
0.0
  0
DIMENSION
  5
1E4
330
2
100
AcDbEntity
  8
寸法線
  6
Continuous
100
AcDbDimension
  2
*D9
 10
1196.875233494878
 20
787.7299929925266
 30
0.0
 11
1268.88030963701
 21
807.7299929925265
 31
0.0
 70
    32
 71
     5
 42
35.30000000000018
  3
ISO-25
100
AcDbAlignedDimension
 13
1161.575233494878
 23
707.7299929925266
 33
0.0
 14
1196.875233494878
 24
707.7299929925266
 34
0.0
100
AcDbRotatedDimension
  0
DIMENSION
  5
1F4
330
2
100
AcDbEntity
  8
寸法線
  6
Continuous
100
AcDbDimension
  2
*D10
 10
1411.775233494878
 20
867.7299929925267
 30
0.0
 11
914.2752334948781
 21
887.7299929925266
 31
0.0
 70
    32
 71
     5
 42
995.0
  3
ISO-25
100
AcDbAlignedDimension
 13
416.7752334948781
 23
707.7299929925266
 33
0.0
 14
1411.775233494878
 24
707.7299929925266
 34
0.0
100
AcDbRotatedDimension
  0
DIMENSION
  5
20E
330
2
100
AcDbEntity
  8
寸法線
  6
Continuous
100
AcDbDimension
  2
*D11
 10
1732.085703995212
 20
1194.620531749562
 30
0.0
 11
1712.085703995211
 21
1392.120531749563
 31
0.0
 70
    32
 71
     5
 42
395.0
  3
ISO-25
100
AcDbAlignedDimension
 13
1892.085703995212
 23
1589.620531749562
 33
0.0
 14
1892.085703995212
 24
1194.620531749562
 34
0.0
 50
90.0
100
AcDbRotatedDimension
  0
DIMENSION
  5
21B
330
2
100
AcDbEntity
  8
寸法線
  6
Continuous
100
AcDbDimension
  2
*D12
 10
2067.086622503089
 20
1204.620530749562
 30
0.0
 11
2067.086622503089
 21
1392.120531749563
 31
0.0
 70
   160
 71
     5
 42
375.000002
  3
ISO-25
100
AcDbAlignedDimension
 13
1984.085700995211
 23
1579.620532749562
 33
0.0
 14
1984.085700995211
 24
1204.620530749562
 34
0.0
 50
90.0
100
AcDbRotatedDimension
  0
LEADER
  5
228
330
2
100
AcDbEntity
  8
寸法線
  6
Continuous
100
AcDbLeader
  3
ISO-25
 73
     0
 74
     0
 75
     1
 40
36.39593908629441
 41
132.9441624365482
 76
     3
 10
1409.003833068056
 20
1589.620531749562
 30
0.0
 10
1464.714511186711
 20
1692.804674529577
 30
0.0
 10
1479.714511186711
 20
1692.804674529577
 30
0.0
340
229
1001
ACAD
1000
DSTYLE
1002
{
1070
     5
1000
OPEN30
1070
    77
1070
     1
1070
   147
1040
0.5
1070
   342
1005
1DA
1002
}
  0
MTEXT
  5
229
102
{ACAD_REACTORS
330
228
102
}
330
2
100
AcDbEntity
  8
寸法線
  6
Continuous
100
AcDbMText
 10
1484.714511186711
 20
1697.804674529578
 30
0.0
 40
30.0
 41
0.0
 71
     7
 72
     1
  1
6/3\U+00D744
 73
     1
 44
1.0
1001
ACAD
1000
MTEXTBEGIN
1070
    73
1070
     1
1070
    44
1040
1.0
1070
    74
1070
     0
1000
MTEXTEND
  0
LEADER
  5
22A
330
2
100
AcDbEntity
  8
寸法線
  6
Continuous
100
AcDbLeader
  3
ISO-25
 73
     0
 74
     0
 75
     1
 40
30.0
 41
230.2538071065989
 76
     3
 10
1959.585700995211
 20
1579.620532749562
 30
0.0
 10
1992.702803959393
 20
1662.831209868217
 30
0.0
 10
2007.702803959393
 20
1662.831209868217
 30
0.0
340
22B
1001
ACAD
1000
DSTYLE
1002
{
1070
     5
1000
OPEN30
1070
    77
1070
     1
1070
   147
1040
0.5
1070
   342
1005
1DA
1002
}
  0
MTEXT
  5
22B
102
{ACAD_REACTORS
330
22A
102
}
330
2
100
AcDbEntity
  8
寸法線
  6
Continuous
100
AcDbMText
 10
2012.702803959394
 20
1667.831209868217
 30
0.0
 40
30.0
 41
0.0
 71
     7
 72
     1
  1
P2.3\U+00D745\U+00D740
 73
     1
 44
1.0
1001
ACAD
1000
MTEXTBEGIN
1070
    73
1070
     1
1070
    44
1040
1.0
1070
    74
1070
     0
1000
MTEXTEND
  0
LINE
  5
22C
330
2
100
AcDbEntity
  8
嵩上断面
  6
Continuous
100
AcDbLine
 10
1401.775233494878
 20
612.7299929925266
 30
0.0
 11
426.7752334948782
 21
612.7299929925266
 31
0.0
  0
LINE
  5
22D
330
2
100
AcDbEntity
  8
嵩上断面
  6
Continuous
100
AcDbLine
 10
1401.775233494878
 20
657.7299929925266
 30
0.0
 11
426.7752334948782
 21
657.7299929925266
 31
0.0
  0
LINE
  5
22E
330
2
100
AcDbEntity
  8
嵩上断面
  6
HIDDEN
 48
2.0
100
AcDbLine
 10
1401.775233494878
 20
655.4299929925265
 30
0.0
 11
426.7752334948782
 21
655.4299929925265
 31
0.0
  0
LINE
  5
230
330
2
100
AcDbEntity
  8
嵩上断面
  6
HIDDEN
 48
2.0
100
AcDbLine
 10
1401.775233494878
 20
615.0299929925266
 30
0.0
 11
426.7752334948782
 21
615.0299929925266
 31
0.0
  0
DIMENSION
  5
231
330
2
100
AcDbEntity
  8
寸法線
  6
Continuous
100
AcDbDimension
  2
*D13
 10
1521.779857418642
 20
707.7299929925266
 30
0.0
 11
1501.779857418642
 21
682.7299929925268
 31
0.0
 70
    32
 71
     5
 42
50.0
  3
ISO-25
100
AcDbAlignedDimension
 13
1404.275233494878
 23
657.7299929925266
 33
0.0
 14
1409.275233494878
 24
707.7299929925266
 34
0.0
 50
90.0
100
AcDbRotatedDimension
  0
DIMENSION
  5
23E
330
2
100
AcDbEntity
  8
寸法線
  6
Continuous
100
AcDbDimension
  2
*D14
 10
1601.781980184355
 20
707.7299929925266
 30
0.0
 11
1581.781980184355
 21
660.2299929925268
 31
0.0
 70
    32
 71
     5
 42
95.0
  3
ISO-25
100
AcDbAlignedDimension
 13
1404.275233494878
 23
612.7299929925266
 33
0.0
 14
1409.275233494878
 24
707.7299929925266
 34
0.0
 50
90.0
100
AcDbRotatedDimension
  0
INSERT
  5
3B2
330
2
100
AcDbEntity
  8
本体
  6
Continuous
100
AcDbBlockReference
  2
TB8
 10
1892.085703995212
 20
1342.120531749562
 30
0.0
  0
LINE
  5
3B3
330
2
100
AcDbEntity
  8
中心線
  6
Continuous
100
AcDbLine
 10
1161.575233494877
 20
715.7299929925265
 30
0.0
 11
1161.575233494877
 21
649.7299929925266
 31
0.0
  0
LINE
  5
3B4
330
2
100
AcDbEntity
  8
中心線
  6
Continuous
100
AcDbLine
 10
1196.875233494878
 20
715.7299929925265
 30
0.0
 11
1196.875233494878
 21
649.7299929925266
 31
0.0
  0
INSERT
  5
3C9
330
2
100
AcDbEntity
  8
本体
  6
Continuous
100
AcDbBlockReference
  2
IB7x4x50
 10
452.0752334948779
 20
707.7299929925266
 30
0.0
  0
LINE
  5
447
330
2
100
AcDbEntity
  8
本体
  6
Continuous
100
AcDbLine
 10
1376.875233494877
 20
707.7299929925266
 30
0.0
 11
1404.780961642827
 21
707.7299929925266
 31
0.0
  0
LINE
  5
448
330
2
100
AcDbEntity
  8
本体
  6
Continuous
100
AcDbLine
 10
1376.875233494877
 20
699.7299929925266
 30
0.0
 11
1403.567147816393
 21
699.7299929925266
 31
0.0
  0
LINE
  5
449
330
2
100
AcDbEntity
  8
本体
  6
Continuous
100
AcDbLine
 10
1376.875233494877
 20
699.7299929925266
 30
0.0
 11
1404.763293130091
 21
707.613543419442
 31
0.0
  0
LINE
  5
44A
330
2
100
AcDbEntity
  8
本体
  6
Continuous
100
AcDbLine
 10
1376.875233494878
 20
663.7299929925266
 30
0.0
 11
1398.682174880482
 21
663.7299929925266
 31
0.0
  0
INSERT
  5
44C
330
2
100
AcDbEntity
  8
本体
  6
Continuous
100
AcDbBlockReference
  2
IB7x4x50
 10
1404.842841268158
 20
707.7347529044987
 30
0.0
 50
352.0303896056786
  0
LINE
  5
4A1
330
2
100
AcDbEntity
  8
嵩上断面
  6
Continuous
100
AcDbLine
 10
1401.775233494878
 20
657.7299929925266
 30
0.0
 11
1401.775233494878
 21
612.7299929925266
 31
0.0
  0
LINE
  5
4A2
330
2
100
AcDbEntity
  8
嵩上断面
  6
Continuous
100
AcDbLine
 10
426.7752334948782
 20
657.7299929925266
 30
0.0
 11
426.7752334948782
 21
612.7299929925266
 31
0.0
  0
DIMENSION
  5
57D
330
2
100
AcDbEntity
  8
寸法線
  6
Continuous
100
AcDbDimension
  2
*D8
 10
1401.775233494878
 20
532.7299929925266
 30
0.0
 11
914.2752334948781
 21
552.7299929925265
 31
0.0
 70
    32
 71
     5
 42
975.0
  3
ISO-25
100
AcDbAlignedDimension
 13
426.7752334948782
 23
612.7299929925266
 33
0.0
 14
1401.775233494878
 24
612.7299929925266
 34
0.0
100
AcDbRotatedDimension
  0
LINE
  5
5B1
102
{ACAD_REACTORS
330
1075
102
}
330
2
100
AcDbEntity
  8
嵩上断面
  6
HIDDEN
 48
3.0
100
AcDbLine
 10
426.7752334948782
 20
1579.620532749562
 30
0.0
 11
1401.775233494878
 21
1579.620532749562
 31
0.0
  0
LINE
  5
5B2
102
{ACAD_REACTORS
330
1075
102
}
330
2
100
AcDbEntity
  8
嵩上断面
  6
HIDDEN
 48
3.0
100
AcDbLine
 10
426.7752334948782
 20
1539.620532749562
 30
0.0
 11
1401.775233494878
 21
1539.620532749562
 31
0.0
  0
LINE
  5
5B5
102
{ACAD_REACTORS
330
1075
102
}
330
2
100
AcDbEntity
  8
嵩上断面
  6
HIDDEN
 48
3.0
100
AcDbLine
 10
1401.775233494878
 20
1579.620532749562
 30
0.0
 11
1401.775233494878
 21
1539.620532749562
 31
0.0
  0
LINE
  5
5B8
102
{ACAD_REACTORS
330
1075
102
}
330
2
100
AcDbEntity
  8
嵩上断面
  6
HIDDEN
 48
3.0
100
AcDbLine
 10
426.7752334948782
 20
1539.620532749562
 30
0.0
 11
426.7752334948782
 21
1579.620532749562
 31
0.0
  0
INSERT
  5
5BE
330
2
100
AcDbEntity
  8
本体
  6
Continuous
100
AcDbBlockReference
  2
TB8
 10
1892.085703995212
 20
1292.120531749562
 30
0.0
  0
INSERT
  5
5BF
330
2
100
AcDbEntity
  8
本体
  6
Continuous
100
AcDbBlockReference
  2
TB8
 10
1892.085703995212
 20
1392.120531749562
 30
0.0
  0
INSERT
  5
5C0
330
2
100
AcDbEntity
  8
本体
  6
Continuous
100
AcDbBlockReference
  2
TB8
 10
1892.085703995212
 20
1492.120531749562
 30
0.0
  0
DIMENSION
  5
5C1
330
2
100
AcDbEntity
  8
寸法線
 48
3.0
100
AcDbDimension
  2
*D15
 10
1812.085703995212
 20
1492.120531749562
 30
0.0
 11
1792.085703995211
 21
1517.120531749563
 31
0.0
 70
    32
 71
     5
 42
50.0
  3
ISO-25
100
AcDbAlignedDimension
 13
1890.085703995211
 23
1542.120531749562
 33
0.0
 14
1890.085703995211
 24
1492.120531749562
 34
0.0
 50
90.0
100
AcDbRotatedDimension
  0
LINE
  5
7C6
330
2
100
AcDbEntity
  8
本体
  6
Continuous
100
AcDbLine
 10
416.7752334948781
 20
1488.120531749562
 30
0.0
 11
1411.775233494878
 21
1488.120531749562
 31
0.0
  0
LINE
  5
7C7
330
2
100
AcDbEntity
  8
本体
  6
Continuous
100
AcDbLine
 10
416.7752334948781
 20
1496.120531749562
 30
0.0
 11
1411.775233494878
 21
1496.120531749562
 31
0.0
  0
LINE
  5
8D0
330
2
100
AcDbEntity
  8
本体
  6
Continuous
100
AcDbLine
 10
416.7752334948781
 20
1438.120531749562
 30
0.0
 11
1411.775233494878
 21
1438.120531749562
 31
0.0
  0
LINE
  5
8D1
330
2
100
AcDbEntity
  8
本体
  6
Continuous
100
AcDbLine
 10
416.7752334948781
 20
1446.120531749562
 30
0.0
 11
1411.775233494878
 21
1446.120531749562
 31
0.0
  0
LINE
  5
9DA
330
2
100
AcDbEntity
  8
本体
  6
Continuous
100
AcDbLine
 10
416.7752334948781
 20
1388.120531749562
 30
0.0
 11
1411.775233494878
 21
1388.120531749562
 31
0.0
  0
LINE
  5
9DB
330
2
100
AcDbEntity
  8
本体
  6
Continuous
100
AcDbLine
 10
416.7752334948781
 20
1396.120531749562
 30
0.0
 11
1411.775233494878
 21
1396.120531749562
 31
0.0
  0
LINE
  5
AE4
330
2
100
AcDbEntity
  8
本体
  6
Continuous
100
AcDbLine
 10
416.7752334948781
 20
1338.120531749562
 30
0.0
 11
1411.775233494878
 21
1338.120531749562
 31
0.0
  0
LINE
  5
AE5
330
2
100
AcDbEntity
  8
本体
  6
Continuous
100
AcDbLine
 10
416.7752334948781
 20
1346.120531749562
 30
0.0
 11
1411.775233494878
 21
1346.120531749562
 31
0.0
  0
LINE
  5
BEE
330
2
100
AcDbEntity
  8
本体
  6
Continuous
100
AcDbLine
 10
416.7752334948781
 20
1288.120531749562
 30
0.0
 11
1411.775233494878
 21
1288.120531749562
 31
0.0
  0
LINE
  5
BEF
330
2
100
AcDbEntity
  8
本体
  6
Continuous
100
AcDbLine
 10
416.7752334948781
 20
1296.120531749562
 30
0.0
 11
1411.775233494878
 21
1296.120531749562
 31
0.0
  0
LINE
  5
CF6
330
2
100
AcDbEntity
  8
本体
  6
Continuous
100
AcDbLine
 10
416.7752334948781
 20
1246.120531749562
 30
0.0
 11
1411.775233494878
 21
1246.120531749562
 31
0.0
  0
LINE
  5
CF7
330
2
100
AcDbEntity
  8
本体
  6
Continuous
100
AcDbLine
 10
416.7752334948781
 20
1238.120531749562
 30
0.0
 11
1411.775233494878
 21
1238.120531749562
 31
0.0
  0
DIMENSION
  5
D3A
330
2
100
AcDbEntity
  8
寸法線
 48
3.0
100
AcDbDimension
  2
*D16
 10
1521.779857418642
 20
612.7299929925266
 30
0.0
 11
1501.779857418642
 21
559.9888762412578
 31
0.0
 70
    32
 71
     5
 42
45.0
  3
ISO-25
100
AcDbAlignedDimension
 13
1401.775233494878
 23
657.7299929925266
 33
0.0
 14
1401.775233494878
 24
612.7299929925266
 34
0.0
 50
90.0
100
AcDbRotatedDimension
  0
MTEXT
  5
EE1
330
2
100
AcDbEntity
  8
外枠
  6
Continuous
 48
100.0
370
     9
100
AcDbMText
 10
1022.193186254242
 20
77.61017986570414
 30
0.0
 40
18.0
 41
122.0406
 71
     1
 72
     5
  1
【主部材】
 73
     1
 44
1.0
1001
ACAD
1000
MTEXTBEGIN
1070
    73
1070
     1
1070
    44
1040
1.0
1070
    74
1070
     0
1000
MTEXTEND
  0
MTEXT
  5
EE2
330
2
100
AcDbEntity
  8
外枠
  6
Continuous
 48
100.0
370
     9
100
AcDbMText
 10
1038.975343934131
 20
43.7816999552947
 30
0.0
 40
25.0
 41
122.0406
 71
     1
 72
     5
  1
SS400
 73
     1
 44
1.0
1001
ACAD
1000
MTEXTBEGIN
1070
    73
1070
     1
1070
    44
1040
1.0
1070
    74
1070
     0
1000
MTEXTEND
  0
MTEXT
  5
EE3
330
2
100
AcDbEntity
  8
外枠
  6
Continuous
 48
100.0
370
     9
100
AcDbMText
 10
1202.677957061338
 20
120.1377642323818
 30
0.0
 40
25.0
 41
1015.1375
 71
     1
 72
     5
  1
溶融亜鉛めっき仕上
 73
     1
 44
1.0
1001
ACAD
1000
MTEXTBEGIN
1070
    73
1070
     1
1070
    44
1040
1.0
1070
    74
1070
     0
1000
MTEXTEND
  0
MTEXT
  5
EE4
330
2
100
AcDbEntity
  8
外枠
  6
Continuous
 48
100.0
370
     9
100
AcDbMText
 10
1199.761738767627
 20
151.0819879350654
 30
0.0
 40
18.0
 41
301.8661
 71
     1
 72
     5
  1
【グレーチング】JIS　H8641
 73
     1
 44
1.0
1001
ACAD
1000
MTEXTBEGIN
1070
    73
1070
     1
1070
    44
1040
1.0
1070
    74
1070
     0
1000
MTEXTEND
  0
MTEXT
  5
EE5
330
2
100
AcDbEntity
  8
外枠
  6
Continuous
 48
100.0
370
     9
100
AcDbMText
 10
1159.385398923399
 20
148.6111115828503
 30
0.0
 40
20.0
 41
1015.1375
 71
     1
 72
     5
  1
表\P面\P処\P理
 73
     1
 44
1.0
1001
ACAD
1000
MTEXTBEGIN
1070
    73
1070
     1
1070
    44
1040
1.0
1070
    74
1070
     0
1000
MTEXTEND
  0
LINE
  5
EE6
330
2
100
AcDbEntity
  8
外枠
  6
Continuous
 48
100.0
370
     9
100
AcDbLine
 10
1188.531791166651
 20
155.3992728207999
 30
0.0
 11
1188.531791166651
 21
9.999999999996816
 31
0.0
  0
LINE
  5
EE7
330
2
100
AcDbEntity
  8
外枠
  6
Continuous
 48
100.0
370
     9
100
AcDbLine
 10
1153.531306970095
 20
155.3992728207999
 30
0.0
 11
1153.531306970095
 21
9.999999999996816
 31
0.0
  0
LINE
  5
EE8
330
2
100
AcDbEntity
  8
外枠
 48
3.0
100
AcDbLine
 10
1188.531791166651
 20
82.6996364103984
 30
0.0
 11
1593.951336296073
 21
82.6996364103984
 31
0.0
  0
MTEXT
  5
F98
330
2
100
AcDbEntity
  8
外枠
  6
Continuous
 48
100.0
370
     9
100
AcDbMText
 10
2509.985545378613
 20
121.2206105686568
 30
0.0
 40
23.47884
 41
274.1381
 71
     1
 72
     5
  1
'14・09・01
 73
     1
 44
1.0
1001
ACAD
1000
MTEXTBEGIN
1070
    73
1070
     1
1070
    44
1040
1.0
1070
    74
1070
     0
1000
MTEXTEND
  0
INSERT
  5
1073
330
2
100
AcDbEntity
  8
寸法線
 48
3.0
100
AcDbBlockReference
  2
P-H45
 10
1942.085703995212
 20
1579.620532749562
 30
0.0
  0
INSERT
  5
1074
330
2
100
AcDbEntity
  8
寸法線
 48
3.0
100
AcDbBlockReference
  2
P-H45
 10
1942.085703995212
 20
1204.620530749562
 30
0.0
 41
-1.0
 50
180.0
  0
LINE
  5
1076
102
{ACAD_REACTORS
330
107A
102
}
330
2
100
AcDbEntity
  8
嵩上断面
  6
HIDDEN
 48
3.0
100
AcDbLine
 10
426.7752334948782
 20
1204.620530749562
 30
0.0
 11
1401.775233494878
 21
1204.620530749562
 31
0.0
  0
LINE
  5
1077
102
{ACAD_REACTORS
330
107A
102
}
330
2
100
AcDbEntity
  8
嵩上断面
  6
HIDDEN
 48
3.0
100
AcDbLine
 10
1401.775233494878
 20
1204.620530749562
 30
0.0
 11
1401.775233494878
 21
1244.620530749562
 31
0.0
  0
LINE
  5
1078
102
{ACAD_REACTORS
330
107A
102
}
330
2
100
AcDbEntity
  8
嵩上断面
  6
HIDDEN
 48
3.0
100
AcDbLine
 10
426.7752334948782
 20
1244.620530749562
 30
0.0
 11
1401.775233494878
 21
1244.620530749562
 31
0.0
  0
LINE
  5
1079
102
{ACAD_REACTORS
330
107A
102
}
330
2
100
AcDbEntity
  8
嵩上断面
  6
HIDDEN
 48
3.0
100
AcDbLine
 10
426.7752334948782
 20
1244.620530749562
 30
0.0
 11
426.7752334948782
 21
1204.620530749562
 31
0.0
  0
MTEXT
  5
1105
330
2
100
AcDbEntity
  8
外枠
  6
Continuous
100
AcDbMText
 10
2427.938927859905
 20
67.25039165302224
 30
0.0
 40
28.17460800000001
 41
43.8527
 71
     1
 72
     5
  1
{\fHG正楷書体-PRO|b0|i0|c128|p65;水}
 73
     1
 44
1.0
1001
ACAD
1000
MTEXTBEGIN
1070
    73
1070
     1
1070
    44
1040
1.0
1070
    74
1070
     0
1000
MTEXTEND
  0
MTEXT
  5
1106
330
2
100
AcDbEntity
  8
外枠
  6
Continuous
100
AcDbMText
 10
2427.938927859905
 20
109.7804165221496
 30
0.0
 40
28.17460800000001
 41
43.8527
 71
     1
 72
     5
  1
{\fHG正楷書体-PRO|b0|i0|c128|p65;清}
 73
     1
 44
1.0
1001
ACAD
1000
MTEXTBEGIN
1070
    73
1070
     1
1070
    44
1040
1.0
1070
    74
1070
     0
1000
MTEXTEND
  0
ELLIPSE
  5
1107
330
2
100
AcDbEntity
  8
外枠
  6
Continuous
100
AcDbEllipse
 10
2449.066278910865
 20
70.80064248893541
 30
0.0
 11
0.0
 21
-47.8594442149426
 31
0.0
210
0.0
220
0.0
230
1.0
 40
0.7999999999999857
 41
0.0
 42
6.283185307179586
  0
INSERT
  5
11DD
330
2
100
AcDbEntity
  8
外枠
 48
3.0
100
AcDbBlockReference
  2
鎌下
 10
2271.730765417811
 20
155.3992728207995
 30
0.0
  0
INSERT
  5
12CF
330
2
100
AcDbEntity
  8
本体
  6
Continuous
100
AcDbBlockReference
  2
IB7x4x50
 10
423.7076257215985
 20
707.7347529044987
 30
0.0
 41
-1.0
 50
7.969610394321335
  0
INSERT
  5
12DD
102
{ACAD_REACTORS
330
12EE
102
}
330
2
100
AcDbEntity
  8
本体
100
AcDbBlockReference
  2
*U31
 10
476.7252334948779
 20
682.7299929925266
 30
0.0
  0
LINE
  5
1314
330
2
100
AcDbEntity
  8
本体
  6
Continuous
100
AcDbLine
 10
1411.775233494878
 20
1583.620531749562
 30
0.0
 11
1411.775233494878
 21
1546.120531749562
 31
0.0
  0
LINE
  5
1315
330
2
100
AcDbEntity
  8
本体
  6
Continuous
100
AcDbLine
 10
1404.775233494878
 20
1583.620531749562
 30
0.0
 11
1404.775233494878
 21
1546.120531749562
 31
0.0
  0
LINE
  5
1316
330
2
100
AcDbEntity
  8
本体
  6
Continuous
100
AcDbLine
 10
1369.475233494878
 20
1538.120531749562
 30
0.0
 11
1404.775233494878
 21
1546.120531749562
 31
0.0
  0
LINE
  5
1317
330
2
100
AcDbEntity
  8
本体
  6
Continuous
100
AcDbLine
 10
1404.775233494878
 20
1200.620531749562
 30
0.0
 11
1404.775233494878
 21
1238.120531749562
 31
0.0
  0
LINE
  5
1318
330
2
100
AcDbEntity
  8
本体
  6
Continuous
100
AcDbLine
 10
1411.775233494878
 20
1200.620531749562
 30
0.0
 11
1411.775233494878
 21
1238.120531749562
 31
0.0
  0
LINE
  5
1319
330
2
100
AcDbEntity
  8
本体
  6
Continuous
100
AcDbLine
 10
1411.775233494878
 20
1538.120531749562
 30
0.0
 11
1411.775233494878
 21
1496.120531749562
 31
0.0
  0
LINE
  5
131A
330
2
100
AcDbEntity
  8
本体
  6
Continuous
100
AcDbLine
 10
1404.775233494878
 20
1538.120531749562
 30
0.0
 11
1404.775233494878
 21
1496.120531749562
 31
0.0
  0
INSERT
  5
131B
330
2
100
AcDbEntity
  8
エンボス
  6
Continuous
100
AcDbBlockReference
  2
7mm部材エンボス4
 10
1404.775233494878
 20
1189.620531749562
 30
0.0
  0
INSERT
  5
131C
330
2
100
AcDbEntity
  8
エンボス
  6
Continuous
100
AcDbBlockReference
  2
7mm部材エンボス4
 10
1404.775233494878
 20
1535.120531749562
 30
0.0
  0
LINE
  5
131D
330
2
100
AcDbEntity
  8
エンボス
  6
Continuous
100
AcDbLine
 10
1404.775233494878
 20
1507.620531749562
 30
0.0
 11
1411.775233494878
 21
1509.620531749562
 31
0.0
  0
LINE
  5
131E
330
2
100
AcDbEntity
  8
エンボス
  6
Continuous
100
AcDbLine
 10
1411.775233494878
 20
1502.620531749562
 30
0.0
 11
1404.775233494878
 21
1504.620531749562
 31
0.0
  0
LINE
  5
131F
330
2
100
AcDbEntity
  8
エンボス
  6
Continuous
100
AcDbLine
 10
1411.775233494878
 20
1518.620531749562
 30
0.0
 11
1404.775233494878
 21
1516.620531749562
 31
0.0
  0
LINE
  5
1320
330
2
100
AcDbEntity
  8
エンボス
  6
Continuous
100
AcDbLine
 10
1404.775233494878
 20
1523.620531749562
 30
0.0
 11
1411.775233494878
 21
1521.620531749562
 31
0.0
  0
LINE
  5
1321
330
2
100
AcDbEntity
  8
エンボス
  6
Continuous
100
AcDbLine
 10
1404.775233494878
 20
1535.620531749562
 30
0.0
 11
1411.775233494878
 21
1537.620531749562
 31
0.0
  0
LINE
  5
1322
330
2
100
AcDbEntity
  8
エンボス
  6
Continuous
100
AcDbLine
 10
1411.775233494878
 20
1530.620531749562
 30
0.0
 11
1404.775233494878
 21
1532.620531749562
 31
0.0
  0
LINE
  5
1323
330
2
100
AcDbEntity
  8
本体
  6
Continuous
100
AcDbLine
 10
1411.775233494878
 20
1488.120531749562
 30
0.0
 11
1411.775233494878
 21
1446.120531749562
 31
0.0
  0
LINE
  5
1324
330
2
100
AcDbEntity
  8
本体
  6
Continuous
100
AcDbLine
 10
1404.775233494878
 20
1488.120531749562
 30
0.0
 11
1404.775233494878
 21
1446.120531749562
 31
0.0
  0
LINE
  5
1325
330
2
100
AcDbEntity
  8
エンボス
  6
Continuous
100
AcDbLine
 10
1411.775233494878
 20
1452.620531749562
 30
0.0
 11
1404.775233494878
 21
1454.620531749562
 31
0.0
  0
LINE
  5
1326
330
2
100
AcDbEntity
  8
エンボス
  6
Continuous
100
AcDbLine
 10
1404.775233494878
 20
1457.620531749562
 30
0.0
 11
1411.775233494878
 21
1459.620531749562
 31
0.0
  0
LINE
  5
1327
330
2
100
AcDbEntity
  8
本体
  6
Continuous
100
AcDbLine
 10
1369.475233494878
 20
1488.120531749562
 30
0.0
 11
1404.775233494878
 21
1496.120531749562
 31
0.0
  0
LINE
  5
1328
330
2
100
AcDbEntity
  8
エンボス
  6
Continuous
100
AcDbLine
 10
1411.775233494878
 20
1480.620531749562
 30
0.0
 11
1404.775233494878
 21
1482.620531749562
 31
0.0
  0
LINE
  5
1329
330
2
100
AcDbEntity
  8
エンボス
  6
Continuous
100
AcDbLine
 10
1404.775233494878
 20
1485.620531749562
 30
0.0
 11
1411.775233494878
 21
1487.620531749562
 31
0.0
  0
LINE
  5
132A
330
2
100
AcDbEntity
  8
エンボス
  6
Continuous
100
AcDbLine
 10
1404.775233494878
 20
1473.620531749562
 30
0.0
 11
1411.775233494878
 21
1471.620531749562
 31
0.0
  0
LINE
  5
132B
330
2
100
AcDbEntity
  8
エンボス
  6
Continuous
100
AcDbLine
 10
1411.775233494878
 20
1468.620531749562
 30
0.0
 11
1404.775233494878
 21
1466.620531749562
 31
0.0
  0
LINE
  5
132C
330
2
100
AcDbEntity
  8
本体
  6
Continuous
100
AcDbLine
 10
1411.775233494878
 20
1438.120531749562
 30
0.0
 11
1411.775233494878
 21
1396.120531749562
 31
0.0
  0
LINE
  5
132D
330
2
100
AcDbEntity
  8
本体
  6
Continuous
100
AcDbLine
 10
1404.775233494878
 20
1438.120531749562
 30
0.0
 11
1404.775233494878
 21
1396.120531749562
 31
0.0
  0
LINE
  5
132E
330
2
100
AcDbEntity
  8
エンボス
  6
Continuous
100
AcDbLine
 10
1411.775233494878
 20
1402.620531749562
 30
0.0
 11
1404.775233494878
 21
1404.620531749562
 31
0.0
  0
LINE
  5
132F
330
2
100
AcDbEntity
  8
エンボス
  6
Continuous
100
AcDbLine
 10
1404.775233494878
 20
1407.620531749562
 30
0.0
 11
1411.775233494878
 21
1409.620531749562
 31
0.0
  0
LINE
  5
1330
330
2
100
AcDbEntity
  8
本体
  6
Continuous
100
AcDbLine
 10
1369.475233494878
 20
1438.120531749562
 30
0.0
 11
1404.775233494878
 21
1446.120531749562
 31
0.0
  0
LINE
  5
1331
330
2
100
AcDbEntity
  8
エンボス
  6
Continuous
100
AcDbLine
 10
1411.775233494878
 20
1430.620531749562
 30
0.0
 11
1404.775233494878
 21
1432.620531749562
 31
0.0
  0
LINE
  5
1332
330
2
100
AcDbEntity
  8
エンボス
  6
Continuous
100
AcDbLine
 10
1404.775233494878
 20
1435.620531749562
 30
0.0
 11
1411.775233494878
 21
1437.620531749562
 31
0.0
  0
LINE
  5
1333
330
2
100
AcDbEntity
  8
エンボス
  6
Continuous
100
AcDbLine
 10
1404.775233494878
 20
1423.620531749562
 30
0.0
 11
1411.775233494878
 21
1421.620531749562
 31
0.0
  0
LINE
  5
1334
330
2
100
AcDbEntity
  8
エンボス
  6
Continuous
100
AcDbLine
 10
1411.775233494878
 20
1418.620531749562
 30
0.0
 11
1404.775233494878
 21
1416.620531749562
 31
0.0
  0
LINE
  5
1335
330
2
100
AcDbEntity
  8
本体
  6
Continuous
100
AcDbLine
 10
1411.775233494878
 20
1388.120531749562
 30
0.0
 11
1411.775233494878
 21
1346.120531749562
 31
0.0
  0
LINE
  5
1336
330
2
100
AcDbEntity
  8
本体
  6
Continuous
100
AcDbLine
 10
1404.775233494878
 20
1388.120531749562
 30
0.0
 11
1404.775233494878
 21
1346.120531749562
 31
0.0
  0
LINE
  5
1337
330
2
100
AcDbEntity
  8
エンボス
  6
Continuous
100
AcDbLine
 10
1411.775233494878
 20
1352.620531749562
 30
0.0
 11
1404.775233494878
 21
1354.620531749562
 31
0.0
  0
LINE
  5
1338
330
2
100
AcDbEntity
  8
エンボス
  6
Continuous
100
AcDbLine
 10
1404.775233494878
 20
1357.620531749562
 30
0.0
 11
1411.775233494878
 21
1359.620531749562
 31
0.0
  0
LINE
  5
1339
330
2
100
AcDbEntity
  8
本体
  6
Continuous
100
AcDbLine
 10
1369.475233494878
 20
1388.120531749562
 30
0.0
 11
1404.775233494878
 21
1396.120531749562
 31
0.0
  0
LINE
  5
133A
330
2
100
AcDbEntity
  8
エンボス
  6
Continuous
100
AcDbLine
 10
1411.775233494878
 20
1380.620531749562
 30
0.0
 11
1404.775233494878
 21
1382.620531749562
 31
0.0
  0
LINE
  5
133B
330
2
100
AcDbEntity
  8
エンボス
  6
Continuous
100
AcDbLine
 10
1404.775233494878
 20
1385.620531749562
 30
0.0
 11
1411.775233494878
 21
1387.620531749562
 31
0.0
  0
LINE
  5
133C
330
2
100
AcDbEntity
  8
エンボス
  6
Continuous
100
AcDbLine
 10
1404.775233494878
 20
1373.620531749562
 30
0.0
 11
1411.775233494878
 21
1371.620531749562
 31
0.0
  0
LINE
  5
133D
330
2
100
AcDbEntity
  8
エンボス
  6
Continuous
100
AcDbLine
 10
1411.775233494878
 20
1368.620531749562
 30
0.0
 11
1404.775233494878
 21
1366.620531749562
 31
0.0
  0
LINE
  5
133E
330
2
100
AcDbEntity
  8
本体
  6
Continuous
100
AcDbLine
 10
1411.775233494878
 20
1338.120531749562
 30
0.0
 11
1411.775233494878
 21
1296.120531749562
 31
0.0
  0
LINE
  5
133F
330
2
100
AcDbEntity
  8
本体
  6
Continuous
100
AcDbLine
 10
1404.775233494878
 20
1338.120531749562
 30
0.0
 11
1404.775233494878
 21
1296.120531749562
 31
0.0
  0
LINE
  5
1340
330
2
100
AcDbEntity
  8
エンボス
  6
Continuous
100
AcDbLine
 10
1411.775233494878
 20
1302.620531749562
 30
0.0
 11
1404.775233494878
 21
1304.620531749562
 31
0.0
  0
LINE
  5
1341
330
2
100
AcDbEntity
  8
エンボス
  6
Continuous
100
AcDbLine
 10
1404.775233494878
 20
1307.620531749562
 30
0.0
 11
1411.775233494878
 21
1309.620531749562
 31
0.0
  0
LINE
  5
1342
330
2
100
AcDbEntity
  8
本体
  6
Continuous
100
AcDbLine
 10
1369.475233494878
 20
1338.120531749562
 30
0.0
 11
1404.775233494878
 21
1346.120531749562
 31
0.0
  0
LINE
  5
1343
330
2
100
AcDbEntity
  8
エンボス
  6
Continuous
100
AcDbLine
 10
1411.775233494878
 20
1330.620531749562
 30
0.0
 11
1404.775233494878
 21
1332.620531749562
 31
0.0
  0
LINE
  5
1344
330
2
100
AcDbEntity
  8
エンボス
  6
Continuous
100
AcDbLine
 10
1404.775233494878
 20
1335.620531749562
 30
0.0
 11
1411.775233494878
 21
1337.620531749562
 31
0.0
  0
LINE
  5
1345
330
2
100
AcDbEntity
  8
エンボス
  6
Continuous
100
AcDbLine
 10
1404.775233494878
 20
1323.620531749562
 30
0.0
 11
1411.775233494878
 21
1321.620531749562
 31
0.0
  0
LINE
  5
1346
330
2
100
AcDbEntity
  8
エンボス
  6
Continuous
100
AcDbLine
 10
1411.775233494878
 20
1318.620531749562
 30
0.0
 11
1404.775233494878
 21
1316.620531749562
 31
0.0
  0
LINE
  5
1347
330
2
100
AcDbEntity
  8
本体
  6
Continuous
100
AcDbLine
 10
1411.775233494878
 20
1288.120531749562
 30
0.0
 11
1411.775233494878
 21
1246.120531749562
 31
0.0
  0
LINE
  5
1348
330
2
100
AcDbEntity
  8
本体
  6
Continuous
100
AcDbLine
 10
1404.775233494878
 20
1288.120531749562
 30
0.0
 11
1404.775233494878
 21
1246.120531749562
 31
0.0
  0
LINE
  5
1349
330
2
100
AcDbEntity
  8
エンボス
  6
Continuous
100
AcDbLine
 10
1411.775233494878
 20
1252.620531749562
 30
0.0
 11
1404.775233494878
 21
1254.620531749562
 31
0.0
  0
LINE
  5
134A
330
2
100
AcDbEntity
  8
エンボス
  6
Continuous
100
AcDbLine
 10
1404.775233494878
 20
1257.620531749562
 30
0.0
 11
1411.775233494878
 21
1259.620531749562
 31
0.0
  0
LINE
  5
134B
330
2
100
AcDbEntity
  8
本体
  6
Continuous
100
AcDbLine
 10
1369.475233494878
 20
1288.120531749562
 30
0.0
 11
1404.775233494878
 21
1296.120531749562
 31
0.0
  0
LINE
  5
134C
330
2
100
AcDbEntity
  8
エンボス
  6
Continuous
100
AcDbLine
 10
1411.775233494878
 20
1280.620531749562
 30
0.0
 11
1404.775233494878
 21
1282.620531749562
 31
0.0
  0
LINE
  5
134D
330
2
100
AcDbEntity
  8
エンボス
  6
Continuous
100
AcDbLine
 10
1404.775233494878
 20
1285.620531749562
 30
0.0
 11
1411.775233494878
 21
1287.620531749562
 31
0.0
  0
LINE
  5
134E
330
2
100
AcDbEntity
  8
エンボス
  6
Continuous
100
AcDbLine
 10
1404.775233494878
 20
1273.620531749562
 30
0.0
 11
1411.775233494878
 21
1271.620531749562
 31
0.0
  0
LINE
  5
134F
330
2
100
AcDbEntity
  8
エンボス
  6
Continuous
100
AcDbLine
 10
1411.775233494878
 20
1268.620531749562
 30
0.0
 11
1404.775233494878
 21
1266.620531749562
 31
0.0
  0
LINE
  5
1350
330
2
100
AcDbEntity
  8
本体
  6
Continuous
100
AcDbLine
 10
1369.475233494878
 20
1238.120531749562
 30
0.0
 11
1404.775233494878
 21
1246.120531749562
 31
0.0
  0
LINE
  5
1351
330
2
100
AcDbEntity
  8
本体
  6
Continuous
100
AcDbLine
 10
423.7752334948784
 20
1583.620531749562
 30
0.0
 11
423.7752334948784
 21
1546.120531749562
 31
0.0
  0
LINE
  5
1352
330
2
100
AcDbEntity
  8
本体
  6
Continuous
100
AcDbLine
 10
416.7752334948784
 20
1583.620531749562
 30
0.0
 11
416.7752334948784
 21
1546.120531749562
 31
0.0
  0
LINE
  5
1353
330
2
100
AcDbEntity
  8
本体
  6
Continuous
100
AcDbLine
 10
416.7752334948784
 20
1200.620531749562
 30
0.0
 11
416.7752334948784
 21
1238.120531749562
 31
0.0
  0
LINE
  5
1354
330
2
100
AcDbEntity
  8
本体
  6
Continuous
100
AcDbLine
 10
423.7752334948784
 20
1200.620531749562
 30
0.0
 11
423.7752334948784
 21
1238.120531749562
 31
0.0
  0
LINE
  5
1355
330
2
100
AcDbEntity
  8
本体
  6
Continuous
100
AcDbLine
 10
423.7752334948784
 20
1538.120531749562
 30
0.0
 11
423.7752334948784
 21
1496.120531749562
 31
0.0
  0
LINE
  5
1356
330
2
100
AcDbEntity
  8
本体
  6
Continuous
100
AcDbLine
 10
416.7752334948784
 20
1538.120531749562
 30
0.0
 11
416.7752334948784
 21
1496.120531749562
 31
0.0
  0
INSERT
  5
1357
330
2
100
AcDbEntity
  8
エンボス
  6
Continuous
100
AcDbBlockReference
  2
7mm部材エンボス4
 10
416.7752334948784
 20
1189.620531749562
 30
0.0
  0
INSERT
  5
1358
330
2
100
AcDbEntity
  8
エンボス
  6
Continuous
100
AcDbBlockReference
  2
7mm部材エンボス4
 10
416.7752334948784
 20
1535.120531749562
 30
0.0
  0
LINE
  5
1359
330
2
100
AcDbEntity
  8
エンボス
  6
Continuous
100
AcDbLine
 10
416.7752334948784
 20
1507.620531749562
 30
0.0
 11
423.7752334948784
 21
1509.620531749562
 31
0.0
  0
LINE
  5
135A
330
2
100
AcDbEntity
  8
エンボス
  6
Continuous
100
AcDbLine
 10
423.7752334948784
 20
1502.620531749562
 30
0.0
 11
416.7752334948784
 21
1504.620531749562
 31
0.0
  0
LINE
  5
135B
330
2
100
AcDbEntity
  8
エンボス
  6
Continuous
100
AcDbLine
 10
423.7752334948784
 20
1518.620531749562
 30
0.0
 11
416.7752334948784
 21
1516.620531749562
 31
0.0
  0
LINE
  5
135C
330
2
100
AcDbEntity
  8
エンボス
  6
Continuous
100
AcDbLine
 10
416.7752334948784
 20
1523.620531749562
 30
0.0
 11
423.7752334948784
 21
1521.620531749562
 31
0.0
  0
LINE
  5
135D
330
2
100
AcDbEntity
  8
エンボス
  6
Continuous
100
AcDbLine
 10
416.7752334948784
 20
1535.620531749562
 30
0.0
 11
423.7752334948784
 21
1537.620531749562
 31
0.0
  0
LINE
  5
135E
330
2
100
AcDbEntity
  8
エンボス
  6
Continuous
100
AcDbLine
 10
423.7752334948784
 20
1530.620531749562
 30
0.0
 11
416.7752334948784
 21
1532.620531749562
 31
0.0
  0
LINE
  5
135F
330
2
100
AcDbEntity
  8
本体
  6
Continuous
100
AcDbLine
 10
423.7752334948784
 20
1488.120531749562
 30
0.0
 11
423.7752334948784
 21
1446.120531749562
 31
0.0
  0
LINE
  5
1360
330
2
100
AcDbEntity
  8
本体
  6
Continuous
100
AcDbLine
 10
416.7752334948784
 20
1488.120531749562
 30
0.0
 11
416.7752334948784
 21
1446.120531749562
 31
0.0
  0
LINE
  5
1361
330
2
100
AcDbEntity
  8
エンボス
  6
Continuous
100
AcDbLine
 10
423.7752334948784
 20
1452.620531749562
 30
0.0
 11
416.7752334948784
 21
1454.620531749562
 31
0.0
  0
LINE
  5
1362
330
2
100
AcDbEntity
  8
エンボス
  6
Continuous
100
AcDbLine
 10
416.7752334948784
 20
1457.620531749562
 30
0.0
 11
423.7752334948784
 21
1459.620531749562
 31
0.0
  0
LINE
  5
1363
330
2
100
AcDbEntity
  8
エンボス
  6
Continuous
100
AcDbLine
 10
423.7752334948784
 20
1480.620531749562
 30
0.0
 11
416.7752334948784
 21
1482.620531749562
 31
0.0
  0
LINE
  5
1364
330
2
100
AcDbEntity
  8
エンボス
  6
Continuous
100
AcDbLine
 10
416.7752334948784
 20
1485.620531749562
 30
0.0
 11
423.7752334948784
 21
1487.620531749562
 31
0.0
  0
LINE
  5
1365
330
2
100
AcDbEntity
  8
エンボス
  6
Continuous
100
AcDbLine
 10
416.7752334948784
 20
1473.620531749562
 30
0.0
 11
423.7752334948784
 21
1471.620531749562
 31
0.0
  0
LINE
  5
1366
330
2
100
AcDbEntity
  8
エンボス
  6
Continuous
100
AcDbLine
 10
423.7752334948784
 20
1468.620531749562
 30
0.0
 11
416.7752334948784
 21
1466.620531749562
 31
0.0
  0
LINE
  5
1367
330
2
100
AcDbEntity
  8
本体
  6
Continuous
100
AcDbLine
 10
423.7752334948784
 20
1438.120531749562
 30
0.0
 11
423.7752334948784
 21
1396.120531749562
 31
0.0
  0
LINE
  5
1368
330
2
100
AcDbEntity
  8
本体
  6
Continuous
100
AcDbLine
 10
416.7752334948784
 20
1438.120531749562
 30
0.0
 11
416.7752334948784
 21
1396.120531749562
 31
0.0
  0
LINE
  5
1369
330
2
100
AcDbEntity
  8
エンボス
  6
Continuous
100
AcDbLine
 10
423.7752334948784
 20
1402.620531749562
 30
0.0
 11
416.7752334948784
 21
1404.620531749562
 31
0.0
  0
LINE
  5
136A
330
2
100
AcDbEntity
  8
エンボス
  6
Continuous
100
AcDbLine
 10
416.7752334948784
 20
1407.620531749562
 30
0.0
 11
423.7752334948784
 21
1409.620531749562
 31
0.0
  0
LINE
  5
136B
330
2
100
AcDbEntity
  8
エンボス
  6
Continuous
100
AcDbLine
 10
423.7752334948784
 20
1430.620531749562
 30
0.0
 11
416.7752334948784
 21
1432.620531749562
 31
0.0
  0
LINE
  5
136C
330
2
100
AcDbEntity
  8
エンボス
  6
Continuous
100
AcDbLine
 10
416.7752334948784
 20
1435.620531749562
 30
0.0
 11
423.7752334948784
 21
1437.620531749562
 31
0.0
  0
LINE
  5
136D
330
2
100
AcDbEntity
  8
エンボス
  6
Continuous
100
AcDbLine
 10
416.7752334948784
 20
1423.620531749562
 30
0.0
 11
423.7752334948784
 21
1421.620531749562
 31
0.0
  0
LINE
  5
136E
330
2
100
AcDbEntity
  8
エンボス
  6
Continuous
100
AcDbLine
 10
423.7752334948784
 20
1418.620531749562
 30
0.0
 11
416.7752334948784
 21
1416.620531749562
 31
0.0
  0
LINE
  5
136F
330
2
100
AcDbEntity
  8
本体
  6
Continuous
100
AcDbLine
 10
423.7752334948784
 20
1388.120531749562
 30
0.0
 11
423.7752334948784
 21
1346.120531749562
 31
0.0
  0
LINE
  5
1370
330
2
100
AcDbEntity
  8
本体
  6
Continuous
100
AcDbLine
 10
416.7752334948784
 20
1388.120531749562
 30
0.0
 11
416.7752334948784
 21
1346.120531749562
 31
0.0
  0
LINE
  5
1371
330
2
100
AcDbEntity
  8
エンボス
  6
Continuous
100
AcDbLine
 10
423.7752334948784
 20
1352.620531749562
 30
0.0
 11
416.7752334948784
 21
1354.620531749562
 31
0.0
  0
LINE
  5
1372
330
2
100
AcDbEntity
  8
エンボス
  6
Continuous
100
AcDbLine
 10
416.7752334948784
 20
1357.620531749562
 30
0.0
 11
423.7752334948784
 21
1359.620531749562
 31
0.0
  0
LINE
  5
1373
330
2
100
AcDbEntity
  8
エンボス
  6
Continuous
100
AcDbLine
 10
423.7752334948784
 20
1380.620531749562
 30
0.0
 11
416.7752334948784
 21
1382.620531749562
 31
0.0
  0
LINE
  5
1374
330
2
100
AcDbEntity
  8
エンボス
  6
Continuous
100
AcDbLine
 10
416.7752334948784
 20
1385.620531749562
 30
0.0
 11
423.7752334948784
 21
1387.620531749562
 31
0.0
  0
LINE
  5
1375
330
2
100
AcDbEntity
  8
エンボス
  6
Continuous
100
AcDbLine
 10
416.7752334948784
 20
1373.620531749562
 30
0.0
 11
423.7752334948784
 21
1371.620531749562
 31
0.0
  0
LINE
  5
1376
330
2
100
AcDbEntity
  8
エンボス
  6
Continuous
100
AcDbLine
 10
423.7752334948784
 20
1368.620531749562
 30
0.0
 11
416.7752334948784
 21
1366.620531749562
 31
0.0
  0
LINE
  5
1377
330
2
100
AcDbEntity
  8
本体
  6
Continuous
100
AcDbLine
 10
423.7752334948784
 20
1338.120531749562
 30
0.0
 11
423.7752334948784
 21
1296.120531749562
 31
0.0
  0
LINE
  5
1378
330
2
100
AcDbEntity
  8
本体
  6
Continuous
100
AcDbLine
 10
416.7752334948784
 20
1338.120531749562
 30
0.0
 11
416.7752334948784
 21
1296.120531749562
 31
0.0
  0
LINE
  5
1379
330
2
100
AcDbEntity
  8
エンボス
  6
Continuous
100
AcDbLine
 10
423.7752334948784
 20
1302.620531749562
 30
0.0
 11
416.7752334948784
 21
1304.620531749562
 31
0.0
  0
LINE
  5
137A
330
2
100
AcDbEntity
  8
エンボス
  6
Continuous
100
AcDbLine
 10
416.7752334948784
 20
1307.620531749562
 30
0.0
 11
423.7752334948784
 21
1309.620531749562
 31
0.0
  0
LINE
  5
137B
330
2
100
AcDbEntity
  8
エンボス
  6
Continuous
100
AcDbLine
 10
423.7752334948784
 20
1330.620531749562
 30
0.0
 11
416.7752334948784
 21
1332.620531749562
 31
0.0
  0
LINE
  5
137C
330
2
100
AcDbEntity
  8
エンボス
  6
Continuous
100
AcDbLine
 10
416.7752334948784
 20
1335.620531749562
 30
0.0
 11
423.7752334948784
 21
1337.620531749562
 31
0.0
  0
LINE
  5
137D
330
2
100
AcDbEntity
  8
エンボス
  6
Continuous
100
AcDbLine
 10
416.7752334948784
 20
1323.620531749562
 30
0.0
 11
423.7752334948784
 21
1321.620531749562
 31
0.0
  0
LINE
  5
137E
330
2
100
AcDbEntity
  8
エンボス
  6
Continuous
100
AcDbLine
 10
423.7752334948784
 20
1318.620531749562
 30
0.0
 11
416.7752334948784
 21
1316.620531749562
 31
0.0
  0
LINE
  5
137F
330
2
100
AcDbEntity
  8
本体
  6
Continuous
100
AcDbLine
 10
423.7752334948784
 20
1288.120531749562
 30
0.0
 11
423.7752334948784
 21
1246.120531749562
 31
0.0
  0
LINE
  5
1380
330
2
100
AcDbEntity
  8
本体
  6
Continuous
100
AcDbLine
 10
416.7752334948784
 20
1288.120531749562
 30
0.0
 11
416.7752334948784
 21
1246.120531749562
 31
0.0
  0
LINE
  5
1381
330
2
100
AcDbEntity
  8
エンボス
  6
Continuous
100
AcDbLine
 10
423.7752334948784
 20
1252.620531749562
 30
0.0
 11
416.7752334948784
 21
1254.620531749562
 31
0.0
  0
LINE
  5
1382
330
2
100
AcDbEntity
  8
エンボス
  6
Continuous
100
AcDbLine
 10
416.7752334948784
 20
1257.620531749562
 30
0.0
 11
423.7752334948784
 21
1259.620531749562
 31
0.0
  0
LINE
  5
1383
330
2
100
AcDbEntity
  8
エンボス
  6
Continuous
100
AcDbLine
 10
423.7752334948784
 20
1280.620531749562
 30
0.0
 11
416.7752334948784
 21
1282.620531749562
 31
0.0
  0
LINE
  5
1384
330
2
100
AcDbEntity
  8
エンボス
  6
Continuous
100
AcDbLine
 10
416.7752334948784
 20
1285.620531749562
 30
0.0
 11
423.7752334948784
 21
1287.620531749562
 31
0.0
  0
LINE
  5
1385
330
2
100
AcDbEntity
  8
エンボス
  6
Continuous
100
AcDbLine
 10
416.7752334948784
 20
1273.620531749562
 30
0.0
 11
423.7752334948784
 21
1271.620531749562
 31
0.0
  0
LINE
  5
1386
330
2
100
AcDbEntity
  8
エンボス
  6
Continuous
100
AcDbLine
 10
423.7752334948784
 20
1268.620531749562
 30
0.0
 11
416.7752334948784
 21
1266.620531749562
 31
0.0
  0
LINE
  5
1387
330
2
100
AcDbEntity
  8
本体
 48
3.0
100
AcDbLine
 10
416.7752334948781
 20
1589.620531749562
 30
0.0
 11
416.7752334948781
 21
1194.620531749562
 31
0.0
  0
LINE
  5
1388
330
2
100
AcDbEntity
  8
本体
 48
3.0
100
AcDbLine
 10
1411.775233494878
 20
1194.620531749562
 30
0.0
 11
1411.775233494878
 21
1589.620531749562
 31
0.0
  0
INSERT
  5
1390
102
{ACAD_REACTORS
330
13D5
102
}
330
2
100
AcDbEntity
  8
本体
100
AcDbBlockReference
  2
*U33
 10
2087.95907640965
 20
1697.652676109917
 30
0.0
  0
LEADER
  5
13F3
330
2
100
AcDbEntity
  8
寸法線
  6
Continuous
100
AcDbLeader
  3
ISO-25
 73
     0
 74
     0
 75
     1
 40
30.0
 41
211.3705583756345
 76
     3
 10
1409.003833068056
 20
1465.277026903053
 30
0.0
 10
1464.714511186711
 20
1568.461169683069
 30
0.0
 10
1479.714511186711
 20
1568.461169683069
 30
0.0
340
13F4
1001
ACAD
1000
DSTYLE
1002
{
1070
     5
1000
OPEN30
1070
    77
1070
     1
1070
   147
1040
0.5
1070
   342
1005
1DA
1002
}
  0
MTEXT
  5
13F4
102
{ACAD_REACTORS
330
13F3
102
}
330
2
100
AcDbEntity
  8
寸法線
  6
Continuous
100
AcDbMText
 10
1484.714511186711
 20
1573.461169683069
 30
0.0
 40
30.0
 41
0.0
 71
     7
 72
     1
  1
GIB7\U+00D74\U+00D750
 73
     1
 44
1.0
1001
ACAD
1000
MTEXTBEGIN
1070
    73
1070
     1
1070
    44
1040
1.0
1070
    74
1070
     0
1000
MTEXTEND
  0
LEADER
  5
13F5
330
2
100
AcDbEntity
  8
寸法線
  6
Continuous
100
AcDbLeader
  3
ISO-25
 73
     0
 74
     0
 75
     1
 40
30.0
 41
35.78680203045685
 76
     3
 10
1409.003833068056
 20
1341.436688473124
 30
0.0
 10
1464.714511186711
 20
1444.62083125314
 30
0.0
 10
1479.714511186711
 20
1444.62083125314
 30
0.0
340
13F6
1001
ACAD
1000
DSTYLE
1002
{
1070
     5
1000
OPEN30
1070
    77
1070
     1
1070
   147
1040
0.5
1070
   342
1005
1DA
1002
}
  0
MTEXT
  5
13F6
102
{ACAD_REACTORS
330
13F5
102
}
330
2
100
AcDbEntity
  8
寸法線
  6
Continuous
100
AcDbMText
 10
1484.714511186711
 20
1449.62083125314
 30
0.0
 40
30.0
 41
0.0
 71
     7
 72
     1
  1
TB
 73
     1
 44
1.0
1001
ACAD
1000
MTEXTBEGIN
1070
    73
1070
     1
1070
    44
1040
1.0
1070
    74
1070
     0
1000
MTEXTEND
  0
ENDSEC
  0
SECTION
  2
OBJECTS
  0
DICTIONARY
  5
7
330
0
100
AcDbDictionary
281
     1
  3
ACAD_ASSOCNETWORK
350
12E6
  3
ACAD_CIP_PREVIOUS_PRODUCT_INFO
350
1168
  3
ACAD_COLOR
350
1146
  3
ACAD_DETAILVIEWSTYLE
350
115F
  3
ACAD_GROUP
350
5A9
  3
ACAD_LAYOUT
350
58F
  3
ACAD_MATERIAL
350
1114
  3
ACAD_MLEADERSTYLE
350
115B
  3
ACAD_MLINESTYLE
350
5AA
  3
ACAD_PLOTSETTINGS
350
5AB
  3
ACAD_PLOTSTYLENAME
350
6
  3
ACAD_SCALELIST
350
1149
  3
ACAD_SECTIONVIEWSTYLE
350
115D
  3
ACAD_TABLESTYLE
350
1147
  3
ACAD_VISUALSTYLE
350
112D
  3
ACDB_RECOMPOSE_DATA
350
1445
  3
AcDbVariableDictionary
350
11C3
  3
DWGPROPS
350
1446
  0
DICTIONARY
  5
1186
330
5A4
100
AcDbDictionary
280
     1
281
     1
  0
DICTIONARY
  5
12C6
330
59C
100
AcDbDictionary
280
     1
281
     1
  3
ACAD_LAYERSTATES
360
12C7
  0
DICTIONARY
  5
1169
330
64
100
AcDbDictionary
280
     1
281
     1
  3
ADSK_XREC_LAYER_RECONCILED
360
116A
  0
DICTIONARY
  5
116B
330
6A
100
AcDbDictionary
280
     1
281
     1
  3
ADSK_XREC_LAYER_RECONCILED
360
116C
  0
DICTIONARY
  5
116D
330
4
100
AcDbDictionary
280
     1
281
     1
  3
ADSK_XREC_LAYER_RECONCILED
360
116E
  0
DICTIONARY
  5
1171
330
67
100
AcDbDictionary
280
     1
281
     1
  3
ADSK_XREC_LAYER_RECONCILED
360
1172
  0
DICTIONARY
  5
1173
330
11
100
AcDbDictionary
280
     1
281
     1
  3
ADSK_XREC_LAYER_RECONCILED
360
1174
  0
DICTIONARY
  5
1177
330
1061
100
AcDbDictionary
280
     1
281
     1
  3
ADSK_XREC_LAYER_RECONCILED
360
1178
  0
DICTIONARY
  5
1179
330
107B
100
AcDbDictionary
280
     1
281
     1
  3
ADSK_XREC_LAYER_RECONCILED
360
117A
  0
DICTIONARY
  5
58A
330
2
100
AcDbDictionary
280
     1
281
     1
  3
ACAD_ASSOCNETWORK
360
12E4
  3
ACAD_LAYOUTSELFREF
360
FD3
  0
DICTIONARY
  5
591
330
590
100
AcDbDictionary
280
     1
281
     1
  3
ACAD_LAYOUTSELFREF
360
FE0
  0
DICTIONARY
  5
597
330
596
100
AcDbDictionary
280
     1
281
     1
  3
ACAD_LAYOUTSELFREF
360
FE1
  0
DICTIONARY
  5
11DA
330
11D6
100
AcDbDictionary
280
     1
281
     1
  0
DICTIONARY
  5
1487
330
12DA
100
AcDbDictionary
280
     1
281
     1
  3
AcDbBlockTableRecordData
360
1488
  0
DICTIONARY
  5
148A
330
138D
100
AcDbDictionary
280
     1
281
     1
  3
AcDbBlockTableRecordData
360
148B
  0
DICTIONARY
  5
12E6
102
{ACAD_REACTORS
330
7
102
}
330
7
100
AcDbDictionary
281
     1
  3
ACAD_ASSOCNETWORK
350
12E7
  0
XRECORD
  5
1168
102
{ACAD_REACTORS
330
7
102
}
330
7
100
AcDbXrecord
280
     1
300
ACDLT
300
2014
300
ACDLT_F_S
  0
DICTIONARY
  5
1146
102
{ACAD_REACTORS
330
7
102
}
330
7
100
AcDbDictionary
281
     1
  0
DICTIONARY
  5
115F
102
{ACAD_REACTORS
330
7
102
}
330
7
100
AcDbDictionary
281
     1
  3
Metric50
350
1160
  0
DICTIONARY
  5
5A9
102
{ACAD_REACTORS
330
7
102
}
330
7
100
AcDbDictionary
281
     1
  3
*A1
350
1075
  3
*A2
350
107A
  0
DICTIONARY
  5
58F
102
{ACAD_REACTORS
330
7
102
}
330
7
100
AcDbDictionary
281
     1
  3
Layout1
350
595
  3
Layout2
350
59B
  3
Model
350
58E
  0
DICTIONARY
  5
1114
102
{ACAD_REACTORS
330
7
102
}
330
7
100
AcDbDictionary
281
     1
  3
ByBlock
350
111D
  3
ByLayer
350
1115
  3
Global
350
1125
  0
DICTIONARY
  5
115B
102
{ACAD_REACTORS
330
7
102
}
330
7
100
AcDbDictionary
281
     1
  3
Standard
350
115C
  0
DICTIONARY
  5
5AA
102
{ACAD_REACTORS
330
7
102
}
330
7
100
AcDbDictionary
281
     1
  3
Standard
350
5AC
  0
DICTIONARY
  5
5AB
102
{ACAD_REACTORS
330
7
102
}
330
7
100
AcDbDictionary
281
     1
  0
ACDBDICTIONARYWDFLT
  5
6
102
{ACAD_REACTORS
330
7
102
}
330
7
100
AcDbDictionary
281
     1
  3
Normal
350
5
100
AcDbDictionaryWithDefault
340
5
  0
DICTIONARY
  5
1149
102
{ACAD_REACTORS
330
7
102
}
330
7
100
AcDbDictionary
281
     1
  3
A0
350
114A
  3
A1
350
114B
  3
A2
350
114C
  3
A3
350
114D
  3
A4
350
114E
  3
A5
350
114F
  3
A6
350
1150
  3
A7
350
1151
  3
A8
350
1152
  3
A9
350
1153
  3
B0
350
1154
  3
B1
350
1155
  3
B2
350
1156
  3
B3
350
1157
  3
B4
350
1158
  3
B5
350
1159
  3
B6
350
115A
  0
DICTIONARY
  5
115D
102
{ACAD_REACTORS
330
7
102
}
330
7
100
AcDbDictionary
281
     1
  3
Metric50
350
115E
  0
DICTIONARY
  5
1147
102
{ACAD_REACTORS
330
7
102
}
330
7
100
AcDbDictionary
281
     1
  3
Standard
350
1148
  0
DICTIONARY
  5
112D
102
{ACAD_REACTORS
330
7
102
}
330
7
100
AcDbDictionary
281
     1
  3
2dWireframe
350
1133
  3
Basic
350
1132
  3
Brighten
350
1139
  3
ColorChange
350
113D
  3
Conceptual
350
1136
  3
Dim
350
1138
  3
EdgeColorOff
350
1145
  3
Facepattern
350
113C
  3
Flat
350
112E
  3
FlatWithEdges
350
112F
  3
Gouraud
350
1130
  3
GouraudWithEdges
350
1131
  3
Hidden
350
1135
  3
JitterOff
350
1143
  3
Linepattern
350
113B
  3
OverhangOff
350
1144
  3
Realistic
350
1137
  3
Shaded
350
1142
  3
Shaded with edges
350
1141
  3
Shades of Gray
350
113E
  3
Sketchy
350
113F
  3
Thicken
350
113A
  3
Wireframe
350
1134
  3
X-Ray
350
1140
  0
XRECORD
  5
1445
102
{ACAD_REACTORS
330
7
102
}
330
7
100
AcDbXrecord
280
     1
 90
        1
330
1148
  0
DICTIONARY
  5
11C3
102
{ACAD_REACTORS
330
7
102
}
330
7
100
AcDbDictionary
281
     1
  3
CANNOSCALE
350
11C8
  3
CMLEADERSTYLE
350
11C5
  3
CTABLESTYLE
350
11C4
  3
CVIEWDETAILSTYLE
350
11C6
  3
CVIEWSECTIONSTYLE
350
11C7
  3
DIMASSOC
350
11CB
  3
INDEXCTL
350
11CA
  3
SORTENTS
350
11C9
  3
XCLIPFRAME
350
1443
  0
XRECORD
  5
1446
102
{ACAD_REACTORS
330
7
102
}
330
7
100
AcDbXrecord
280
     1
  1
DWGPROPS COOKIE
  2

  3

  4

  6

  7

  8
takara
  9

300
=
301
=
302
=
303
=
304
=
305
=
306
=
307
=
308
=
309
=
 40
0.0997789120370371
 41
2453510.558637211
 42
2457565.390264202
  1

 90
        0
  0
DICTIONARY
  5
12C7
102
{ACAD_REACTORS
330
12C6
102
}
330
12C6
100
AcDbDictionary
281
     1
  3
_LAYISO_STATE
350
12CC
1001
AcLayerTools
1000
58E
1000
0
  0
XRECORD
  5
116A
102
{ACAD_REACTORS
330
1169
102
}
330
1169
100
AcDbXrecord
280
     1
290
     1
  0
XRECORD
  5
116C
102
{ACAD_REACTORS
330
116B
102
}
330
116B
100
AcDbXrecord
280
     1
290
     1
  0
XRECORD
  5
116E
102
{ACAD_REACTORS
330
116D
102
}
330
116D
100
AcDbXrecord
280
     1
290
     1
  0
XRECORD
  5
1172
102
{ACAD_REACTORS
330
1171
102
}
330
1171
100
AcDbXrecord
280
     1
290
     1
  0
XRECORD
  5
1174
102
{ACAD_REACTORS
330
1173
102
}
330
1173
100
AcDbXrecord
280
     1
290
     1
  0
XRECORD
  5
1178
102
{ACAD_REACTORS
330
1177
102
}
330
1177
100
AcDbXrecord
280
     1
290
     1
  0
XRECORD
  5
117A
102
{ACAD_REACTORS
330
1179
102
}
330
1179
100
AcDbXrecord
280
     1
290
     1
  0
DICTIONARY
  5
12E4
102
{ACAD_REACTORS
330
58A
102
}
330
58A
100
AcDbDictionary
281
     1
  3
ACAD_ASSOCNETWORK
350
12E5
  0
XRECORD
  5
FD3
102
{ACAD_REACTORS
330
58A
102
}
330
58A
100
AcDbXrecord
280
     1
340
2
  0
XRECORD
  5
FE0
102
{ACAD_REACTORS
330
591
102
}
330
591
100
AcDbXrecord
280
     1
340
590
  0
XRECORD
  5
FE1
102
{ACAD_REACTORS
330
597
102
}
330
597
100
AcDbXrecord
280
     1
340
596
  0
DICTIONARY
  5
1488
102
{ACAD_REACTORS
330
1487
102
}
330
1487
100
AcDbDictionary
280
     1
281
     1
  3
Edit
360
1489
  0
DICTIONARY
  5
148B
102
{ACAD_REACTORS
330
148A
102
}
330
148A
100
AcDbDictionary
280
     1
281
     1
  3
Edit
360
148C
  0
ACDBASSOCNETWORK
  5
12E7
102
{ACAD_REACTORS
330
12E6
102
}
330
12E6
100
AcDbAssocAction
 90
        1
 90
        1
330
0
360
0
 90
        0
 90
        0
 90
        0
100
AcDbAssocNetwork
 90
        0
 90
        1
 90
        1
330
12E5
 90
        1
330
12E5
  0
ACDBDETAILVIEWSTYLE
  5
1160
102
{ACAD_XDICTIONARY
360
1485
102
}
102
{ACAD_REACTORS
330
115F
102
}
330
115F
100
AcDbModelDocViewStyle
 70
     0
  3
Metric50
290
     0
100
AcDbDetailViewStyle
 70
     0
 71
     0
 90
        3
 71
     1
340
9
 40
5.0
340
0
 40
5.0
300

 40
0.0
280
     1
 71
     2
340
8
 90
       25
 71
     3
340
9
 40
5.0
 90
        0
 40
15.0
 90
        1
300
%<\AcVar ViewDetailId>% (%<\AcVar ViewScale \f "%sn">%)
 71
     4
340
8
 90
       25
340
8
 90
       25
280
     0
  0
GROUP
  5
1075
102
{ACAD_REACTORS
330
5A9
102
}
330
5A9
100
AcDbGroup
300

 70
     1
 71
     1
340
5B1
340
5B5
340
5B2
340
5B8
  0
GROUP
  5
107A
102
{ACAD_REACTORS
330
5A9
102
}
330
5A9
100
AcDbGroup
300

 70
     1
 71
     1
340
1076
340
1077
340
1078
340
1079
  0
LAYOUT
  5
595
102
{ACAD_XDICTIONARY
360
1449
102
}
102
{ACAD_REACTORS
330
58F
102
}
330
58F
100
AcDbPlotSettings
  1

  2
None
  4

  6

 40
0.0
 41
0.0
 42
0.0
 43
0.0
 44
0.0
 45
0.0
 46
0.0
 47
0.0
 48
0.0
 49
0.0
140
0.0
141
0.0
142
1.0
143
1.0
 70
   688
 72
     0
 73
     0
 74
     5
  7
monochrome.ctb
 75
    16
147
1.0
148
0.0
149
0.0
100
AcDbLayout
  1
Layout1
 70
     1
 71
     1
 10
0.0
 20
0.0
 11
12.0
 21
9.0
 12
0.0
 22
0.0
 32
0.0
 14
0.0
 24
0.0
 34
0.0
 15
0.0
 25
0.0
 35
0.0
146
0.0
 13
0.0
 23
0.0
 33
0.0
 16
1.0
 26
0.0
 36
0.0
 17
0.0
 27
1.0
 37
0.0
 76
     0
330
590
  0
LAYOUT
  5
59B
102
{ACAD_XDICTIONARY
360
144B
102
}
102
{ACAD_REACTORS
330
58F
102
}
330
58F
100
AcDbPlotSettings
  1

  2
None
  4

  6

 40
0.0
 41
0.0
 42
0.0
 43
0.0
 44
0.0
 45
0.0
 46
0.0
 47
0.0
 48
0.0
 49
0.0
140
0.0
141
0.0
142
1.0
143
1.0
 70
   688
 72
     0
 73
     0
 74
     5
  7
monochrome.ctb
 75
    16
147
1.0
148
0.0
149
0.0
100
AcDbLayout
  1
Layout2
 70
     1
 71
     2
 10
0.0
 20
0.0
 11
12.0
 21
9.0
 12
0.0
 22
0.0
 32
0.0
 14
0.0
 24
0.0
 34
0.0
 15
0.0
 25
0.0
 35
0.0
146
0.0
 13
0.0
 23
0.0
 33
0.0
 16
1.0
 26
0.0
 36
0.0
 17
0.0
 27
1.0
 37
0.0
 76
     0
330
596
  0
LAYOUT
  5
58E
102
{ACAD_XDICTIONARY
360
1447
102
}
102
{ACAD_REACTORS
330
58F
102
}
330
58F
100
AcDbPlotSettings
  1

  2
EPSON LP-9400
  4
A4
  6

 40
5.873749732971191
 41
5.873747825622558
 42
5.873748779296875
 43
5.873748779296875
 44
209.9733276367187
 45
297.0106506347656
 46
2.339999999999999
 47
0.0
 48
0.0
 49
0.0
140
0.0
141
0.0
142
1.0
143
9.816891609963194
 70
 11956
 72
     1
 73
     1
 74
     1
  7
monochrome.ctb
 75
     0
147
0.1018652379725877
148
1264.94917075748
149
959.6633564695521
100
AcDbLayout
  1
Model
 70
     1
 71
     0
 10
0.0
 20
0.0
 11
12.0
 21
9.0
 12
0.0
 22
0.0
 32
0.0
 14
0.0
 24
0.0
 34
0.0
 15
0.0
 25
0.0
 35
0.0
146
0.0
 13
0.0
 23
0.0
 33
0.0
 16
1.0
 26
0.0
 36
0.0
 17
0.0
 27
1.0
 37
0.0
 76
     0
330
2
331
1112
  0
MATERIAL
  5
111D
102
{ACAD_XDICTIONARY
360
111E
102
}
102
{ACAD_REACTORS
330
1114
102
}
330
1114
100
AcDbMaterial
  1
ByBlock
 72
     0
 43
0.0008202099737533
 43
0.0
 43
0.0
 43
0.0
 43
0.0
 43
0.0008202099737533
 43
0.0
 43
0.0
 43
0.0
 43
0.0
 43
1.0
 43
0.0
 43
0.0
 43
0.0
 43
0.0
 43
1.0
 77
     0
 47
0.0008202099737533
 47
0.0
 47
0.0
 47
0.0
 47
0.0
 47
0.0008202099737533
 47
0.0
 47
0.0
 47
0.0
 47
0.0
 47
1.0
 47
0.0
 47
0.0
 47
0.0
 47
0.0
 47
1.0
171
     0
 49
0.0008202099737533
 49
0.0
 49
0.0
 49
0.0
 49
0.0
 49
0.0008202099737533
 49
0.0
 49
0.0
 49
0.0
 49
0.0
 49
1.0
 49
0.0
 49
0.0
 49
0.0
 49
0.0
 49
1.0
175
     0
142
0.0008202099737533
142
0.0
142
0.0
142
0.0
142
0.0
142
0.0008202099737533
142
0.0
142
0.0
142
0.0
142
0.0
142
1.0
142
0.0
142
0.0
142
0.0
142
0.0
142
1.0
179
     0
144
0.0008202099737533
144
0.0
144
0.0
144
0.0
144
0.0
144
0.0008202099737533
144
0.0
144
0.0
144
0.0
144
0.0
144
1.0
144
0.0
144
0.0
144
0.0
144
0.0
144
1.0
147
0.0008202099737533
147
0.0
147
0.0
147
0.0
147
0.0
147
0.0008202099737533
147
0.0
147
0.0
147
0.0
147
0.0
147
1.0
147
0.0
147
0.0
147
0.0
147
0.0
147
1.0
  0
MATERIAL
  5
1115
102
{ACAD_XDICTIONARY
360
1116
102
}
102
{ACAD_REACTORS
330
1114
102
}
330
1114
100
AcDbMaterial
  1
ByLayer
 72
     0
 43
0.0008202099737533
 43
0.0
 43
0.0
 43
0.0
 43
0.0
 43
0.0008202099737533
 43
0.0
 43
0.0
 43
0.0
 43
0.0
 43
1.0
 43
0.0
 43
0.0
 43
0.0
 43
0.0
 43
1.0
 77
     0
 47
0.0008202099737533
 47
0.0
 47
0.0
 47
0.0
 47
0.0
 47
0.0008202099737533
 47
0.0
 47
0.0
 47
0.0
 47
0.0
 47
1.0
 47
0.0
 47
0.0
 47
0.0
 47
0.0
 47
1.0
171
     0
 49
0.0008202099737533
 49
0.0
 49
0.0
 49
0.0
 49
0.0
 49
0.0008202099737533
 49
0.0
 49
0.0
 49
0.0
 49
0.0
 49
1.0
 49
0.0
 49
0.0
 49
0.0
 49
0.0
 49
1.0
175
     0
142
0.0008202099737533
142
0.0
142
0.0
142
0.0
142
0.0
142
0.0008202099737533
142
0.0
142
0.0
142
0.0
142
0.0
142
1.0
142
0.0
142
0.0
142
0.0
142
0.0
142
1.0
179
     0
144
0.0008202099737533
144
0.0
144
0.0
144
0.0
144
0.0
144
0.0008202099737533
144
0.0
144
0.0
144
0.0
144
0.0
144
1.0
144
0.0
144
0.0
144
0.0
144
0.0
144
1.0
147
0.0008202099737533
147
0.0
147
0.0
147
0.0
147
0.0
147
0.0008202099737533
147
0.0
147
0.0
147
0.0
147
0.0
147
1.0
147
0.0
147
0.0
147
0.0
147
0.0
147
1.0
  0
MATERIAL
  5
1125
102
{ACAD_XDICTIONARY
360
1126
102
}
102
{ACAD_REACTORS
330
1114
102
}
330
1114
100
AcDbMaterial
  1
Global
 72
     0
 43
0.0008202099737533
 43
0.0
 43
0.0
 43
0.0
 43
0.0
 43
0.0008202099737533
 43
0.0
 43
0.0
 43
0.0
 43
0.0
 43
1.0
 43
0.0
 43
0.0
 43
0.0
 43
0.0
 43
1.0
 77
     0
 47
0.0008202099737533
 47
0.0
 47
0.0
 47
0.0
 47
0.0
 47
0.0008202099737533
 47
0.0
 47
0.0
 47
0.0
 47
0.0
 47
1.0
 47
0.0
 47
0.0
 47
0.0
 47
0.0
 47
1.0
171
     0
 49
0.0008202099737533
 49
0.0
 49
0.0
 49
0.0
 49
0.0
 49
0.0008202099737533
 49
0.0
 49
0.0
 49
0.0
 49
0.0
 49
1.0
 49
0.0
 49
0.0
 49
0.0
 49
0.0
 49
1.0
175
     0
142
0.0008202099737533
142
0.0
142
0.0
142
0.0
142
0.0
142
0.0008202099737533
142
0.0
142
0.0
142
0.0
142
0.0
142
1.0
142
0.0
142
0.0
142
0.0
142
0.0
142
1.0
179
     0
144
0.0008202099737533
144
0.0
144
0.0
144
0.0
144
0.0
144
0.0008202099737533
144
0.0
144
0.0
144
0.0
144
0.0
144
1.0
144
0.0
144
0.0
144
0.0
144
0.0
144
1.0
147
0.0008202099737533
147
0.0
147
0.0
147
0.0
147
0.0
147
0.0008202099737533
147
0.0
147
0.0
147
0.0
147
0.0
147
1.0
147
0.0
147
0.0
147
0.0
147
0.0
147
1.0
  0
MLEADERSTYLE
  5
115C
102
{ACAD_XDICTIONARY
360
1481
102
}
102
{ACAD_REACTORS
330
115B
102
}
330
115B
100
AcDbMLeaderStyle
170
     2
171
     1
172
     0
 90
        2
 40
0.0
 41
0.0
173
     1
 91
-1056964608
340
5A0
 92
       -2
290
     1
 42
2.0
291
     1
 43
0.36
  3
Standard
 44
4.0
300

342
9
174
     1
178
     6
175
     1
176
     0
 93
-1056964608
 45
4.0
292
     0
297
     0
 46
4.0
 94
-1056964608
 47
1.0
 49
1.0
140
1.0
293
     1
141
0.0
294
     1
177
     0
142
1.0
295
     0
296
     0
143
0.125
1001
ACAD_MLEADERVER
1070
     2
  0
MLINESTYLE
  5
5AC
102
{ACAD_REACTORS
330
5AA
102
}
330
5AA
100
AcDbMlineStyle
  2
STANDARD
 70
     0
  3

 62
   256
 51
90.0
 52
90.0
 71
     2
 49
0.5
 62
   256
  6
BYLAYER
 49
-0.5
 62
   256
  6
BYLAYER
  0
ACDBPLACEHOLDER
  5
5
102
{ACAD_REACTORS
330
6
102
}
330
6
  0
SCALE
  5
114A
102
{ACAD_REACTORS
330
1149
102
}
330
1149
100
AcDbScale
 70
     0
300
1:1
140
1.0
141
1.0
290
     1
  0
SCALE
  5
114B
102
{ACAD_REACTORS
330
1149
102
}
330
1149
100
AcDbScale
 70
     0
300
1:2
140
1.0
141
2.0
290
     0
  0
SCALE
  5
114C
102
{ACAD_REACTORS
330
1149
102
}
330
1149
100
AcDbScale
 70
     0
300
1:4
140
1.0
141
4.0
290
     0
  0
SCALE
  5
114D
102
{ACAD_REACTORS
330
1149
102
}
330
1149
100
AcDbScale
 70
     0
300
1:5
140
1.0
141
5.0
290
     0
  0
SCALE
  5
114E
102
{ACAD_REACTORS
330
1149
102
}
330
1149
100
AcDbScale
 70
     0
300
1:8
140
1.0
141
8.0
290
     0
  0
SCALE
  5
114F
102
{ACAD_REACTORS
330
1149
102
}
330
1149
100
AcDbScale
 70
     0
300
1:10
140
1.0
141
10.0
290
     0
  0
SCALE
  5
1150
102
{ACAD_REACTORS
330
1149
102
}
330
1149
100
AcDbScale
 70
     0
300
1:16
140
1.0
141
16.0
290
     0
  0
SCALE
  5
1151
102
{ACAD_REACTORS
330
1149
102
}
330
1149
100
AcDbScale
 70
     0
300
1:20
140
1.0
141
20.0
290
     0
  0
SCALE
  5
1152
102
{ACAD_REACTORS
330
1149
102
}
330
1149
100
AcDbScale
 70
     0
300
1:30
140
1.0
141
30.0
290
     0
  0
SCALE
  5
1153
102
{ACAD_REACTORS
330
1149
102
}
330
1149
100
AcDbScale
 70
     0
300
1:40
140
1.0
141
40.0
290
     0
  0
SCALE
  5
1154
102
{ACAD_REACTORS
330
1149
102
}
330
1149
100
AcDbScale
 70
     0
300
1:50
140
1.0
141
50.0
290
     0
  0
SCALE
  5
1155
102
{ACAD_REACTORS
330
1149
102
}
330
1149
100
AcDbScale
 70
     0
300
1:100
140
1.0
141
100.0
290
     0
  0
SCALE
  5
1156
102
{ACAD_REACTORS
330
1149
102
}
330
1149
100
AcDbScale
 70
     0
300
2:1
140
2.0
141
1.0
290
     0
  0
SCALE
  5
1157
102
{ACAD_REACTORS
330
1149
102
}
330
1149
100
AcDbScale
 70
     0
300
4:1
140
4.0
141
1.0
290
     0
  0
SCALE
  5
1158
102
{ACAD_REACTORS
330
1149
102
}
330
1149
100
AcDbScale
 70
     0
300
8:1
140
8.0
141
1.0
290
     0
  0
SCALE
  5
1159
102
{ACAD_REACTORS
330
1149
102
}
330
1149
100
AcDbScale
 70
     0
300
10:1
140
10.0
141
1.0
290
     0
  0
SCALE
  5
115A
102
{ACAD_REACTORS
330
1149
102
}
330
1149
100
AcDbScale
 70
     0
300
100:1
140
100.0
141
1.0
290
     0
  0
ACDBSECTIONVIEWSTYLE
  5
115E
102
{ACAD_XDICTIONARY
360
1483
102
}
102
{ACAD_REACTORS
330
115D
102
}
330
115D
100
AcDbModelDocViewStyle
 70
     0
  3
Metric50
290
     0
100
AcDbSectionViewStyle
 70
     0
 71
     0
 90
      102
 71
     1
340
9
 40
5.0
340
0
340
0
 40
5.0
300
I, O, Q, S, X, Z
 40
10.0
 90
        0
 40
2.5
 90
        0
 71
     2
340
8
 90
       25
340
8
 90
       50
 40
5.0
 40
2.5
 40
5.0
 71
     3
340
9
 40
5.0
 90
        0
 40
15.0
 90
        1
300
%<\AcVar ViewSectionStartId>%-%<\AcVar ViewSectionEndId>% (%<\AcVar ViewScale \f "%sn">%)
 71
     4
300
ANSI31
 40
1.0
 90
        0
290
     0
290
     0
 90
        6
 40
0.0
 40
1.570796326794896
 40
0.2617993877991494
 40
1.308996938995747
 40
-0.2617993877991494
 40
1.832595714594046
  0
TABLESTYLE
  5
1148
102
{ACAD_XDICTIONARY
360
117C
102
}
102
{ACAD_REACTORS
330
1147
102
}
330
1147
100
AcDbTableStyle
  3
Standard
 70
     0
 71
     0
 40
1.5
 41
1.5
280
     0
281
     0
  7
Standard
140
4.5
170
     2
 62
     0
 63
     7
283
     0
274
    -2
284
     1
 64
     0
275
    -2
285
     1
 65
     0
276
    -2
286
     1
 66
     0
277
    -2
287
     1
 67
     0
278
    -2
288
     1
 68
     0
279
    -2
289
     1
 69
     0
  7
Standard
140
6.0
170
     5
 62
     0
 63
     7
283
     0
274
    -2
284
     1
 64
     0
275
    -2
285
     1
 65
     0
276
    -2
286
     1
 66
     0
277
    -2
287
     1
 67
     0
278
    -2
288
     1
 68
     0
279
    -2
289
     1
 69
     0
  7
Standard
140
4.5
170
     5
 62
     0
 63
     7
283
     0
274
    -2
284
     1
 64
     0
275
    -2
285
     1
 65
     0
276
    -2
286
     1
 66
     0
277
    -2
287
     1
 67
     0
278
    -2
288
     1
 68
     0
279
    -2
289
     1
 69
     0
  0
VISUALSTYLE
  5
1133
102
{ACAD_XDICTIONARY
360
145A
102
}
102
{ACAD_REACTORS
330
112D
102
}
330
112D
100
AcDbVisualStyle
  2
2dWireframe
 70
     4
 71
     0
 72
     2
 73
     0
 90
        0
 40
-0.6
 41
-30.0
 62
     5
 63
     7
 74
     1
 91
        4
 64
     7
 65
   257
 75
     1
175
     1
 42
1.0
 92
        0
 66
   257
 43
1.0
 76
     1
 77
     6
 78
     2
 67
     7
 79
     5
170
     0
171
     0
290
     0
174
     0
 93
        1
 44
0.0
173
     0
291
     0
 45
0.0
1001
ACAD
1000
AcDbSavedByObjectVersion
1070
     0
  0
VISUALSTYLE
  5
1132
102
{ACAD_XDICTIONARY
360
1458
102
}
102
{ACAD_REACTORS
330
112D
102
}
330
112D
100
AcDbVisualStyle
  2
Basic
 70
     7
 71
     1
 72
     0
 73
     1
 90
        0
 40
-0.6
 41
-30.0
 62
     5
 63
     7
 74
     0
 91
        4
 64
     7
 65
   257
 75
     1
175
     1
 42
1.0
 92
        8
 66
     7
 43
1.0
 76
     1
 77
     6
 78
     2
 67
     7
 79
     5
170
     0
171
     0
290
     0
174
     0
 93
        1
 44
0.0
173
     0
291
     1
 45
0.0
1001
ACAD
1000
AcDbSavedByObjectVersion
1070
     0
  0
VISUALSTYLE
  5
1139
102
{ACAD_XDICTIONARY
360
1466
102
}
102
{ACAD_REACTORS
330
112D
102
}
330
112D
100
AcDbVisualStyle
  2
Brighten
 70
    12
 71
     2
 72
     2
 73
     0
 90
        0
 40
-0.6
 41
-30.0
 62
     5
 63
     7
 74
     1
 91
        4
 64
     7
 65
   257
 75
     1
175
     1
 42
1.0
 92
        8
 66
     7
 43
1.0
 76
     1
 77
     6
 78
     2
 67
     7
 79
     5
170
     0
171
     0
290
     0
174
     0
 93
        1
 44
50.0
173
     0
291
     1
 45
0.0
1001
ACAD
1000
AcDbSavedByObjectVersion
1070
     0
  0
VISUALSTYLE
  5
113D
102
{ACAD_XDICTIONARY
360
146E
102
}
102
{ACAD_REACTORS
330
112D
102
}
330
112D
100
AcDbVisualStyle
  2
ColorChange
 70
    16
 71
     2
 72
     2
 73
     3
 90
        0
 40
-0.6
 41
-30.0
 62
     5
 63
     8
 74
     1
 91
        4
 64
     7
 65
   257
 75
     1
175
     1
 42
1.0
 92
        8
 66
     8
 43
1.0
 76
     1
 77
     6
 78
     2
 67
     7
 79
     5
170
     0
171
     0
290
     0
174
     0
 93
        1
 44
0.0
173
     0
291
     1
 45
0.0
1001
ACAD
1000
AcDbSavedByObjectVersion
1070
     0
  0
VISUALSTYLE
  5
1136
102
{ACAD_XDICTIONARY
360
1460
102
}
102
{ACAD_REACTORS
330
112D
102
}
330
112D
100
AcDbVisualStyle
  2
Conceptual
 70
     9
 71
     3
 72
     2
 73
     0
 90
        0
 40
-0.6
 41
-30.0
 62
     5
 63
     7
 74
     2
 91
        2
 64
     7
 65
   257
 75
     1
175
     1
 42
179.0
 92
        8
 66
     7
 43
1.0
 76
     1
 77
     6
 78
     2
 67
     7
 79
     3
170
     0
171
     0
290
     0
174
     0
 93
        1
 44
0.0
173
     0
291
     0
 45
0.0
1001
ACAD
1000
AcDbSavedByObjectVersion
1070
     0
  0
VISUALSTYLE
  5
1138
102
{ACAD_XDICTIONARY
360
1464
102
}
102
{ACAD_REACTORS
330
112D
102
}
330
112D
100
AcDbVisualStyle
  2
Dim
 70
    11
 71
     2
 72
     2
 73
     0
 90
        0
 40
-0.6
 41
-30.0
 62
     5
 63
     7
 74
     1
 91
        4
 64
     7
 65
   257
 75
     1
175
     1
 42
1.0
 92
        8
 66
     7
 43
1.0
 76
     1
 77
     6
 78
     2
 67
     7
 79
     5
170
     0
171
     0
290
     0
174
     0
 93
        1
 44
-50.0
173
     0
291
     1
 45
0.0
1001
ACAD
1000
AcDbSavedByObjectVersion
1070
     0
  0
VISUALSTYLE
  5
1145
102
{ACAD_XDICTIONARY
360
147E
102
}
102
{ACAD_REACTORS
330
112D
102
}
330
112D
100
AcDbVisualStyle
  2
EdgeColorOff
 70
    22
 71
     2
 72
     2
 73
     0
 90
        0
 40
-0.6
 41
-30.0
 62
     5
 63
     7
 74
     1
 91
        4
 64
     7
 65
   257
 75
     1
175
     1
 42
1.0
 92
        8
 66
     7
 43
1.0
 76
     1
 77
     6
 78
     2
 67
     7
 79
     5
170
     0
171
     0
290
     0
174
     0
 93
        1
 44
0.0
173
     0
291
     1
 45
0.0
1001
ACAD
1000
AcDbSavedByObjectVersion
1070
     0
  0
VISUALSTYLE
  5
113C
102
{ACAD_XDICTIONARY
360
146C
102
}
102
{ACAD_REACTORS
330
112D
102
}
330
112D
100
AcDbVisualStyle
  2
Facepattern
 70
    15
 71
     2
 72
     2
 73
     0
 90
        0
 40
-0.6
 41
-30.0
 62
     5
 63
     7
 74
     1
 91
        4
 64
     7
 65
   257
 75
     1
175
     1
 42
1.0
 92
        8
 66
     7
 43
1.0
 76
     1
 77
     6
 78
     2
 67
     7
 79
     5
170
     0
171
     0
290
     0
174
     0
 93
        1
 44
0.0
173
     0
291
     1
 45
0.0
1001
ACAD
1000
AcDbSavedByObjectVersion
1070
     0
  0
VISUALSTYLE
  5
112E
102
{ACAD_XDICTIONARY
360
1450
102
}
102
{ACAD_REACTORS
330
112D
102
}
330
112D
100
AcDbVisualStyle
  2
Flat
 70
     0
 71
     2
 72
     1
 73
     1
 90
        2
 40
-0.6
 41
30.0
 62
     5
 63
     7
 74
     0
 91
        0
 64
     7
 65
   257
 75
     1
175
     1
 42
1.0
 92
        8
 66
     7
 43
1.0
 76
     1
 77
     6
 78
     2
 67
     7
 79
     5
170
     0
171
     0
290
     0
174
     0
 93
       13
 44
0.0
173
     0
291
     1
 45
0.0
1001
ACAD
1000
AcDbSavedByObjectVersion
1070
     0
  0
VISUALSTYLE
  5
112F
102
{ACAD_XDICTIONARY
360
1452
102
}
102
{ACAD_REACTORS
330
112D
102
}
330
112D
100
AcDbVisualStyle
  2
FlatWithEdges
 70
     1
 71
     2
 72
     1
 73
     1
 90
        2
 40
-0.6
 41
30.0
 62
     5
 63
     7
 74
     1
 91
        0
 64
     7
 65
   257
 75
     1
175
     1
 42
1.0
 92
        0
 66
   257
 43
1.0
 76
     1
 77
     6
 78
     2
 67
     7
 79
     5
170
     0
171
     0
290
     0
174
     0
 93
       13
 44
0.0
173
     0
291
     1
 45
0.0
1001
ACAD
1000
AcDbSavedByObjectVersion
1070
     0
  0
VISUALSTYLE
  5
1130
102
{ACAD_XDICTIONARY
360
1454
102
}
102
{ACAD_REACTORS
330
112D
102
}
330
112D
100
AcDbVisualStyle
  2
Gouraud
 70
     2
 71
     2
 72
     2
 73
     1
 90
        2
 40
-0.6
 41
30.0
 62
     5
 63
     7
 74
     0
 91
        0
 64
     7
 65
   257
 75
     1
175
     1
 42
1.0
 92
        0
 66
     7
 43
1.0
 76
     1
 77
     6
 78
     2
 67
     7
 79
     5
170
     0
171
     0
290
     0
174
     0
 93
       13
 44
0.0
173
     0
291
     1
 45
0.0
1001
ACAD
1000
AcDbSavedByObjectVersion
1070
     0
  0
VISUALSTYLE
  5
1131
102
{ACAD_XDICTIONARY
360
1456
102
}
102
{ACAD_REACTORS
330
112D
102
}
330
112D
100
AcDbVisualStyle
  2
GouraudWithEdges
 70
     3
 71
     2
 72
     2
 73
     1
 90
        2
 40
-0.6
 41
30.0
 62
     5
 63
     7
 74
     1
 91
        0
 64
     7
 65
   257
 75
     1
175
     1
 42
1.0
 92
        0
 66
   257
 43
1.0
 76
     1
 77
     6
 78
     2
 67
     7
 79
     5
170
     0
171
     0
290
     0
174
     0
 93
       13
 44
0.0
173
     0
291
     1
 45
0.0
1001
ACAD
1000
AcDbSavedByObjectVersion
1070
     0
  0
VISUALSTYLE
  5
1135
102
{ACAD_XDICTIONARY
360
145E
102
}
102
{ACAD_REACTORS
330
112D
102
}
330
112D
100
AcDbVisualStyle
  2
Hidden
 70
     6
 71
     1
 72
     2
 73
     2
 90
        0
 40
-0.6
 41
-30.0
 62
     5
 63
     7
 74
     2
 91
        2
 64
     7
 65
   257
 75
     2
175
     1
 42
40.0
 92
        0
 66
   257
 43
1.0
 76
     1
 77
     6
 78
     2
 67
     7
 79
     3
170
     0
171
     0
290
     0
174
     0
 93
        1
 44
0.0
173
     0
291
     0
 45
0.0
1001
ACAD
1000
AcDbSavedByObjectVersion
1070
     0
  0
VISUALSTYLE
  5
1143
102
{ACAD_XDICTIONARY
360
147A
102
}
102
{ACAD_REACTORS
330
112D
102
}
330
112D
100
AcDbVisualStyle
  2
JitterOff
 70
    20
 71
     2
 72
     2
 73
     0
 90
        0
 40
-0.6
 41
-30.0
 62
     5
 63
     7
 74
     1
 91
        4
 64
     7
 65
   257
 75
     1
175
     1
 42
1.0
 92
       10
 66
     7
 43
1.0
 76
     1
 77
     6
 78
     2
 67
     7
 79
     5
170
     0
171
     0
290
     0
174
     0
 93
        1
 44
0.0
173
     0
291
     1
 45
0.0
1001
ACAD
1000
AcDbSavedByObjectVersion
1070
     0
  0
VISUALSTYLE
  5
113B
102
{ACAD_XDICTIONARY
360
146A
102
}
102
{ACAD_REACTORS
330
112D
102
}
330
112D
100
AcDbVisualStyle
  2
Linepattern
 70
    14
 71
     2
 72
     2
 73
     0
 90
        0
 40
-0.6
 41
-30.0
 62
     5
 63
     7
 74
     1
 91
        4
 64
     7
 65
   257
 75
     7
175
     7
 42
1.0
 92
        8
 66
     7
 43
1.0
 76
     1
 77
     6
 78
     2
 67
     7
 79
     5
170
     0
171
     0
290
     0
174
     0
 93
        1
 44
0.0
173
     0
291
     1
 45
0.0
1001
ACAD
1000
AcDbSavedByObjectVersion
1070
     0
  0
VISUALSTYLE
  5
1144
102
{ACAD_XDICTIONARY
360
147C
102
}
102
{ACAD_REACTORS
330
112D
102
}
330
112D
100
AcDbVisualStyle
  2
OverhangOff
 70
    21
 71
     2
 72
     2
 73
     0
 90
        0
 40
-0.6
 41
-30.0
 62
     5
 63
     7
 74
     1
 91
        4
 64
     7
 65
   257
 75
     1
175
     1
 42
1.0
 92
        9
 66
     7
 43
1.0
 76
     1
 77
     6
 78
     2
 67
     7
 79
     5
170
     0
171
     0
290
     0
174
     0
 93
        1
 44
0.0
173
     0
291
     1
 45
0.0
1001
ACAD
1000
AcDbSavedByObjectVersion
1070
     0
  0
VISUALSTYLE
  5
1137
102
{ACAD_XDICTIONARY
360
1462
102
}
102
{ACAD_REACTORS
330
112D
102
}
330
112D
100
AcDbVisualStyle
  2
Realistic
 70
     8
 71
     2
 72
     2
 73
     0
 90
        2
 40
-0.6
 41
30.0
 62
     5
 63
     7
 74
     0
 91
        0
 64
     7
 65
   257
 75
     1
175
     1
 42
1.0
 92
        8
 66
   257
 43
1.0
 76
     1
 77
     6
 78
     2
 67
     7
 79
     3
170
     0
171
     0
290
     0
174
     0
 93
       13
 44
0.0
173
     0
291
     0
 45
0.0
1001
ACAD
1000
AcDbSavedByObjectVersion
1070
     0
  0
VISUALSTYLE
  5
1142
102
{ACAD_XDICTIONARY
360
1478
102
}
102
{ACAD_REACTORS
330
112D
102
}
330
112D
100
AcDbVisualStyle
  2
Shaded
 70
    27
 71
     2
 72
     2
 73
     1
 90
        2
 40
-0.6
 41
30.0
 62
     5
 63
     7
 74
     0
 91
        4
 64
     7
 65
   257
 75
     1
175
     1
 42
1.0
 92
        8
 66
   257
 43
1.0
 76
     1
 77
     6
 78
     2
 67
     8
 79
     3
170
     0
171
     0
290
     0
174
     0
 93
        5
 44
0.0
173
     0
291
     0
 45
0.0
1001
ACAD
1000
AcDbSavedByObjectVersion
1070
     0
  0
VISUALSTYLE
  5
1141
102
{ACAD_XDICTIONARY
360
1476
102
}
102
{ACAD_REACTORS
330
112D
102
}
330
112D
100
AcDbVisualStyle
  2
Shaded with edges
 70
    26
 71
     2
 72
     2
 73
     1
 90
        2
 40
-0.6
 41
30.0
 62
     5
 63
     7
 74
     1
 91
       10
 64
     7
 65
   257
 75
     2
175
     1
 42
1.0
 92
        8
 66
   257
 43
1.0
 76
     1
 77
     6
 78
     2
 67
     7
 79
     3
170
     0
171
     0
290
     0
174
     0
 93
        5
 44
0.0
173
     0
291
     0
 45
0.0
1001
ACAD
1000
AcDbSavedByObjectVersion
1070
     0
  0
VISUALSTYLE
  5
113E
102
{ACAD_XDICTIONARY
360
1470
102
}
102
{ACAD_REACTORS
330
112D
102
}
330
112D
100
AcDbVisualStyle
  2
Shades of Gray
 70
    23
 71
     2
 72
     2
 73
     3
 90
        0
 40
-0.6
 41
-30.0
 62
     5
 63
     7
 74
     2
 91
        2
 64
     7
 65
     7
 75
     1
175
     1
 42
40.0
 92
        8
 66
     7
 43
1.0
 76
     1
 77
     6
 78
     2
 67
     7
 79
     3
170
     0
171
     0
290
     0
174
     0
 93
        1
 44
0.0
173
     0
291
     0
 45
0.0
1001
ACAD
1000
AcDbSavedByObjectVersion
1070
     0
  0
VISUALSTYLE
  5
113F
102
{ACAD_XDICTIONARY
360
1472
102
}
102
{ACAD_REACTORS
330
112D
102
}
330
112D
100
AcDbVisualStyle
  2
Sketchy
 70
    24
 71
     1
 72
     2
 73
     2
 90
        0
 40
-0.6
 41
-30.0
 62
     5
 63
     7
 74
     2
 91
        2
 64
     7
 65
     7
 75
     1
175
     1
 42
40.0
 92
       11
 66
     7
 43
1.0
 76
     1
 77
     6
 78
     2
 67
     7
 79
     6
170
     0
171
     0
290
     0
174
     0
 93
        1
 44
0.0
173
     0
291
     0
 45
0.0
1001
ACAD
1000
AcDbSavedByObjectVersion
1070
     0
  0
VISUALSTYLE
  5
113A
102
{ACAD_XDICTIONARY
360
1468
102
}
102
{ACAD_REACTORS
330
112D
102
}
330
112D
100
AcDbVisualStyle
  2
Thicken
 70
    13
 71
     2
 72
     2
 73
     0
 90
        0
 40
-0.6
 41
-30.0
 62
     5
 63
     7
 74
     1
 91
        4
 64
     7
 65
   257
 75
     1
175
     1
 42
1.0
 92
       12
 66
     7
 43
1.0
 76
     1
 77
     6
 78
     2
 67
     7
 79
     5
170
     0
171
     0
290
     0
174
     0
 93
        1
 44
0.0
173
     0
291
     1
 45
0.0
1001
ACAD
1000
AcDbSavedByObjectVersion
1070
     0
  0
VISUALSTYLE
  5
1134
102
{ACAD_XDICTIONARY
360
145C
102
}
102
{ACAD_REACTORS
330
112D
102
}
330
112D
100
AcDbVisualStyle
  2
Wireframe
 70
     5
 71
     0
 72
     2
 73
     0
 90
        0
 40
-0.6
 41
-30.0
 62
     5
 63
     7
 74
     1
 91
        4
 64
     7
 65
   257
 75
     1
175
     1
 42
1.0
 92
        0
 66
   257
 43
1.0
 76
     1
 77
     6
 78
     2
 67
     7
 79
     3
170
     0
171
     0
290
     0
174
     0
 93
        1
 44
0.0
173
     0
291
     0
 45
0.0
1001
ACAD
1000
AcDbSavedByObjectVersion
1070
     0
  0
VISUALSTYLE
  5
1140
102
{ACAD_XDICTIONARY
360
1474
102
}
102
{ACAD_REACTORS
330
112D
102
}
330
112D
100
AcDbVisualStyle
  2
X-Ray
 70
    25
 71
     2
 72
     2
 73
     1
 90
        1
 40
0.5
 41
-30.0
 62
     5
 63
     7
 74
     1
 91
        0
 64
     7
 65
   257
 75
     1
175
     1
 42
1.0
 92
        8
 66
     7
 43
1.0
 76
     1
 77
     6
 78
     2
 67
     7
 79
     3
170
     0
171
     0
290
     0
174
     0
 93
       13
 44
0.0
173
     0
291
     0
 45
0.0
1001
ACAD
1000
AcDbSavedByObjectVersion
1070
     0
  0
DICTIONARYVAR
  5
11C8
102
{ACAD_REACTORS
330
11C3
102
}
330
11C3
100
DictionaryVariables
280
     0
  1
1:1
  0
DICTIONARYVAR
  5
11C5
102
{ACAD_REACTORS
330
11C3
102
}
330
11C3
100
DictionaryVariables
280
     0
  1
STANDARD
  0
DICTIONARYVAR
  5
11C4
102
{ACAD_REACTORS
330
11C3
102
}
330
11C3
100
DictionaryVariables
280
     0
  1
STANDARD
  0
DICTIONARYVAR
  5
11C6
102
{ACAD_REACTORS
330
11C3
102
}
330
11C3
100
DictionaryVariables
280
     0
  1
Metric50
  0
DICTIONARYVAR
  5
11C7
102
{ACAD_REACTORS
330
11C3
102
}
330
11C3
100
DictionaryVariables
280
     0
  1
Metric50
  0
DICTIONARYVAR
  5
11CB
102
{ACAD_REACTORS
330
11C3
102
}
330
11C3
100
DictionaryVariables
280
     0
  1
1
  0
DICTIONARYVAR
  5
11CA
102
{ACAD_REACTORS
330
11C3
102
}
330
11C3
100
DictionaryVariables
280
     0
  1
0
  0
DICTIONARYVAR
  5
11C9
102
{ACAD_REACTORS
330
11C3
102
}
330
11C3
100
DictionaryVariables
280
     0
  1
127
  0
DICTIONARYVAR
  5
1443
102
{ACAD_REACTORS
330
11C3
102
}
330
11C3
100
DictionaryVariables
280
     0
  1
2
  0
XRECORD
  5
12CC
102
{ACAD_XDICTIONARY
360
12CD
102
}
102
{ACAD_REACTORS
330
12C7
102
}
330
12C7
100
AcDbXrecord
280
     1
 91
      535
301

290
     0
302
本体
330
107B
 90
        9
 62
     1
370
     5
331
1D2
  1
色_1
440
        0
330
1061
 90
        9
 62
   112
370
    13
331
8
  1
色_112
440
        0
330
E2B
 90
        9
 62
     3
370
     9
331
8
  1
色_3
440
        0
330
1EF
 90
        1
 62
     7
370
    -3
331
8
  1
色_7
440
        0
330
11
 90
        9
 62
     7
370
    -3
331
8
  1
色_7
440
        0
330
67
 90
        8
 62
     4
370
     5
331
8
  1
色_4
440
        0
330
2E
 90
        9
 62
    31
370
     9
331
8
  1
色_31
440
        0
330
4
 90
        9
 62
     2
370
     9
331
8
  1
色_2
440
        0
330
6A
 90
        8
 62
     7
370
    13
331
8
  1
色_7
440
        0
330
64
 90
        9
 62
     7
370
    -3
331
8
  1
色_7
440
        0
  0
ACDBASSOCNETWORK
  5
12E5
102
{ACAD_REACTORS
330
12E4
102
}
330
12E4
100
AcDbAssocAction
 90
        1
 90
        1
330
12E7
360
0
 90
        1
 90
        0
 90
        0
100
AcDbAssocNetwork
 90
        0
 90
        2
 90
        2
360
12E8
360
13CF
 90
        2
330
12E8
330
13CF
  0
XRECORD
  5
1489
102
{ACAD_REACTORS
330
1488
102
}
330
1488
100
AcDbXrecord
280
     1
1070
     0
1070
     1
1070
     1
  0
XRECORD
  5
148C
102
{ACAD_REACTORS
330
148B
102
}
330
148B
100
AcDbXrecord
280
     1
1070
     0
1070
     1
1070
     1
  0
DICTIONARY
  5
1485
330
1160
100
AcDbDictionary
280
     1
281
     1
  3
ACAD_XREC_ROUNDTRIP
360
1486
  0
DICTIONARY
  5
1449
330
595
100
AcDbDictionary
280
     1
281
     1
  3
ACAD_XREC_ROUNDTRIP
360
144A
  0
DICTIONARY
  5
144B
330
59B
100
AcDbDictionary
280
     1
281
     1
  3
ACAD_XREC_ROUNDTRIP
360
144C
  0
DICTIONARY
  5
1447
330
58E
100
AcDbDictionary
280
     1
281
     1
  3
ACAD_XREC_ROUNDTRIP
360
1448
  0
DICTIONARY
  5
111E
330
111D
100
AcDbDictionary
280
     1
281
     1
  3
ACAD_XREC_ROUNDTRIP
360
144E
  3
BUMPTILE
360
1120
  3
DIFFUSETILE
360
111F
  3
OPACITYTILE
360
1123
  3
REFLECTIONTILE
360
1122
  3
REFRACTIONTILE
360
1124
  3
SPECULARTILE
360
1121
  0
DICTIONARY
  5
1116
330
1115
100
AcDbDictionary
280
     1
281
     1
  3
ACAD_XREC_ROUNDTRIP
360
144D
  3
BUMPTILE
360
1118
  3
DIFFUSETILE
360
1117
  3
OPACITYTILE
360
111B
  3
REFLECTIONTILE
360
111A
  3
REFRACTIONTILE
360
111C
  3
SPECULARTILE
360
1119
  0
DICTIONARY
  5
1126
330
1125
100
AcDbDictionary
280
     1
281
     1
  3
ACAD_XREC_ROUNDTRIP
360
144F
  3
BUMPTILE
360
1128
  3
DIFFUSETILE
360
1127
  3
OPACITYTILE
360
112B
  3
REFLECTIONTILE
360
112A
  3
REFRACTIONTILE
360
112C
  3
SPECULARTILE
360
1129
  0
DICTIONARY
  5
1481
330
115C
100
AcDbDictionary
280
     1
281
     1
  3
ACAD_XREC_ROUNDTRIP
360
1482
  0
DICTIONARY
  5
1483
330
115E
100
AcDbDictionary
280
     1
281
     1
  3
ACAD_XREC_ROUNDTRIP
360
1484
  0
DICTIONARY
  5
117C
330
1148
100
AcDbDictionary
280
     1
281
     1
  3
ACAD_ROUNDTRIP_2008_TABLESTYLE_CELLSTYLEMAP
360
1444
  3
ACAD_XREC_ROUNDTRIP
360
1480
  0
DICTIONARY
  5
145A
330
1133
100
AcDbDictionary
280
     1
281
     1
  3
ACAD_XREC_ROUNDTRIP
360
145B
  0
DICTIONARY
  5
1458
330
1132
100
AcDbDictionary
280
     1
281
     1
  3
ACAD_XREC_ROUNDTRIP
360
1459
  0
DICTIONARY
  5
1466
330
1139
100
AcDbDictionary
280
     1
281
     1
  3
ACAD_XREC_ROUNDTRIP
360
1467
  0
DICTIONARY
  5
146E
330
113D
100
AcDbDictionary
280
     1
281
     1
  3
ACAD_XREC_ROUNDTRIP
360
146F
  0
DICTIONARY
  5
1460
330
1136
100
AcDbDictionary
280
     1
281
     1
  3
ACAD_XREC_ROUNDTRIP
360
1461
  0
DICTIONARY
  5
1464
330
1138
100
AcDbDictionary
280
     1
281
     1
  3
ACAD_XREC_ROUNDTRIP
360
1465
  0
DICTIONARY
  5
147E
330
1145
100
AcDbDictionary
280
     1
281
     1
  3
ACAD_XREC_ROUNDTRIP
360
147F
  0
DICTIONARY
  5
146C
330
113C
100
AcDbDictionary
280
     1
281
     1
  3
ACAD_XREC_ROUNDTRIP
360
146D
  0
DICTIONARY
  5
1450
330
112E
100
AcDbDictionary
280
     1
281
     1
  3
ACAD_XREC_ROUNDTRIP
360
1451
  0
DICTIONARY
  5
1452
330
112F
100
AcDbDictionary
280
     1
281
     1
  3
ACAD_XREC_ROUNDTRIP
360
1453
  0
DICTIONARY
  5
1454
330
1130
100
AcDbDictionary
280
     1
281
     1
  3
ACAD_XREC_ROUNDTRIP
360
1455
  0
DICTIONARY
  5
1456
330
1131
100
AcDbDictionary
280
     1
281
     1
  3
ACAD_XREC_ROUNDTRIP
360
1457
  0
DICTIONARY
  5
145E
330
1135
100
AcDbDictionary
280
     1
281
     1
  3
ACAD_XREC_ROUNDTRIP
360
145F
  0
DICTIONARY
  5
147A
330
1143
100
AcDbDictionary
280
     1
281
     1
  3
ACAD_XREC_ROUNDTRIP
360
147B
  0
DICTIONARY
  5
146A
330
113B
100
AcDbDictionary
280
     1
281
     1
  3
ACAD_XREC_ROUNDTRIP
360
146B
  0
DICTIONARY
  5
147C
330
1144
100
AcDbDictionary
280
     1
281
     1
  3
ACAD_XREC_ROUNDTRIP
360
147D
  0
DICTIONARY
  5
1462
330
1137
100
AcDbDictionary
280
     1
281
     1
  3
ACAD_XREC_ROUNDTRIP
360
1463
  0
DICTIONARY
  5
1478
330
1142
100
AcDbDictionary
280
     1
281
     1
  3
ACAD_XREC_ROUNDTRIP
360
1479
  0
DICTIONARY
  5
1476
330
1141
100
AcDbDictionary
280
     1
281
     1
  3
ACAD_XREC_ROUNDTRIP
360
1477
  0
DICTIONARY
  5
1470
330
113E
100
AcDbDictionary
280
     1
281
     1
  3
ACAD_XREC_ROUNDTRIP
360
1471
  0
DICTIONARY
  5
1472
330
113F
100
AcDbDictionary
280
     1
281
     1
  3
ACAD_XREC_ROUNDTRIP
360
1473
  0
DICTIONARY
  5
1468
330
113A
100
AcDbDictionary
280
     1
281
     1
  3
ACAD_XREC_ROUNDTRIP
360
1469
  0
DICTIONARY
  5
145C
330
1134
100
AcDbDictionary
280
     1
281
     1
  3
ACAD_XREC_ROUNDTRIP
360
145D
  0
DICTIONARY
  5
1474
330
1140
100
AcDbDictionary
280
     1
281
     1
  3
ACAD_XREC_ROUNDTRIP
360
1475
  0
DICTIONARY
  5
12CD
330
12CC
100
AcDbDictionary
280
     1
281
     1
  3
AcadLayerStateAnnoScale
360
12CE
  0
ACDBASSOCACTION
  5
12E8
330
12E5
100
AcDbAssocAction
 90
        1
 90
        1
330
12E5
360
12E9
 90
        1
 90
        3
 90
        3
360
12EC
360
12ED
360
12EE
  0
ACDBASSOCACTION
  5
13CF
330
12E5
100
AcDbAssocAction
 90
        1
 90
        1
330
12E5
360
13D0
 90
        2
 90
        3
 90
        3
360
13D3
360
13D4
360
13D5
  0
XRECORD
  5
1486
102
{ACAD_REACTORS
330
1485
102
}
330
1485
100
AcDbXrecord
280
     1
102
DISPLAYNAME
  1
Metric50
102
FLAGS
 90
        0
  0
XRECORD
  5
144A
102
{ACAD_REACTORS
330
1449
102
}
330
1449
100
AcDbXrecord
280
     1
102
SHADEPLOT
 70
     0
102
SHADEPLOTRESLEVEL
 70
     2
102
SHADEPLOTCUSTOMDPI
 70
   300
  0
XRECORD
  5
144C
102
{ACAD_REACTORS
330
144B
102
}
330
144B
100
AcDbXrecord
280
     1
102
SHADEPLOT
 70
     0
102
SHADEPLOTRESLEVEL
 70
     2
102
SHADEPLOTCUSTOMDPI
 70
   300
  0
XRECORD
  5
1448
102
{ACAD_REACTORS
330
1447
102
}
330
1447
100
AcDbXrecord
280
     1
102
SHADEPLOT
 70
     0
102
SHADEPLOTRESLEVEL
 70
     2
102
SHADEPLOTCUSTOMDPI
 70
   300
  0
XRECORD
  5
144E
102
{ACAD_REACTORS
330
111E
102
}
330
111E
100
AcDbXrecord
280
     1
102
MATERIAL
148
0.0
149
0.0
149
0.0
 93
        0
 94
      127
282
     0
 72
     0
 77
     0
171
     0
175
     0
179
     0
273
     0
  0
XRECORD
  5
1120
102
{ACAD_REACTORS
330
111E
102
}
330
111E
100
AcDbXrecord
280
     1
270
     1
271
     1
  0
XRECORD
  5
111F
102
{ACAD_REACTORS
330
111E
102
}
330
111E
100
AcDbXrecord
280
     1
270
     1
271
     1
  0
XRECORD
  5
1123
102
{ACAD_REACTORS
330
111E
102
}
330
111E
100
AcDbXrecord
280
     1
270
     1
271
     1
  0
XRECORD
  5
1122
102
{ACAD_REACTORS
330
111E
102
}
330
111E
100
AcDbXrecord
280
     1
270
     1
271
     1
  0
XRECORD
  5
1124
102
{ACAD_REACTORS
330
111E
102
}
330
111E
100
AcDbXrecord
280
     1
270
     1
271
     1
  0
XRECORD
  5
1121
102
{ACAD_REACTORS
330
111E
102
}
330
111E
100
AcDbXrecord
280
     1
270
     1
271
     1
  0
XRECORD
  5
144D
102
{ACAD_REACTORS
330
1116
102
}
330
1116
100
AcDbXrecord
280
     1
102
MATERIAL
148
0.0
149
0.0
149
0.0
 93
        0
 94
      127
282
     0
 72
     0
 77
     0
171
     0
175
     0
179
     0
273
     0
  0
XRECORD
  5
1118
102
{ACAD_REACTORS
330
1116
102
}
330
1116
100
AcDbXrecord
280
     1
270
     1
271
     1
  0
XRECORD
  5
1117
102
{ACAD_REACTORS
330
1116
102
}
330
1116
100
AcDbXrecord
280
     1
270
     1
271
     1
  0
XRECORD
  5
111B
102
{ACAD_REACTORS
330
1116
102
}
330
1116
100
AcDbXrecord
280
     1
270
     1
271
     1
  0
XRECORD
  5
111A
102
{ACAD_REACTORS
330
1116
102
}
330
1116
100
AcDbXrecord
280
     1
270
     1
271
     1
  0
XRECORD
  5
111C
102
{ACAD_REACTORS
330
1116
102
}
330
1116
100
AcDbXrecord
280
     1
270
     1
271
     1
  0
XRECORD
  5
1119
102
{ACAD_REACTORS
330
1116
102
}
330
1116
100
AcDbXrecord
280
     1
270
     1
271
     1
  0
XRECORD
  5
144F
102
{ACAD_REACTORS
330
1126
102
}
330
1126
100
AcDbXrecord
280
     1
102
MATERIAL
148
0.0
149
0.0
149
0.0
 93
        0
 94
      127
282
     0
 72
     0
 77
     0
171
     0
175
     0
179
     0
273
     0
  0
XRECORD
  5
1128
102
{ACAD_REACTORS
330
1126
102
}
330
1126
100
AcDbXrecord
280
     1
270
     1
271
     1
  0
XRECORD
  5
1127
102
{ACAD_REACTORS
330
1126
102
}
330
1126
100
AcDbXrecord
280
     1
270
     1
271
     1
  0
XRECORD
  5
112B
102
{ACAD_REACTORS
330
1126
102
}
330
1126
100
AcDbXrecord
280
     1
270
     1
271
     1
  0
XRECORD
  5
112A
102
{ACAD_REACTORS
330
1126
102
}
330
1126
100
AcDbXrecord
280
     1
270
     1
271
     1
  0
XRECORD
  5
112C
102
{ACAD_REACTORS
330
1126
102
}
330
1126
100
AcDbXrecord
280
     1
270
     1
271
     1
  0
XRECORD
  5
1129
102
{ACAD_REACTORS
330
1126
102
}
330
1126
100
AcDbXrecord
280
     1
270
     1
271
     1
  0
XRECORD
  5
1482
102
{ACAD_REACTORS
330
1481
102
}
330
1481
100
AcDbXrecord
280
     1
102
ACAD_ROUNDTRIP_2012_MLEADER_STYLE
298
     1
  0
XRECORD
  5
1484
102
{ACAD_REACTORS
330
1483
102
}
330
1483
100
AcDbXrecord
280
     1
102
DISPLAYNAME
  1
Metric50
102
FLAGS
 90
        0
  0
CELLSTYLEMAP
  5
1444
102
{ACAD_REACTORS
330
117C
102
}
330
117C
100
AcDbCellStyleMap
 90
        3
300
CELLSTYLE
  1
TABLEFORMAT_BEGIN
 90
        5
170
     1
 91
        0
 92
    32768
 62
   257
 93
        1
300
CONTENTFORMAT
  1
CONTENTFORMAT_BEGIN
 90
        0
 91
        0
 92
      512
 93
        0
300

 40
0.0
140
1.0
 94
        5
 62
     0
340
9
144
6.0
309
CONTENTFORMAT_END
171
     1
301
MARGIN
  1
CELLMARGIN_BEGIN
 40
1.5
 40
1.5
 40
1.5
 40
1.5
 40
4.5
 40
4.5
309
CELLMARGIN_END
 94
        6
 95
        1
302
GRIDFORMAT
  1
GRIDFORMAT_BEGIN
 90
        0
 91
        1
 62
     0
 92
       -2
340
0
 93
        0
 40
1.125
309
GRIDFORMAT_END
 95
        2
302
GRIDFORMAT
  1
GRIDFORMAT_BEGIN
 90
        0
 91
        1
 62
     0
 92
       -2
340
0
 93
        0
 40
1.125
309
GRIDFORMAT_END
 95
        4
302
GRIDFORMAT
  1
GRIDFORMAT_BEGIN
 90
        0
 91
        1
 62
     0
 92
       -2
340
0
 93
        0
 40
1.125
309
GRIDFORMAT_END
 95
        8
302
GRIDFORMAT
  1
GRIDFORMAT_BEGIN
 90
        0
 91
        1
 62
     0
 92
       -2
340
0
 93
        0
 40
1.125
309
GRIDFORMAT_END
 95
       16
302
GRIDFORMAT
  1
GRIDFORMAT_BEGIN
 90
        0
 91
        1
 62
     0
 92
       -2
340
0
 93
        0
 40
1.125
309
GRIDFORMAT_END
 95
       32
302
GRIDFORMAT
  1
GRIDFORMAT_BEGIN
 90
        0
 91
        1
 62
     0
 92
       -2
340
0
 93
        0
 40
1.125
309
GRIDFORMAT_END
309
TABLEFORMAT_END
  1
CELLSTYLE_BEGIN
 90
        1
 91
        1
300
_TITLE
309
CELLSTYLE_END
300
CELLSTYLE
  1
TABLEFORMAT_BEGIN
 90
        5
170
     1
 91
        0
 92
        0
 62
   257
 93
        1
300
CONTENTFORMAT
  1
CONTENTFORMAT_BEGIN
 90
        0
 91
        0
 92
      512
 93
        0
300

 40
0.0
140
1.0
 94
        5
 62
     0
340
9
144
4.5
309
CONTENTFORMAT_END
171
     1
301
MARGIN
  1
CELLMARGIN_BEGIN
 40
1.5
 40
1.5
 40
1.5
 40
1.5
 40
4.5
 40
4.5
309
CELLMARGIN_END
 94
        6
 95
        1
302
GRIDFORMAT
  1
GRIDFORMAT_BEGIN
 90
        0
 91
        1
 62
     0
 92
       -2
340
0
 93
        0
 40
1.125
309
GRIDFORMAT_END
 95
        2
302
GRIDFORMAT
  1
GRIDFORMAT_BEGIN
 90
        0
 91
        1
 62
     0
 92
       -2
340
0
 93
        0
 40
1.125
309
GRIDFORMAT_END
 95
        4
302
GRIDFORMAT
  1
GRIDFORMAT_BEGIN
 90
        0
 91
        1
 62
     0
 92
       -2
340
0
 93
        0
 40
1.125
309
GRIDFORMAT_END
 95
        8
302
GRIDFORMAT
  1
GRIDFORMAT_BEGIN
 90
        0
 91
        1
 62
     0
 92
       -2
340
0
 93
        0
 40
1.125
309
GRIDFORMAT_END
 95
       16
302
GRIDFORMAT
  1
GRIDFORMAT_BEGIN
 90
        0
 91
        1
 62
     0
 92
       -2
340
0
 93
        0
 40
1.125
309
GRIDFORMAT_END
 95
       32
302
GRIDFORMAT
  1
GRIDFORMAT_BEGIN
 90
        0
 91
        1
 62
     0
 92
       -2
340
0
 93
        0
 40
1.125
309
GRIDFORMAT_END
309
TABLEFORMAT_END
  1
CELLSTYLE_BEGIN
 90
        2
 91
        1
300
_HEADER
309
CELLSTYLE_END
300
CELLSTYLE
  1
TABLEFORMAT_BEGIN
 90
        5
170
     1
 91
        0
 92
        0
 62
   257
 93
        1
300
CONTENTFORMAT
  1
CONTENTFORMAT_BEGIN
 90
        0
 91
        0
 92
      512
 93
        0
300

 40
0.0
140
1.0
 94
        2
 62
     0
340
9
144
4.5
309
CONTENTFORMAT_END
171
     1
301
MARGIN
  1
CELLMARGIN_BEGIN
 40
1.5
 40
1.5
 40
1.5
 40
1.5
 40
4.5
 40
4.5
309
CELLMARGIN_END
 94
        6
 95
        1
302
GRIDFORMAT
  1
GRIDFORMAT_BEGIN
 90
        0
 91
        1
 62
     0
 92
       -2
340
0
 93
        0
 40
1.125
309
GRIDFORMAT_END
 95
        2
302
GRIDFORMAT
  1
GRIDFORMAT_BEGIN
 90
        0
 91
        1
 62
     0
 92
       -2
340
0
 93
        0
 40
1.125
309
GRIDFORMAT_END
 95
        4
302
GRIDFORMAT
  1
GRIDFORMAT_BEGIN
 90
        0
 91
        1
 62
     0
 92
       -2
340
0
 93
        0
 40
1.125
309
GRIDFORMAT_END
 95
        8
302
GRIDFORMAT
  1
GRIDFORMAT_BEGIN
 90
        0
 91
        1
 62
     0
 92
       -2
340
0
 93
        0
 40
1.125
309
GRIDFORMAT_END
 95
       16
302
GRIDFORMAT
  1
GRIDFORMAT_BEGIN
 90
        0
 91
        1
 62
     0
 92
       -2
340
0
 93
        0
 40
1.125
309
GRIDFORMAT_END
 95
       32
302
GRIDFORMAT
  1
GRIDFORMAT_BEGIN
 90
        0
 91
        1
 62
     0
 92
       -2
340
0
 93
        0
 40
1.125
309
GRIDFORMAT_END
309
TABLEFORMAT_END
  1
CELLSTYLE_BEGIN
 90
        3
 91
        2
300
_DATA
309
CELLSTYLE_END
  0
XRECORD
  5
1480
102
{ACAD_REACTORS
330
117C
102
}
330
117C
100
AcDbXrecord
280
     1
102
ACAD_ROUNDTRIP_PRE2007_TABLESTYLE
 90
      512
 91
        0
  1

 92
      512
 93
        0
  2

 94
      512
 95
        0
  3

  0
XRECORD
  5
145B
102
{ACAD_REACTORS
330
145A
102
}
330
145A
100
AcDbXrecord
280
     1
102
RTVSPost2010Prop28
280
     1
102
RTVSPost2010PropOp28
 70
     1
102
RTVSPost2010Prop29
280
     1
102
RTVSPost2010PropOp29
 70
     1
102
RTVSPost2010Prop30
280
     0
102
RTVSPost2010PropOp30
 70
     1
102
RTVSPost2010Prop31
280
     0
102
RTVSPost2010PropOp31
 70
     1
102
RTVSPost2010Prop32
280
     0
102
RTVSPost2010PropOp32
 70
     1
102
RTVSPost2010Prop33
280
     0
102
RTVSPost2010PropOp33
 70
     1
102
RTVSPost2010Prop34
280
     0
102
RTVSPost2010PropOp34
 70
     1
102
RTVSPost2010Prop35
280
     0
102
RTVSPost2010PropOp35
 70
     1
102
RTVSPost2010Prop36
280
     0
102
RTVSPost2010PropOp36
 70
     1
102
RTVSPost2010Prop37
 90
       50
102
RTVSPost2010PropOp37
 70
     1
102
RTVSPost2010Prop38
140
0.0
102
RTVSPost2010PropOp38
 70
     1
102
RTVSPost2010Prop39
140
1.0
102
RTVSPost2010PropOp39
 70
     1
102
RTVSPost2010Prop40
 90
        0
102
RTVSPost2010PropOp40
 70
     1
102
RTVSPost2010Prop41ColorIndex
 90
       18
102
RTVSPost2010Prop41ColorRGB
 90
        0
102
RTVSPost2010PropOp41
 70
     1
102
RTVSPost2010Prop42
 90
       50
102
RTVSPost2010PropOp42
 70
     1
102
RTVSPost2010Prop43
 90
        3
102
RTVSPost2010PropOp43
 70
     1
102
RTVSPost2010Prop44ColorIndex
 90
        5
102
RTVSPost2010Prop44ColorRGB
 90
      255
102
RTVSPost2010PropOp44
 70
     1
102
RTVSPost2010Prop45
280
     0
102
RTVSPost2010PropOp45
 70
     1
102
RTVSPost2010Prop46
 90
       50
102
RTVSPost2010PropOp46
 70
     1
102
RTVSPost2010Prop47
 90
       50
102
RTVSPost2010PropOp47
 70
     1
102
RTVSPost2010Prop48
 90
       50
102
RTVSPost2010PropOp48
 70
     1
102
RTVSPost2010Prop49
280
     0
102
RTVSPost2010PropOp49
 70
     1
102
RTVSPost2010Prop50
 90
       50
102
RTVSPost2010PropOp50
 70
     1
102
RTVSPost2010Prop51ColorIndex
 90
      256
102
RTVSPost2010Prop51ColorRGB
 90
-16777216
102
RTVSPost2010PropOp51
 70
     0
102
RTVSPost2010Prop52
140
1.0
102
RTVSPost2010PropOp52
 70
     0
102
RTVSPost2010Prop53
 90
        2
102
RTVSPost2010PropOp53
 70
     1
102
RTVSPost2010Prop54
  1
strokes_ogs.tif
102
RTVSPost2010PropOp54
 70
     1
102
RTVSPost2010Prop55
280
     0
102
RTVSPost2010PropOp55
 70
     1
102
RTVSPost2010Prop56
140
1.0
102
RTVSPost2010PropOp56
 70
     1
102
RTVSPost2010Prop57
140
1.0
102
RTVSPost2010PropOp57
 70
     1
102
RTVSPropertyOp0
 70
     1
102
RTVSPropertyOp1
 70
     1
102
RTVSPropertyOp2
 70
     1
102
RTVSPropertyOp3
 70
     1
102
RTVSPropertyOp4
 70
     1
102
RTVSPropertyOp5
 70
     1
102
RTVSPropertyOp6
 70
     1
102
RTVSPropertyOp7
 70
     1
102
RTVSPropertyOp8
 70
     1
102
RTVSPropertyOp9
 70
     1
102
RTVSPropertyOp10
 70
     1
102
RTVSPropertyOp11
 70
     1
102
RTVSPropertyOp12
 70
     1
102
RTVSPropertyOp13
 70
     1
102
RTVSPropertyOp14
 70
     1
102
RTVSPropertyOp15
 70
     1
102
RTVSPropertyOp16
 70
     1
102
RTVSPropertyOp17
 70
     1
102
RTVSPropertyOp18
 70
     1
102
RTVSPropertyOp19
 70
     1
102
RTVSPropertyOp20
 70
     1
102
RTVSPropertyOp21
 70
     1
102
RTVSPropertyOp22
 70
     1
102
RTVSPropertyOp23
 70
     1
102
RTVSPropertyOp24
 70
     1
102
RTVSPropertyOp25
 70
     1
102
RTVSPropertyOp26
 70
     1
102
RTVSPropertyOp27
 70
     1
102
RTVSPropertyOp28
 70
     1
102
RTVSPropertyOp29
 70
     1
102
RTVSPropertyOp30
 70
     1
102
RTVSPropertyOp31
 70
     1
102
RTVSPropertyOp32
 70
     1
102
RTVSPropertyOp33
 70
     1
102
RTVSPropertyOp34
 70
     1
102
RTVSPropertyOp35
 70
     1
102
RTVSPropertyOp36
 70
     1
102
RTVSPropertyOp37
 70
     1
102
RTVSPropertyOp38
 70
     1
102
RTVSPropertyOp39
 70
     1
102
RTVSPropertyOp40
 70
     1
102
RTVSPropertyOp41
 70
     1
102
RTVSPropertyOp42
 70
     1
102
RTVSPropertyOp43
 70
     1
102
RTVSPropertyOp44
 70
     1
102
RTVSPropertyOp45
 70
     1
102
RTVSPropertyOp46
 70
     1
102
RTVSPropertyOp47
 70
     1
102
RTVSPropertyOp48
 70
     1
102
RTVSPropertyOp49
 70
     1
102
RTVSPropertyOp50
 70
     1
102
RTVSPropertyOp51
 70
     0
102
RTVSPropertyOp52
 70
     0
102
RTVSPropertyOp53
 70
     1
102
RTVSPropertyOp54
 70
     1
102
RTVSPropertyOp55
 70
     1
102
RTVSPropertyOp56
 70
     1
102
RTVSPropertyOp57
 70
     1
102
RTVSPropertyOp58
 70
     1
102
RTVSPropertyOp59
 70
     1
102
RTVSPropertyOp60
 70
     1
102
RTVSPropertyOp61
 70
     1
102
RTVSPropertyOp62
 70
     1
  0
XRECORD
  5
1459
102
{ACAD_REACTORS
330
1458
102
}
330
1458
100
AcDbXrecord
280
     1
102
RTVSPost2010Prop28
280
     0
102
RTVSPost2010PropOp28
 70
     1
102
RTVSPost2010Prop29
280
     1
102
RTVSPost2010PropOp29
 70
     1
102
RTVSPost2010Prop30
280
     1
102
RTVSPost2010PropOp30
 70
     1
102
RTVSPost2010Prop31
280
     0
102
RTVSPost2010PropOp31
 70
     1
102
RTVSPost2010Prop32
280
     0
102
RTVSPost2010PropOp32
 70
     1
102
RTVSPost2010Prop33
280
     0
102
RTVSPost2010PropOp33
 70
     1
102
RTVSPost2010Prop34
280
     0
102
RTVSPost2010PropOp34
 70
     1
102
RTVSPost2010Prop35
280
     0
102
RTVSPost2010PropOp35
 70
     1
102
RTVSPost2010Prop36
280
     0
102
RTVSPost2010PropOp36
 70
     1
102
RTVSPost2010Prop37
 90
       50
102
RTVSPost2010PropOp37
 70
     1
102
RTVSPost2010Prop38
140
0.0
102
RTVSPost2010PropOp38
 70
     1
102
RTVSPost2010Prop39
140
1.0
102
RTVSPost2010PropOp39
 70
     1
102
RTVSPost2010Prop40
 90
        0
102
RTVSPost2010PropOp40
 70
     1
102
RTVSPost2010Prop41ColorIndex
 90
       18
102
RTVSPost2010Prop41ColorRGB
 90
        0
102
RTVSPost2010PropOp41
 70
     1
102
RTVSPost2010Prop42
 90
       50
102
RTVSPost2010PropOp42
 70
     1
102
RTVSPost2010Prop43
 90
        3
102
RTVSPost2010PropOp43
 70
     1
102
RTVSPost2010Prop44ColorIndex
 90
        5
102
RTVSPost2010Prop44ColorRGB
 90
      255
102
RTVSPost2010PropOp44
 70
     1
102
RTVSPost2010Prop45
280
     0
102
RTVSPost2010PropOp45
 70
     1
102
RTVSPost2010Prop46
 90
       50
102
RTVSPost2010PropOp46
 70
     1
102
RTVSPost2010Prop47
 90
       50
102
RTVSPost2010PropOp47
 70
     1
102
RTVSPost2010Prop48
 90
       50
102
RTVSPost2010PropOp48
 70
     1
102
RTVSPost2010Prop49
280
     0
102
RTVSPost2010PropOp49
 70
     1
102
RTVSPost2010Prop50
 90
       50
102
RTVSPost2010PropOp50
 70
     1
102
RTVSPost2010Prop51ColorIndex
 90
      256
102
RTVSPost2010Prop51ColorRGB
 90
-16777216
102
RTVSPost2010PropOp51
 70
     0
102
RTVSPost2010Prop52
140
1.0
102
RTVSPost2010PropOp52
 70
     0
102
RTVSPost2010Prop53
 90
        2
102
RTVSPost2010PropOp53
 70
     1
102
RTVSPost2010Prop54
  1
strokes_ogs.tif
102
RTVSPost2010PropOp54
 70
     1
102
RTVSPost2010Prop55
280
     0
102
RTVSPost2010PropOp55
 70
     1
102
RTVSPost2010Prop56
140
1.0
102
RTVSPost2010PropOp56
 70
     1
102
RTVSPost2010Prop57
140
1.0
102
RTVSPost2010PropOp57
 70
     1
102
RTVSPropertyOp0
 70
     1
102
RTVSPropertyOp1
 70
     1
102
RTVSPropertyOp2
 70
     1
102
RTVSPropertyOp3
 70
     1
102
RTVSPropertyOp4
 70
     1
102
RTVSPropertyOp5
 70
     1
102
RTVSPropertyOp6
 70
     1
102
RTVSPropertyOp7
 70
     1
102
RTVSPropertyOp8
 70
     1
102
RTVSPropertyOp9
 70
     1
102
RTVSPropertyOp10
 70
     1
102
RTVSPropertyOp11
 70
     1
102
RTVSPropertyOp12
 70
     1
102
RTVSPropertyOp13
 70
     1
102
RTVSPropertyOp14
 70
     1
102
RTVSPropertyOp15
 70
     1
102
RTVSPropertyOp16
 70
     1
102
RTVSPropertyOp17
 70
     1
102
RTVSPropertyOp18
 70
     1
102
RTVSPropertyOp19
 70
     1
102
RTVSPropertyOp20
 70
     1
102
RTVSPropertyOp21
 70
     1
102
RTVSPropertyOp22
 70
     1
102
RTVSPropertyOp23
 70
     1
102
RTVSPropertyOp24
 70
     1
102
RTVSPropertyOp25
 70
     1
102
RTVSPropertyOp26
 70
     1
102
RTVSPropertyOp27
 70
     1
102
RTVSPropertyOp28
 70
     1
102
RTVSPropertyOp29
 70
     1
102
RTVSPropertyOp30
 70
     1
102
RTVSPropertyOp31
 70
     1
102
RTVSPropertyOp32
 70
     1
102
RTVSPropertyOp33
 70
     1
102
RTVSPropertyOp34
 70
     1
102
RTVSPropertyOp35
 70
     1
102
RTVSPropertyOp36
 70
     1
102
RTVSPropertyOp37
 70
     1
102
RTVSPropertyOp38
 70
     1
102
RTVSPropertyOp39
 70
     1
102
RTVSPropertyOp40
 70
     1
102
RTVSPropertyOp41
 70
     1
102
RTVSPropertyOp42
 70
     1
102
RTVSPropertyOp43
 70
     1
102
RTVSPropertyOp44
 70
     1
102
RTVSPropertyOp45
 70
     1
102
RTVSPropertyOp46
 70
     1
102
RTVSPropertyOp47
 70
     1
102
RTVSPropertyOp48
 70
     1
102
RTVSPropertyOp49
 70
     1
102
RTVSPropertyOp50
 70
     1
102
RTVSPropertyOp51
 70
     0
102
RTVSPropertyOp52
 70
     0
102
RTVSPropertyOp53
 70
     1
102
RTVSPropertyOp54
 70
     1
102
RTVSPropertyOp55
 70
     1
102
RTVSPropertyOp56
 70
     1
102
RTVSPropertyOp57
 70
     1
102
RTVSPropertyOp58
 70
     1
102
RTVSPropertyOp59
 70
     1
102
RTVSPropertyOp60
 70
     1
102
RTVSPropertyOp61
 70
     1
102
RTVSPropertyOp62
 70
     1
  0
XRECORD
  5
1467
102
{ACAD_REACTORS
330
1466
102
}
330
1466
100
AcDbXrecord
280
     1
102
RTVSPost2010Prop28
280
     0
102
RTVSPost2010PropOp28
 70
     1
102
RTVSPost2010Prop29
280
     1
102
RTVSPost2010PropOp29
 70
     1
102
RTVSPost2010Prop30
280
     1
102
RTVSPost2010PropOp30
 70
     1
102
RTVSPost2010Prop31
280
     0
102
RTVSPost2010PropOp31
 70
     1
102
RTVSPost2010Prop32
280
     0
102
RTVSPost2010PropOp32
 70
     1
102
RTVSPost2010Prop33
280
     0
102
RTVSPost2010PropOp33
 70
     1
102
RTVSPost2010Prop34
280
     0
102
RTVSPost2010PropOp34
 70
     1
102
RTVSPost2010Prop35
280
     0
102
RTVSPost2010PropOp35
 70
     1
102
RTVSPost2010Prop36
280
     0
102
RTVSPost2010PropOp36
 70
     1
102
RTVSPost2010Prop37
 90
       50
102
RTVSPost2010PropOp37
 70
     1
102
RTVSPost2010Prop38
140
0.0
102
RTVSPost2010PropOp38
 70
     1
102
RTVSPost2010Prop39
140
1.0
102
RTVSPost2010PropOp39
 70
     1
102
RTVSPost2010Prop40
 90
        0
102
RTVSPost2010PropOp40
 70
     1
102
RTVSPost2010Prop41ColorIndex
 90
       18
102
RTVSPost2010Prop41ColorRGB
 90
        0
102
RTVSPost2010PropOp41
 70
     1
102
RTVSPost2010Prop42
 90
       50
102
RTVSPost2010PropOp42
 70
     1
102
RTVSPost2010Prop43
 90
        3
102
RTVSPost2010PropOp43
 70
     1
102
RTVSPost2010Prop44ColorIndex
 90
        5
102
RTVSPost2010Prop44ColorRGB
 90
      255
102
RTVSPost2010PropOp44
 70
     1
102
RTVSPost2010Prop45
280
     0
102
RTVSPost2010PropOp45
 70
     1
102
RTVSPost2010Prop46
 90
       50
102
RTVSPost2010PropOp46
 70
     1
102
RTVSPost2010Prop47
 90
       50
102
RTVSPost2010PropOp47
 70
     1
102
RTVSPost2010Prop48
 90
       50
102
RTVSPost2010PropOp48
 70
     1
102
RTVSPost2010Prop49
280
     0
102
RTVSPost2010PropOp49
 70
     1
102
RTVSPost2010Prop50
 90
       50
102
RTVSPost2010PropOp50
 70
     1
102
RTVSPost2010Prop51ColorIndex
 90
      256
102
RTVSPost2010Prop51ColorRGB
 90
-16777216
102
RTVSPost2010PropOp51
 70
     0
102
RTVSPost2010Prop52
140
1.0
102
RTVSPost2010PropOp52
 70
     0
102
RTVSPost2010Prop53
 90
        2
102
RTVSPost2010PropOp53
 70
     1
102
RTVSPost2010Prop54
  1
strokes_ogs.tif
102
RTVSPost2010PropOp54
 70
     1
102
RTVSPost2010Prop55
280
     0
102
RTVSPost2010PropOp55
 70
     1
102
RTVSPost2010Prop56
140
1.0
102
RTVSPost2010PropOp56
 70
     1
102
RTVSPost2010Prop57
140
1.0
102
RTVSPost2010PropOp57
 70
     1
102
RTVSPropertyOp0
 70
     1
102
RTVSPropertyOp1
 70
     1
102
RTVSPropertyOp2
 70
     1
102
RTVSPropertyOp3
 70
     1
102
RTVSPropertyOp4
 70
     1
102
RTVSPropertyOp5
 70
     1
102
RTVSPropertyOp6
 70
     1
102
RTVSPropertyOp7
 70
     1
102
RTVSPropertyOp8
 70
     1
102
RTVSPropertyOp9
 70
     1
102
RTVSPropertyOp10
 70
     1
102
RTVSPropertyOp11
 70
     1
102
RTVSPropertyOp12
 70
     1
102
RTVSPropertyOp13
 70
     1
102
RTVSPropertyOp14
 70
     1
102
RTVSPropertyOp15
 70
     1
102
RTVSPropertyOp16
 70
     1
102
RTVSPropertyOp17
 70
     1
102
RTVSPropertyOp18
 70
     1
102
RTVSPropertyOp19
 70
     1
102
RTVSPropertyOp20
 70
     1
102
RTVSPropertyOp21
 70
     1
102
RTVSPropertyOp22
 70
     1
102
RTVSPropertyOp23
 70
     1
102
RTVSPropertyOp24
 70
     1
102
RTVSPropertyOp25
 70
     1
102
RTVSPropertyOp26
 70
     1
102
RTVSPropertyOp27
 70
     1
102
RTVSPropertyOp28
 70
     1
102
RTVSPropertyOp29
 70
     1
102
RTVSPropertyOp30
 70
     1
102
RTVSPropertyOp31
 70
     1
102
RTVSPropertyOp32
 70
     1
102
RTVSPropertyOp33
 70
     1
102
RTVSPropertyOp34
 70
     1
102
RTVSPropertyOp35
 70
     1
102
RTVSPropertyOp36
 70
     1
102
RTVSPropertyOp37
 70
     1
102
RTVSPropertyOp38
 70
     1
102
RTVSPropertyOp39
 70
     1
102
RTVSPropertyOp40
 70
     1
102
RTVSPropertyOp41
 70
     1
102
RTVSPropertyOp42
 70
     1
102
RTVSPropertyOp43
 70
     1
102
RTVSPropertyOp44
 70
     1
102
RTVSPropertyOp45
 70
     1
102
RTVSPropertyOp46
 70
     1
102
RTVSPropertyOp47
 70
     1
102
RTVSPropertyOp48
 70
     1
102
RTVSPropertyOp49
 70
     1
102
RTVSPropertyOp50
 70
     1
102
RTVSPropertyOp51
 70
     0
102
RTVSPropertyOp52
 70
     0
102
RTVSPropertyOp53
 70
     1
102
RTVSPropertyOp54
 70
     1
102
RTVSPropertyOp55
 70
     1
102
RTVSPropertyOp56
 70
     1
102
RTVSPropertyOp57
 70
     1
102
RTVSPropertyOp58
 70
     1
102
RTVSPropertyOp59
 70
     1
102
RTVSPropertyOp60
 70
     1
102
RTVSPropertyOp61
 70
     1
102
RTVSPropertyOp62
 70
     1
  0
XRECORD
  5
146F
102
{ACAD_REACTORS
330
146E
102
}
330
146E
100
AcDbXrecord
280
     1
102
RTVSPost2010Prop28
280
     0
102
RTVSPost2010PropOp28
 70
     1
102
RTVSPost2010Prop29
280
     1
102
RTVSPost2010PropOp29
 70
     1
102
RTVSPost2010Prop30
280
     1
102
RTVSPost2010PropOp30
 70
     1
102
RTVSPost2010Prop31
280
     0
102
RTVSPost2010PropOp31
 70
     1
102
RTVSPost2010Prop32
280
     0
102
RTVSPost2010PropOp32
 70
     1
102
RTVSPost2010Prop33
280
     0
102
RTVSPost2010PropOp33
 70
     1
102
RTVSPost2010Prop34
280
     0
102
RTVSPost2010PropOp34
 70
     1
102
RTVSPost2010Prop35
280
     0
102
RTVSPost2010PropOp35
 70
     1
102
RTVSPost2010Prop36
280
     0
102
RTVSPost2010PropOp36
 70
     1
102
RTVSPost2010Prop37
 90
       50
102
RTVSPost2010PropOp37
 70
     1
102
RTVSPost2010Prop38
140
0.0
102
RTVSPost2010PropOp38
 70
     1
102
RTVSPost2010Prop39
140
1.0
102
RTVSPost2010PropOp39
 70
     1
102
RTVSPost2010Prop40
 90
        0
102
RTVSPost2010PropOp40
 70
     1
102
RTVSPost2010Prop41ColorIndex
 90
       18
102
RTVSPost2010Prop41ColorRGB
 90
        0
102
RTVSPost2010PropOp41
 70
     1
102
RTVSPost2010Prop42
 90
       50
102
RTVSPost2010PropOp42
 70
     1
102
RTVSPost2010Prop43
 90
        3
102
RTVSPost2010PropOp43
 70
     1
102
RTVSPost2010Prop44ColorIndex
 90
        5
102
RTVSPost2010Prop44ColorRGB
 90
      255
102
RTVSPost2010PropOp44
 70
     1
102
RTVSPost2010Prop45
280
     0
102
RTVSPost2010PropOp45
 70
     1
102
RTVSPost2010Prop46
 90
       50
102
RTVSPost2010PropOp46
 70
     1
102
RTVSPost2010Prop47
 90
       50
102
RTVSPost2010PropOp47
 70
     1
102
RTVSPost2010Prop48
 90
       50
102
RTVSPost2010PropOp48
 70
     1
102
RTVSPost2010Prop49
280
     0
102
RTVSPost2010PropOp49
 70
     1
102
RTVSPost2010Prop50
 90
       50
102
RTVSPost2010PropOp50
 70
     1
102
RTVSPost2010Prop51ColorIndex
 90
      256
102
RTVSPost2010Prop51ColorRGB
 90
-16777216
102
RTVSPost2010PropOp51
 70
     0
102
RTVSPost2010Prop52
140
1.0
102
RTVSPost2010PropOp52
 70
     0
102
RTVSPost2010Prop53
 90
        2
102
RTVSPost2010PropOp53
 70
     1
102
RTVSPost2010Prop54
  1
strokes_ogs.tif
102
RTVSPost2010PropOp54
 70
     1
102
RTVSPost2010Prop55
280
     0
102
RTVSPost2010PropOp55
 70
     1
102
RTVSPost2010Prop56
140
1.0
102
RTVSPost2010PropOp56
 70
     1
102
RTVSPost2010Prop57
140
1.0
102
RTVSPost2010PropOp57
 70
     1
102
RTVSPropertyOp0
 70
     1
102
RTVSPropertyOp1
 70
     1
102
RTVSPropertyOp2
 70
     1
102
RTVSPropertyOp3
 70
     1
102
RTVSPropertyOp4
 70
     1
102
RTVSPropertyOp5
 70
     1
102
RTVSPropertyOp6
 70
     1
102
RTVSPropertyOp7
 70
     1
102
RTVSPropertyOp8
 70
     1
102
RTVSPropertyOp9
 70
     1
102
RTVSPropertyOp10
 70
     1
102
RTVSPropertyOp11
 70
     1
102
RTVSPropertyOp12
 70
     1
102
RTVSPropertyOp13
 70
     1
102
RTVSPropertyOp14
 70
     1
102
RTVSPropertyOp15
 70
     1
102
RTVSPropertyOp16
 70
     1
102
RTVSPropertyOp17
 70
     1
102
RTVSPropertyOp18
 70
     1
102
RTVSPropertyOp19
 70
     1
102
RTVSPropertyOp20
 70
     1
102
RTVSPropertyOp21
 70
     1
102
RTVSPropertyOp22
 70
     1
102
RTVSPropertyOp23
 70
     1
102
RTVSPropertyOp24
 70
     1
102
RTVSPropertyOp25
 70
     1
102
RTVSPropertyOp26
 70
     1
102
RTVSPropertyOp27
 70
     1
102
RTVSPropertyOp28
 70
     1
102
RTVSPropertyOp29
 70
     1
102
RTVSPropertyOp30
 70
     1
102
RTVSPropertyOp31
 70
     1
102
RTVSPropertyOp32
 70
     1
102
RTVSPropertyOp33
 70
     1
102
RTVSPropertyOp34
 70
     1
102
RTVSPropertyOp35
 70
     1
102
RTVSPropertyOp36
 70
     1
102
RTVSPropertyOp37
 70
     1
102
RTVSPropertyOp38
 70
     1
102
RTVSPropertyOp39
 70
     1
102
RTVSPropertyOp40
 70
     1
102
RTVSPropertyOp41
 70
     1
102
RTVSPropertyOp42
 70
     1
102
RTVSPropertyOp43
 70
     1
102
RTVSPropertyOp44
 70
     1
102
RTVSPropertyOp45
 70
     1
102
RTVSPropertyOp46
 70
     1
102
RTVSPropertyOp47
 70
     1
102
RTVSPropertyOp48
 70
     1
102
RTVSPropertyOp49
 70
     1
102
RTVSPropertyOp50
 70
     1
102
RTVSPropertyOp51
 70
     0
102
RTVSPropertyOp52
 70
     0
102
RTVSPropertyOp53
 70
     1
102
RTVSPropertyOp54
 70
     1
102
RTVSPropertyOp55
 70
     1
102
RTVSPropertyOp56
 70
     1
102
RTVSPropertyOp57
 70
     1
102
RTVSPropertyOp58
 70
     1
102
RTVSPropertyOp59
 70
     1
102
RTVSPropertyOp60
 70
     1
102
RTVSPropertyOp61
 70
     1
102
RTVSPropertyOp62
 70
     1
  0
XRECORD
  5
1461
102
{ACAD_REACTORS
330
1460
102
}
330
1460
100
AcDbXrecord
280
     1
102
RTVSPost2010Prop28
280
     0
102
RTVSPost2010PropOp28
 70
     1
102
RTVSPost2010Prop29
280
     1
102
RTVSPost2010PropOp29
 70
     1
102
RTVSPost2010Prop30
280
     1
102
RTVSPost2010PropOp30
 70
     1
102
RTVSPost2010Prop31
280
     0
102
RTVSPost2010PropOp31
 70
     1
102
RTVSPost2010Prop32
280
     0
102
RTVSPost2010PropOp32
 70
     1
102
RTVSPost2010Prop33
280
     0
102
RTVSPost2010PropOp33
 70
     1
102
RTVSPost2010Prop34
280
     0
102
RTVSPost2010PropOp34
 70
     1
102
RTVSPost2010Prop35
280
     0
102
RTVSPost2010PropOp35
 70
     1
102
RTVSPost2010Prop36
280
     0
102
RTVSPost2010PropOp36
 70
     1
102
RTVSPost2010Prop37
 90
       50
102
RTVSPost2010PropOp37
 70
     1
102
RTVSPost2010Prop38
140
0.0
102
RTVSPost2010PropOp38
 70
     1
102
RTVSPost2010Prop39
140
1.0
102
RTVSPost2010PropOp39
 70
     1
102
RTVSPost2010Prop40
 90
        0
102
RTVSPost2010PropOp40
 70
     1
102
RTVSPost2010Prop41ColorIndex
 90
       18
102
RTVSPost2010Prop41ColorRGB
 90
        0
102
RTVSPost2010PropOp41
 70
     1
102
RTVSPost2010Prop42
 90
       50
102
RTVSPost2010PropOp42
 70
     1
102
RTVSPost2010Prop43
 90
        3
102
RTVSPost2010PropOp43
 70
     1
102
RTVSPost2010Prop44ColorIndex
 90
        5
102
RTVSPost2010Prop44ColorRGB
 90
      255
102
RTVSPost2010PropOp44
 70
     1
102
RTVSPost2010Prop45
280
     0
102
RTVSPost2010PropOp45
 70
     1
102
RTVSPost2010Prop46
 90
       50
102
RTVSPost2010PropOp46
 70
     1
102
RTVSPost2010Prop47
 90
       50
102
RTVSPost2010PropOp47
 70
     1
102
RTVSPost2010Prop48
 90
       50
102
RTVSPost2010PropOp48
 70
     1
102
RTVSPost2010Prop49
280
     0
102
RTVSPost2010PropOp49
 70
     1
102
RTVSPost2010Prop50
 90
       50
102
RTVSPost2010PropOp50
 70
     1
102
RTVSPost2010Prop51ColorIndex
 90
      256
102
RTVSPost2010Prop51ColorRGB
 90
-16777216
102
RTVSPost2010PropOp51
 70
     0
102
RTVSPost2010Prop52
140
1.0
102
RTVSPost2010PropOp52
 70
     0
102
RTVSPost2010Prop53
 90
        2
102
RTVSPost2010PropOp53
 70
     1
102
RTVSPost2010Prop54
  1
strokes_ogs.tif
102
RTVSPost2010PropOp54
 70
     1
102
RTVSPost2010Prop55
280
     0
102
RTVSPost2010PropOp55
 70
     1
102
RTVSPost2010Prop56
140
1.0
102
RTVSPost2010PropOp56
 70
     1
102
RTVSPost2010Prop57
140
1.0
102
RTVSPost2010PropOp57
 70
     1
102
RTVSPropertyOp0
 70
     1
102
RTVSPropertyOp1
 70
     1
102
RTVSPropertyOp2
 70
     1
102
RTVSPropertyOp3
 70
     1
102
RTVSPropertyOp4
 70
     1
102
RTVSPropertyOp5
 70
     1
102
RTVSPropertyOp6
 70
     1
102
RTVSPropertyOp7
 70
     1
102
RTVSPropertyOp8
 70
     1
102
RTVSPropertyOp9
 70
     1
102
RTVSPropertyOp10
 70
     1
102
RTVSPropertyOp11
 70
     1
102
RTVSPropertyOp12
 70
     1
102
RTVSPropertyOp13
 70
     1
102
RTVSPropertyOp14
 70
     1
102
RTVSPropertyOp15
 70
     1
102
RTVSPropertyOp16
 70
     1
102
RTVSPropertyOp17
 70
     1
102
RTVSPropertyOp18
 70
     1
102
RTVSPropertyOp19
 70
     1
102
RTVSPropertyOp20
 70
     1
102
RTVSPropertyOp21
 70
     1
102
RTVSPropertyOp22
 70
     1
102
RTVSPropertyOp23
 70
     1
102
RTVSPropertyOp24
 70
     1
102
RTVSPropertyOp25
 70
     1
102
RTVSPropertyOp26
 70
     1
102
RTVSPropertyOp27
 70
     1
102
RTVSPropertyOp28
 70
     1
102
RTVSPropertyOp29
 70
     1
102
RTVSPropertyOp30
 70
     1
102
RTVSPropertyOp31
 70
     1
102
RTVSPropertyOp32
 70
     1
102
RTVSPropertyOp33
 70
     1
102
RTVSPropertyOp34
 70
     1
102
RTVSPropertyOp35
 70
     1
102
RTVSPropertyOp36
 70
     1
102
RTVSPropertyOp37
 70
     1
102
RTVSPropertyOp38
 70
     1
102
RTVSPropertyOp39
 70
     1
102
RTVSPropertyOp40
 70
     1
102
RTVSPropertyOp41
 70
     1
102
RTVSPropertyOp42
 70
     1
102
RTVSPropertyOp43
 70
     1
102
RTVSPropertyOp44
 70
     1
102
RTVSPropertyOp45
 70
     1
102
RTVSPropertyOp46
 70
     1
102
RTVSPropertyOp47
 70
     1
102
RTVSPropertyOp48
 70
     1
102
RTVSPropertyOp49
 70
     1
102
RTVSPropertyOp50
 70
     1
102
RTVSPropertyOp51
 70
     0
102
RTVSPropertyOp52
 70
     0
102
RTVSPropertyOp53
 70
     1
102
RTVSPropertyOp54
 70
     1
102
RTVSPropertyOp55
 70
     1
102
RTVSPropertyOp56
 70
     1
102
RTVSPropertyOp57
 70
     1
102
RTVSPropertyOp58
 70
     1
102
RTVSPropertyOp59
 70
     1
102
RTVSPropertyOp60
 70
     1
102
RTVSPropertyOp61
 70
     1
102
RTVSPropertyOp62
 70
     1
  0
XRECORD
  5
1465
102
{ACAD_REACTORS
330
1464
102
}
330
1464
100
AcDbXrecord
280
     1
102
RTVSPost2010Prop28
280
     0
102
RTVSPost2010PropOp28
 70
     1
102
RTVSPost2010Prop29
280
     1
102
RTVSPost2010PropOp29
 70
     1
102
RTVSPost2010Prop30
280
     1
102
RTVSPost2010PropOp30
 70
     1
102
RTVSPost2010Prop31
280
     0
102
RTVSPost2010PropOp31
 70
     1
102
RTVSPost2010Prop32
280
     0
102
RTVSPost2010PropOp32
 70
     1
102
RTVSPost2010Prop33
280
     0
102
RTVSPost2010PropOp33
 70
     1
102
RTVSPost2010Prop34
280
     0
102
RTVSPost2010PropOp34
 70
     1
102
RTVSPost2010Prop35
280
     0
102
RTVSPost2010PropOp35
 70
     1
102
RTVSPost2010Prop36
280
     0
102
RTVSPost2010PropOp36
 70
     1
102
RTVSPost2010Prop37
 90
       50
102
RTVSPost2010PropOp37
 70
     1
102
RTVSPost2010Prop38
140
0.0
102
RTVSPost2010PropOp38
 70
     1
102
RTVSPost2010Prop39
140
1.0
102
RTVSPost2010PropOp39
 70
     1
102
RTVSPost2010Prop40
 90
        0
102
RTVSPost2010PropOp40
 70
     1
102
RTVSPost2010Prop41ColorIndex
 90
       18
102
RTVSPost2010Prop41ColorRGB
 90
        0
102
RTVSPost2010PropOp41
 70
     1
102
RTVSPost2010Prop42
 90
       50
102
RTVSPost2010PropOp42
 70
     1
102
RTVSPost2010Prop43
 90
        3
102
RTVSPost2010PropOp43
 70
     1
102
RTVSPost2010Prop44ColorIndex
 90
        5
102
RTVSPost2010Prop44ColorRGB
 90
      255
102
RTVSPost2010PropOp44
 70
     1
102
RTVSPost2010Prop45
280
     0
102
RTVSPost2010PropOp45
 70
     1
102
RTVSPost2010Prop46
 90
       50
102
RTVSPost2010PropOp46
 70
     1
102
RTVSPost2010Prop47
 90
       50
102
RTVSPost2010PropOp47
 70
     1
102
RTVSPost2010Prop48
 90
       50
102
RTVSPost2010PropOp48
 70
     1
102
RTVSPost2010Prop49
280
     0
102
RTVSPost2010PropOp49
 70
     1
102
RTVSPost2010Prop50
 90
       50
102
RTVSPost2010PropOp50
 70
     1
102
RTVSPost2010Prop51ColorIndex
 90
      256
102
RTVSPost2010Prop51ColorRGB
 90
-16777216
102
RTVSPost2010PropOp51
 70
     0
102
RTVSPost2010Prop52
140
1.0
102
RTVSPost2010PropOp52
 70
     0
102
RTVSPost2010Prop53
 90
        2
102
RTVSPost2010PropOp53
 70
     1
102
RTVSPost2010Prop54
  1
strokes_ogs.tif
102
RTVSPost2010PropOp54
 70
     1
102
RTVSPost2010Prop55
280
     0
102
RTVSPost2010PropOp55
 70
     1
102
RTVSPost2010Prop56
140
1.0
102
RTVSPost2010PropOp56
 70
     1
102
RTVSPost2010Prop57
140
1.0
102
RTVSPost2010PropOp57
 70
     1
102
RTVSPropertyOp0
 70
     1
102
RTVSPropertyOp1
 70
     1
102
RTVSPropertyOp2
 70
     1
102
RTVSPropertyOp3
 70
     1
102
RTVSPropertyOp4
 70
     1
102
RTVSPropertyOp5
 70
     1
102
RTVSPropertyOp6
 70
     1
102
RTVSPropertyOp7
 70
     1
102
RTVSPropertyOp8
 70
     1
102
RTVSPropertyOp9
 70
     1
102
RTVSPropertyOp10
 70
     1
102
RTVSPropertyOp11
 70
     1
102
RTVSPropertyOp12
 70
     1
102
RTVSPropertyOp13
 70
     1
102
RTVSPropertyOp14
 70
     1
102
RTVSPropertyOp15
 70
     1
102
RTVSPropertyOp16
 70
     1
102
RTVSPropertyOp17
 70
     1
102
RTVSPropertyOp18
 70
     1
102
RTVSPropertyOp19
 70
     1
102
RTVSPropertyOp20
 70
     1
102
RTVSPropertyOp21
 70
     1
102
RTVSPropertyOp22
 70
     1
102
RTVSPropertyOp23
 70
     1
102
RTVSPropertyOp24
 70
     1
102
RTVSPropertyOp25
 70
     1
102
RTVSPropertyOp26
 70
     1
102
RTVSPropertyOp27
 70
     1
102
RTVSPropertyOp28
 70
     1
102
RTVSPropertyOp29
 70
     1
102
RTVSPropertyOp30
 70
     1
102
RTVSPropertyOp31
 70
     1
102
RTVSPropertyOp32
 70
     1
102
RTVSPropertyOp33
 70
     1
102
RTVSPropertyOp34
 70
     1
102
RTVSPropertyOp35
 70
     1
102
RTVSPropertyOp36
 70
     1
102
RTVSPropertyOp37
 70
     1
102
RTVSPropertyOp38
 70
     1
102
RTVSPropertyOp39
 70
     1
102
RTVSPropertyOp40
 70
     1
102
RTVSPropertyOp41
 70
     1
102
RTVSPropertyOp42
 70
     1
102
RTVSPropertyOp43
 70
     1
102
RTVSPropertyOp44
 70
     1
102
RTVSPropertyOp45
 70
     1
102
RTVSPropertyOp46
 70
     1
102
RTVSPropertyOp47
 70
     1
102
RTVSPropertyOp48
 70
     1
102
RTVSPropertyOp49
 70
     1
102
RTVSPropertyOp50
 70
     1
102
RTVSPropertyOp51
 70
     0
102
RTVSPropertyOp52
 70
     0
102
RTVSPropertyOp53
 70
     1
102
RTVSPropertyOp54
 70
     1
102
RTVSPropertyOp55
 70
     1
102
RTVSPropertyOp56
 70
     1
102
RTVSPropertyOp57
 70
     1
102
RTVSPropertyOp58
 70
     1
102
RTVSPropertyOp59
 70
     1
102
RTVSPropertyOp60
 70
     1
102
RTVSPropertyOp61
 70
     1
102
RTVSPropertyOp62
 70
     1
  0
XRECORD
  5
147F
102
{ACAD_REACTORS
330
147E
102
}
330
147E
100
AcDbXrecord
280
     1
102
RTVSPost2010Prop28
280
     0
102
RTVSPost2010PropOp28
 70
     0
102
RTVSPost2010Prop29
280
     1
102
RTVSPost2010PropOp29
 70
     0
102
RTVSPost2010Prop30
280
     1
102
RTVSPost2010PropOp30
 70
     0
102
RTVSPost2010Prop31
280
     0
102
RTVSPost2010PropOp31
 70
     0
102
RTVSPost2010Prop32
280
     0
102
RTVSPost2010PropOp32
 70
     0
102
RTVSPost2010Prop33
280
     0
102
RTVSPost2010PropOp33
 70
     0
102
RTVSPost2010Prop34
280
     0
102
RTVSPost2010PropOp34
 70
     0
102
RTVSPost2010Prop35
280
     0
102
RTVSPost2010PropOp35
 70
     0
102
RTVSPost2010Prop36
280
     0
102
RTVSPost2010PropOp36
 70
     0
102
RTVSPost2010Prop37
 90
       50
102
RTVSPost2010PropOp37
 70
     0
102
RTVSPost2010Prop38
140
0.0
102
RTVSPost2010PropOp38
 70
     0
102
RTVSPost2010Prop39
140
1.0
102
RTVSPost2010PropOp39
 70
     0
102
RTVSPost2010Prop40
 90
        0
102
RTVSPost2010PropOp40
 70
     0
102
RTVSPost2010Prop41ColorIndex
 90
       18
102
RTVSPost2010Prop41ColorRGB
 90
        0
102
RTVSPost2010PropOp41
 70
     0
102
RTVSPost2010Prop42
 90
       50
102
RTVSPost2010PropOp42
 70
     0
102
RTVSPost2010Prop43
 90
        3
102
RTVSPost2010PropOp43
 70
     0
102
RTVSPost2010Prop44ColorIndex
 90
        5
102
RTVSPost2010Prop44ColorRGB
 90
      255
102
RTVSPost2010PropOp44
 70
     0
102
RTVSPost2010Prop45
280
     0
102
RTVSPost2010PropOp45
 70
     0
102
RTVSPost2010Prop46
 90
       50
102
RTVSPost2010PropOp46
 70
     0
102
RTVSPost2010Prop47
 90
       50
102
RTVSPost2010PropOp47
 70
     0
102
RTVSPost2010Prop48
 90
       50
102
RTVSPost2010PropOp48
 70
     0
102
RTVSPost2010Prop49
280
     0
102
RTVSPost2010PropOp49
 70
     0
102
RTVSPost2010Prop50
 90
       50
102
RTVSPost2010PropOp50
 70
     0
102
RTVSPost2010Prop51ColorIndex
 90
      256
102
RTVSPost2010Prop51ColorRGB
 90
-16777216
102
RTVSPost2010PropOp51
 70
     0
102
RTVSPost2010Prop52
140
1.0
102
RTVSPost2010PropOp52
 70
     0
102
RTVSPost2010Prop53
 90
        2
102
RTVSPost2010PropOp53
 70
     0
102
RTVSPost2010Prop54
  1
strokes_ogs.tif
102
RTVSPost2010PropOp54
 70
     0
102
RTVSPost2010Prop55
280
     0
102
RTVSPost2010PropOp55
 70
     0
102
RTVSPost2010Prop56
140
1.0
102
RTVSPost2010PropOp56
 70
     0
102
RTVSPost2010Prop57
140
1.0
102
RTVSPost2010PropOp57
 70
     0
102
RTVSPropertyOp0
 70
     0
102
RTVSPropertyOp1
 70
     0
102
RTVSPropertyOp2
 70
     0
102
RTVSPropertyOp3
 70
     0
102
RTVSPropertyOp4
 70
     0
102
RTVSPropertyOp5
 70
     0
102
RTVSPropertyOp6
 70
     0
102
RTVSPropertyOp7
 70
     0
102
RTVSPropertyOp8
 70
     0
102
RTVSPropertyOp9
 70
     0
102
RTVSPropertyOp10
 70
     0
102
RTVSPropertyOp11
 70
     0
102
RTVSPropertyOp12
 70
     0
102
RTVSPropertyOp13
 70
     0
102
RTVSPropertyOp14
 70
     2
102
RTVSPropertyOp15
 70
     0
102
RTVSPropertyOp16
 70
     0
102
RTVSPropertyOp17
 70
     0
102
RTVSPropertyOp18
 70
     0
102
RTVSPropertyOp19
 70
     0
102
RTVSPropertyOp20
 70
     0
102
RTVSPropertyOp21
 70
     0
102
RTVSPropertyOp22
 70
     0
102
RTVSPropertyOp23
 70
     0
102
RTVSPropertyOp24
 70
     0
102
RTVSPropertyOp25
 70
     0
102
RTVSPropertyOp26
 70
     0
102
RTVSPropertyOp27
 70
     0
102
RTVSPropertyOp28
 70
     0
102
RTVSPropertyOp29
 70
     0
102
RTVSPropertyOp30
 70
     0
102
RTVSPropertyOp31
 70
     0
102
RTVSPropertyOp32
 70
     0
102
RTVSPropertyOp33
 70
     0
102
RTVSPropertyOp34
 70
     0
102
RTVSPropertyOp35
 70
     0
102
RTVSPropertyOp36
 70
     0
102
RTVSPropertyOp37
 70
     0
102
RTVSPropertyOp38
 70
     0
102
RTVSPropertyOp39
 70
     0
102
RTVSPropertyOp40
 70
     0
102
RTVSPropertyOp41
 70
     0
102
RTVSPropertyOp42
 70
     0
102
RTVSPropertyOp43
 70
     0
102
RTVSPropertyOp44
 70
     0
102
RTVSPropertyOp45
 70
     0
102
RTVSPropertyOp46
 70
     0
102
RTVSPropertyOp47
 70
     0
102
RTVSPropertyOp48
 70
     0
102
RTVSPropertyOp49
 70
     0
102
RTVSPropertyOp50
 70
     0
102
RTVSPropertyOp51
 70
     0
102
RTVSPropertyOp52
 70
     0
102
RTVSPropertyOp53
 70
     0
102
RTVSPropertyOp54
 70
     0
102
RTVSPropertyOp55
 70
     0
102
RTVSPropertyOp56
 70
     0
102
RTVSPropertyOp57
 70
     0
102
RTVSPropertyOp58
 70
     0
102
RTVSPropertyOp59
 70
     0
102
RTVSPropertyOp60
 70
     0
102
RTVSPropertyOp61
 70
     0
102
RTVSPropertyOp62
 70
     0
  0
XRECORD
  5
146D
102
{ACAD_REACTORS
330
146C
102
}
330
146C
100
AcDbXrecord
280
     1
102
RTVSPost2010Prop28
280
     0
102
RTVSPost2010PropOp28
 70
     1
102
RTVSPost2010Prop29
280
     1
102
RTVSPost2010PropOp29
 70
     1
102
RTVSPost2010Prop30
280
     1
102
RTVSPost2010PropOp30
 70
     1
102
RTVSPost2010Prop31
280
     0
102
RTVSPost2010PropOp31
 70
     1
102
RTVSPost2010Prop32
280
     0
102
RTVSPost2010PropOp32
 70
     1
102
RTVSPost2010Prop33
280
     0
102
RTVSPost2010PropOp33
 70
     1
102
RTVSPost2010Prop34
280
     0
102
RTVSPost2010PropOp34
 70
     1
102
RTVSPost2010Prop35
280
     0
102
RTVSPost2010PropOp35
 70
     1
102
RTVSPost2010Prop36
280
     0
102
RTVSPost2010PropOp36
 70
     1
102
RTVSPost2010Prop37
 90
       50
102
RTVSPost2010PropOp37
 70
     1
102
RTVSPost2010Prop38
140
0.0
102
RTVSPost2010PropOp38
 70
     1
102
RTVSPost2010Prop39
140
1.0
102
RTVSPost2010PropOp39
 70
     1
102
RTVSPost2010Prop40
 90
        0
102
RTVSPost2010PropOp40
 70
     1
102
RTVSPost2010Prop41ColorIndex
 90
       18
102
RTVSPost2010Prop41ColorRGB
 90
        0
102
RTVSPost2010PropOp41
 70
     1
102
RTVSPost2010Prop42
 90
       50
102
RTVSPost2010PropOp42
 70
     1
102
RTVSPost2010Prop43
 90
        3
102
RTVSPost2010PropOp43
 70
     1
102
RTVSPost2010Prop44ColorIndex
 90
        5
102
RTVSPost2010Prop44ColorRGB
 90
      255
102
RTVSPost2010PropOp44
 70
     1
102
RTVSPost2010Prop45
280
     0
102
RTVSPost2010PropOp45
 70
     1
102
RTVSPost2010Prop46
 90
       50
102
RTVSPost2010PropOp46
 70
     1
102
RTVSPost2010Prop47
 90
       50
102
RTVSPost2010PropOp47
 70
     1
102
RTVSPost2010Prop48
 90
       50
102
RTVSPost2010PropOp48
 70
     1
102
RTVSPost2010Prop49
280
     0
102
RTVSPost2010PropOp49
 70
     1
102
RTVSPost2010Prop50
 90
       50
102
RTVSPost2010PropOp50
 70
     1
102
RTVSPost2010Prop51ColorIndex
 90
      256
102
RTVSPost2010Prop51ColorRGB
 90
-16777216
102
RTVSPost2010PropOp51
 70
     0
102
RTVSPost2010Prop52
140
1.0
102
RTVSPost2010PropOp52
 70
     0
102
RTVSPost2010Prop53
 90
        2
102
RTVSPost2010PropOp53
 70
     1
102
RTVSPost2010Prop54
  1
strokes_ogs.tif
102
RTVSPost2010PropOp54
 70
     1
102
RTVSPost2010Prop55
280
     0
102
RTVSPost2010PropOp55
 70
     1
102
RTVSPost2010Prop56
140
1.0
102
RTVSPost2010PropOp56
 70
     1
102
RTVSPost2010Prop57
140
1.0
102
RTVSPost2010PropOp57
 70
     1
102
RTVSPropertyOp0
 70
     1
102
RTVSPropertyOp1
 70
     1
102
RTVSPropertyOp2
 70
     1
102
RTVSPropertyOp3
 70
     1
102
RTVSPropertyOp4
 70
     1
102
RTVSPropertyOp5
 70
     1
102
RTVSPropertyOp6
 70
     1
102
RTVSPropertyOp7
 70
     1
102
RTVSPropertyOp8
 70
     1
102
RTVSPropertyOp9
 70
     1
102
RTVSPropertyOp10
 70
     1
102
RTVSPropertyOp11
 70
     1
102
RTVSPropertyOp12
 70
     1
102
RTVSPropertyOp13
 70
     1
102
RTVSPropertyOp14
 70
     1
102
RTVSPropertyOp15
 70
     1
102
RTVSPropertyOp16
 70
     1
102
RTVSPropertyOp17
 70
     1
102
RTVSPropertyOp18
 70
     1
102
RTVSPropertyOp19
 70
     1
102
RTVSPropertyOp20
 70
     1
102
RTVSPropertyOp21
 70
     1
102
RTVSPropertyOp22
 70
     1
102
RTVSPropertyOp23
 70
     1
102
RTVSPropertyOp24
 70
     1
102
RTVSPropertyOp25
 70
     1
102
RTVSPropertyOp26
 70
     1
102
RTVSPropertyOp27
 70
     1
102
RTVSPropertyOp28
 70
     1
102
RTVSPropertyOp29
 70
     1
102
RTVSPropertyOp30
 70
     1
102
RTVSPropertyOp31
 70
     1
102
RTVSPropertyOp32
 70
     1
102
RTVSPropertyOp33
 70
     1
102
RTVSPropertyOp34
 70
     1
102
RTVSPropertyOp35
 70
     1
102
RTVSPropertyOp36
 70
     1
102
RTVSPropertyOp37
 70
     1
102
RTVSPropertyOp38
 70
     1
102
RTVSPropertyOp39
 70
     1
102
RTVSPropertyOp40
 70
     1
102
RTVSPropertyOp41
 70
     1
102
RTVSPropertyOp42
 70
     1
102
RTVSPropertyOp43
 70
     1
102
RTVSPropertyOp44
 70
     1
102
RTVSPropertyOp45
 70
     1
102
RTVSPropertyOp46
 70
     1
102
RTVSPropertyOp47
 70
     1
102
RTVSPropertyOp48
 70
     1
102
RTVSPropertyOp49
 70
     1
102
RTVSPropertyOp50
 70
     1
102
RTVSPropertyOp51
 70
     0
102
RTVSPropertyOp52
 70
     0
102
RTVSPropertyOp53
 70
     1
102
RTVSPropertyOp54
 70
     1
102
RTVSPropertyOp55
 70
     1
102
RTVSPropertyOp56
 70
     1
102
RTVSPropertyOp57
 70
     1
102
RTVSPropertyOp58
 70
     1
102
RTVSPropertyOp59
 70
     1
102
RTVSPropertyOp60
 70
     1
102
RTVSPropertyOp61
 70
     1
102
RTVSPropertyOp62
 70
     1
  0
XRECORD
  5
1451
102
{ACAD_REACTORS
330
1450
102
}
330
1450
100
AcDbXrecord
280
     1
102
RTVSPost2010Prop28
280
     0
102
RTVSPost2010PropOp28
 70
     1
102
RTVSPost2010Prop29
280
     1
102
RTVSPost2010PropOp29
 70
     1
102
RTVSPost2010Prop30
280
     1
102
RTVSPost2010PropOp30
 70
     1
102
RTVSPost2010Prop31
280
     0
102
RTVSPost2010PropOp31
 70
     1
102
RTVSPost2010Prop32
280
     0
102
RTVSPost2010PropOp32
 70
     1
102
RTVSPost2010Prop33
280
     0
102
RTVSPost2010PropOp33
 70
     1
102
RTVSPost2010Prop34
280
     0
102
RTVSPost2010PropOp34
 70
     1
102
RTVSPost2010Prop35
280
     0
102
RTVSPost2010PropOp35
 70
     1
102
RTVSPost2010Prop36
280
     0
102
RTVSPost2010PropOp36
 70
     1
102
RTVSPost2010Prop37
 90
       50
102
RTVSPost2010PropOp37
 70
     1
102
RTVSPost2010Prop38
140
0.0
102
RTVSPost2010PropOp38
 70
     1
102
RTVSPost2010Prop39
140
1.0
102
RTVSPost2010PropOp39
 70
     1
102
RTVSPost2010Prop40
 90
        0
102
RTVSPost2010PropOp40
 70
     1
102
RTVSPost2010Prop41ColorIndex
 90
       18
102
RTVSPost2010Prop41ColorRGB
 90
        0
102
RTVSPost2010PropOp41
 70
     1
102
RTVSPost2010Prop42
 90
       50
102
RTVSPost2010PropOp42
 70
     1
102
RTVSPost2010Prop43
 90
        3
102
RTVSPost2010PropOp43
 70
     1
102
RTVSPost2010Prop44ColorIndex
 90
        5
102
RTVSPost2010Prop44ColorRGB
 90
      255
102
RTVSPost2010PropOp44
 70
     1
102
RTVSPost2010Prop45
280
     0
102
RTVSPost2010PropOp45
 70
     1
102
RTVSPost2010Prop46
 90
       50
102
RTVSPost2010PropOp46
 70
     1
102
RTVSPost2010Prop47
 90
       50
102
RTVSPost2010PropOp47
 70
     1
102
RTVSPost2010Prop48
 90
       50
102
RTVSPost2010PropOp48
 70
     1
102
RTVSPost2010Prop49
280
     0
102
RTVSPost2010PropOp49
 70
     1
102
RTVSPost2010Prop50
 90
       50
102
RTVSPost2010PropOp50
 70
     1
102
RTVSPost2010Prop51ColorIndex
 90
      256
102
RTVSPost2010Prop51ColorRGB
 90
-16777216
102
RTVSPost2010PropOp51
 70
     0
102
RTVSPost2010Prop52
140
1.0
102
RTVSPost2010PropOp52
 70
     0
102
RTVSPost2010Prop53
 90
        2
102
RTVSPost2010PropOp53
 70
     1
102
RTVSPost2010Prop54
  1
strokes_ogs.tif
102
RTVSPost2010PropOp54
 70
     1
102
RTVSPost2010Prop55
280
     0
102
RTVSPost2010PropOp55
 70
     1
102
RTVSPost2010Prop56
140
1.0
102
RTVSPost2010PropOp56
 70
     1
102
RTVSPost2010Prop57
140
1.0
102
RTVSPost2010PropOp57
 70
     1
102
RTVSPropertyOp0
 70
     1
102
RTVSPropertyOp1
 70
     1
102
RTVSPropertyOp2
 70
     1
102
RTVSPropertyOp3
 70
     1
102
RTVSPropertyOp4
 70
     1
102
RTVSPropertyOp5
 70
     1
102
RTVSPropertyOp6
 70
     1
102
RTVSPropertyOp7
 70
     1
102
RTVSPropertyOp8
 70
     1
102
RTVSPropertyOp9
 70
     1
102
RTVSPropertyOp10
 70
     1
102
RTVSPropertyOp11
 70
     1
102
RTVSPropertyOp12
 70
     1
102
RTVSPropertyOp13
 70
     1
102
RTVSPropertyOp14
 70
     1
102
RTVSPropertyOp15
 70
     1
102
RTVSPropertyOp16
 70
     1
102
RTVSPropertyOp17
 70
     1
102
RTVSPropertyOp18
 70
     1
102
RTVSPropertyOp19
 70
     1
102
RTVSPropertyOp20
 70
     1
102
RTVSPropertyOp21
 70
     1
102
RTVSPropertyOp22
 70
     1
102
RTVSPropertyOp23
 70
     1
102
RTVSPropertyOp24
 70
     1
102
RTVSPropertyOp25
 70
     1
102
RTVSPropertyOp26
 70
     1
102
RTVSPropertyOp27
 70
     1
102
RTVSPropertyOp28
 70
     1
102
RTVSPropertyOp29
 70
     1
102
RTVSPropertyOp30
 70
     1
102
RTVSPropertyOp31
 70
     1
102
RTVSPropertyOp32
 70
     1
102
RTVSPropertyOp33
 70
     1
102
RTVSPropertyOp34
 70
     1
102
RTVSPropertyOp35
 70
     1
102
RTVSPropertyOp36
 70
     1
102
RTVSPropertyOp37
 70
     1
102
RTVSPropertyOp38
 70
     1
102
RTVSPropertyOp39
 70
     1
102
RTVSPropertyOp40
 70
     1
102
RTVSPropertyOp41
 70
     1
102
RTVSPropertyOp42
 70
     1
102
RTVSPropertyOp43
 70
     1
102
RTVSPropertyOp44
 70
     1
102
RTVSPropertyOp45
 70
     1
102
RTVSPropertyOp46
 70
     1
102
RTVSPropertyOp47
 70
     1
102
RTVSPropertyOp48
 70
     1
102
RTVSPropertyOp49
 70
     1
102
RTVSPropertyOp50
 70
     1
102
RTVSPropertyOp51
 70
     0
102
RTVSPropertyOp52
 70
     0
102
RTVSPropertyOp53
 70
     1
102
RTVSPropertyOp54
 70
     1
102
RTVSPropertyOp55
 70
     1
102
RTVSPropertyOp56
 70
     1
102
RTVSPropertyOp57
 70
     1
102
RTVSPropertyOp58
 70
     1
102
RTVSPropertyOp59
 70
     1
102
RTVSPropertyOp60
 70
     1
102
RTVSPropertyOp61
 70
     1
102
RTVSPropertyOp62
 70
     1
  0
XRECORD
  5
1453
102
{ACAD_REACTORS
330
1452
102
}
330
1452
100
AcDbXrecord
280
     1
102
RTVSPost2010Prop28
280
     0
102
RTVSPost2010PropOp28
 70
     1
102
RTVSPost2010Prop29
280
     1
102
RTVSPost2010PropOp29
 70
     1
102
RTVSPost2010Prop30
280
     1
102
RTVSPost2010PropOp30
 70
     1
102
RTVSPost2010Prop31
280
     0
102
RTVSPost2010PropOp31
 70
     1
102
RTVSPost2010Prop32
280
     0
102
RTVSPost2010PropOp32
 70
     1
102
RTVSPost2010Prop33
280
     0
102
RTVSPost2010PropOp33
 70
     1
102
RTVSPost2010Prop34
280
     0
102
RTVSPost2010PropOp34
 70
     1
102
RTVSPost2010Prop35
280
     0
102
RTVSPost2010PropOp35
 70
     1
102
RTVSPost2010Prop36
280
     0
102
RTVSPost2010PropOp36
 70
     1
102
RTVSPost2010Prop37
 90
       50
102
RTVSPost2010PropOp37
 70
     1
102
RTVSPost2010Prop38
140
0.0
102
RTVSPost2010PropOp38
 70
     1
102
RTVSPost2010Prop39
140
1.0
102
RTVSPost2010PropOp39
 70
     1
102
RTVSPost2010Prop40
 90
        0
102
RTVSPost2010PropOp40
 70
     1
102
RTVSPost2010Prop41ColorIndex
 90
       18
102
RTVSPost2010Prop41ColorRGB
 90
        0
102
RTVSPost2010PropOp41
 70
     1
102
RTVSPost2010Prop42
 90
       50
102
RTVSPost2010PropOp42
 70
     1
102
RTVSPost2010Prop43
 90
        3
102
RTVSPost2010PropOp43
 70
     1
102
RTVSPost2010Prop44ColorIndex
 90
        5
102
RTVSPost2010Prop44ColorRGB
 90
      255
102
RTVSPost2010PropOp44
 70
     1
102
RTVSPost2010Prop45
280
     0
102
RTVSPost2010PropOp45
 70
     1
102
RTVSPost2010Prop46
 90
       50
102
RTVSPost2010PropOp46
 70
     1
102
RTVSPost2010Prop47
 90
       50
102
RTVSPost2010PropOp47
 70
     1
102
RTVSPost2010Prop48
 90
       50
102
RTVSPost2010PropOp48
 70
     1
102
RTVSPost2010Prop49
280
     0
102
RTVSPost2010PropOp49
 70
     1
102
RTVSPost2010Prop50
 90
       50
102
RTVSPost2010PropOp50
 70
     1
102
RTVSPost2010Prop51ColorIndex
 90
      256
102
RTVSPost2010Prop51ColorRGB
 90
-16777216
102
RTVSPost2010PropOp51
 70
     0
102
RTVSPost2010Prop52
140
1.0
102
RTVSPost2010PropOp52
 70
     0
102
RTVSPost2010Prop53
 90
        2
102
RTVSPost2010PropOp53
 70
     1
102
RTVSPost2010Prop54
  1
strokes_ogs.tif
102
RTVSPost2010PropOp54
 70
     1
102
RTVSPost2010Prop55
280
     0
102
RTVSPost2010PropOp55
 70
     1
102
RTVSPost2010Prop56
140
1.0
102
RTVSPost2010PropOp56
 70
     1
102
RTVSPost2010Prop57
140
1.0
102
RTVSPost2010PropOp57
 70
     1
102
RTVSPropertyOp0
 70
     1
102
RTVSPropertyOp1
 70
     1
102
RTVSPropertyOp2
 70
     1
102
RTVSPropertyOp3
 70
     1
102
RTVSPropertyOp4
 70
     1
102
RTVSPropertyOp5
 70
     1
102
RTVSPropertyOp6
 70
     1
102
RTVSPropertyOp7
 70
     1
102
RTVSPropertyOp8
 70
     1
102
RTVSPropertyOp9
 70
     1
102
RTVSPropertyOp10
 70
     1
102
RTVSPropertyOp11
 70
     1
102
RTVSPropertyOp12
 70
     1
102
RTVSPropertyOp13
 70
     1
102
RTVSPropertyOp14
 70
     1
102
RTVSPropertyOp15
 70
     1
102
RTVSPropertyOp16
 70
     1
102
RTVSPropertyOp17
 70
     1
102
RTVSPropertyOp18
 70
     1
102
RTVSPropertyOp19
 70
     1
102
RTVSPropertyOp20
 70
     1
102
RTVSPropertyOp21
 70
     1
102
RTVSPropertyOp22
 70
     1
102
RTVSPropertyOp23
 70
     1
102
RTVSPropertyOp24
 70
     1
102
RTVSPropertyOp25
 70
     1
102
RTVSPropertyOp26
 70
     1
102
RTVSPropertyOp27
 70
     1
102
RTVSPropertyOp28
 70
     1
102
RTVSPropertyOp29
 70
     1
102
RTVSPropertyOp30
 70
     1
102
RTVSPropertyOp31
 70
     1
102
RTVSPropertyOp32
 70
     1
102
RTVSPropertyOp33
 70
     1
102
RTVSPropertyOp34
 70
     1
102
RTVSPropertyOp35
 70
     1
102
RTVSPropertyOp36
 70
     1
102
RTVSPropertyOp37
 70
     1
102
RTVSPropertyOp38
 70
     1
102
RTVSPropertyOp39
 70
     1
102
RTVSPropertyOp40
 70
     1
102
RTVSPropertyOp41
 70
     1
102
RTVSPropertyOp42
 70
     1
102
RTVSPropertyOp43
 70
     1
102
RTVSPropertyOp44
 70
     1
102
RTVSPropertyOp45
 70
     1
102
RTVSPropertyOp46
 70
     1
102
RTVSPropertyOp47
 70
     1
102
RTVSPropertyOp48
 70
     1
102
RTVSPropertyOp49
 70
     1
102
RTVSPropertyOp50
 70
     1
102
RTVSPropertyOp51
 70
     0
102
RTVSPropertyOp52
 70
     0
102
RTVSPropertyOp53
 70
     1
102
RTVSPropertyOp54
 70
     1
102
RTVSPropertyOp55
 70
     1
102
RTVSPropertyOp56
 70
     1
102
RTVSPropertyOp57
 70
     1
102
RTVSPropertyOp58
 70
     1
102
RTVSPropertyOp59
 70
     1
102
RTVSPropertyOp60
 70
     1
102
RTVSPropertyOp61
 70
     1
102
RTVSPropertyOp62
 70
     1
  0
XRECORD
  5
1455
102
{ACAD_REACTORS
330
1454
102
}
330
1454
100
AcDbXrecord
280
     1
102
RTVSPost2010Prop28
280
     0
102
RTVSPost2010PropOp28
 70
     1
102
RTVSPost2010Prop29
280
     1
102
RTVSPost2010PropOp29
 70
     1
102
RTVSPost2010Prop30
280
     1
102
RTVSPost2010PropOp30
 70
     1
102
RTVSPost2010Prop31
280
     0
102
RTVSPost2010PropOp31
 70
     1
102
RTVSPost2010Prop32
280
     0
102
RTVSPost2010PropOp32
 70
     1
102
RTVSPost2010Prop33
280
     0
102
RTVSPost2010PropOp33
 70
     1
102
RTVSPost2010Prop34
280
     0
102
RTVSPost2010PropOp34
 70
     1
102
RTVSPost2010Prop35
280
     0
102
RTVSPost2010PropOp35
 70
     1
102
RTVSPost2010Prop36
280
     0
102
RTVSPost2010PropOp36
 70
     1
102
RTVSPost2010Prop37
 90
       50
102
RTVSPost2010PropOp37
 70
     1
102
RTVSPost2010Prop38
140
0.0
102
RTVSPost2010PropOp38
 70
     1
102
RTVSPost2010Prop39
140
1.0
102
RTVSPost2010PropOp39
 70
     1
102
RTVSPost2010Prop40
 90
        0
102
RTVSPost2010PropOp40
 70
     1
102
RTVSPost2010Prop41ColorIndex
 90
       18
102
RTVSPost2010Prop41ColorRGB
 90
        0
102
RTVSPost2010PropOp41
 70
     1
102
RTVSPost2010Prop42
 90
       50
102
RTVSPost2010PropOp42
 70
     1
102
RTVSPost2010Prop43
 90
        3
102
RTVSPost2010PropOp43
 70
     1
102
RTVSPost2010Prop44ColorIndex
 90
        5
102
RTVSPost2010Prop44ColorRGB
 90
      255
102
RTVSPost2010PropOp44
 70
     1
102
RTVSPost2010Prop45
280
     0
102
RTVSPost2010PropOp45
 70
     1
102
RTVSPost2010Prop46
 90
       50
102
RTVSPost2010PropOp46
 70
     1
102
RTVSPost2010Prop47
 90
       50
102
RTVSPost2010PropOp47
 70
     1
102
RTVSPost2010Prop48
 90
       50
102
RTVSPost2010PropOp48
 70
     1
102
RTVSPost2010Prop49
280
     0
102
RTVSPost2010PropOp49
 70
     1
102
RTVSPost2010Prop50
 90
       50
102
RTVSPost2010PropOp50
 70
     1
102
RTVSPost2010Prop51ColorIndex
 90
      256
102
RTVSPost2010Prop51ColorRGB
 90
-16777216
102
RTVSPost2010PropOp51
 70
     0
102
RTVSPost2010Prop52
140
1.0
102
RTVSPost2010PropOp52
 70
     0
102
RTVSPost2010Prop53
 90
        2
102
RTVSPost2010PropOp53
 70
     1
102
RTVSPost2010Prop54
  1
strokes_ogs.tif
102
RTVSPost2010PropOp54
 70
     1
102
RTVSPost2010Prop55
280
     0
102
RTVSPost2010PropOp55
 70
     1
102
RTVSPost2010Prop56
140
1.0
102
RTVSPost2010PropOp56
 70
     1
102
RTVSPost2010Prop57
140
1.0
102
RTVSPost2010PropOp57
 70
     1
102
RTVSPropertyOp0
 70
     1
102
RTVSPropertyOp1
 70
     1
102
RTVSPropertyOp2
 70
     1
102
RTVSPropertyOp3
 70
     1
102
RTVSPropertyOp4
 70
     1
102
RTVSPropertyOp5
 70
     1
102
RTVSPropertyOp6
 70
     1
102
RTVSPropertyOp7
 70
     1
102
RTVSPropertyOp8
 70
     1
102
RTVSPropertyOp9
 70
     1
102
RTVSPropertyOp10
 70
     1
102
RTVSPropertyOp11
 70
     1
102
RTVSPropertyOp12
 70
     1
102
RTVSPropertyOp13
 70
     1
102
RTVSPropertyOp14
 70
     1
102
RTVSPropertyOp15
 70
     1
102
RTVSPropertyOp16
 70
     1
102
RTVSPropertyOp17
 70
     1
102
RTVSPropertyOp18
 70
     1
102
RTVSPropertyOp19
 70
     1
102
RTVSPropertyOp20
 70
     1
102
RTVSPropertyOp21
 70
     1
102
RTVSPropertyOp22
 70
     1
102
RTVSPropertyOp23
 70
     1
102
RTVSPropertyOp24
 70
     1
102
RTVSPropertyOp25
 70
     1
102
RTVSPropertyOp26
 70
     1
102
RTVSPropertyOp27
 70
     1
102
RTVSPropertyOp28
 70
     1
102
RTVSPropertyOp29
 70
     1
102
RTVSPropertyOp30
 70
     1
102
RTVSPropertyOp31
 70
     1
102
RTVSPropertyOp32
 70
     1
102
RTVSPropertyOp33
 70
     1
102
RTVSPropertyOp34
 70
     1
102
RTVSPropertyOp35
 70
     1
102
RTVSPropertyOp36
 70
     1
102
RTVSPropertyOp37
 70
     1
102
RTVSPropertyOp38
 70
     1
102
RTVSPropertyOp39
 70
     1
102
RTVSPropertyOp40
 70
     1
102
RTVSPropertyOp41
 70
     1
102
RTVSPropertyOp42
 70
     1
102
RTVSPropertyOp43
 70
     1
102
RTVSPropertyOp44
 70
     1
102
RTVSPropertyOp45
 70
     1
102
RTVSPropertyOp46
 70
     1
102
RTVSPropertyOp47
 70
     1
102
RTVSPropertyOp48
 70
     1
102
RTVSPropertyOp49
 70
     1
102
RTVSPropertyOp50
 70
     1
102
RTVSPropertyOp51
 70
     0
102
RTVSPropertyOp52
 70
     0
102
RTVSPropertyOp53
 70
     1
102
RTVSPropertyOp54
 70
     1
102
RTVSPropertyOp55
 70
     1
102
RTVSPropertyOp56
 70
     1
102
RTVSPropertyOp57
 70
     1
102
RTVSPropertyOp58
 70
     1
102
RTVSPropertyOp59
 70
     1
102
RTVSPropertyOp60
 70
     1
102
RTVSPropertyOp61
 70
     1
102
RTVSPropertyOp62
 70
     1
  0
XRECORD
  5
1457
102
{ACAD_REACTORS
330
1456
102
}
330
1456
100
AcDbXrecord
280
     1
102
RTVSPost2010Prop28
280
     0
102
RTVSPost2010PropOp28
 70
     1
102
RTVSPost2010Prop29
280
     1
102
RTVSPost2010PropOp29
 70
     1
102
RTVSPost2010Prop30
280
     1
102
RTVSPost2010PropOp30
 70
     1
102
RTVSPost2010Prop31
280
     0
102
RTVSPost2010PropOp31
 70
     1
102
RTVSPost2010Prop32
280
     0
102
RTVSPost2010PropOp32
 70
     1
102
RTVSPost2010Prop33
280
     0
102
RTVSPost2010PropOp33
 70
     1
102
RTVSPost2010Prop34
280
     0
102
RTVSPost2010PropOp34
 70
     1
102
RTVSPost2010Prop35
280
     0
102
RTVSPost2010PropOp35
 70
     1
102
RTVSPost2010Prop36
280
     0
102
RTVSPost2010PropOp36
 70
     1
102
RTVSPost2010Prop37
 90
       50
102
RTVSPost2010PropOp37
 70
     1
102
RTVSPost2010Prop38
140
0.0
102
RTVSPost2010PropOp38
 70
     1
102
RTVSPost2010Prop39
140
1.0
102
RTVSPost2010PropOp39
 70
     1
102
RTVSPost2010Prop40
 90
        0
102
RTVSPost2010PropOp40
 70
     1
102
RTVSPost2010Prop41ColorIndex
 90
       18
102
RTVSPost2010Prop41ColorRGB
 90
        0
102
RTVSPost2010PropOp41
 70
     1
102
RTVSPost2010Prop42
 90
       50
102
RTVSPost2010PropOp42
 70
     1
102
RTVSPost2010Prop43
 90
        3
102
RTVSPost2010PropOp43
 70
     1
102
RTVSPost2010Prop44ColorIndex
 90
        5
102
RTVSPost2010Prop44ColorRGB
 90
      255
102
RTVSPost2010PropOp44
 70
     1
102
RTVSPost2010Prop45
280
     0
102
RTVSPost2010PropOp45
 70
     1
102
RTVSPost2010Prop46
 90
       50
102
RTVSPost2010PropOp46
 70
     1
102
RTVSPost2010Prop47
 90
       50
102
RTVSPost2010PropOp47
 70
     1
102
RTVSPost2010Prop48
 90
       50
102
RTVSPost2010PropOp48
 70
     1
102
RTVSPost2010Prop49
280
     0
102
RTVSPost2010PropOp49
 70
     1
102
RTVSPost2010Prop50
 90
       50
102
RTVSPost2010PropOp50
 70
     1
102
RTVSPost2010Prop51ColorIndex
 90
      256
102
RTVSPost2010Prop51ColorRGB
 90
-16777216
102
RTVSPost2010PropOp51
 70
     0
102
RTVSPost2010Prop52
140
1.0
102
RTVSPost2010PropOp52
 70
     0
102
RTVSPost2010Prop53
 90
        2
102
RTVSPost2010PropOp53
 70
     1
102
RTVSPost2010Prop54
  1
strokes_ogs.tif
102
RTVSPost2010PropOp54
 70
     1
102
RTVSPost2010Prop55
280
     0
102
RTVSPost2010PropOp55
 70
     1
102
RTVSPost2010Prop56
140
1.0
102
RTVSPost2010PropOp56
 70
     1
102
RTVSPost2010Prop57
140
1.0
102
RTVSPost2010PropOp57
 70
     1
102
RTVSPropertyOp0
 70
     1
102
RTVSPropertyOp1
 70
     1
102
RTVSPropertyOp2
 70
     1
102
RTVSPropertyOp3
 70
     1
102
RTVSPropertyOp4
 70
     1
102
RTVSPropertyOp5
 70
     1
102
RTVSPropertyOp6
 70
     1
102
RTVSPropertyOp7
 70
     1
102
RTVSPropertyOp8
 70
     1
102
RTVSPropertyOp9
 70
     1
102
RTVSPropertyOp10
 70
     1
102
RTVSPropertyOp11
 70
     1
102
RTVSPropertyOp12
 70
     1
102
RTVSPropertyOp13
 70
     1
102
RTVSPropertyOp14
 70
     1
102
RTVSPropertyOp15
 70
     1
102
RTVSPropertyOp16
 70
     1
102
RTVSPropertyOp17
 70
     1
102
RTVSPropertyOp18
 70
     1
102
RTVSPropertyOp19
 70
     1
102
RTVSPropertyOp20
 70
     1
102
RTVSPropertyOp21
 70
     1
102
RTVSPropertyOp22
 70
     1
102
RTVSPropertyOp23
 70
     1
102
RTVSPropertyOp24
 70
     1
102
RTVSPropertyOp25
 70
     1
102
RTVSPropertyOp26
 70
     1
102
RTVSPropertyOp27
 70
     1
102
RTVSPropertyOp28
 70
     1
102
RTVSPropertyOp29
 70
     1
102
RTVSPropertyOp30
 70
     1
102
RTVSPropertyOp31
 70
     1
102
RTVSPropertyOp32
 70
     1
102
RTVSPropertyOp33
 70
     1
102
RTVSPropertyOp34
 70
     1
102
RTVSPropertyOp35
 70
     1
102
RTVSPropertyOp36
 70
     1
102
RTVSPropertyOp37
 70
     1
102
RTVSPropertyOp38
 70
     1
102
RTVSPropertyOp39
 70
     1
102
RTVSPropertyOp40
 70
     1
102
RTVSPropertyOp41
 70
     1
102
RTVSPropertyOp42
 70
     1
102
RTVSPropertyOp43
 70
     1
102
RTVSPropertyOp44
 70
     1
102
RTVSPropertyOp45
 70
     1
102
RTVSPropertyOp46
 70
     1
102
RTVSPropertyOp47
 70
     1
102
RTVSPropertyOp48
 70
     1
102
RTVSPropertyOp49
 70
     1
102
RTVSPropertyOp50
 70
     1
102
RTVSPropertyOp51
 70
     0
102
RTVSPropertyOp52
 70
     0
102
RTVSPropertyOp53
 70
     1
102
RTVSPropertyOp54
 70
     1
102
RTVSPropertyOp55
 70
     1
102
RTVSPropertyOp56
 70
     1
102
RTVSPropertyOp57
 70
     1
102
RTVSPropertyOp58
 70
     1
102
RTVSPropertyOp59
 70
     1
102
RTVSPropertyOp60
 70
     1
102
RTVSPropertyOp61
 70
     1
102
RTVSPropertyOp62
 70
     1
  0
XRECORD
  5
145F
102
{ACAD_REACTORS
330
145E
102
}
330
145E
100
AcDbXrecord
280
     1
102
RTVSPost2010Prop28
280
     0
102
RTVSPost2010PropOp28
 70
     1
102
RTVSPost2010Prop29
280
     1
102
RTVSPost2010PropOp29
 70
     1
102
RTVSPost2010Prop30
280
     1
102
RTVSPost2010PropOp30
 70
     1
102
RTVSPost2010Prop31
280
     0
102
RTVSPost2010PropOp31
 70
     1
102
RTVSPost2010Prop32
280
     0
102
RTVSPost2010PropOp32
 70
     1
102
RTVSPost2010Prop33
280
     0
102
RTVSPost2010PropOp33
 70
     1
102
RTVSPost2010Prop34
280
     0
102
RTVSPost2010PropOp34
 70
     1
102
RTVSPost2010Prop35
280
     0
102
RTVSPost2010PropOp35
 70
     1
102
RTVSPost2010Prop36
280
     0
102
RTVSPost2010PropOp36
 70
     1
102
RTVSPost2010Prop37
 90
       50
102
RTVSPost2010PropOp37
 70
     1
102
RTVSPost2010Prop38
140
0.0
102
RTVSPost2010PropOp38
 70
     1
102
RTVSPost2010Prop39
140
1.0
102
RTVSPost2010PropOp39
 70
     1
102
RTVSPost2010Prop40
 90
        0
102
RTVSPost2010PropOp40
 70
     1
102
RTVSPost2010Prop41ColorIndex
 90
       18
102
RTVSPost2010Prop41ColorRGB
 90
        0
102
RTVSPost2010PropOp41
 70
     1
102
RTVSPost2010Prop42
 90
       50
102
RTVSPost2010PropOp42
 70
     1
102
RTVSPost2010Prop43
 90
        3
102
RTVSPost2010PropOp43
 70
     1
102
RTVSPost2010Prop44ColorIndex
 90
        5
102
RTVSPost2010Prop44ColorRGB
 90
      255
102
RTVSPost2010PropOp44
 70
     1
102
RTVSPost2010Prop45
280
     0
102
RTVSPost2010PropOp45
 70
     1
102
RTVSPost2010Prop46
 90
       50
102
RTVSPost2010PropOp46
 70
     1
102
RTVSPost2010Prop47
 90
       50
102
RTVSPost2010PropOp47
 70
     1
102
RTVSPost2010Prop48
 90
       50
102
RTVSPost2010PropOp48
 70
     1
102
RTVSPost2010Prop49
280
     0
102
RTVSPost2010PropOp49
 70
     1
102
RTVSPost2010Prop50
 90
       50
102
RTVSPost2010PropOp50
 70
     1
102
RTVSPost2010Prop51ColorIndex
 90
      256
102
RTVSPost2010Prop51ColorRGB
 90
-16777216
102
RTVSPost2010PropOp51
 70
     0
102
RTVSPost2010Prop52
140
1.0
102
RTVSPost2010PropOp52
 70
     0
102
RTVSPost2010Prop53
 90
        2
102
RTVSPost2010PropOp53
 70
     1
102
RTVSPost2010Prop54
  1
strokes_ogs.tif
102
RTVSPost2010PropOp54
 70
     1
102
RTVSPost2010Prop55
280
     0
102
RTVSPost2010PropOp55
 70
     1
102
RTVSPost2010Prop56
140
1.0
102
RTVSPost2010PropOp56
 70
     1
102
RTVSPost2010Prop57
140
1.0
102
RTVSPost2010PropOp57
 70
     1
102
RTVSPropertyOp0
 70
     1
102
RTVSPropertyOp1
 70
     1
102
RTVSPropertyOp2
 70
     1
102
RTVSPropertyOp3
 70
     1
102
RTVSPropertyOp4
 70
     1
102
RTVSPropertyOp5
 70
     1
102
RTVSPropertyOp6
 70
     1
102
RTVSPropertyOp7
 70
     1
102
RTVSPropertyOp8
 70
     1
102
RTVSPropertyOp9
 70
     1
102
RTVSPropertyOp10
 70
     1
102
RTVSPropertyOp11
 70
     1
102
RTVSPropertyOp12
 70
     1
102
RTVSPropertyOp13
 70
     1
102
RTVSPropertyOp14
 70
     1
102
RTVSPropertyOp15
 70
     1
102
RTVSPropertyOp16
 70
     1
102
RTVSPropertyOp17
 70
     1
102
RTVSPropertyOp18
 70
     1
102
RTVSPropertyOp19
 70
     1
102
RTVSPropertyOp20
 70
     1
102
RTVSPropertyOp21
 70
     1
102
RTVSPropertyOp22
 70
     1
102
RTVSPropertyOp23
 70
     1
102
RTVSPropertyOp24
 70
     1
102
RTVSPropertyOp25
 70
     1
102
RTVSPropertyOp26
 70
     1
102
RTVSPropertyOp27
 70
     1
102
RTVSPropertyOp28
 70
     1
102
RTVSPropertyOp29
 70
     1
102
RTVSPropertyOp30
 70
     1
102
RTVSPropertyOp31
 70
     1
102
RTVSPropertyOp32
 70
     1
102
RTVSPropertyOp33
 70
     1
102
RTVSPropertyOp34
 70
     1
102
RTVSPropertyOp35
 70
     1
102
RTVSPropertyOp36
 70
     1
102
RTVSPropertyOp37
 70
     1
102
RTVSPropertyOp38
 70
     1
102
RTVSPropertyOp39
 70
     1
102
RTVSPropertyOp40
 70
     1
102
RTVSPropertyOp41
 70
     1
102
RTVSPropertyOp42
 70
     1
102
RTVSPropertyOp43
 70
     1
102
RTVSPropertyOp44
 70
     1
102
RTVSPropertyOp45
 70
     1
102
RTVSPropertyOp46
 70
     1
102
RTVSPropertyOp47
 70
     1
102
RTVSPropertyOp48
 70
     1
102
RTVSPropertyOp49
 70
     1
102
RTVSPropertyOp50
 70
     1
102
RTVSPropertyOp51
 70
     0
102
RTVSPropertyOp52
 70
     0
102
RTVSPropertyOp53
 70
     1
102
RTVSPropertyOp54
 70
     1
102
RTVSPropertyOp55
 70
     1
102
RTVSPropertyOp56
 70
     1
102
RTVSPropertyOp57
 70
     1
102
RTVSPropertyOp58
 70
     1
102
RTVSPropertyOp59
 70
     1
102
RTVSPropertyOp60
 70
     1
102
RTVSPropertyOp61
 70
     1
102
RTVSPropertyOp62
 70
     1
  0
XRECORD
  5
147B
102
{ACAD_REACTORS
330
147A
102
}
330
147A
100
AcDbXrecord
280
     1
102
RTVSPost2010Prop28
280
     0
102
RTVSPost2010PropOp28
 70
     0
102
RTVSPost2010Prop29
280
     1
102
RTVSPost2010PropOp29
 70
     0
102
RTVSPost2010Prop30
280
     1
102
RTVSPost2010PropOp30
 70
     0
102
RTVSPost2010Prop31
280
     0
102
RTVSPost2010PropOp31
 70
     0
102
RTVSPost2010Prop32
280
     0
102
RTVSPost2010PropOp32
 70
     0
102
RTVSPost2010Prop33
280
     0
102
RTVSPost2010PropOp33
 70
     0
102
RTVSPost2010Prop34
280
     0
102
RTVSPost2010PropOp34
 70
     0
102
RTVSPost2010Prop35
280
     0
102
RTVSPost2010PropOp35
 70
     0
102
RTVSPost2010Prop36
280
     0
102
RTVSPost2010PropOp36
 70
     0
102
RTVSPost2010Prop37
 90
       50
102
RTVSPost2010PropOp37
 70
     0
102
RTVSPost2010Prop38
140
0.0
102
RTVSPost2010PropOp38
 70
     0
102
RTVSPost2010Prop39
140
1.0
102
RTVSPost2010PropOp39
 70
     0
102
RTVSPost2010Prop40
 90
        0
102
RTVSPost2010PropOp40
 70
     0
102
RTVSPost2010Prop41ColorIndex
 90
       18
102
RTVSPost2010Prop41ColorRGB
 90
        0
102
RTVSPost2010PropOp41
 70
     0
102
RTVSPost2010Prop42
 90
       50
102
RTVSPost2010PropOp42
 70
     0
102
RTVSPost2010Prop43
 90
        3
102
RTVSPost2010PropOp43
 70
     0
102
RTVSPost2010Prop44ColorIndex
 90
        5
102
RTVSPost2010Prop44ColorRGB
 90
      255
102
RTVSPost2010PropOp44
 70
     0
102
RTVSPost2010Prop45
280
     0
102
RTVSPost2010PropOp45
 70
     0
102
RTVSPost2010Prop46
 90
       50
102
RTVSPost2010PropOp46
 70
     0
102
RTVSPost2010Prop47
 90
       50
102
RTVSPost2010PropOp47
 70
     0
102
RTVSPost2010Prop48
 90
       50
102
RTVSPost2010PropOp48
 70
     0
102
RTVSPost2010Prop49
280
     0
102
RTVSPost2010PropOp49
 70
     0
102
RTVSPost2010Prop50
 90
       50
102
RTVSPost2010PropOp50
 70
     0
102
RTVSPost2010Prop51ColorIndex
 90
      256
102
RTVSPost2010Prop51ColorRGB
 90
-16777216
102
RTVSPost2010PropOp51
 70
     0
102
RTVSPost2010Prop52
140
1.0
102
RTVSPost2010PropOp52
 70
     0
102
RTVSPost2010Prop53
 90
        2
102
RTVSPost2010PropOp53
 70
     0
102
RTVSPost2010Prop54
  1
strokes_ogs.tif
102
RTVSPost2010PropOp54
 70
     0
102
RTVSPost2010Prop55
280
     0
102
RTVSPost2010PropOp55
 70
     0
102
RTVSPost2010Prop56
140
1.0
102
RTVSPost2010PropOp56
 70
     0
102
RTVSPost2010Prop57
140
1.0
102
RTVSPost2010PropOp57
 70
     0
102
RTVSPropertyOp0
 70
     0
102
RTVSPropertyOp1
 70
     0
102
RTVSPropertyOp2
 70
     0
102
RTVSPropertyOp3
 70
     0
102
RTVSPropertyOp4
 70
     0
102
RTVSPropertyOp5
 70
     0
102
RTVSPropertyOp6
 70
     0
102
RTVSPropertyOp7
 70
     0
102
RTVSPropertyOp8
 70
     0
102
RTVSPropertyOp9
 70
     0
102
RTVSPropertyOp10
 70
     0
102
RTVSPropertyOp11
 70
     0
102
RTVSPropertyOp12
 70
     0
102
RTVSPropertyOp13
 70
     0
102
RTVSPropertyOp14
 70
     2
102
RTVSPropertyOp15
 70
     0
102
RTVSPropertyOp16
 70
     0
102
RTVSPropertyOp17
 70
     0
102
RTVSPropertyOp18
 70
     0
102
RTVSPropertyOp19
 70
     0
102
RTVSPropertyOp20
 70
     0
102
RTVSPropertyOp21
 70
     0
102
RTVSPropertyOp22
 70
     0
102
RTVSPropertyOp23
 70
     0
102
RTVSPropertyOp24
 70
     0
102
RTVSPropertyOp25
 70
     0
102
RTVSPropertyOp26
 70
     0
102
RTVSPropertyOp27
 70
     0
102
RTVSPropertyOp28
 70
     0
102
RTVSPropertyOp29
 70
     0
102
RTVSPropertyOp30
 70
     0
102
RTVSPropertyOp31
 70
     0
102
RTVSPropertyOp32
 70
     0
102
RTVSPropertyOp33
 70
     0
102
RTVSPropertyOp34
 70
     0
102
RTVSPropertyOp35
 70
     0
102
RTVSPropertyOp36
 70
     0
102
RTVSPropertyOp37
 70
     0
102
RTVSPropertyOp38
 70
     0
102
RTVSPropertyOp39
 70
     0
102
RTVSPropertyOp40
 70
     0
102
RTVSPropertyOp41
 70
     0
102
RTVSPropertyOp42
 70
     0
102
RTVSPropertyOp43
 70
     0
102
RTVSPropertyOp44
 70
     0
102
RTVSPropertyOp45
 70
     0
102
RTVSPropertyOp46
 70
     0
102
RTVSPropertyOp47
 70
     0
102
RTVSPropertyOp48
 70
     0
102
RTVSPropertyOp49
 70
     0
102
RTVSPropertyOp50
 70
     0
102
RTVSPropertyOp51
 70
     0
102
RTVSPropertyOp52
 70
     0
102
RTVSPropertyOp53
 70
     0
102
RTVSPropertyOp54
 70
     0
102
RTVSPropertyOp55
 70
     0
102
RTVSPropertyOp56
 70
     0
102
RTVSPropertyOp57
 70
     0
102
RTVSPropertyOp58
 70
     0
102
RTVSPropertyOp59
 70
     0
102
RTVSPropertyOp60
 70
     0
102
RTVSPropertyOp61
 70
     0
102
RTVSPropertyOp62
 70
     0
  0
XRECORD
  5
146B
102
{ACAD_REACTORS
330
146A
102
}
330
146A
100
AcDbXrecord
280
     1
102
RTVSPost2010Prop28
280
     0
102
RTVSPost2010PropOp28
 70
     1
102
RTVSPost2010Prop29
280
     1
102
RTVSPost2010PropOp29
 70
     1
102
RTVSPost2010Prop30
280
     1
102
RTVSPost2010PropOp30
 70
     1
102
RTVSPost2010Prop31
280
     0
102
RTVSPost2010PropOp31
 70
     1
102
RTVSPost2010Prop32
280
     0
102
RTVSPost2010PropOp32
 70
     1
102
RTVSPost2010Prop33
280
     0
102
RTVSPost2010PropOp33
 70
     1
102
RTVSPost2010Prop34
280
     0
102
RTVSPost2010PropOp34
 70
     1
102
RTVSPost2010Prop35
280
     0
102
RTVSPost2010PropOp35
 70
     1
102
RTVSPost2010Prop36
280
     0
102
RTVSPost2010PropOp36
 70
     1
102
RTVSPost2010Prop37
 90
       50
102
RTVSPost2010PropOp37
 70
     1
102
RTVSPost2010Prop38
140
0.0
102
RTVSPost2010PropOp38
 70
     1
102
RTVSPost2010Prop39
140
1.0
102
RTVSPost2010PropOp39
 70
     1
102
RTVSPost2010Prop40
 90
        0
102
RTVSPost2010PropOp40
 70
     1
102
RTVSPost2010Prop41ColorIndex
 90
       18
102
RTVSPost2010Prop41ColorRGB
 90
        0
102
RTVSPost2010PropOp41
 70
     1
102
RTVSPost2010Prop42
 90
       50
102
RTVSPost2010PropOp42
 70
     1
102
RTVSPost2010Prop43
 90
        3
102
RTVSPost2010PropOp43
 70
     1
102
RTVSPost2010Prop44ColorIndex
 90
        5
102
RTVSPost2010Prop44ColorRGB
 90
      255
102
RTVSPost2010PropOp44
 70
     1
102
RTVSPost2010Prop45
280
     0
102
RTVSPost2010PropOp45
 70
     1
102
RTVSPost2010Prop46
 90
       50
102
RTVSPost2010PropOp46
 70
     1
102
RTVSPost2010Prop47
 90
       50
102
RTVSPost2010PropOp47
 70
     1
102
RTVSPost2010Prop48
 90
       50
102
RTVSPost2010PropOp48
 70
     1
102
RTVSPost2010Prop49
280
     0
102
RTVSPost2010PropOp49
 70
     1
102
RTVSPost2010Prop50
 90
       50
102
RTVSPost2010PropOp50
 70
     1
102
RTVSPost2010Prop51ColorIndex
 90
      256
102
RTVSPost2010Prop51ColorRGB
 90
-16777216
102
RTVSPost2010PropOp51
 70
     0
102
RTVSPost2010Prop52
140
1.0
102
RTVSPost2010PropOp52
 70
     0
102
RTVSPost2010Prop53
 90
        2
102
RTVSPost2010PropOp53
 70
     1
102
RTVSPost2010Prop54
  1
strokes_ogs.tif
102
RTVSPost2010PropOp54
 70
     1
102
RTVSPost2010Prop55
280
     0
102
RTVSPost2010PropOp55
 70
     1
102
RTVSPost2010Prop56
140
1.0
102
RTVSPost2010PropOp56
 70
     1
102
RTVSPost2010Prop57
140
1.0
102
RTVSPost2010PropOp57
 70
     1
102
RTVSPropertyOp0
 70
     1
102
RTVSPropertyOp1
 70
     1
102
RTVSPropertyOp2
 70
     1
102
RTVSPropertyOp3
 70
     1
102
RTVSPropertyOp4
 70
     1
102
RTVSPropertyOp5
 70
     1
102
RTVSPropertyOp6
 70
     1
102
RTVSPropertyOp7
 70
     1
102
RTVSPropertyOp8
 70
     1
102
RTVSPropertyOp9
 70
     1
102
RTVSPropertyOp10
 70
     1
102
RTVSPropertyOp11
 70
     1
102
RTVSPropertyOp12
 70
     1
102
RTVSPropertyOp13
 70
     1
102
RTVSPropertyOp14
 70
     1
102
RTVSPropertyOp15
 70
     1
102
RTVSPropertyOp16
 70
     1
102
RTVSPropertyOp17
 70
     1
102
RTVSPropertyOp18
 70
     1
102
RTVSPropertyOp19
 70
     1
102
RTVSPropertyOp20
 70
     1
102
RTVSPropertyOp21
 70
     1
102
RTVSPropertyOp22
 70
     1
102
RTVSPropertyOp23
 70
     1
102
RTVSPropertyOp24
 70
     1
102
RTVSPropertyOp25
 70
     1
102
RTVSPropertyOp26
 70
     1
102
RTVSPropertyOp27
 70
     1
102
RTVSPropertyOp28
 70
     1
102
RTVSPropertyOp29
 70
     1
102
RTVSPropertyOp30
 70
     1
102
RTVSPropertyOp31
 70
     1
102
RTVSPropertyOp32
 70
     1
102
RTVSPropertyOp33
 70
     1
102
RTVSPropertyOp34
 70
     1
102
RTVSPropertyOp35
 70
     1
102
RTVSPropertyOp36
 70
     1
102
RTVSPropertyOp37
 70
     1
102
RTVSPropertyOp38
 70
     1
102
RTVSPropertyOp39
 70
     1
102
RTVSPropertyOp40
 70
     1
102
RTVSPropertyOp41
 70
     1
102
RTVSPropertyOp42
 70
     1
102
RTVSPropertyOp43
 70
     1
102
RTVSPropertyOp44
 70
     1
102
RTVSPropertyOp45
 70
     1
102
RTVSPropertyOp46
 70
     1
102
RTVSPropertyOp47
 70
     1
102
RTVSPropertyOp48
 70
     1
102
RTVSPropertyOp49
 70
     1
102
RTVSPropertyOp50
 70
     1
102
RTVSPropertyOp51
 70
     0
102
RTVSPropertyOp52
 70
     0
102
RTVSPropertyOp53
 70
     1
102
RTVSPropertyOp54
 70
     1
102
RTVSPropertyOp55
 70
     1
102
RTVSPropertyOp56
 70
     1
102
RTVSPropertyOp57
 70
     1
102
RTVSPropertyOp58
 70
     1
102
RTVSPropertyOp59
 70
     1
102
RTVSPropertyOp60
 70
     1
102
RTVSPropertyOp61
 70
     1
102
RTVSPropertyOp62
 70
     1
  0
XRECORD
  5
147D
102
{ACAD_REACTORS
330
147C
102
}
330
147C
100
AcDbXrecord
280
     1
102
RTVSPost2010Prop28
280
     0
102
RTVSPost2010PropOp28
 70
     0
102
RTVSPost2010Prop29
280
     1
102
RTVSPost2010PropOp29
 70
     0
102
RTVSPost2010Prop30
280
     1
102
RTVSPost2010PropOp30
 70
     0
102
RTVSPost2010Prop31
280
     0
102
RTVSPost2010PropOp31
 70
     0
102
RTVSPost2010Prop32
280
     0
102
RTVSPost2010PropOp32
 70
     0
102
RTVSPost2010Prop33
280
     0
102
RTVSPost2010PropOp33
 70
     0
102
RTVSPost2010Prop34
280
     0
102
RTVSPost2010PropOp34
 70
     0
102
RTVSPost2010Prop35
280
     0
102
RTVSPost2010PropOp35
 70
     0
102
RTVSPost2010Prop36
280
     0
102
RTVSPost2010PropOp36
 70
     0
102
RTVSPost2010Prop37
 90
       50
102
RTVSPost2010PropOp37
 70
     0
102
RTVSPost2010Prop38
140
0.0
102
RTVSPost2010PropOp38
 70
     0
102
RTVSPost2010Prop39
140
1.0
102
RTVSPost2010PropOp39
 70
     0
102
RTVSPost2010Prop40
 90
        0
102
RTVSPost2010PropOp40
 70
     0
102
RTVSPost2010Prop41ColorIndex
 90
       18
102
RTVSPost2010Prop41ColorRGB
 90
        0
102
RTVSPost2010PropOp41
 70
     0
102
RTVSPost2010Prop42
 90
       50
102
RTVSPost2010PropOp42
 70
     0
102
RTVSPost2010Prop43
 90
        3
102
RTVSPost2010PropOp43
 70
     0
102
RTVSPost2010Prop44ColorIndex
 90
        5
102
RTVSPost2010Prop44ColorRGB
 90
      255
102
RTVSPost2010PropOp44
 70
     0
102
RTVSPost2010Prop45
280
     0
102
RTVSPost2010PropOp45
 70
     0
102
RTVSPost2010Prop46
 90
       50
102
RTVSPost2010PropOp46
 70
     0
102
RTVSPost2010Prop47
 90
       50
102
RTVSPost2010PropOp47
 70
     0
102
RTVSPost2010Prop48
 90
       50
102
RTVSPost2010PropOp48
 70
     0
102
RTVSPost2010Prop49
280
     0
102
RTVSPost2010PropOp49
 70
     0
102
RTVSPost2010Prop50
 90
       50
102
RTVSPost2010PropOp50
 70
     0
102
RTVSPost2010Prop51ColorIndex
 90
      256
102
RTVSPost2010Prop51ColorRGB
 90
-16777216
102
RTVSPost2010PropOp51
 70
     0
102
RTVSPost2010Prop52
140
1.0
102
RTVSPost2010PropOp52
 70
     0
102
RTVSPost2010Prop53
 90
        2
102
RTVSPost2010PropOp53
 70
     0
102
RTVSPost2010Prop54
  1
strokes_ogs.tif
102
RTVSPost2010PropOp54
 70
     0
102
RTVSPost2010Prop55
280
     0
102
RTVSPost2010PropOp55
 70
     0
102
RTVSPost2010Prop56
140
1.0
102
RTVSPost2010PropOp56
 70
     0
102
RTVSPost2010Prop57
140
1.0
102
RTVSPost2010PropOp57
 70
     0
102
RTVSPropertyOp0
 70
     0
102
RTVSPropertyOp1
 70
     0
102
RTVSPropertyOp2
 70
     0
102
RTVSPropertyOp3
 70
     0
102
RTVSPropertyOp4
 70
     0
102
RTVSPropertyOp5
 70
     0
102
RTVSPropertyOp6
 70
     0
102
RTVSPropertyOp7
 70
     0
102
RTVSPropertyOp8
 70
     0
102
RTVSPropertyOp9
 70
     0
102
RTVSPropertyOp10
 70
     0
102
RTVSPropertyOp11
 70
     0
102
RTVSPropertyOp12
 70
     0
102
RTVSPropertyOp13
 70
     0
102
RTVSPropertyOp14
 70
     2
102
RTVSPropertyOp15
 70
     0
102
RTVSPropertyOp16
 70
     0
102
RTVSPropertyOp17
 70
     0
102
RTVSPropertyOp18
 70
     0
102
RTVSPropertyOp19
 70
     0
102
RTVSPropertyOp20
 70
     0
102
RTVSPropertyOp21
 70
     0
102
RTVSPropertyOp22
 70
     0
102
RTVSPropertyOp23
 70
     0
102
RTVSPropertyOp24
 70
     0
102
RTVSPropertyOp25
 70
     0
102
RTVSPropertyOp26
 70
     0
102
RTVSPropertyOp27
 70
     0
102
RTVSPropertyOp28
 70
     0
102
RTVSPropertyOp29
 70
     0
102
RTVSPropertyOp30
 70
     0
102
RTVSPropertyOp31
 70
     0
102
RTVSPropertyOp32
 70
     0
102
RTVSPropertyOp33
 70
     0
102
RTVSPropertyOp34
 70
     0
102
RTVSPropertyOp35
 70
     0
102
RTVSPropertyOp36
 70
     0
102
RTVSPropertyOp37
 70
     0
102
RTVSPropertyOp38
 70
     0
102
RTVSPropertyOp39
 70
     0
102
RTVSPropertyOp40
 70
     0
102
RTVSPropertyOp41
 70
     0
102
RTVSPropertyOp42
 70
     0
102
RTVSPropertyOp43
 70
     0
102
RTVSPropertyOp44
 70
     0
102
RTVSPropertyOp45
 70
     0
102
RTVSPropertyOp46
 70
     0
102
RTVSPropertyOp47
 70
     0
102
RTVSPropertyOp48
 70
     0
102
RTVSPropertyOp49
 70
     0
102
RTVSPropertyOp50
 70
     0
102
RTVSPropertyOp51
 70
     0
102
RTVSPropertyOp52
 70
     0
102
RTVSPropertyOp53
 70
     0
102
RTVSPropertyOp54
 70
     0
102
RTVSPropertyOp55
 70
     0
102
RTVSPropertyOp56
 70
     0
102
RTVSPropertyOp57
 70
     0
102
RTVSPropertyOp58
 70
     0
102
RTVSPropertyOp59
 70
     0
102
RTVSPropertyOp60
 70
     0
102
RTVSPropertyOp61
 70
     0
102
RTVSPropertyOp62
 70
     0
  0
XRECORD
  5
1463
102
{ACAD_REACTORS
330
1462
102
}
330
1462
100
AcDbXrecord
280
     1
102
RTVSPost2010Prop28
280
     0
102
RTVSPost2010PropOp28
 70
     1
102
RTVSPost2010Prop29
280
     1
102
RTVSPost2010PropOp29
 70
     1
102
RTVSPost2010Prop30
280
     1
102
RTVSPost2010PropOp30
 70
     1
102
RTVSPost2010Prop31
280
     0
102
RTVSPost2010PropOp31
 70
     1
102
RTVSPost2010Prop32
280
     0
102
RTVSPost2010PropOp32
 70
     1
102
RTVSPost2010Prop33
280
     0
102
RTVSPost2010PropOp33
 70
     1
102
RTVSPost2010Prop34
280
     0
102
RTVSPost2010PropOp34
 70
     1
102
RTVSPost2010Prop35
280
     0
102
RTVSPost2010PropOp35
 70
     1
102
RTVSPost2010Prop36
280
     0
102
RTVSPost2010PropOp36
 70
     1
102
RTVSPost2010Prop37
 90
       50
102
RTVSPost2010PropOp37
 70
     1
102
RTVSPost2010Prop38
140
0.0
102
RTVSPost2010PropOp38
 70
     1
102
RTVSPost2010Prop39
140
1.0
102
RTVSPost2010PropOp39
 70
     1
102
RTVSPost2010Prop40
 90
        0
102
RTVSPost2010PropOp40
 70
     1
102
RTVSPost2010Prop41ColorIndex
 90
       18
102
RTVSPost2010Prop41ColorRGB
 90
        0
102
RTVSPost2010PropOp41
 70
     1
102
RTVSPost2010Prop42
 90
       50
102
RTVSPost2010PropOp42
 70
     1
102
RTVSPost2010Prop43
 90
        3
102
RTVSPost2010PropOp43
 70
     1
102
RTVSPost2010Prop44ColorIndex
 90
        5
102
RTVSPost2010Prop44ColorRGB
 90
      255
102
RTVSPost2010PropOp44
 70
     1
102
RTVSPost2010Prop45
280
     0
102
RTVSPost2010PropOp45
 70
     1
102
RTVSPost2010Prop46
 90
       50
102
RTVSPost2010PropOp46
 70
     1
102
RTVSPost2010Prop47
 90
       50
102
RTVSPost2010PropOp47
 70
     1
102
RTVSPost2010Prop48
 90
       50
102
RTVSPost2010PropOp48
 70
     1
102
RTVSPost2010Prop49
280
     0
102
RTVSPost2010PropOp49
 70
     1
102
RTVSPost2010Prop50
 90
       50
102
RTVSPost2010PropOp50
 70
     1
102
RTVSPost2010Prop51ColorIndex
 90
      256
102
RTVSPost2010Prop51ColorRGB
 90
-16777216
102
RTVSPost2010PropOp51
 70
     0
102
RTVSPost2010Prop52
140
1.0
102
RTVSPost2010PropOp52
 70
     0
102
RTVSPost2010Prop53
 90
        2
102
RTVSPost2010PropOp53
 70
     1
102
RTVSPost2010Prop54
  1
strokes_ogs.tif
102
RTVSPost2010PropOp54
 70
     1
102
RTVSPost2010Prop55
280
     0
102
RTVSPost2010PropOp55
 70
     1
102
RTVSPost2010Prop56
140
1.0
102
RTVSPost2010PropOp56
 70
     1
102
RTVSPost2010Prop57
140
1.0
102
RTVSPost2010PropOp57
 70
     1
102
RTVSPropertyOp0
 70
     1
102
RTVSPropertyOp1
 70
     1
102
RTVSPropertyOp2
 70
     1
102
RTVSPropertyOp3
 70
     1
102
RTVSPropertyOp4
 70
     1
102
RTVSPropertyOp5
 70
     1
102
RTVSPropertyOp6
 70
     1
102
RTVSPropertyOp7
 70
     1
102
RTVSPropertyOp8
 70
     1
102
RTVSPropertyOp9
 70
     1
102
RTVSPropertyOp10
 70
     1
102
RTVSPropertyOp11
 70
     1
102
RTVSPropertyOp12
 70
     1
102
RTVSPropertyOp13
 70
     1
102
RTVSPropertyOp14
 70
     1
102
RTVSPropertyOp15
 70
     1
102
RTVSPropertyOp16
 70
     1
102
RTVSPropertyOp17
 70
     1
102
RTVSPropertyOp18
 70
     1
102
RTVSPropertyOp19
 70
     1
102
RTVSPropertyOp20
 70
     1
102
RTVSPropertyOp21
 70
     1
102
RTVSPropertyOp22
 70
     1
102
RTVSPropertyOp23
 70
     1
102
RTVSPropertyOp24
 70
     1
102
RTVSPropertyOp25
 70
     1
102
RTVSPropertyOp26
 70
     1
102
RTVSPropertyOp27
 70
     1
102
RTVSPropertyOp28
 70
     1
102
RTVSPropertyOp29
 70
     1
102
RTVSPropertyOp30
 70
     1
102
RTVSPropertyOp31
 70
     1
102
RTVSPropertyOp32
 70
     1
102
RTVSPropertyOp33
 70
     1
102
RTVSPropertyOp34
 70
     1
102
RTVSPropertyOp35
 70
     1
102
RTVSPropertyOp36
 70
     1
102
RTVSPropertyOp37
 70
     1
102
RTVSPropertyOp38
 70
     1
102
RTVSPropertyOp39
 70
     1
102
RTVSPropertyOp40
 70
     1
102
RTVSPropertyOp41
 70
     1
102
RTVSPropertyOp42
 70
     1
102
RTVSPropertyOp43
 70
     1
102
RTVSPropertyOp44
 70
     1
102
RTVSPropertyOp45
 70
     1
102
RTVSPropertyOp46
 70
     1
102
RTVSPropertyOp47
 70
     1
102
RTVSPropertyOp48
 70
     1
102
RTVSPropertyOp49
 70
     1
102
RTVSPropertyOp50
 70
     1
102
RTVSPropertyOp51
 70
     0
102
RTVSPropertyOp52
 70
     0
102
RTVSPropertyOp53
 70
     1
102
RTVSPropertyOp54
 70
     1
102
RTVSPropertyOp55
 70
     1
102
RTVSPropertyOp56
 70
     1
102
RTVSPropertyOp57
 70
     1
102
RTVSPropertyOp58
 70
     1
102
RTVSPropertyOp59
 70
     1
102
RTVSPropertyOp60
 70
     1
102
RTVSPropertyOp61
 70
     1
102
RTVSPropertyOp62
 70
     1
  0
XRECORD
  5
1479
102
{ACAD_REACTORS
330
1478
102
}
330
1478
100
AcDbXrecord
280
     1
102
RTVSPost2010Prop28
280
     0
102
RTVSPost2010PropOp28
 70
     1
102
RTVSPost2010Prop29
280
     1
102
RTVSPost2010PropOp29
 70
     1
102
RTVSPost2010Prop30
280
     1
102
RTVSPost2010PropOp30
 70
     1
102
RTVSPost2010Prop31
280
     0
102
RTVSPost2010PropOp31
 70
     1
102
RTVSPost2010Prop32
280
     0
102
RTVSPost2010PropOp32
 70
     1
102
RTVSPost2010Prop33
280
     0
102
RTVSPost2010PropOp33
 70
     1
102
RTVSPost2010Prop34
280
     0
102
RTVSPost2010PropOp34
 70
     1
102
RTVSPost2010Prop35
280
     0
102
RTVSPost2010PropOp35
 70
     1
102
RTVSPost2010Prop36
280
     0
102
RTVSPost2010PropOp36
 70
     1
102
RTVSPost2010Prop37
 90
       50
102
RTVSPost2010PropOp37
 70
     1
102
RTVSPost2010Prop38
140
0.0
102
RTVSPost2010PropOp38
 70
     1
102
RTVSPost2010Prop39
140
1.0
102
RTVSPost2010PropOp39
 70
     1
102
RTVSPost2010Prop40
 90
        0
102
RTVSPost2010PropOp40
 70
     1
102
RTVSPost2010Prop41ColorIndex
 90
       18
102
RTVSPost2010Prop41ColorRGB
 90
        0
102
RTVSPost2010PropOp41
 70
     1
102
RTVSPost2010Prop42
 90
       50
102
RTVSPost2010PropOp42
 70
     1
102
RTVSPost2010Prop43
 90
        3
102
RTVSPost2010PropOp43
 70
     1
102
RTVSPost2010Prop44ColorIndex
 90
        5
102
RTVSPost2010Prop44ColorRGB
 90
      255
102
RTVSPost2010PropOp44
 70
     1
102
RTVSPost2010Prop45
280
     0
102
RTVSPost2010PropOp45
 70
     1
102
RTVSPost2010Prop46
 90
       50
102
RTVSPost2010PropOp46
 70
     1
102
RTVSPost2010Prop47
 90
       50
102
RTVSPost2010PropOp47
 70
     1
102
RTVSPost2010Prop48
 90
       50
102
RTVSPost2010PropOp48
 70
     1
102
RTVSPost2010Prop49
280
     0
102
RTVSPost2010PropOp49
 70
     1
102
RTVSPost2010Prop50
 90
       50
102
RTVSPost2010PropOp50
 70
     1
102
RTVSPost2010Prop51ColorIndex
 90
      256
102
RTVSPost2010Prop51ColorRGB
 90
-16777216
102
RTVSPost2010PropOp51
 70
     0
102
RTVSPost2010Prop52
140
1.0
102
RTVSPost2010PropOp52
 70
     0
102
RTVSPost2010Prop53
 90
        2
102
RTVSPost2010PropOp53
 70
     1
102
RTVSPost2010Prop54
  1
strokes_ogs.tif
102
RTVSPost2010PropOp54
 70
     1
102
RTVSPost2010Prop55
280
     0
102
RTVSPost2010PropOp55
 70
     1
102
RTVSPost2010Prop56
140
1.0
102
RTVSPost2010PropOp56
 70
     1
102
RTVSPost2010Prop57
140
1.0
102
RTVSPost2010PropOp57
 70
     1
102
RTVSPropertyOp0
 70
     1
102
RTVSPropertyOp1
 70
     1
102
RTVSPropertyOp2
 70
     1
102
RTVSPropertyOp3
 70
     1
102
RTVSPropertyOp4
 70
     1
102
RTVSPropertyOp5
 70
     1
102
RTVSPropertyOp6
 70
     1
102
RTVSPropertyOp7
 70
     1
102
RTVSPropertyOp8
 70
     1
102
RTVSPropertyOp9
 70
     1
102
RTVSPropertyOp10
 70
     1
102
RTVSPropertyOp11
 70
     1
102
RTVSPropertyOp12
 70
     1
102
RTVSPropertyOp13
 70
     1
102
RTVSPropertyOp14
 70
     1
102
RTVSPropertyOp15
 70
     1
102
RTVSPropertyOp16
 70
     1
102
RTVSPropertyOp17
 70
     1
102
RTVSPropertyOp18
 70
     1
102
RTVSPropertyOp19
 70
     1
102
RTVSPropertyOp20
 70
     1
102
RTVSPropertyOp21
 70
     1
102
RTVSPropertyOp22
 70
     1
102
RTVSPropertyOp23
 70
     1
102
RTVSPropertyOp24
 70
     1
102
RTVSPropertyOp25
 70
     1
102
RTVSPropertyOp26
 70
     1
102
RTVSPropertyOp27
 70
     1
102
RTVSPropertyOp28
 70
     1
102
RTVSPropertyOp29
 70
     1
102
RTVSPropertyOp30
 70
     1
102
RTVSPropertyOp31
 70
     1
102
RTVSPropertyOp32
 70
     1
102
RTVSPropertyOp33
 70
     1
102
RTVSPropertyOp34
 70
     1
102
RTVSPropertyOp35
 70
     1
102
RTVSPropertyOp36
 70
     1
102
RTVSPropertyOp37
 70
     1
102
RTVSPropertyOp38
 70
     1
102
RTVSPropertyOp39
 70
     1
102
RTVSPropertyOp40
 70
     1
102
RTVSPropertyOp41
 70
     1
102
RTVSPropertyOp42
 70
     1
102
RTVSPropertyOp43
 70
     1
102
RTVSPropertyOp44
 70
     1
102
RTVSPropertyOp45
 70
     1
102
RTVSPropertyOp46
 70
     1
102
RTVSPropertyOp47
 70
     1
102
RTVSPropertyOp48
 70
     1
102
RTVSPropertyOp49
 70
     1
102
RTVSPropertyOp50
 70
     1
102
RTVSPropertyOp51
 70
     0
102
RTVSPropertyOp52
 70
     0
102
RTVSPropertyOp53
 70
     1
102
RTVSPropertyOp54
 70
     1
102
RTVSPropertyOp55
 70
     1
102
RTVSPropertyOp56
 70
     1
102
RTVSPropertyOp57
 70
     1
102
RTVSPropertyOp58
 70
     1
102
RTVSPropertyOp59
 70
     1
102
RTVSPropertyOp60
 70
     1
102
RTVSPropertyOp61
 70
     1
102
RTVSPropertyOp62
 70
     1
  0
XRECORD
  5
1477
102
{ACAD_REACTORS
330
1476
102
}
330
1476
100
AcDbXrecord
280
     1
102
RTVSPost2010Prop28
280
     0
102
RTVSPost2010PropOp28
 70
     1
102
RTVSPost2010Prop29
280
     1
102
RTVSPost2010PropOp29
 70
     1
102
RTVSPost2010Prop30
280
     1
102
RTVSPost2010PropOp30
 70
     1
102
RTVSPost2010Prop31
280
     0
102
RTVSPost2010PropOp31
 70
     1
102
RTVSPost2010Prop32
280
     0
102
RTVSPost2010PropOp32
 70
     1
102
RTVSPost2010Prop33
280
     0
102
RTVSPost2010PropOp33
 70
     1
102
RTVSPost2010Prop34
280
     0
102
RTVSPost2010PropOp34
 70
     1
102
RTVSPost2010Prop35
280
     0
102
RTVSPost2010PropOp35
 70
     1
102
RTVSPost2010Prop36
280
     0
102
RTVSPost2010PropOp36
 70
     1
102
RTVSPost2010Prop37
 90
       50
102
RTVSPost2010PropOp37
 70
     1
102
RTVSPost2010Prop38
140
0.0
102
RTVSPost2010PropOp38
 70
     1
102
RTVSPost2010Prop39
140
1.0
102
RTVSPost2010PropOp39
 70
     1
102
RTVSPost2010Prop40
 90
        0
102
RTVSPost2010PropOp40
 70
     1
102
RTVSPost2010Prop41ColorIndex
 90
       18
102
RTVSPost2010Prop41ColorRGB
 90
        0
102
RTVSPost2010PropOp41
 70
     1
102
RTVSPost2010Prop42
 90
       50
102
RTVSPost2010PropOp42
 70
     1
102
RTVSPost2010Prop43
 90
        3
102
RTVSPost2010PropOp43
 70
     1
102
RTVSPost2010Prop44ColorIndex
 90
        5
102
RTVSPost2010Prop44ColorRGB
 90
      255
102
RTVSPost2010PropOp44
 70
     1
102
RTVSPost2010Prop45
280
     0
102
RTVSPost2010PropOp45
 70
     1
102
RTVSPost2010Prop46
 90
       50
102
RTVSPost2010PropOp46
 70
     1
102
RTVSPost2010Prop47
 90
       50
102
RTVSPost2010PropOp47
 70
     1
102
RTVSPost2010Prop48
 90
       50
102
RTVSPost2010PropOp48
 70
     1
102
RTVSPost2010Prop49
280
     0
102
RTVSPost2010PropOp49
 70
     1
102
RTVSPost2010Prop50
 90
       50
102
RTVSPost2010PropOp50
 70
     1
102
RTVSPost2010Prop51ColorIndex
 90
      256
102
RTVSPost2010Prop51ColorRGB
 90
-16777216
102
RTVSPost2010PropOp51
 70
     0
102
RTVSPost2010Prop52
140
1.0
102
RTVSPost2010PropOp52
 70
     0
102
RTVSPost2010Prop53
 90
        2
102
RTVSPost2010PropOp53
 70
     1
102
RTVSPost2010Prop54
  1
strokes_ogs.tif
102
RTVSPost2010PropOp54
 70
     1
102
RTVSPost2010Prop55
280
     0
102
RTVSPost2010PropOp55
 70
     1
102
RTVSPost2010Prop56
140
1.0
102
RTVSPost2010PropOp56
 70
     1
102
RTVSPost2010Prop57
140
1.0
102
RTVSPost2010PropOp57
 70
     1
102
RTVSPropertyOp0
 70
     1
102
RTVSPropertyOp1
 70
     1
102
RTVSPropertyOp2
 70
     1
102
RTVSPropertyOp3
 70
     1
102
RTVSPropertyOp4
 70
     1
102
RTVSPropertyOp5
 70
     1
102
RTVSPropertyOp6
 70
     1
102
RTVSPropertyOp7
 70
     1
102
RTVSPropertyOp8
 70
     1
102
RTVSPropertyOp9
 70
     1
102
RTVSPropertyOp10
 70
     1
102
RTVSPropertyOp11
 70
     1
102
RTVSPropertyOp12
 70
     1
102
RTVSPropertyOp13
 70
     1
102
RTVSPropertyOp14
 70
     1
102
RTVSPropertyOp15
 70
     1
102
RTVSPropertyOp16
 70
     1
102
RTVSPropertyOp17
 70
     1
102
RTVSPropertyOp18
 70
     1
102
RTVSPropertyOp19
 70
     1
102
RTVSPropertyOp20
 70
     1
102
RTVSPropertyOp21
 70
     1
102
RTVSPropertyOp22
 70
     1
102
RTVSPropertyOp23
 70
     1
102
RTVSPropertyOp24
 70
     1
102
RTVSPropertyOp25
 70
     1
102
RTVSPropertyOp26
 70
     1
102
RTVSPropertyOp27
 70
     1
102
RTVSPropertyOp28
 70
     1
102
RTVSPropertyOp29
 70
     1
102
RTVSPropertyOp30
 70
     1
102
RTVSPropertyOp31
 70
     1
102
RTVSPropertyOp32
 70
     1
102
RTVSPropertyOp33
 70
     1
102
RTVSPropertyOp34
 70
     1
102
RTVSPropertyOp35
 70
     1
102
RTVSPropertyOp36
 70
     1
102
RTVSPropertyOp37
 70
     1
102
RTVSPropertyOp38
 70
     1
102
RTVSPropertyOp39
 70
     1
102
RTVSPropertyOp40
 70
     1
102
RTVSPropertyOp41
 70
     1
102
RTVSPropertyOp42
 70
     1
102
RTVSPropertyOp43
 70
     1
102
RTVSPropertyOp44
 70
     1
102
RTVSPropertyOp45
 70
     1
102
RTVSPropertyOp46
 70
     1
102
RTVSPropertyOp47
 70
     1
102
RTVSPropertyOp48
 70
     1
102
RTVSPropertyOp49
 70
     1
102
RTVSPropertyOp50
 70
     1
102
RTVSPropertyOp51
 70
     0
102
RTVSPropertyOp52
 70
     0
102
RTVSPropertyOp53
 70
     1
102
RTVSPropertyOp54
 70
     1
102
RTVSPropertyOp55
 70
     1
102
RTVSPropertyOp56
 70
     1
102
RTVSPropertyOp57
 70
     1
102
RTVSPropertyOp58
 70
     1
102
RTVSPropertyOp59
 70
     1
102
RTVSPropertyOp60
 70
     1
102
RTVSPropertyOp61
 70
     1
102
RTVSPropertyOp62
 70
     1
  0
XRECORD
  5
1471
102
{ACAD_REACTORS
330
1470
102
}
330
1470
100
AcDbXrecord
280
     1
102
RTVSPost2010Prop28
280
     0
102
RTVSPost2010PropOp28
 70
     1
102
RTVSPost2010Prop29
280
     1
102
RTVSPost2010PropOp29
 70
     1
102
RTVSPost2010Prop30
280
     1
102
RTVSPost2010PropOp30
 70
     1
102
RTVSPost2010Prop31
280
     0
102
RTVSPost2010PropOp31
 70
     1
102
RTVSPost2010Prop32
280
     0
102
RTVSPost2010PropOp32
 70
     1
102
RTVSPost2010Prop33
280
     0
102
RTVSPost2010PropOp33
 70
     1
102
RTVSPost2010Prop34
280
     0
102
RTVSPost2010PropOp34
 70
     1
102
RTVSPost2010Prop35
280
     0
102
RTVSPost2010PropOp35
 70
     1
102
RTVSPost2010Prop36
280
     0
102
RTVSPost2010PropOp36
 70
     1
102
RTVSPost2010Prop37
 90
       50
102
RTVSPost2010PropOp37
 70
     1
102
RTVSPost2010Prop38
140
0.0
102
RTVSPost2010PropOp38
 70
     1
102
RTVSPost2010Prop39
140
1.0
102
RTVSPost2010PropOp39
 70
     1
102
RTVSPost2010Prop40
 90
        0
102
RTVSPost2010PropOp40
 70
     1
102
RTVSPost2010Prop41ColorIndex
 90
       18
102
RTVSPost2010Prop41ColorRGB
 90
        0
102
RTVSPost2010PropOp41
 70
     1
102
RTVSPost2010Prop42
 90
       50
102
RTVSPost2010PropOp42
 70
     1
102
RTVSPost2010Prop43
 90
        3
102
RTVSPost2010PropOp43
 70
     1
102
RTVSPost2010Prop44ColorIndex
 90
        5
102
RTVSPost2010Prop44ColorRGB
 90
      255
102
RTVSPost2010PropOp44
 70
     1
102
RTVSPost2010Prop45
280
     0
102
RTVSPost2010PropOp45
 70
     1
102
RTVSPost2010Prop46
 90
       50
102
RTVSPost2010PropOp46
 70
     1
102
RTVSPost2010Prop47
 90
       50
102
RTVSPost2010PropOp47
 70
     1
102
RTVSPost2010Prop48
 90
       50
102
RTVSPost2010PropOp48
 70
     1
102
RTVSPost2010Prop49
280
     0
102
RTVSPost2010PropOp49
 70
     1
102
RTVSPost2010Prop50
 90
       50
102
RTVSPost2010PropOp50
 70
     1
102
RTVSPost2010Prop51ColorIndex
 90
      256
102
RTVSPost2010Prop51ColorRGB
 90
-16777216
102
RTVSPost2010PropOp51
 70
     0
102
RTVSPost2010Prop52
140
1.0
102
RTVSPost2010PropOp52
 70
     0
102
RTVSPost2010Prop53
 90
        2
102
RTVSPost2010PropOp53
 70
     1
102
RTVSPost2010Prop54
  1
strokes_ogs.tif
102
RTVSPost2010PropOp54
 70
     1
102
RTVSPost2010Prop55
280
     0
102
RTVSPost2010PropOp55
 70
     1
102
RTVSPost2010Prop56
140
1.0
102
RTVSPost2010PropOp56
 70
     1
102
RTVSPost2010Prop57
140
1.0
102
RTVSPost2010PropOp57
 70
     1
102
RTVSPropertyOp0
 70
     1
102
RTVSPropertyOp1
 70
     1
102
RTVSPropertyOp2
 70
     1
102
RTVSPropertyOp3
 70
     1
102
RTVSPropertyOp4
 70
     1
102
RTVSPropertyOp5
 70
     1
102
RTVSPropertyOp6
 70
     1
102
RTVSPropertyOp7
 70
     1
102
RTVSPropertyOp8
 70
     1
102
RTVSPropertyOp9
 70
     1
102
RTVSPropertyOp10
 70
     1
102
RTVSPropertyOp11
 70
     1
102
RTVSPropertyOp12
 70
     1
102
RTVSPropertyOp13
 70
     1
102
RTVSPropertyOp14
 70
     1
102
RTVSPropertyOp15
 70
     1
102
RTVSPropertyOp16
 70
     1
102
RTVSPropertyOp17
 70
     1
102
RTVSPropertyOp18
 70
     1
102
RTVSPropertyOp19
 70
     1
102
RTVSPropertyOp20
 70
     1
102
RTVSPropertyOp21
 70
     1
102
RTVSPropertyOp22
 70
     1
102
RTVSPropertyOp23
 70
     1
102
RTVSPropertyOp24
 70
     1
102
RTVSPropertyOp25
 70
     1
102
RTVSPropertyOp26
 70
     1
102
RTVSPropertyOp27
 70
     1
102
RTVSPropertyOp28
 70
     1
102
RTVSPropertyOp29
 70
     1
102
RTVSPropertyOp30
 70
     1
102
RTVSPropertyOp31
 70
     1
102
RTVSPropertyOp32
 70
     1
102
RTVSPropertyOp33
 70
     1
102
RTVSPropertyOp34
 70
     1
102
RTVSPropertyOp35
 70
     1
102
RTVSPropertyOp36
 70
     1
102
RTVSPropertyOp37
 70
     1
102
RTVSPropertyOp38
 70
     1
102
RTVSPropertyOp39
 70
     1
102
RTVSPropertyOp40
 70
     1
102
RTVSPropertyOp41
 70
     1
102
RTVSPropertyOp42
 70
     1
102
RTVSPropertyOp43
 70
     1
102
RTVSPropertyOp44
 70
     1
102
RTVSPropertyOp45
 70
     1
102
RTVSPropertyOp46
 70
     1
102
RTVSPropertyOp47
 70
     1
102
RTVSPropertyOp48
 70
     1
102
RTVSPropertyOp49
 70
     1
102
RTVSPropertyOp50
 70
     1
102
RTVSPropertyOp51
 70
     0
102
RTVSPropertyOp52
 70
     0
102
RTVSPropertyOp53
 70
     1
102
RTVSPropertyOp54
 70
     1
102
RTVSPropertyOp55
 70
     1
102
RTVSPropertyOp56
 70
     1
102
RTVSPropertyOp57
 70
     1
102
RTVSPropertyOp58
 70
     1
102
RTVSPropertyOp59
 70
     1
102
RTVSPropertyOp60
 70
     1
102
RTVSPropertyOp61
 70
     1
102
RTVSPropertyOp62
 70
     1
  0
XRECORD
  5
1473
102
{ACAD_REACTORS
330
1472
102
}
330
1472
100
AcDbXrecord
280
     1
102
RTVSPost2010Prop28
280
     0
102
RTVSPost2010PropOp28
 70
     1
102
RTVSPost2010Prop29
280
     1
102
RTVSPost2010PropOp29
 70
     1
102
RTVSPost2010Prop30
280
     1
102
RTVSPost2010PropOp30
 70
     1
102
RTVSPost2010Prop31
280
     0
102
RTVSPost2010PropOp31
 70
     1
102
RTVSPost2010Prop32
280
     0
102
RTVSPost2010PropOp32
 70
     1
102
RTVSPost2010Prop33
280
     0
102
RTVSPost2010PropOp33
 70
     1
102
RTVSPost2010Prop34
280
     0
102
RTVSPost2010PropOp34
 70
     1
102
RTVSPost2010Prop35
280
     0
102
RTVSPost2010PropOp35
 70
     1
102
RTVSPost2010Prop36
280
     0
102
RTVSPost2010PropOp36
 70
     1
102
RTVSPost2010Prop37
 90
       50
102
RTVSPost2010PropOp37
 70
     1
102
RTVSPost2010Prop38
140
0.0
102
RTVSPost2010PropOp38
 70
     1
102
RTVSPost2010Prop39
140
1.0
102
RTVSPost2010PropOp39
 70
     1
102
RTVSPost2010Prop40
 90
        0
102
RTVSPost2010PropOp40
 70
     1
102
RTVSPost2010Prop41ColorIndex
 90
       18
102
RTVSPost2010Prop41ColorRGB
 90
        0
102
RTVSPost2010PropOp41
 70
     1
102
RTVSPost2010Prop42
 90
       50
102
RTVSPost2010PropOp42
 70
     1
102
RTVSPost2010Prop43
 90
        3
102
RTVSPost2010PropOp43
 70
     1
102
RTVSPost2010Prop44ColorIndex
 90
        5
102
RTVSPost2010Prop44ColorRGB
 90
      255
102
RTVSPost2010PropOp44
 70
     1
102
RTVSPost2010Prop45
280
     0
102
RTVSPost2010PropOp45
 70
     1
102
RTVSPost2010Prop46
 90
       50
102
RTVSPost2010PropOp46
 70
     1
102
RTVSPost2010Prop47
 90
       50
102
RTVSPost2010PropOp47
 70
     1
102
RTVSPost2010Prop48
 90
       50
102
RTVSPost2010PropOp48
 70
     1
102
RTVSPost2010Prop49
280
     0
102
RTVSPost2010PropOp49
 70
     1
102
RTVSPost2010Prop50
 90
       50
102
RTVSPost2010PropOp50
 70
     1
102
RTVSPost2010Prop51ColorIndex
 90
      256
102
RTVSPost2010Prop51ColorRGB
 90
-16777216
102
RTVSPost2010PropOp51
 70
     0
102
RTVSPost2010Prop52
140
1.0
102
RTVSPost2010PropOp52
 70
     0
102
RTVSPost2010Prop53
 90
        2
102
RTVSPost2010PropOp53
 70
     1
102
RTVSPost2010Prop54
  1
strokes_ogs.tif
102
RTVSPost2010PropOp54
 70
     1
102
RTVSPost2010Prop55
280
     0
102
RTVSPost2010PropOp55
 70
     1
102
RTVSPost2010Prop56
140
1.0
102
RTVSPost2010PropOp56
 70
     1
102
RTVSPost2010Prop57
140
1.0
102
RTVSPost2010PropOp57
 70
     1
102
RTVSPropertyOp0
 70
     1
102
RTVSPropertyOp1
 70
     1
102
RTVSPropertyOp2
 70
     1
102
RTVSPropertyOp3
 70
     1
102
RTVSPropertyOp4
 70
     1
102
RTVSPropertyOp5
 70
     1
102
RTVSPropertyOp6
 70
     1
102
RTVSPropertyOp7
 70
     1
102
RTVSPropertyOp8
 70
     1
102
RTVSPropertyOp9
 70
     1
102
RTVSPropertyOp10
 70
     1
102
RTVSPropertyOp11
 70
     1
102
RTVSPropertyOp12
 70
     1
102
RTVSPropertyOp13
 70
     1
102
RTVSPropertyOp14
 70
     1
102
RTVSPropertyOp15
 70
     1
102
RTVSPropertyOp16
 70
     1
102
RTVSPropertyOp17
 70
     1
102
RTVSPropertyOp18
 70
     1
102
RTVSPropertyOp19
 70
     1
102
RTVSPropertyOp20
 70
     1
102
RTVSPropertyOp21
 70
     1
102
RTVSPropertyOp22
 70
     1
102
RTVSPropertyOp23
 70
     1
102
RTVSPropertyOp24
 70
     1
102
RTVSPropertyOp25
 70
     1
102
RTVSPropertyOp26
 70
     1
102
RTVSPropertyOp27
 70
     1
102
RTVSPropertyOp28
 70
     1
102
RTVSPropertyOp29
 70
     1
102
RTVSPropertyOp30
 70
     1
102
RTVSPropertyOp31
 70
     1
102
RTVSPropertyOp32
 70
     1
102
RTVSPropertyOp33
 70
     1
102
RTVSPropertyOp34
 70
     1
102
RTVSPropertyOp35
 70
     1
102
RTVSPropertyOp36
 70
     1
102
RTVSPropertyOp37
 70
     1
102
RTVSPropertyOp38
 70
     1
102
RTVSPropertyOp39
 70
     1
102
RTVSPropertyOp40
 70
     1
102
RTVSPropertyOp41
 70
     1
102
RTVSPropertyOp42
 70
     1
102
RTVSPropertyOp43
 70
     1
102
RTVSPropertyOp44
 70
     1
102
RTVSPropertyOp45
 70
     1
102
RTVSPropertyOp46
 70
     1
102
RTVSPropertyOp47
 70
     1
102
RTVSPropertyOp48
 70
     1
102
RTVSPropertyOp49
 70
     1
102
RTVSPropertyOp50
 70
     1
102
RTVSPropertyOp51
 70
     0
102
RTVSPropertyOp52
 70
     0
102
RTVSPropertyOp53
 70
     1
102
RTVSPropertyOp54
 70
     1
102
RTVSPropertyOp55
 70
     1
102
RTVSPropertyOp56
 70
     1
102
RTVSPropertyOp57
 70
     1
102
RTVSPropertyOp58
 70
     1
102
RTVSPropertyOp59
 70
     1
102
RTVSPropertyOp60
 70
     1
102
RTVSPropertyOp61
 70
     1
102
RTVSPropertyOp62
 70
     1
  0
XRECORD
  5
1469
102
{ACAD_REACTORS
330
1468
102
}
330
1468
100
AcDbXrecord
280
     1
102
RTVSPost2010Prop28
280
     0
102
RTVSPost2010PropOp28
 70
     1
102
RTVSPost2010Prop29
280
     1
102
RTVSPost2010PropOp29
 70
     1
102
RTVSPost2010Prop30
280
     1
102
RTVSPost2010PropOp30
 70
     1
102
RTVSPost2010Prop31
280
     0
102
RTVSPost2010PropOp31
 70
     1
102
RTVSPost2010Prop32
280
     0
102
RTVSPost2010PropOp32
 70
     1
102
RTVSPost2010Prop33
280
     0
102
RTVSPost2010PropOp33
 70
     1
102
RTVSPost2010Prop34
280
     0
102
RTVSPost2010PropOp34
 70
     1
102
RTVSPost2010Prop35
280
     0
102
RTVSPost2010PropOp35
 70
     1
102
RTVSPost2010Prop36
280
     0
102
RTVSPost2010PropOp36
 70
     1
102
RTVSPost2010Prop37
 90
       50
102
RTVSPost2010PropOp37
 70
     1
102
RTVSPost2010Prop38
140
0.0
102
RTVSPost2010PropOp38
 70
     1
102
RTVSPost2010Prop39
140
1.0
102
RTVSPost2010PropOp39
 70
     1
102
RTVSPost2010Prop40
 90
        0
102
RTVSPost2010PropOp40
 70
     1
102
RTVSPost2010Prop41ColorIndex
 90
       18
102
RTVSPost2010Prop41ColorRGB
 90
        0
102
RTVSPost2010PropOp41
 70
     1
102
RTVSPost2010Prop42
 90
       50
102
RTVSPost2010PropOp42
 70
     1
102
RTVSPost2010Prop43
 90
        3
102
RTVSPost2010PropOp43
 70
     1
102
RTVSPost2010Prop44ColorIndex
 90
        5
102
RTVSPost2010Prop44ColorRGB
 90
      255
102
RTVSPost2010PropOp44
 70
     1
102
RTVSPost2010Prop45
280
     0
102
RTVSPost2010PropOp45
 70
     1
102
RTVSPost2010Prop46
 90
       50
102
RTVSPost2010PropOp46
 70
     1
102
RTVSPost2010Prop47
 90
       50
102
RTVSPost2010PropOp47
 70
     1
102
RTVSPost2010Prop48
 90
       50
102
RTVSPost2010PropOp48
 70
     1
102
RTVSPost2010Prop49
280
     0
102
RTVSPost2010PropOp49
 70
     1
102
RTVSPost2010Prop50
 90
       50
102
RTVSPost2010PropOp50
 70
     1
102
RTVSPost2010Prop51ColorIndex
 90
      256
102
RTVSPost2010Prop51ColorRGB
 90
-16777216
102
RTVSPost2010PropOp51
 70
     0
102
RTVSPost2010Prop52
140
1.0
102
RTVSPost2010PropOp52
 70
     0
102
RTVSPost2010Prop53
 90
        2
102
RTVSPost2010PropOp53
 70
     1
102
RTVSPost2010Prop54
  1
strokes_ogs.tif
102
RTVSPost2010PropOp54
 70
     1
102
RTVSPost2010Prop55
280
     0
102
RTVSPost2010PropOp55
 70
     1
102
RTVSPost2010Prop56
140
1.0
102
RTVSPost2010PropOp56
 70
     1
102
RTVSPost2010Prop57
140
1.0
102
RTVSPost2010PropOp57
 70
     1
102
RTVSPropertyOp0
 70
     1
102
RTVSPropertyOp1
 70
     1
102
RTVSPropertyOp2
 70
     1
102
RTVSPropertyOp3
 70
     1
102
RTVSPropertyOp4
 70
     1
102
RTVSPropertyOp5
 70
     1
102
RTVSPropertyOp6
 70
     1
102
RTVSPropertyOp7
 70
     1
102
RTVSPropertyOp8
 70
     1
102
RTVSPropertyOp9
 70
     1
102
RTVSPropertyOp10
 70
     1
102
RTVSPropertyOp11
 70
     1
102
RTVSPropertyOp12
 70
     1
102
RTVSPropertyOp13
 70
     1
102
RTVSPropertyOp14
 70
     1
102
RTVSPropertyOp15
 70
     1
102
RTVSPropertyOp16
 70
     1
102
RTVSPropertyOp17
 70
     1
102
RTVSPropertyOp18
 70
     1
102
RTVSPropertyOp19
 70
     1
102
RTVSPropertyOp20
 70
     1
102
RTVSPropertyOp21
 70
     1
102
RTVSPropertyOp22
 70
     1
102
RTVSPropertyOp23
 70
     1
102
RTVSPropertyOp24
 70
     1
102
RTVSPropertyOp25
 70
     1
102
RTVSPropertyOp26
 70
     1
102
RTVSPropertyOp27
 70
     1
102
RTVSPropertyOp28
 70
     1
102
RTVSPropertyOp29
 70
     1
102
RTVSPropertyOp30
 70
     1
102
RTVSPropertyOp31
 70
     1
102
RTVSPropertyOp32
 70
     1
102
RTVSPropertyOp33
 70
     1
102
RTVSPropertyOp34
 70
     1
102
RTVSPropertyOp35
 70
     1
102
RTVSPropertyOp36
 70
     1
102
RTVSPropertyOp37
 70
     1
102
RTVSPropertyOp38
 70
     1
102
RTVSPropertyOp39
 70
     1
102
RTVSPropertyOp40
 70
     1
102
RTVSPropertyOp41
 70
     1
102
RTVSPropertyOp42
 70
     1
102
RTVSPropertyOp43
 70
     1
102
RTVSPropertyOp44
 70
     1
102
RTVSPropertyOp45
 70
     1
102
RTVSPropertyOp46
 70
     1
102
RTVSPropertyOp47
 70
     1
102
RTVSPropertyOp48
 70
     1
102
RTVSPropertyOp49
 70
     1
102
RTVSPropertyOp50
 70
     1
102
RTVSPropertyOp51
 70
     0
102
RTVSPropertyOp52
 70
     0
102
RTVSPropertyOp53
 70
     1
102
RTVSPropertyOp54
 70
     1
102
RTVSPropertyOp55
 70
     1
102
RTVSPropertyOp56
 70
     1
102
RTVSPropertyOp57
 70
     1
102
RTVSPropertyOp58
 70
     1
102
RTVSPropertyOp59
 70
     1
102
RTVSPropertyOp60
 70
     1
102
RTVSPropertyOp61
 70
     1
102
RTVSPropertyOp62
 70
     1
  0
XRECORD
  5
145D
102
{ACAD_REACTORS
330
145C
102
}
330
145C
100
AcDbXrecord
280
     1
102
RTVSPost2010Prop28
280
     0
102
RTVSPost2010PropOp28
 70
     1
102
RTVSPost2010Prop29
280
     1
102
RTVSPost2010PropOp29
 70
     1
102
RTVSPost2010Prop30
280
     1
102
RTVSPost2010PropOp30
 70
     1
102
RTVSPost2010Prop31
280
     0
102
RTVSPost2010PropOp31
 70
     1
102
RTVSPost2010Prop32
280
     0
102
RTVSPost2010PropOp32
 70
     1
102
RTVSPost2010Prop33
280
     0
102
RTVSPost2010PropOp33
 70
     1
102
RTVSPost2010Prop34
280
     0
102
RTVSPost2010PropOp34
 70
     1
102
RTVSPost2010Prop35
280
     0
102
RTVSPost2010PropOp35
 70
     1
102
RTVSPost2010Prop36
280
     0
102
RTVSPost2010PropOp36
 70
     1
102
RTVSPost2010Prop37
 90
       50
102
RTVSPost2010PropOp37
 70
     1
102
RTVSPost2010Prop38
140
0.0
102
RTVSPost2010PropOp38
 70
     1
102
RTVSPost2010Prop39
140
1.0
102
RTVSPost2010PropOp39
 70
     1
102
RTVSPost2010Prop40
 90
        0
102
RTVSPost2010PropOp40
 70
     1
102
RTVSPost2010Prop41ColorIndex
 90
       18
102
RTVSPost2010Prop41ColorRGB
 90
        0
102
RTVSPost2010PropOp41
 70
     1
102
RTVSPost2010Prop42
 90
       50
102
RTVSPost2010PropOp42
 70
     1
102
RTVSPost2010Prop43
 90
        3
102
RTVSPost2010PropOp43
 70
     1
102
RTVSPost2010Prop44ColorIndex
 90
        5
102
RTVSPost2010Prop44ColorRGB
 90
      255
102
RTVSPost2010PropOp44
 70
     1
102
RTVSPost2010Prop45
280
     0
102
RTVSPost2010PropOp45
 70
     1
102
RTVSPost2010Prop46
 90
       50
102
RTVSPost2010PropOp46
 70
     1
102
RTVSPost2010Prop47
 90
       50
102
RTVSPost2010PropOp47
 70
     1
102
RTVSPost2010Prop48
 90
       50
102
RTVSPost2010PropOp48
 70
     1
102
RTVSPost2010Prop49
280
     0
102
RTVSPost2010PropOp49
 70
     1
102
RTVSPost2010Prop50
 90
       50
102
RTVSPost2010PropOp50
 70
     1
102
RTVSPost2010Prop51ColorIndex
 90
      256
102
RTVSPost2010Prop51ColorRGB
 90
-16777216
102
RTVSPost2010PropOp51
 70
     0
102
RTVSPost2010Prop52
140
1.0
102
RTVSPost2010PropOp52
 70
     0
102
RTVSPost2010Prop53
 90
        2
102
RTVSPost2010PropOp53
 70
     1
102
RTVSPost2010Prop54
  1
strokes_ogs.tif
102
RTVSPost2010PropOp54
 70
     1
102
RTVSPost2010Prop55
280
     0
102
RTVSPost2010PropOp55
 70
     1
102
RTVSPost2010Prop56
140
1.0
102
RTVSPost2010PropOp56
 70
     1
102
RTVSPost2010Prop57
140
1.0
102
RTVSPost2010PropOp57
 70
     1
102
RTVSPropertyOp0
 70
     1
102
RTVSPropertyOp1
 70
     1
102
RTVSPropertyOp2
 70
     1
102
RTVSPropertyOp3
 70
     1
102
RTVSPropertyOp4
 70
     1
102
RTVSPropertyOp5
 70
     1
102
RTVSPropertyOp6
 70
     1
102
RTVSPropertyOp7
 70
     1
102
RTVSPropertyOp8
 70
     1
102
RTVSPropertyOp9
 70
     1
102
RTVSPropertyOp10
 70
     1
102
RTVSPropertyOp11
 70
     1
102
RTVSPropertyOp12
 70
     1
102
RTVSPropertyOp13
 70
     1
102
RTVSPropertyOp14
 70
     1
102
RTVSPropertyOp15
 70
     1
102
RTVSPropertyOp16
 70
     1
102
RTVSPropertyOp17
 70
     1
102
RTVSPropertyOp18
 70
     1
102
RTVSPropertyOp19
 70
     1
102
RTVSPropertyOp20
 70
     1
102
RTVSPropertyOp21
 70
     1
102
RTVSPropertyOp22
 70
     1
102
RTVSPropertyOp23
 70
     1
102
RTVSPropertyOp24
 70
     1
102
RTVSPropertyOp25
 70
     1
102
RTVSPropertyOp26
 70
     1
102
RTVSPropertyOp27
 70
     1
102
RTVSPropertyOp28
 70
     1
102
RTVSPropertyOp29
 70
     1
102
RTVSPropertyOp30
 70
     1
102
RTVSPropertyOp31
 70
     1
102
RTVSPropertyOp32
 70
     1
102
RTVSPropertyOp33
 70
     1
102
RTVSPropertyOp34
 70
     1
102
RTVSPropertyOp35
 70
     1
102
RTVSPropertyOp36
 70
     1
102
RTVSPropertyOp37
 70
     1
102
RTVSPropertyOp38
 70
     1
102
RTVSPropertyOp39
 70
     1
102
RTVSPropertyOp40
 70
     1
102
RTVSPropertyOp41
 70
     1
102
RTVSPropertyOp42
 70
     1
102
RTVSPropertyOp43
 70
     1
102
RTVSPropertyOp44
 70
     1
102
RTVSPropertyOp45
 70
     1
102
RTVSPropertyOp46
 70
     1
102
RTVSPropertyOp47
 70
     1
102
RTVSPropertyOp48
 70
     1
102
RTVSPropertyOp49
 70
     1
102
RTVSPropertyOp50
 70
     1
102
RTVSPropertyOp51
 70
     0
102
RTVSPropertyOp52
 70
     0
102
RTVSPropertyOp53
 70
     1
102
RTVSPropertyOp54
 70
     1
102
RTVSPropertyOp55
 70
     1
102
RTVSPropertyOp56
 70
     1
102
RTVSPropertyOp57
 70
     1
102
RTVSPropertyOp58
 70
     1
102
RTVSPropertyOp59
 70
     1
102
RTVSPropertyOp60
 70
     1
102
RTVSPropertyOp61
 70
     1
102
RTVSPropertyOp62
 70
     1
  0
XRECORD
  5
1475
102
{ACAD_REACTORS
330
1474
102
}
330
1474
100
AcDbXrecord
280
     1
102
RTVSPost2010Prop28
280
     0
102
RTVSPost2010PropOp28
 70
     1
102
RTVSPost2010Prop29
280
     1
102
RTVSPost2010PropOp29
 70
     1
102
RTVSPost2010Prop30
280
     1
102
RTVSPost2010PropOp30
 70
     1
102
RTVSPost2010Prop31
280
     0
102
RTVSPost2010PropOp31
 70
     1
102
RTVSPost2010Prop32
280
     0
102
RTVSPost2010PropOp32
 70
     1
102
RTVSPost2010Prop33
280
     0
102
RTVSPost2010PropOp33
 70
     1
102
RTVSPost2010Prop34
280
     0
102
RTVSPost2010PropOp34
 70
     1
102
RTVSPost2010Prop35
280
     0
102
RTVSPost2010PropOp35
 70
     1
102
RTVSPost2010Prop36
280
     0
102
RTVSPost2010PropOp36
 70
     1
102
RTVSPost2010Prop37
 90
       50
102
RTVSPost2010PropOp37
 70
     1
102
RTVSPost2010Prop38
140
0.0
102
RTVSPost2010PropOp38
 70
     1
102
RTVSPost2010Prop39
140
1.0
102
RTVSPost2010PropOp39
 70
     1
102
RTVSPost2010Prop40
 90
        0
102
RTVSPost2010PropOp40
 70
     1
102
RTVSPost2010Prop41ColorIndex
 90
       18
102
RTVSPost2010Prop41ColorRGB
 90
        0
102
RTVSPost2010PropOp41
 70
     1
102
RTVSPost2010Prop42
 90
       50
102
RTVSPost2010PropOp42
 70
     1
102
RTVSPost2010Prop43
 90
        3
102
RTVSPost2010PropOp43
 70
     1
102
RTVSPost2010Prop44ColorIndex
 90
        5
102
RTVSPost2010Prop44ColorRGB
 90
      255
102
RTVSPost2010PropOp44
 70
     1
102
RTVSPost2010Prop45
280
     0
102
RTVSPost2010PropOp45
 70
     1
102
RTVSPost2010Prop46
 90
       50
102
RTVSPost2010PropOp46
 70
     1
102
RTVSPost2010Prop47
 90
       50
102
RTVSPost2010PropOp47
 70
     1
102
RTVSPost2010Prop48
 90
       50
102
RTVSPost2010PropOp48
 70
     1
102
RTVSPost2010Prop49
280
     0
102
RTVSPost2010PropOp49
 70
     1
102
RTVSPost2010Prop50
 90
       50
102
RTVSPost2010PropOp50
 70
     1
102
RTVSPost2010Prop51ColorIndex
 90
      256
102
RTVSPost2010Prop51ColorRGB
 90
-16777216
102
RTVSPost2010PropOp51
 70
     0
102
RTVSPost2010Prop52
140
1.0
102
RTVSPost2010PropOp52
 70
     0
102
RTVSPost2010Prop53
 90
        2
102
RTVSPost2010PropOp53
 70
     1
102
RTVSPost2010Prop54
  1
strokes_ogs.tif
102
RTVSPost2010PropOp54
 70
     1
102
RTVSPost2010Prop55
280
     0
102
RTVSPost2010PropOp55
 70
     1
102
RTVSPost2010Prop56
140
1.0
102
RTVSPost2010PropOp56
 70
     1
102
RTVSPost2010Prop57
140
1.0
102
RTVSPost2010PropOp57
 70
     1
102
RTVSPropertyOp0
 70
     1
102
RTVSPropertyOp1
 70
     1
102
RTVSPropertyOp2
 70
     1
102
RTVSPropertyOp3
 70
     1
102
RTVSPropertyOp4
 70
     1
102
RTVSPropertyOp5
 70
     1
102
RTVSPropertyOp6
 70
     1
102
RTVSPropertyOp7
 70
     1
102
RTVSPropertyOp8
 70
     1
102
RTVSPropertyOp9
 70
     1
102
RTVSPropertyOp10
 70
     1
102
RTVSPropertyOp11
 70
     1
102
RTVSPropertyOp12
 70
     1
102
RTVSPropertyOp13
 70
     1
102
RTVSPropertyOp14
 70
     1
102
RTVSPropertyOp15
 70
     1
102
RTVSPropertyOp16
 70
     1
102
RTVSPropertyOp17
 70
     1
102
RTVSPropertyOp18
 70
     1
102
RTVSPropertyOp19
 70
     1
102
RTVSPropertyOp20
 70
     1
102
RTVSPropertyOp21
 70
     1
102
RTVSPropertyOp22
 70
     1
102
RTVSPropertyOp23
 70
     1
102
RTVSPropertyOp24
 70
     1
102
RTVSPropertyOp25
 70
     1
102
RTVSPropertyOp26
 70
     1
102
RTVSPropertyOp27
 70
     1
102
RTVSPropertyOp28
 70
     1
102
RTVSPropertyOp29
 70
     1
102
RTVSPropertyOp30
 70
     1
102
RTVSPropertyOp31
 70
     1
102
RTVSPropertyOp32
 70
     1
102
RTVSPropertyOp33
 70
     1
102
RTVSPropertyOp34
 70
     1
102
RTVSPropertyOp35
 70
     1
102
RTVSPropertyOp36
 70
     1
102
RTVSPropertyOp37
 70
     1
102
RTVSPropertyOp38
 70
     1
102
RTVSPropertyOp39
 70
     1
102
RTVSPropertyOp40
 70
     1
102
RTVSPropertyOp41
 70
     1
102
RTVSPropertyOp42
 70
     1
102
RTVSPropertyOp43
 70
     1
102
RTVSPropertyOp44
 70
     1
102
RTVSPropertyOp45
 70
     1
102
RTVSPropertyOp46
 70
     1
102
RTVSPropertyOp47
 70
     1
102
RTVSPropertyOp48
 70
     1
102
RTVSPropertyOp49
 70
     1
102
RTVSPropertyOp50
 70
     1
102
RTVSPropertyOp51
 70
     0
102
RTVSPropertyOp52
 70
     0
102
RTVSPropertyOp53
 70
     1
102
RTVSPropertyOp54
 70
     1
102
RTVSPropertyOp55
 70
     1
102
RTVSPropertyOp56
 70
     1
102
RTVSPropertyOp57
 70
     1
102
RTVSPropertyOp58
 70
     1
102
RTVSPropertyOp59
 70
     1
102
RTVSPropertyOp60
 70
     1
102
RTVSPropertyOp61
 70
     1
102
RTVSPropertyOp62
 70
     1
  0
XRECORD
  5
12CE
102
{ACAD_REACTORS
330
12CD
102
}
330
12CD
100
AcDbXrecord
280
     1
330
114A
  0
ACDBASSOCARRAYACTIONBODY
  5
12E9
330
12E8
100
AcDbAssocActionBody
 90
        1
100
AcDbAssocParamBasedActionBody
 90
        0
 90
        0
 90
        3
360
12EA
360
12EB
360
12EF
 90
        0
 90
        9
 90
        0
  1
AlignItems
 90
        0
 90
        1
 90
        0
330
0
330
0
 90
        0
  1
AxesAngle
 90
        2
 90
        1
 40
1.570796326794896
330
0
330
0
 90
        0
  1
ItemSpacing
 90
        1
 90
        1
 40
35.3
330
0
330
0
 90
        0
  1
Items
 90
        0
 90
        1
 90
       26
330
0
330
0
 90
        0
  1
LevelSpacing
 90
        1
 90
        1
 40
1.0
330
0
330
0
 90
        0
  1
Levels
 90
        0
 90
        1
 90
        1
330
0
330
0
 90
        0
  1
RowElevation
 90
        1
 90
        1
 40
0.0
330
0
330
0
 90
        0
  1
RowSpacing
 90
        1
 90
        1
 40
75.0
330
0
330
0
 90
        0
  1
Rows
 90
        0
 90
        1
 90
        1
330
0
330
0
100
AcDbAssocArrayActionBody
 90
        1
  1
AcDbAssocArrayRectangularParameters
 90
        0
 90
       26
  1
AcDbAssocArrayItem
100
AcDbAssocArrayItem
 90
        0
 90
        0
 90
        0
 90
        0
 90
        8
 11
0.0
 21
0.0
 31
0.0
330
12F1
100
AcDbAssocArrayItem
 90
        0
 90
        1
 90
        0
 90
        0
 90
        8
 11
35.3
 21
0.0
 31
0.0
330
12F2
100
AcDbAssocArrayItem
 90
        0
 90
        2
 90
        0
 90
        0
 90
        8
 11
70.59999999999999
 21
0.0
 31
0.0
330
12F3
100
AcDbAssocArrayItem
 90
        0
 90
        3
 90
        0
 90
        0
 90
        8
 11
105.9
 21
0.0
 31
0.0
330
12F4
100
AcDbAssocArrayItem
 90
        0
 90
        4
 90
        0
 90
        0
 90
        8
 11
141.2
 21
0.0
 31
0.0
330
12F5
100
AcDbAssocArrayItem
 90
        0
 90
        5
 90
        0
 90
        0
 90
        8
 11
176.5
 21
0.0
 31
0.0
330
12F6
100
AcDbAssocArrayItem
 90
        0
 90
        6
 90
        0
 90
        0
 90
        8
 11
211.8
 21
0.0
 31
0.0
330
12F7
100
AcDbAssocArrayItem
 90
        0
 90
        7
 90
        0
 90
        0
 90
        8
 11
247.1
 21
0.0
 31
0.0
330
12F8
100
AcDbAssocArrayItem
 90
        0
 90
        8
 90
        0
 90
        0
 90
        8
 11
282.4
 21
0.0
 31
0.0
330
12F9
100
AcDbAssocArrayItem
 90
        0
 90
        9
 90
        0
 90
        0
 90
        8
 11
317.7
 21
0.0
 31
0.0
330
12FA
100
AcDbAssocArrayItem
 90
        0
 90
       10
 90
        0
 90
        0
 90
        8
 11
353.0
 21
0.0
 31
0.0
330
12FB
100
AcDbAssocArrayItem
 90
        0
 90
       11
 90
        0
 90
        0
 90
        8
 11
388.3
 21
0.0
 31
0.0
330
12FC
100
AcDbAssocArrayItem
 90
        0
 90
       12
 90
        0
 90
        0
 90
        8
 11
423.5999999999999
 21
0.0
 31
0.0
330
12FD
100
AcDbAssocArrayItem
 90
        0
 90
       13
 90
        0
 90
        0
 90
        8
 11
458.8999999999999
 21
0.0
 31
0.0
330
12FE
100
AcDbAssocArrayItem
 90
        0
 90
       14
 90
        0
 90
        0
 90
        8
 11
494.1999999999999
 21
0.0
 31
0.0
330
12FF
100
AcDbAssocArrayItem
 90
        0
 90
       15
 90
        0
 90
        0
 90
        8
 11
529.4999999999999
 21
0.0
 31
0.0
330
1300
100
AcDbAssocArrayItem
 90
        0
 90
       16
 90
        0
 90
        0
 90
        8
 11
564.7999999999999
 21
0.0
 31
0.0
330
1301
100
AcDbAssocArrayItem
 90
        0
 90
       17
 90
        0
 90
        0
 90
        8
 11
600.0999999999999
 21
0.0
 31
0.0
330
1302
100
AcDbAssocArrayItem
 90
        0
 90
       18
 90
        0
 90
        0
 90
        8
 11
635.4
 21
0.0
 31
0.0
330
1303
100
AcDbAssocArrayItem
 90
        0
 90
       19
 90
        0
 90
        0
 90
        8
 11
670.6999999999999
 21
0.0
 31
0.0
330
1304
100
AcDbAssocArrayItem
 90
        0
 90
       20
 90
        0
 90
        0
 90
        8
 11
706.0
 21
0.0
 31
0.0
330
1305
100
AcDbAssocArrayItem
 90
        0
 90
       21
 90
        0
 90
        0
 90
        8
 11
741.2999999999999
 21
0.0
 31
0.0
330
1306
100
AcDbAssocArrayItem
 90
        0
 90
       22
 90
        0
 90
        0
 90
        8
 11
776.5999999999999
 21
0.0
 31
0.0
330
1307
100
AcDbAssocArrayItem
 90
        0
 90
       23
 90
        0
 90
        0
 90
        8
 11
811.8999999999999
 21
0.0
 31
0.0
330
1308
100
AcDbAssocArrayItem
 90
        0
 90
       24
 90
        0
 90
        0
 90
        8
 11
847.1999999999999
 21
0.0
 31
0.0
330
1309
100
AcDbAssocArrayItem
 90
        0
 90
       25
 90
        0
 90
        0
 90
        8
 11
882.4999999999999
 21
0.0
 31
0.0
330
130A
 40
1.0
 40
0.0
 40
0.0
 40
476.7252334948779
 40
0.0
 40
1.0
 40
0.0
 40
682.7299929925266
 40
0.0
 40
0.0
 40
1.0
 40
0.0
 40
0.0
 40
0.0
 40
0.0
 40
1.0
  0
ACDBASSOCDEPENDENCY
  5
12EC
330
12E8
100
AcDbAssocDependency
 90
        2
 90
        1
290
     0
290
     1
290
     1
290
     1
 90
        0
330
12DA
290
     0
330
0
330
0
360
0
 90
        1
  0
ACDBASSOCDEPENDENCY
  5
12ED
330
12E8
100
AcDbAssocDependency
 90
        2
 90
        1
290
     1
290
     0
290
     1
290
     1
 90
        0
330
12D7
290
     0
330
0
330
0
360
0
 90
        2
  0
ACDBASSOCDEPENDENCY
  5
12EE
330
12E8
100
AcDbAssocDependency
 90
        2
 90
        0
290
     1
290
     1
290
     1
290
     1
 90
-2147483648
330
12DD
290
     0
330
0
330
0
360
0
 90
        3
  0
ACDBASSOCARRAYACTIONBODY
  5
13D0
330
13CF
100
AcDbAssocActionBody
 90
        1
100
AcDbAssocParamBasedActionBody
 90
        0
 90
        0
 90
        3
360
13D1
360
13D2
360
13D6
 90
        0
 90
        9
 90
        0
  1
AlignItems
 90
        0
 90
        1
 90
        0
330
0
330
0
 90
        0
  1
AxesAngle
 90
        2
 90
        1
 40
1.570796326794896
330
0
330
0
 90
        0
  1
ItemSpacing
 90
        1
 90
        1
 40
35.3
330
0
330
0
 90
        0
  1
Items
 90
        0
 90
        1
 90
       27
330
0
330
0
 90
        0
  1
LevelSpacing
 90
        1
 90
        1
 40
1.0
330
0
330
0
 90
        0
  1
Levels
 90
        0
 90
        1
 90
        1
330
0
330
0
 90
        0
  1
RowElevation
 90
        1
 90
        1
 40
0.0
330
0
330
0
 90
        0
  1
RowSpacing
 90
        1
 90
        1
 40
1491.096433081066
330
0
330
0
 90
        0
  1
Rows
 90
        0
 90
        1
 90
        1
330
0
330
0
100
AcDbAssocArrayActionBody
 90
        1
  1
AcDbAssocArrayRectangularParameters
 90
        0
 90
       27
  1
AcDbAssocArrayItem
100
AcDbAssocArrayItem
 90
        0
 90
        0
 90
        0
 90
        0
 90
        8
 11
0.0
 21
0.0
 31
0.0
330
13D8
100
AcDbAssocArrayItem
 90
        0
 90
        1
 90
        0
 90
        0
 90
        8
 11
35.3
 21
0.0
 31
0.0
330
13D9
100
AcDbAssocArrayItem
 90
        0
 90
        2
 90
        0
 90
        0
 90
        8
 11
70.59999999999999
 21
0.0
 31
0.0
330
13DA
100
AcDbAssocArrayItem
 90
        0
 90
        3
 90
        0
 90
        0
 90
        8
 11
105.9
 21
0.0
 31
0.0
330
13DB
100
AcDbAssocArrayItem
 90
        0
 90
        4
 90
        0
 90
        0
 90
        8
 11
141.2
 21
0.0
 31
0.0
330
13DC
100
AcDbAssocArrayItem
 90
        0
 90
        5
 90
        0
 90
        0
 90
        8
 11
176.5
 21
0.0
 31
0.0
330
13DD
100
AcDbAssocArrayItem
 90
        0
 90
        6
 90
        0
 90
        0
 90
        8
 11
211.8
 21
0.0
 31
0.0
330
13DE
100
AcDbAssocArrayItem
 90
        0
 90
        7
 90
        0
 90
        0
 90
        8
 11
247.1
 21
0.0
 31
0.0
330
13DF
100
AcDbAssocArrayItem
 90
        0
 90
        8
 90
        0
 90
        0
 90
        8
 11
282.4
 21
0.0
 31
0.0
330
13E0
100
AcDbAssocArrayItem
 90
        0
 90
        9
 90
        0
 90
        0
 90
        8
 11
317.7
 21
0.0
 31
0.0
330
13E1
100
AcDbAssocArrayItem
 90
        0
 90
       10
 90
        0
 90
        0
 90
        8
 11
353.0
 21
0.0
 31
0.0
330
13E2
100
AcDbAssocArrayItem
 90
        0
 90
       11
 90
        0
 90
        0
 90
        8
 11
388.3
 21
0.0
 31
0.0
330
13E3
100
AcDbAssocArrayItem
 90
        0
 90
       12
 90
        0
 90
        0
 90
        8
 11
423.5999999999999
 21
0.0
 31
0.0
330
13E4
100
AcDbAssocArrayItem
 90
        0
 90
       13
 90
        0
 90
        0
 90
        8
 11
458.8999999999999
 21
0.0
 31
0.0
330
13E5
100
AcDbAssocArrayItem
 90
        0
 90
       14
 90
        0
 90
        0
 90
        8
 11
494.1999999999999
 21
0.0
 31
0.0
330
13E6
100
AcDbAssocArrayItem
 90
        0
 90
       15
 90
        0
 90
        0
 90
        8
 11
529.4999999999999
 21
0.0
 31
0.0
330
13E7
100
AcDbAssocArrayItem
 90
        0
 90
       16
 90
        0
 90
        0
 90
        8
 11
564.7999999999999
 21
0.0
 31
0.0
330
13E8
100
AcDbAssocArrayItem
 90
        0
 90
       17
 90
        0
 90
        0
 90
        8
 11
600.0999999999999
 21
0.0
 31
0.0
330
13E9
100
AcDbAssocArrayItem
 90
        0
 90
       18
 90
        0
 90
        0
 90
        8
 11
635.4
 21
0.0
 31
0.0
330
13EA
100
AcDbAssocArrayItem
 90
        0
 90
       19
 90
        0
 90
        0
 90
        8
 11
670.6999999999999
 21
0.0
 31
0.0
330
13EB
100
AcDbAssocArrayItem
 90
        0
 90
       20
 90
        0
 90
        0
 90
        8
 11
706.0
 21
0.0
 31
0.0
330
13EC
100
AcDbAssocArrayItem
 90
        0
 90
       21
 90
        0
 90
        0
 90
        8
 11
741.2999999999999
 21
0.0
 31
0.0
330
13ED
100
AcDbAssocArrayItem
 90
        0
 90
       22
 90
        0
 90
        0
 90
        8
 11
776.5999999999999
 21
0.0
 31
0.0
330
13EE
100
AcDbAssocArrayItem
 90
        0
 90
       23
 90
        0
 90
        0
 90
        8
 11
811.8999999999999
 21
0.0
 31
0.0
330
13EF
100
AcDbAssocArrayItem
 90
        0
 90
       24
 90
        0
 90
        0
 90
        8
 11
847.1999999999999
 21
0.0
 31
0.0
330
13F0
100
AcDbAssocArrayItem
 90
        0
 90
       25
 90
        0
 90
        0
 90
        8
 11
882.4999999999999
 21
0.0
 31
0.0
330
13F1
100
AcDbAssocArrayItem
 90
        0
 90
       26
 90
        0
 90
        0
 90
        8
 11
917.7999999999999
 21
0.0
 31
0.0
330
13F2
 40
1.0
 40
0.0
 40
0.0
 40
2087.95907640965
 40
0.0
 40
1.0
 40
0.0
 40
1697.652676109917
 40
0.0
 40
0.0
 40
1.0
 40
0.0
 40
0.0
 40
0.0
 40
0.0
 40
1.0
  0
ACDBASSOCDEPENDENCY
  5
13D3
330
13CF
100
AcDbAssocDependency
 90
        2
 90
        1
290
     0
290
     1
290
     1
290
     1
 90
        0
330
138D
290
     0
330
0
330
0
360
0
 90
        1
  0
ACDBASSOCDEPENDENCY
  5
13D4
330
13CF
100
AcDbAssocDependency
 90
        2
 90
        1
290
     1
290
     0
290
     1
290
     1
 90
        0
330
138A
290
     0
330
0
330
0
360
0
 90
        2
  0
ACDBASSOCDEPENDENCY
  5
13D5
330
13CF
100
AcDbAssocDependency
 90
        2
 90
        0
290
     1
290
     1
290
     1
290
     1
 90
-2147483648
330
1390
290
     0
330
0
330
0
360
0
 90
        3
  0
ACDBASSOCVERTEXACTIONPARAM
  5
12EA
330
12E9
100
AcDbAssocActionParam
 90
        0
  1
BaseNormal
100
AcDbAssocSingleDependencyActionParam
 90
        0
330
0
100
AcDbAssocVertexActionParam
 90
        0
 10
0.0
 20
0.0
 30
1.0
  0
ACDBASSOCVERTEXACTIONPARAM
  5
12EB
330
12E9
100
AcDbAssocActionParam
 90
        0
  1
Origin
100
AcDbAssocSingleDependencyActionParam
 90
        0
330
0
100
AcDbAssocVertexActionParam
 90
        0
 10
0.0
 20
0.0
 30
0.0
  0
ACDBASSOCVERTEXACTIONPARAM
  5
12EF
330
12E9
100
AcDbAssocActionParam
 90
        0
  1
basePoint
100
AcDbAssocSingleDependencyActionParam
 90
        0
330
0
100
AcDbAssocVertexActionParam
 90
        0
 10
0.0
 20
0.0
 30
0.0
  0
ACDBASSOCVERTEXACTIONPARAM
  5
13D1
330
13D0
100
AcDbAssocActionParam
 90
        0
  1
BaseNormal
100
AcDbAssocSingleDependencyActionParam
 90
        0
330
0
100
AcDbAssocVertexActionParam
 90
        0
 10
0.0
 20
0.0
 30
1.0
  0
ACDBASSOCVERTEXACTIONPARAM
  5
13D2
330
13D0
100
AcDbAssocActionParam
 90
        0
  1
Origin
100
AcDbAssocSingleDependencyActionParam
 90
        0
330
0
100
AcDbAssocVertexActionParam
 90
        0
 10
0.0
 20
0.0
 30
0.0
  0
ACDBASSOCVERTEXACTIONPARAM
  5
13D6
330
13D0
100
AcDbAssocActionParam
 90
        0
  1
basePoint
100
AcDbAssocSingleDependencyActionParam
 90
        0
330
0
100
AcDbAssocVertexActionParam
 90
        0
 10
0.0
 20
0.0
 30
0.0
  0
ENDSEC
  0
EOF
