  0
SECTION
  2
HEADER
  9
$ACADVER
  1
AC1015
  9
$ACADMAINTVER
 70
    20
  9
$DWGCODEPAGE
  3
ANSI_932
  9
$INSBASE
 10
0.0
 20
0.0
 30
0.0
  9
$EXTMIN
 10
-0.0850804104393319
 20
-0.0601849343147478
 30
-0.0000000000000053
  9
$EXTMAX
 10
2789.596316128789
 20
1973.329350268564
 30
0.0000000000000099
  9
$LIMMIN
 10
0.0
 20
0.0
  9
$LIMMAX
 10
297.0
 20
209.0
  9
$ORTHOMODE
 70
     1
  9
$REGENMODE
 70
     1
  9
$FILLMODE
 70
     1
  9
$QTEXTMODE
 70
     0
  9
$MIRRTEXT
 70
     1
  9
$LTSCALE
 40
1.0
  9
$ATTMODE
 70
     1
  9
$TEXTSIZE
 40
2.5
  9
$TRACEWID
 40
1.0
  9
$TEXTSTYLE
  7
Standard
  9
$CLAYER
  8
外枠
  9
$CELTYPE
  6
ByLayer
  9
$CECOLOR
 62
   256
  9
$CELTSCALE
 40
3.0
  9
$DISPSILH
 70
     0
  9
$DIMSCALE
 40
10.0
  9
$DIMASZ
 40
1.5
  9
$DIMEXO
 40
2.0
  9
$DIMDLI
 40
3.75
  9
$DIMRND
 40
0.0
  9
$DIMDLE
 40
0.0
  9
$DIMEXE
 40
1.5
  9
$DIMTP
 40
0.0
  9
$DIMTM
 40
0.0
  9
$DIMTXT
 40
3.0
  9
$DIMCEN
 40
2.5
  9
$DIMTSZ
 40
0.0
  9
$DIMTOL
 70
     0
  9
$DIMLIM
 70
     0
  9
$DIMTIH
 70
     0
  9
$DIMTOH
 70
     0
  9
$DIMSE1
 70
     0
  9
$DIMSE2
 70
     0
  9
$DIMTAD
 70
     1
  9
$DIMZIN
 70
     8
  9
$DIMBLK
  1
Open30
  9
$DIMASO
 70
     1
  9
$DIMSHO
 70
     1
  9
$DIMPOST
  1

  9
$DIMAPOST
  1

  9
$DIMALT
 70
     0
  9
$DIMALTD
 70
     3
  9
$DIMALTF
 40
0.03937007874016
  9
$DIMLFAC
 40
1.0
  9
$DIMTOFL
 70
     1
  9
$DIMTVP
 40
0.0
  9
$DIMTIX
 70
     0
  9
$DIMSOXD
 70
     0
  9
$DIMSAH
 70
     0
  9
$DIMBLK1
  1

  9
$DIMBLK2
  1

  9
$DIMSTYLE
  2
ISO-25
  9
$DIMCLRD
 70
     0
  9
$DIMCLRE
 70
     0
  9
$DIMCLRT
 70
     0
  9
$DIMTFAC
 40
1.0
  9
$DIMGAP
 40
0.5
  9
$DIMJUST
 70
     0
  9
$DIMSD1
 70
     0
  9
$DIMSD2
 70
     0
  9
$DIMTOLJ
 70
     0
  9
$DIMTZIN
 70
     8
  9
$DIMALTZ
 70
     0
  9
$DIMALTTZ
 70
     0
  9
$DIMUPT
 70
     0
  9
$DIMDEC
 70
     2
  9
$DIMTDEC
 70
     2
  9
$DIMALTU
 70
     2
  9
$DIMALTTD
 70
     3
  9
$DIMTXSTY
  7
Standard
  9
$DIMAUNIT
 70
     0
  9
$DIMADEC
 70
     0
  9
$DIMALTRND
 40
0.0
  9
$DIMAZIN
 70
     0
  9
$DIMDSEP
 70
    46
  9
$DIMATFIT
 70
     0
  9
$DIMFRAC
 70
     0
  9
$DIMLDRBLK
  1
Open30
  9
$DIMLUNIT
 70
     2
  9
$DIMLWD
 70
    -2
  9
$DIMLWE
 70
    -2
  9
$DIMTMOVE
 70
     0
  9
$LUNITS
 70
     2
  9
$LUPREC
 70
     4
  9
$SKETCHINC
 40
1.0
  9
$FILLETRAD
 40
9.9
  9
$AUNITS
 70
     0
  9
$AUPREC
 70
     0
  9
$MENU
  1
.
  9
$ELEVATION
 40
0.0
  9
$PELEVATION
 40
0.0
  9
$THICKNESS
 40
0.0
  9
$LIMCHECK
 70
     0
  9
$CHAMFERA
 40
10.0
  9
$CHAMFERB
 40
10.0
  9
$CHAMFERC
 40
20.0
  9
$CHAMFERD
 40
0.0
  9
$SKPOLY
 70
     0
  9
$TDCREATE
 40
2453510.558637211
  9
$TDUCREATE
 40
2453510.183637211
  9
$TDUPDATE
 40
2457563.488209410
  9
$TDUUPDATE
 40
2457563.113209410
  9
$TDINDWG
 40
0.0675970255
  9
$TDUSRTIMER
 40
0.0675970255
  9
$USRTIMER
 70
     1
  9
$ANGBASE
 50
0.0
  9
$ANGDIR
 70
     0
  9
$PDMODE
 70
     0
  9
$PDSIZE
 40
0.0
  9
$PLINEWID
 40
0.0
  9
$SPLFRAME
 70
     0
  9
$SPLINETYPE
 70
     6
  9
$SPLINESEGS
 70
     8
  9
$HANDSEED
  5
2201
  9
$SURFTAB1
 70
     6
  9
$SURFTAB2
 70
     6
  9
$SURFTYPE
 70
     6
  9
$SURFU
 70
     6
  9
$SURFV
 70
     6
  9
$UCSBASE
  2

  9
$UCSNAME
  2

  9
$UCSORG
 10
0.0
 20
0.0
 30
0.0
  9
$UCSXDIR
 10
1.0
 20
0.0
 30
0.0
  9
$UCSYDIR
 10
0.0
 20
1.0
 30
0.0
  9
$UCSORTHOREF
  2

  9
$UCSORTHOVIEW
 70
     0
  9
$UCSORGTOP
 10
0.0
 20
0.0
 30
0.0
  9
$UCSORGBOTTOM
 10
0.0
 20
0.0
 30
0.0
  9
$UCSORGLEFT
 10
0.0
 20
0.0
 30
0.0
  9
$UCSORGRIGHT
 10
0.0
 20
0.0
 30
0.0
  9
$UCSORGFRONT
 10
0.0
 20
0.0
 30
0.0
  9
$UCSORGBACK
 10
0.0
 20
0.0
 30
0.0
  9
$PUCSBASE
  2

  9
$PUCSNAME
  2

  9
$PUCSORG
 10
0.0
 20
0.0
 30
0.0
  9
$PUCSXDIR
 10
1.0
 20
0.0
 30
0.0
  9
$PUCSYDIR
 10
0.0
 20
1.0
 30
0.0
  9
$PUCSORTHOREF
  2

  9
$PUCSORTHOVIEW
 70
     0
  9
$PUCSORGTOP
 10
0.0
 20
0.0
 30
0.0
  9
$PUCSORGBOTTOM
 10
0.0
 20
0.0
 30
0.0
  9
$PUCSORGLEFT
 10
0.0
 20
0.0
 30
0.0
  9
$PUCSORGRIGHT
 10
0.0
 20
0.0
 30
0.0
  9
$PUCSORGFRONT
 10
0.0
 20
0.0
 30
0.0
  9
$PUCSORGBACK
 10
0.0
 20
0.0
 30
0.0
  9
$USERI1
 70
     0
  9
$USERI2
 70
     0
  9
$USERI3
 70
     0
  9
$USERI4
 70
     0
  9
$USERI5
 70
     0
  9
$USERR1
 40
0.0
  9
$USERR2
 40
0.0
  9
$USERR3
 40
0.0
  9
$USERR4
 40
0.0
  9
$USERR5
 40
0.0
  9
$WORLDVIEW
 70
     1
  9
$SHADEDGE
 70
     3
  9
$SHADEDIF
 70
    70
  9
$TILEMODE
 70
     1
  9
$MAXACTVP
 70
    48
  9
$PINSBASE
 10
0.0
 20
0.0
 30
0.0
  9
$PLIMCHECK
 70
     0
  9
$PEXTMIN
 10
0.0
 20
0.0
 30
0.0
  9
$PEXTMAX
 10
0.0
 20
0.0
 30
0.0
  9
$PLIMMIN
 10
0.0
 20
0.0
  9
$PLIMMAX
 10
12.0
 20
9.0
  9
$UNITMODE
 70
     0
  9
$VISRETAIN
 70
     1
  9
$PLINEGEN
 70
     0
  9
$PSLTSCALE
 70
     1
  9
$TREEDEPTH
 70
  3020
  9
$CMLSTYLE
  2
Standard
  9
$CMLJUST
 70
     0
  9
$CMLSCALE
 40
20.0
  9
$PROXYGRAPHICS
 70
     1
  9
$MEASUREMENT
 70
     1
  9
$CELWEIGHT
370
    -1
  9
$ENDCAPS
280
     0
  9
$JOINSTYLE
280
     0
  9
$LWDISPLAY
290
     0
  9
$INSUNITS
 70
     4
  9
$HYPERLINKBASE
  1

  9
$STYLESHEET
  1
monochrome.ctb
  9
$XEDIT
290
     1
  9
$CEPSNTYPE
380
     0
  9
$PSTYLEMODE
290
     1
  9
$FINGERPRINTGUID
  2

  9
$VERSIONGUID
  2
{0D17512A-F8C1-4095-B632-59947C3A81D8}
  9
$EXTNAMES
290
     1
  9
$PSVPSCALE
 40
0.0
  9
$OLESTARTUP
290
     0
  0
ENDSEC
  0
SECTION
  2
CLASSES
  0
CLASS
  1
ACDBDICTIONARYWDFLT
  2
AcDbDictionaryWithDefault
  3
ObjectDBX Classes
 90
        0
280
     0
281
     0
  0
CLASS
  1
ACDBPLACEHOLDER
  2
AcDbPlaceHolder
  3
ObjectDBX Classes
 90
        0
280
     0
281
     0
  0
CLASS
  1
LAYOUT
  2
AcDbLayout
  3
ObjectDBX Classes
 90
        0
280
     0
281
     0
  0
CLASS
  1
DICTIONARYVAR
  2
AcDbDictionaryVar
  3
ObjectDBX Classes
 90
        0
280
     0
281
     0
  0
CLASS
  1
MATERIAL
  2
AcDbMaterial
  3
ObjectDBX Classes
 90
     1153
280
     0
281
     0
  0
CLASS
  1
VISUALSTYLE
  2
AcDbVisualStyle
  3
ObjectDBX Classes
 90
     4095
280
     0
281
     0
  0
CLASS
  1
TABLESTYLE
  2
AcDbTableStyle
  3
ObjectDBX Classes
 90
     4095
280
     0
281
     0
  0
CLASS
  1
SCALE
  2
AcDbScale
  3
ObjectDBX Classes
 90
     1153
280
     0
281
     0
  0
CLASS
  1
MLEADERSTYLE
  2
AcDbMLeaderStyle
  3
ACDB_MLEADERSTYLE_CLASS
 90
     4095
280
     0
281
     0
  0
CLASS
  1
ACDBSECTIONVIEWSTYLE
  2
AcDbSectionViewStyle
  3
ObjectDBX Classes
 90
     1025
280
     0
281
     0
  0
CLASS
  1
ACDBDETAILVIEWSTYLE
  2
AcDbDetailViewStyle
  3
ObjectDBX Classes
 90
     1025
280
     0
281
     0
  0
CLASS
  1
CELLSTYLEMAP
  2
AcDbCellStyleMap
  3
ObjectDBX Classes
 90
     1152
280
     0
281
     0
  0
CLASS
  1
ACARRAYJIGENTITY
  2
AcArrayJigEntity
  3
ACAD_ARRAY
 90
    32897
280
     0
281
     1
  0
CLASS
  1
ACDBASSOCNETWORK
  2
AcDbAssocNetwork
  3
ObjectDBX Classes
 90
     1025
280
     0
281
     0
  0
CLASS
  1
ACDBASSOCACTION
  2
AcDbAssocAction
  3
ObjectDBX Classes
 90
     1025
280
     0
281
     0
  0
CLASS
  1
ACDBASSOCARRAYACTIONBODY
  2
AcDbAssocArrayActionBody
  3
ObjectDBX Classes
 90
     1025
280
     0
281
     0
  0
CLASS
  1
ACDBASSOCVERTEXACTIONPARAM
  2
AcDbAssocVertexActionParam
  3
ObjectDBX Classes
 90
     1025
280
     0
281
     0
  0
CLASS
  1
ACDBASSOCDEPENDENCY
  2
AcDbAssocDependency
  3
ObjectDBX Classes
 90
     1025
280
     0
281
     0
  0
CLASS
  1
ACDBASSOCARRAYRECTANGULARPARAMETERS
  2
AcDbAssocArrayRectangularParameters
  3
ObjectDBX Classes
 90
    33793
280
     0
281
     0
  0
ENDSEC
  0
SECTION
  2
TABLES
  0
TABLE
  2
VPORT
  5
CCD
102
{ACAD_XDICTIONARY
360
1D7C
102
}
330
0
100
AcDbSymbolTable
 70
     1
  0
VPORT
  5
1D06
330
CCD
100
AcDbSymbolTableRecord
100
AcDbViewportTableRecord
  2
*Active
 70
     0
 10
0.0
 20
0.0
 11
1.0
 21
1.0
 12
1394.755617859175
 22
986.6345826671247
 13
0.0
 23
0.0
 14
10.0
 24
10.0
 15
10.0
 25
10.0
 16
0.0
 26
0.0
 36
1.0
 17
0.0
 27
0.0
 37
0.0
 40
1991.32944006836
 41
2.814871016691957
 42
50.0
 43
0.0
 44
0.0
 50
0.0
 51
0.0
 71
     0
 72
   100
 73
     1
 74
     3
 75
     0
 76
     0
 77
     0
 78
     0
281
     0
 65
     1
110
0.0
120
0.0
130
0.0
111
1.0
121
0.0
131
0.0
112
0.0
122
1.0
132
0.0
 79
     0
146
0.0
1001
ACAD_NAV_VCDISPLAY
1070
     3
  0
ENDTAB
  0
TABLE
  2
LTYPE
  5
CC8
330
0
100
AcDbSymbolTable
 70
     3
  0
LTYPE
  5
CC9
330
CC8
100
AcDbSymbolTableRecord
100
AcDbLinetypeTableRecord
  2
ByBlock
 70
     0
  3

 72
    65
 73
     0
 40
0.0
  0
LTYPE
  5
CCA
330
CC8
100
AcDbSymbolTableRecord
100
AcDbLinetypeTableRecord
  2
ByLayer
 70
     0
  3

 72
    65
 73
     0
 40
0.0
  0
LTYPE
  5
8
330
CC8
100
AcDbSymbolTableRecord
100
AcDbLinetypeTableRecord
  2
Continuous
 70
     0
  3
Solid line
 72
    65
 73
     0
 40
0.0
  0
LTYPE
  5
126
330
CC8
100
AcDbSymbolTableRecord
100
AcDbLinetypeTableRecord
  2
HIDDEN
 70
     0
  3
Hidden __ __ __ __ __ __ __ __ __ __ __ __ __ _
 72
    65
 73
     2
 40
9.524999999999998
 49
6.349999999999999
 74
     0
 49
-3.174999999999999
 74
     0
  0
LTYPE
  5
21B
330
CC8
100
AcDbSymbolTableRecord
100
AcDbLinetypeTableRecord
  2
CENTER
 70
     0
  3
------ - ------ - ----
 72
    65
 73
     4
 40
10.0
 49
6.25
 74
     0
 49
-1.25
 74
     0
 49
1.25
 74
     0
 49
-1.25
 74
     0
  0
ENDTAB
  0
TABLE
  2
LAYER
  5
CC5
102
{ACAD_XDICTIONARY
360
1F4F
102
}
330
0
100
AcDbSymbolTable
 70
     9
  0
LAYER
  5
64
102
{ACAD_XDICTIONARY
360
1D5D
102
}
330
CC5
100
AcDbSymbolTableRecord
100
AcDbLayerTableRecord
  2
0
 70
     0
 62
     7
  6
Continuous
370
    -3
390
5
  0
LAYER
  5
6A
102
{ACAD_XDICTIONARY
360
1D5F
102
}
330
CC5
100
AcDbSymbolTableRecord
100
AcDbLayerTableRecord
  2
本体
 70
     0
 62
     7
  6
Continuous
370
    13
390
5
  0
LAYER
  5
4
102
{ACAD_XDICTIONARY
360
1D61
102
}
330
CC5
100
AcDbSymbolTableRecord
100
AcDbLayerTableRecord
  2
寸法線
 70
     0
 62
     2
  6
Continuous
370
     9
390
5
  0
LAYER
  5
67
102
{ACAD_XDICTIONARY
360
1D65
102
}
330
CC5
100
AcDbSymbolTableRecord
100
AcDbLayerTableRecord
  2
エンボス
 70
     0
 62
     4
  6
Continuous
370
     5
390
5
  0
LAYER
  5
11
102
{ACAD_XDICTIONARY
360
1D67
102
}
330
CC5
100
AcDbSymbolTableRecord
100
AcDbLayerTableRecord
  2
外枠
 70
     0
 62
     7
  6
Continuous
370
    -3
390
5
  0
LAYER
  5
F3
330
CC5
100
AcDbSymbolTableRecord
100
AcDbLayerTableRecord
  2
Defpoints
 70
     0
 62
     7
  6
Continuous
290
     0
370
    -3
390
5
  0
LAYER
  5
1C28
102
{ACAD_XDICTIONARY
360
1D6B
102
}
330
CC5
100
AcDbSymbolTableRecord
100
AcDbLayerTableRecord
  2
嵩上断面
 70
     0
 62
   112
  6
Continuous
370
    13
390
5
  0
LAYER
  5
1C3B
102
{ACAD_XDICTIONARY
360
1D6D
102
}
330
CC5
100
AcDbSymbolTableRecord
100
AcDbLayerTableRecord
  2
ゴム
 70
     0
 62
    51
  6
Continuous
370
    13
390
5
  0
LAYER
  5
1C78
102
{ACAD_XDICTIONARY
360
1D6F
102
}
330
CC5
100
AcDbSymbolTableRecord
100
AcDbLayerTableRecord
  2
中心線
 70
     0
 62
     1
  6
CENTER
370
     5
390
5
  0
ENDTAB
  0
TABLE
  2
STYLE
  5
CC6
330
0
100
AcDbSymbolTable
 70
     1
  0
STYLE
  5
9
330
CC6
100
AcDbSymbolTableRecord
100
AcDbTextStyleTableRecord
  2
Standard
 70
     0
 40
0.0
 41
1.0
 50
0.0
 71
     0
 42
2.5
  3

  4

1001
ACAD
1000
MS Gothic
1071
    32817
  0
ENDTAB
  0
TABLE
  2
VIEW
  5
CCB
330
0
100
AcDbSymbolTable
 70
     0
  0
ENDTAB
  0
TABLE
  2
UCS
  5
CCC
330
0
100
AcDbSymbolTable
 70
     0
  0
ENDTAB
  0
TABLE
  2
APPID
  5
CCF
330
0
100
AcDbSymbolTable
 70
     5
  0
APPID
  5
A
330
CCF
100
AcDbSymbolTableRecord
100
AcDbRegAppTableRecord
  2
ACAD
 70
     0
  0
APPID
  5
1D71
330
CCF
100
AcDbSymbolTableRecord
100
AcDbRegAppTableRecord
  2
ACAD_NAV_VCDISPLAY
 70
     0
  0
APPID
  5
1DB2
330
CCF
100
AcDbSymbolTableRecord
100
AcDbRegAppTableRecord
  2
ACAD_MLEADERVER
 70
     0
  0
APPID
  5
1DC9
330
CCF
100
AcDbSymbolTableRecord
100
AcDbRegAppTableRecord
  2
ACAD_EXEMPT_FROM_CAD_STANDARDS
 70
     0
  0
APPID
  5
1F54
330
CCF
100
AcDbSymbolTableRecord
100
AcDbRegAppTableRecord
  2
AcLayerTools
 70
     0
  0
ENDTAB
  0
TABLE
  2
DIMSTYLE
  5
CD0
330
0
100
AcDbSymbolTable
 70
     2
100
AcDbDimStyleTable
 71
     1
340
E5
  0
DIMSTYLE
105
E5
102
{ACAD_REACTORS
330
29F
330
2AC
330
2BB
330
E8
330
105
330
112
330
B9B
330
BA8
330
CA6
330
CEA
102
}
330
CD0
100
AcDbSymbolTableRecord
100
AcDbDimStyleTableRecord
  2
ISO-25
 70
     0
 40
10.0
 41
1.5
 42
2.0
 43
3.75
 44
1.5
 73
     0
 74
     0
 77
     1
 78
     8
140
3.0
141
2.5
143
0.03937007874016
147
0.5
171
     3
172
     1
271
     2
272
     2
274
     3
283
     0
284
     8
289
     0
340
9
341
DE
342
DE
  0
DIMSTYLE
105
1C2B
330
CD0
100
AcDbSymbolTableRecord
100
AcDbDimStyleTableRecord
  2
Standard
 70
     0
340
9
  0
ENDTAB
  0
TABLE
  2
BLOCK_RECORD
  5
1
330
0
100
AcDbSymbolTable
 70
    21
  0
BLOCK_RECORD
  5
2
102
{ACAD_XDICTIONARY
360
CB3
102
}
330
1
100
AcDbSymbolTableRecord
100
AcDbBlockTableRecord
  2
*Model_Space
340
CB7
  0
BLOCK_RECORD
  5
CB9
102
{ACAD_XDICTIONARY
360
CBA
102
}
330
1
100
AcDbSymbolTableRecord
100
AcDbBlockTableRecord
  2
*Paper_Space
340
CBE
  0
BLOCK_RECORD
  5
CBF
102
{ACAD_XDICTIONARY
360
CC0
102
}
330
1
100
AcDbSymbolTableRecord
100
AcDbBlockTableRecord
  2
*Paper_Space0
340
CC4
  0
BLOCK_RECORD
  5
DE
330
1
100
AcDbSymbolTableRecord
100
AcDbBlockTableRecord
  2
_Open30
340
0
102
{BLKREFS
331
1C4E
331
1C4F
331
1C93
331
1C94
331
1C9E
331
1C9F
331
1CB2
331
1CB3
331
1CBD
331
1CBE
331
1CC6
331
1CC7
331
1CD1
331
1CD2
331
1CDA
331
1CDB
331
1CE5
331
1CE6
331
1CEE
331
1CEF
102
}
  0
BLOCK_RECORD
  5
65
330
1
100
AcDbSymbolTableRecord
100
AcDbBlockTableRecord
  2
GIB詳細
340
0
102
{BLKREFS
331
63
102
}
1001
ACAD
1000
DesignCenter Data
1002
{
1070
     1
1070
     4
1002
}
  0
BLOCK_RECORD
  5
BB8
330
1
100
AcDbSymbolTableRecord
100
AcDbBlockTableRecord
  2
平ゴムパッキン
340
0
102
{BLKREFS
331
BB7
331
1C41
102
}
  0
BLOCK_RECORD
  5
218
330
1
100
AcDbSymbolTableRecord
100
AcDbBlockTableRecord
  2
TB6
340
0
102
{BLKREFS
331
CE7
331
CE8
331
CE9
331
217
331
220
331
221
102
}
1001
ACAD
1000
DesignCenter Data
1002
{
1070
     1
1070
     4
1002
}
  0
BLOCK_RECORD
  5
2A0
330
1
100
AcDbSymbolTableRecord
100
AcDbBlockTableRecord
  2
*D5
340
0
  0
BLOCK_RECORD
  5
2AD
330
1
100
AcDbSymbolTableRecord
100
AcDbBlockTableRecord
  2
*D6
340
0
  0
BLOCK_RECORD
  5
2BC
330
1
100
AcDbSymbolTableRecord
100
AcDbBlockTableRecord
  2
*D7
340
0
  0
BLOCK_RECORD
  5
E9
330
1
100
AcDbSymbolTableRecord
100
AcDbBlockTableRecord
  2
*D8
340
0
  0
BLOCK_RECORD
  5
106
330
1
100
AcDbSymbolTableRecord
100
AcDbBlockTableRecord
  2
*D9
340
0
  0
BLOCK_RECORD
  5
113
330
1
100
AcDbSymbolTableRecord
100
AcDbBlockTableRecord
  2
*D10
340
0
  0
BLOCK_RECORD
  5
B9C
330
1
100
AcDbSymbolTableRecord
100
AcDbBlockTableRecord
  2
*D11
340
0
  0
BLOCK_RECORD
  5
BA9
330
1
100
AcDbSymbolTableRecord
100
AcDbBlockTableRecord
  2
*D12
340
0
  0
BLOCK_RECORD
  5
CA7
330
1
100
AcDbSymbolTableRecord
100
AcDbBlockTableRecord
  2
*D13
340
0
  0
BLOCK_RECORD
  5
CEB
330
1
100
AcDbSymbolTableRecord
100
AcDbBlockTableRecord
  2
*D14
340
0
  0
BLOCK_RECORD
  5
1C2C
330
1
100
AcDbSymbolTableRecord
100
AcDbBlockTableRecord
  2
P-H50
340
0
102
{BLKREFS
331
1C3A
331
1C40
102
}
  0
BLOCK_RECORD
  5
1DCA
102
{ACAD_XDICTIONARY
360
1DCE
102
}
330
1
100
AcDbSymbolTableRecord
100
AcDbBlockTableRecord
  2
鎌下
340
0
102
{BLKREFS
331
1DD1
102
}
1001
ACAD
1000
DesignCenter Data
1002
{
1070
     1
1070
     4
1002
}
  0
BLOCK_RECORD
  5
1F61
102
{ACAD_REACTORS
330
1F9A
102
}
330
1
100
AcDbSymbolTableRecord
100
AcDbBlockTableRecord
  2
*U17
340
0
102
{BLKREFS
331
2118
331
1F9E
331
1F9F
331
1FA0
331
1FA1
331
1FA2
331
1FA3
331
1FA4
331
1FA5
331
1FA6
331
1FA7
331
1FA8
331
1FA9
331
1FAA
331
1FAB
331
1FAC
331
1FAD
331
1FAE
331
1FAF
331
1FB0
331
1FB1
331
1FB2
331
1FB3
331
1FB4
331
1FB5
331
1FB6
331
1FB7
331
1FB8
331
1FB9
331
1FBA
331
1FBB
102
}
  0
BLOCK_RECORD
  5
1F64
102
{ACAD_XDICTIONARY
360
210C
102
}
102
{ACAD_REACTORS
330
1F99
102
}
330
1
100
AcDbSymbolTableRecord
100
AcDbBlockTableRecord
  2
*U18
340
0
102
{BLKREFS
331
1F67
102
}
  0
BLOCK_RECORD
  5
2048
102
{ACAD_REACTORS
330
2092
102
}
330
1
100
AcDbSymbolTableRecord
100
AcDbBlockTableRecord
  2
*U19
340
0
102
{BLKREFS
331
2096
331
2097
331
2098
331
2099
331
209A
331
209B
331
209C
331
209D
331
209E
331
209F
331
20A0
331
20A1
331
20A2
331
20A3
331
20A4
331
20A5
331
20A6
331
20A7
331
20A8
331
20A9
331
20AA
331
20AB
331
20AC
331
20AD
331
20AE
331
20AF
331
20B0
331
20B1
331
20B2
331
20B3
331
20B4
331
20B5
102
}
  0
BLOCK_RECORD
  5
204B
102
{ACAD_XDICTIONARY
360
210F
102
}
102
{ACAD_REACTORS
330
2091
102
}
330
1
100
AcDbSymbolTableRecord
100
AcDbBlockTableRecord
  2
*U20
340
0
102
{BLKREFS
331
204E
102
}
  0
ENDTAB
  0
ENDSEC
  0
SECTION
  2
BLOCKS
  0
BLOCK
  5
CB5
330
2
100
AcDbEntity
  8
0
100
AcDbBlockBegin
  2
*Model_Space
 70
     0
 10
0.0
 20
0.0
 30
0.0
  3
*Model_Space
  1

  0
ENDBLK
  5
CB6
330
2
100
AcDbEntity
  8
0
100
AcDbBlockEnd
  0
BLOCK
  5
CBC
330
CB9
100
AcDbEntity
 67
     1
  8
0
100
AcDbBlockBegin
  2
*Paper_Space
 70
     0
 10
0.0
 20
0.0
 30
0.0
  3
*Paper_Space
  1

  0
ENDBLK
  5
CBD
330
CB9
100
AcDbEntity
 67
     1
  8
0
100
AcDbBlockEnd
  0
BLOCK
  5
CC2
330
CBF
100
AcDbEntity
 67
     1
  8
0
100
AcDbBlockBegin
  2
*Paper_Space0
 70
     0
 10
0.0
 20
0.0
 30
0.0
  3
*Paper_Space0
  1

  0
ENDBLK
  5
CC3
330
CBF
100
AcDbEntity
 67
     1
  8
0
100
AcDbBlockEnd
  0
BLOCK
  5
E2
330
DE
100
AcDbEntity
  8
0
100
AcDbBlockBegin
  2
_Open30
 70
     0
 10
0.0
 20
0.0
 30
0.0
  3
_Open30
  1

  0
LINE
  5
DF
330
DE
100
AcDbEntity
  8
0
  6
ByBlock
 62
     0
370
    -2
100
AcDbLine
 10
-1.0
 20
0.26794919
 30
0.0
 11
0.0
 21
0.0
 31
0.0
  0
LINE
  5
E0
330
DE
100
AcDbEntity
  8
0
  6
ByBlock
 62
     0
370
    -2
100
AcDbLine
 10
0.0
 20
0.0
 30
0.0
 11
-1.0
 21
-0.26794919
 31
0.0
  0
LINE
  5
E1
330
DE
100
AcDbEntity
  8
0
  6
ByBlock
 62
     0
370
    -2
100
AcDbLine
 10
0.0
 20
0.0
 30
0.0
 11
-1.0
 21
0.0
 31
0.0
  0
ENDBLK
  5
E3
330
DE
100
AcDbEntity
  8
0
100
AcDbBlockEnd
  0
BLOCK
  5
A9
330
65
100
AcDbEntity
  8
0
100
AcDbBlockBegin
  2
GIB詳細
 70
     0
 10
0.0
 20
0.0
 30
0.0
  3
GIB詳細
  1

  0
LINE
  5
66
330
65
100
AcDbEntity
  8
エンボス
  6
Continuous
370
     0
100
AcDbLine
 10
26.66967878750091
 20
-77.78386766485943
 30
0.0
 11
26.66967878750109
 21
-100.7518676648589
 31
0.0
  0
LINE
  5
68
330
65
100
AcDbEntity
  8
エンボス
  6
Continuous
370
     0
100
AcDbLine
 10
20.62167878750051
 20
-97.43986766485926
 30
0.0
 11
20.62167878750057
 21
-100.7518676648589
 31
0.0
  0
LINE
  5
69
330
65
100
AcDbEntity
  8
本体
370
     0
100
AcDbLine
 10
37.90167878750151
 20
79.24813233514118
 30
0.0
 11
37.90167878750151
 21
-100.7518676648589
 31
0.0
  0
LINE
  5
6B
330
65
100
AcDbEntity
  8
エンボス
370
     0
100
AcDbLine
 10
26.66967878750091
 20
38.64013233514075
 30
0.0
 11
26.66967878750091
 21
12.93613233514055
 31
0.0
  0
LINE
  5
6C
330
65
100
AcDbEntity
  8
エンボス
370
     0
100
AcDbLine
 10
26.66967878750091
 20
40.15213233514034
 30
0.0
 11
26.66967878750091
 21
12.93613233514055
 31
0.0
  0
LINE
  5
6D
330
65
100
AcDbEntity
  8
エンボス
370
     0
100
AcDbLine
 10
20.62167878750051
 20
59.80813233514115
 30
0.0
 11
20.62167878750051
 21
32.59213233514036
 31
0.0
  0
LINE
  5
6E
330
65
100
AcDbEntity
  8
エンボス
  6
Continuous
370
     0
100
AcDbLine
 10
8.525678787500737
 20
26.54413233514095
 30
0.0
 11
20.62167878750051
 21
20.49613233514056
 31
0.0
  0
LINE
  5
6F
330
65
100
AcDbEntity
  8
エンボス
  6
Continuous
370
     0
100
AcDbLine
 10
8.525678787500737
 20
26.54413233514095
 30
0.0
 11
20.62167878750051
 21
32.59213233514036
 31
0.0
  0
LINE
  5
70
330
65
100
AcDbEntity
  8
エンボス
  6
Continuous
370
     0
100
AcDbLine
 10
8.525678787500737
 20
-91.39186766485886
 30
0.0
 11
20.62167878750051
 21
-85.34386766485942
 31
0.0
  0
LINE
  5
71
330
65
100
AcDbEntity
  8
エンボス
  6
Continuous
370
     0
100
AcDbLine
 10
8.525678787500737
 20
-91.39186766485886
 30
0.0
 11
20.62167878750051
 21
-97.43986766485926
 31
0.0
  0
LINE
  5
72
330
65
100
AcDbEntity
  8
エンボス
  6
Continuous
370
     0
100
AcDbLine
 10
8.525678787500737
 20
-52.07986766485925
 30
0.0
 11
20.62167878750051
 21
-58.12786766485965
 31
0.0
  0
LINE
  5
73
330
65
100
AcDbEntity
  8
エンボス
  6
Continuous
370
     0
100
AcDbLine
 10
8.525678787500737
 20
-52.07986766485925
 30
0.0
 11
20.62167878750051
 21
-46.03186766485886
 31
0.0
  0
LINE
  5
74
330
65
100
AcDbEntity
  8
エンボス
  6
Continuous
370
     0
100
AcDbLine
 10
8.525678787500737
 20
-12.76786766485964
 30
0.0
 11
20.62167878750051
 21
-6.719867664859251
 31
0.0
  0
LINE
  5
75
330
65
100
AcDbEntity
  8
エンボス
  6
Continuous
370
     0
100
AcDbLine
 10
8.525678787500737
 20
-12.76786766485964
 30
0.0
 11
20.62167878750051
 21
-18.81586766485905
 31
0.0
  0
LINE
  5
76
330
65
100
AcDbEntity
  8
エンボス
  6
Continuous
370
     0
100
AcDbLine
 10
38.76567878750075
 20
6.888132335141136
 30
0.0
 11
26.66967878750091
 21
12.93613233514055
 31
0.0
  0
LINE
  5
77
330
65
100
AcDbEntity
  8
エンボス
  6
Continuous
370
     0
100
AcDbLine
 10
38.76567878750075
 20
-32.42386766485945
 30
0.0
 11
26.66967878750091
 21
-26.37586766485906
 31
0.0
  0
LINE
  5
78
330
65
100
AcDbEntity
  8
エンボス
  6
Continuous
370
     0
100
AcDbLine
 10
38.76567878750075
 20
-32.42386766485945
 30
0.0
 11
26.66967878750091
 21
-26.37586766485906
 31
0.0
  0
LINE
  5
79
330
65
100
AcDbEntity
  8
エンボス
  6
Continuous
370
     0
100
AcDbLine
 10
38.76567878750075
 20
-71.73586766485906
 30
0.0
 11
26.66967878750091
 21
-77.78386766485943
 31
0.0
  0
LINE
  5
7A
330
65
100
AcDbEntity
  8
エンボス
  6
Continuous
370
     0
100
AcDbLine
 10
38.76567878750075
 20
-71.73586766485906
 30
0.0
 11
26.66967878750091
 21
-77.78386766485943
 31
0.0
  0
LINE
  5
7B
330
65
100
AcDbEntity
  8
エンボス
  6
Continuous
370
     0
100
AcDbLine
 10
38.76567878750075
 20
-71.73586766485906
 30
0.0
 11
26.66967878750091
 21
-77.78386766485943
 31
0.0
  0
LINE
  5
7C
330
65
100
AcDbEntity
  8
エンボス
  6
Continuous
370
     0
100
AcDbLine
 10
38.76567878750075
 20
-32.42386766485945
 30
0.0
 11
26.66967878750091
 21
-38.47186766485886
 31
0.0
  0
LINE
  5
7D
330
65
100
AcDbEntity
  8
エンボス
  6
Continuous
370
     0
100
AcDbLine
 10
38.76567878750075
 20
-32.42386766485945
 30
0.0
 11
26.66967878750091
 21
-38.47186766485886
 31
0.0
  0
LINE
  5
7E
330
65
100
AcDbEntity
  8
エンボス
  6
Continuous
370
     0
100
AcDbLine
 10
38.76567878750075
 20
-71.73586766485906
 30
0.0
 11
26.66967878750091
 21
-65.68786766485965
 31
0.0
  0
LINE
  5
7F
330
65
100
AcDbEntity
  8
エンボス
  6
Continuous
370
     0
100
AcDbLine
 10
38.76567878750075
 20
-71.73586766485906
 30
0.0
 11
26.66967878750091
 21
-65.68786766485965
 31
0.0
  0
LINE
  5
80
330
65
100
AcDbEntity
  8
エンボス
  6
Continuous
370
     0
100
AcDbLine
 10
38.76567878750075
 20
-71.73586766485906
 30
0.0
 11
26.66967878750091
 21
-65.68786766485965
 31
0.0
  0
LINE
  5
81
330
65
100
AcDbEntity
  8
エンボス
  6
Continuous
370
     0
100
AcDbLine
 10
26.66967878750091
 20
-38.47186766485886
 30
0.0
 11
26.66967878750091
 21
-65.68786766485965
 31
0.0
  0
LINE
  5
82
330
65
100
AcDbEntity
  8
エンボス
  6
Continuous
370
     0
100
AcDbLine
 10
26.66967878750091
 20
0.8401323351407512
 30
0.0
 11
26.66967878750091
 21
-26.37586766485906
 31
0.0
  0
LINE
  5
83
330
65
100
AcDbEntity
  8
エンボス
  6
Continuous
370
     0
100
AcDbLine
 10
20.62167878750051
 20
-18.81586766485905
 30
0.0
 11
20.62167878750051
 21
-46.03186766485886
 31
0.0
  0
LINE
  5
84
330
65
100
AcDbEntity
  8
エンボス
  6
Continuous
370
     0
100
AcDbLine
 10
20.62167878750051
 20
-58.12786766485965
 30
0.0
 11
20.62167878750051
 21
-85.34386766485942
 31
0.0
  0
LINE
  5
85
330
65
100
AcDbEntity
  8
エンボス
  6
Continuous
370
     0
100
AcDbLine
 10
20.62167878750051
 20
20.49613233514056
 30
0.0
 11
20.62167878750051
 21
-6.719867664859251
 31
0.0
  0
LINE
  5
86
330
65
100
AcDbEntity
  8
エンボス
  6
Continuous
370
     0
100
AcDbLine
 10
38.76567878750075
 20
6.888132335141136
 30
0.0
 11
26.66967878750091
 21
0.8401323351407512
 31
0.0
  0
LINE
  5
87
330
65
100
AcDbEntity
  8
エンボス
  6
Continuous
370
     0
100
AcDbLine
 10
8.525678787500737
 20
73.20013233514075
 30
0.0
 11
20.62167878750051
 21
79.24813233514118
 31
0.0
  0
LINE
  5
88
330
65
100
AcDbEntity
  8
エンボス
  6
Continuous
370
     0
100
AcDbLine
 10
8.525678787500737
 20
73.20013233514075
 30
0.0
 11
20.62167878750051
 21
59.80813233514115
 31
0.0
  0
LINE
  5
89
330
65
100
AcDbEntity
  8
エンボス
370
     0
100
AcDbLine
 10
26.66967878750091
 20
79.24813233514118
 30
0.0
 11
26.66967878750091
 21
52.24813233514115
 31
0.0
  0
LINE
  5
8A
330
65
100
AcDbEntity
  8
エンボス
  6
Continuous
370
     0
100
AcDbLine
 10
38.76567878750075
 20
46.20013233514074
 30
0.0
 11
26.66967878750091
 21
52.24813233514115
 31
0.0
  0
LINE
  5
8B
330
65
100
AcDbEntity
  8
エンボス
  6
Continuous
370
     0
100
AcDbLine
 10
38.76567878750075
 20
46.20013233514074
 30
0.0
 11
26.66967878750091
 21
40.15213233514034
 31
0.0
  0
LINE
  5
8C
330
65
100
AcDbEntity
  8
本体
370
     0
100
AcDbLine
 10
7.6616787875015
 20
79.24813233514118
 30
0.0
 11
7.6616787875015
 21
-100.7518676648589
 31
0.0
  0
MTEXT
  5
8D
330
65
100
AcDbEntity
  8
本体
  6
Continuous
370
     0
100
AcDbMText
 10
-96.91195000051369
 20
158.2682376554469
 30
0.0
 40
30.0
 41
252.8401
 71
     1
 72
     5
  1
GIB形状詳細
 73
     1
 44
1.0
1001
ACAD
1000
MTEXTBEGIN
1070
    73
1070
     1
1070
    44
1040
1.0
1070
    74
1070
     0
1000
MTEXTEND
  0
MTEXT
  5
8E
330
65
100
AcDbEntity
  8
寸法線
  6
Continuous
100
AcDbMText
 10
-147.3028652710904
 20
1772.180188660315
 30
0.0
 40
20.0
 41
17.2146
 71
     7
 72
     1
  1

 73
     1
 44
1.0
1001
ACAD
1000
MTEXTBEGIN
1070
    73
1070
     1
1070
    44
1040
1.0
1070
    74
1070
     0
1000
MTEXTEND
  0
MTEXT
  5
8F
330
65
100
AcDbEntity
  8
寸法線
  6
Continuous
100
AcDbMText
 10
125.7829597280838
 20
3773.683923873501
 30
0.0
 40
30.0
 41
17.2146
 71
     7
 72
     1
  1

 73
     1
 44
1.0
1001
ACAD
1000
MTEXTBEGIN
1070
    73
1070
     1
1070
    44
1040
1.0
1070
    74
1070
     0
1000
MTEXTEND
  0
MTEXT
  5
90
330
65
100
AcDbEntity
  8
寸法線
  6
Continuous
100
AcDbMText
 10
-609.4758544225992
 20
3746.116575025764
 30
0.0
 40
20.0
 41
17.2146
 71
     7
 72
     1
  1

 73
     1
 44
1.0
1001
ACAD
1000
MTEXTBEGIN
1070
    73
1070
     1
1070
    44
1040
1.0
1070
    74
1070
     0
1000
MTEXTEND
  0
MTEXT
  5
91
330
65
100
AcDbEntity
  8
寸法線
  6
Continuous
100
AcDbMText
 10
-147.3028652710904
 20
1754.680188660315
 30
0.0
 40
20.0
 41
17.2146
 71
     7
 72
     1
  1

 73
     1
 44
1.0
1001
ACAD
1000
MTEXTBEGIN
1070
    73
1070
     1
1070
    44
1040
1.0
1070
    74
1070
     0
1000
MTEXTEND
  0
MTEXT
  5
92
330
65
100
AcDbEntity
  8
寸法線
  6
Continuous
100
AcDbMText
 10
125.7829597280838
 20
3756.183923873501
 30
0.0
 40
30.0
 41
17.2146
 71
     7
 72
     1
  1

 73
     1
 44
1.0
1001
ACAD
1000
MTEXTBEGIN
1070
    73
1070
     1
1070
    44
1040
1.0
1070
    74
1070
     0
1000
MTEXTEND
  0
MTEXT
  5
93
330
65
100
AcDbEntity
  8
寸法線
  6
Continuous
100
AcDbMText
 10
-609.4758544225992
 20
3728.616575025763
 30
0.0
 40
20.0
 41
17.2146
 71
     7
 72
     1
  1

 73
     1
 44
1.0
1001
ACAD
1000
MTEXTBEGIN
1070
    73
1070
     1
1070
    44
1040
1.0
1070
    74
1070
     0
1000
MTEXTEND
  0
MTEXT
  5
94
330
65
100
AcDbEntity
  8
寸法線
  6
Continuous
100
AcDbMText
 10
-147.3028652710904
 20
1704.680188660315
 30
0.0
 40
20.0
 41
17.2146
 71
     7
 72
     1
  1

 73
     1
 44
1.0
1001
ACAD
1000
MTEXTBEGIN
1070
    73
1070
     1
1070
    44
1040
1.0
1070
    74
1070
     0
1000
MTEXTEND
  0
MTEXT
  5
95
330
65
100
AcDbEntity
  8
寸法線
  6
Continuous
100
AcDbMText
 10
125.7829597280838
 20
3706.183923873501
 30
0.0
 40
30.0
 41
17.2146
 71
     7
 72
     1
  1

 73
     1
 44
1.0
1001
ACAD
1000
MTEXTBEGIN
1070
    73
1070
     1
1070
    44
1040
1.0
1070
    74
1070
     0
1000
MTEXTEND
  0
MTEXT
  5
96
330
65
100
AcDbEntity
  8
寸法線
  6
Continuous
100
AcDbMText
 10
-609.4758544225992
 20
3678.616575025763
 30
0.0
 40
20.0
 41
17.2146
 71
     7
 72
     1
  1

 73
     1
 44
1.0
1001
ACAD
1000
MTEXTBEGIN
1070
    73
1070
     1
1070
    44
1040
1.0
1070
    74
1070
     0
1000
MTEXTEND
  0
MTEXT
  5
97
330
65
100
AcDbEntity
  8
寸法線
  6
Continuous
100
AcDbMText
 10
-147.3028652710904
 20
1654.680188660315
 30
0.0
 40
20.0
 41
17.2146
 71
     7
 72
     1
  1

 73
     1
 44
1.0
1001
ACAD
1000
MTEXTBEGIN
1070
    73
1070
     1
1070
    44
1040
1.0
1070
    74
1070
     0
1000
MTEXTEND
  0
MTEXT
  5
98
330
65
100
AcDbEntity
  8
寸法線
  6
Continuous
100
AcDbMText
 10
125.7829597280838
 20
3656.183923873501
 30
0.0
 40
30.0
 41
17.2146
 71
     7
 72
     1
  1

 73
     1
 44
1.0
1001
ACAD
1000
MTEXTBEGIN
1070
    73
1070
     1
1070
    44
1040
1.0
1070
    74
1070
     0
1000
MTEXTEND
  0
MTEXT
  5
99
330
65
100
AcDbEntity
  8
寸法線
  6
Continuous
100
AcDbMText
 10
-609.4758544225992
 20
3628.616575025763
 30
0.0
 40
20.0
 41
17.2146
 71
     7
 72
     1
  1

 73
     1
 44
1.0
1001
ACAD
1000
MTEXTBEGIN
1070
    73
1070
     1
1070
    44
1040
1.0
1070
    74
1070
     0
1000
MTEXTEND
  0
MTEXT
  5
9A
330
65
100
AcDbEntity
  8
寸法線
  6
Continuous
100
AcDbMText
 10
-147.3028652710904
 20
1604.680188660315
 30
0.0
 40
20.0
 41
17.2146
 71
     7
 72
     1
  1

 73
     1
 44
1.0
1001
ACAD
1000
MTEXTBEGIN
1070
    73
1070
     1
1070
    44
1040
1.0
1070
    74
1070
     0
1000
MTEXTEND
  0
MTEXT
  5
9B
330
65
100
AcDbEntity
  8
寸法線
  6
Continuous
100
AcDbMText
 10
125.7829597280838
 20
3606.183923873501
 30
0.0
 40
30.0
 41
17.2146
 71
     7
 72
     1
  1

 73
     1
 44
1.0
1001
ACAD
1000
MTEXTBEGIN
1070
    73
1070
     1
1070
    44
1040
1.0
1070
    74
1070
     0
1000
MTEXTEND
  0
MTEXT
  5
9C
330
65
100
AcDbEntity
  8
寸法線
  6
Continuous
100
AcDbMText
 10
-609.4758544225992
 20
3578.616575025763
 30
0.0
 40
20.0
 41
17.2146
 71
     7
 72
     1
  1

 73
     1
 44
1.0
1001
ACAD
1000
MTEXTBEGIN
1070
    73
1070
     1
1070
    44
1040
1.0
1070
    74
1070
     0
1000
MTEXTEND
  0
MTEXT
  5
9D
330
65
100
AcDbEntity
  8
寸法線
  6
Continuous
100
AcDbMText
 10
-147.3028652710904
 20
1554.680188660315
 30
0.0
 40
20.0
 41
17.2146
 71
     7
 72
     1
  1

 73
     1
 44
1.0
1001
ACAD
1000
MTEXTBEGIN
1070
    73
1070
     1
1070
    44
1040
1.0
1070
    74
1070
     0
1000
MTEXTEND
  0
MTEXT
  5
9E
330
65
100
AcDbEntity
  8
寸法線
  6
Continuous
100
AcDbMText
 10
125.7829597280838
 20
3556.183923873501
 30
0.0
 40
30.0
 41
17.2146
 71
     7
 72
     1
  1

 73
     1
 44
1.0
1001
ACAD
1000
MTEXTBEGIN
1070
    73
1070
     1
1070
    44
1040
1.0
1070
    74
1070
     0
1000
MTEXTEND
  0
MTEXT
  5
9F
330
65
100
AcDbEntity
  8
寸法線
  6
Continuous
100
AcDbMText
 10
-609.4758544225992
 20
3528.616575025763
 30
0.0
 40
20.0
 41
17.2146
 71
     7
 72
     1
  1

 73
     1
 44
1.0
1001
ACAD
1000
MTEXTBEGIN
1070
    73
1070
     1
1070
    44
1040
1.0
1070
    74
1070
     0
1000
MTEXTEND
  0
MTEXT
  5
A0
330
65
100
AcDbEntity
  8
寸法線
  6
Continuous
100
AcDbMText
 10
-147.3028652710904
 20
1504.680188660315
 30
0.0
 40
20.0
 41
17.2146
 71
     7
 72
     1
  1

 73
     1
 44
1.0
1001
ACAD
1000
MTEXTBEGIN
1070
    73
1070
     1
1070
    44
1040
1.0
1070
    74
1070
     0
1000
MTEXTEND
  0
MTEXT
  5
A1
330
65
100
AcDbEntity
  8
寸法線
  6
Continuous
100
AcDbMText
 10
125.7829597280838
 20
3506.183923873501
 30
0.0
 40
30.0
 41
17.2146
 71
     7
 72
     1
  1

 73
     1
 44
1.0
1001
ACAD
1000
MTEXTBEGIN
1070
    73
1070
     1
1070
    44
1040
1.0
1070
    74
1070
     0
1000
MTEXTEND
  0
MTEXT
  5
A2
330
65
100
AcDbEntity
  8
寸法線
  6
Continuous
100
AcDbMText
 10
-609.4758544225992
 20
3478.616575025763
 30
0.0
 40
20.0
 41
17.2146
 71
     7
 72
     1
  1

 73
     1
 44
1.0
1001
ACAD
1000
MTEXTBEGIN
1070
    73
1070
     1
1070
    44
1040
1.0
1070
    74
1070
     0
1000
MTEXTEND
  0
MTEXT
  5
A3
330
65
100
AcDbEntity
  8
寸法線
  6
Continuous
100
AcDbMText
 10
-147.3028652710904
 20
1454.680188660315
 30
0.0
 40
20.0
 41
17.2146
 71
     7
 72
     1
  1

 73
     1
 44
1.0
1001
ACAD
1000
MTEXTBEGIN
1070
    73
1070
     1
1070
    44
1040
1.0
1070
    74
1070
     0
1000
MTEXTEND
  0
MTEXT
  5
A4
330
65
100
AcDbEntity
  8
寸法線
  6
Continuous
100
AcDbMText
 10
125.7829597280838
 20
3456.183923873501
 30
0.0
 40
30.0
 41
17.2146
 71
     7
 72
     1
  1

 73
     1
 44
1.0
1001
ACAD
1000
MTEXTBEGIN
1070
    73
1070
     1
1070
    44
1040
1.0
1070
    74
1070
     0
1000
MTEXTEND
  0
MTEXT
  5
A5
330
65
100
AcDbEntity
  8
寸法線
  6
Continuous
100
AcDbMText
 10
-609.4758544225992
 20
3428.616575025763
 30
0.0
 40
20.0
 41
17.2146
 71
     7
 72
     1
  1

 73
     1
 44
1.0
1001
ACAD
1000
MTEXTBEGIN
1070
    73
1070
     1
1070
    44
1040
1.0
1070
    74
1070
     0
1000
MTEXTEND
  0
LWPOLYLINE
  5
A6
330
65
100
AcDbEntity
  8
本体
  6
Continuous
100
AcDbPolyline
 90
        4
 70
     1
 43
0.0
 10
-139.6145379512674
 20
168.6157088891093
 10
194.701175139303
 20
168.6157088891093
 10
194.701175139303
 20
-117.6274822929807
 10
-139.6145379512674
 20
-117.6274822929807
  0
HATCH
  5
A7
330
65
100
AcDbEntity
  8
エンボス
  6
Continuous
100
AcDbHatch
 10
0.0
 20
0.0
 30
0.0
210
0.0
220
0.0
230
1.0
  2
ANSI31
 70
     0
 71
     0
 91
        1
 92
        7
 72
     0
 73
     1
 93
       34
 10
26.66967878750092
 20
40.15213233514035
 10
37.90167878750151
 20
45.76813233514108
 10
37.90167878750151
 20
46.63213233514041
 10
26.66967878750092
 20
52.24813233514115
 10
26.66967878750091
 20
79.24813233514116
 10
20.62167878750047
 20
79.24813233514116
 10
8.525678787500744
 20
73.20013233514076
 10
20.62167878750051
 20
59.80813233514115
 10
20.62167878750051
 20
32.59213233514036
 10
8.525678787500737
 20
26.54413233514094
 10
20.62167878750051
 20
20.49613233514056
 10
20.62167878750051
 20
-6.719867664859251
 10
8.525678787500737
 20
-12.76786766485964
 10
20.62167878750051
 20
-18.81586766485905
 10
20.62167878750051
 20
-46.03186766485887
 10
8.525678787500737
 20
-52.07986766485925
 10
20.62167878750051
 20
-58.12786766485965
 10
20.62167878750051
 20
-85.34386766485944
 10
8.525678787500737
 20
-91.39186766485885
 10
20.62167878750051
 20
-97.43986766485924
 10
20.62167878750057
 20
-100.7518676648588
 10
26.66967878750109
 20
-100.7518676648589
 10
26.66967878750091
 20
-77.78386766485944
 10
37.90167878750151
 20
-72.16786766485872
 10
37.90167878750151
 20
-71.30386766485948
 10
26.66967878750091
 20
-65.68786766485963
 10
26.66967878750091
 20
-38.47186766485886
 10
37.90167878750151
 20
-32.85586766485902
 10
37.90167878750151
 20
-31.99186766485979
 10
26.66967878750091
 20
-26.37586766485906
 10
26.66967878750091
 20
0.8401323351407494
 10
37.90167878750151
 20
6.456132335141482
 10
37.90167878750151
 20
7.320132335140719
 10
26.66967878750091
 20
12.93613233514056
 97
        0
 75
     0
 76
     1
 52
0.0
 41
0.5
 77
     0
 78
     1
 53
45.0
 43
8.525678787500737
 44
-12.76786766485964
 45
-1.122532015133643
 46
1.122532015133644
 79
     0
 47
0.5074757335946297
 98
        1
 10
23.11907519037527
 20
30.63971558616095
  0
MTEXT
  5
A8
330
65
100
AcDbEntity
  8
本体
  6
Continuous
100
AcDbMText
 10
-79.8847425412946
 20
110.9530386434795
 30
0.0
 40
15.0
 41
230.6957
 71
     1
 72
     5
  1
※塗りつぶし部分突起
 73
     1
 44
1.0
1001
ACAD
1000
MTEXTBEGIN
1070
    73
1070
     1
1070
    44
1040
1.0
1070
    74
1070
     0
1000
MTEXTEND
  0
ENDBLK
  5
AA
330
65
100
AcDbEntity
  8
0
100
AcDbBlockEnd
  0
BLOCK
  5
BC7
330
BB8
100
AcDbEntity
  8
0
100
AcDbBlockBegin
  2
平ゴムパッキン
 70
     0
 10
0.0
 20
0.0
 30
0.0
  3
平ゴムパッキン
  1

  0
LINE
  5
BB9
330
BB8
100
AcDbEntity
  8
0
100
AcDbLine
 10
3.000005000000001
 20
-0.0000109999999998
 30
0.0
 11
3.000005000000001
 21
-40.000011
 31
0.0
  0
LINE
  5
BBA
330
BB8
100
AcDbEntity
  8
0
100
AcDbLine
 10
3.000005000000001
 20
-0.0000109999999998
 30
0.0
 11
8.000005000000001
 21
-0.0000109999999998
 31
0.0
  0
LINE
  5
BBB
330
BB8
100
AcDbEntity
  8
0
100
AcDbLine
 10
3.000005000000001
 20
-40.000011
 30
0.0
 11
8.000005000000001
 21
-40.000011
 31
0.0
  0
LINE
  5
BBC
330
BB8
100
AcDbEntity
  8
0
100
AcDbLine
 10
8.000005000000001
 20
-0.0000109999999998
 30
0.0
 11
8.000005000000001
 21
-10.000011
 31
0.0
  0
LINE
  5
BBD
330
BB8
100
AcDbEntity
  8
0
100
AcDbLine
 10
8.000005000000001
 20
-30.000011
 30
0.0
 11
8.000005000000001
 21
-40.000011
 31
0.0
  0
LINE
  5
BBE
330
BB8
100
AcDbEntity
  8
0
100
AcDbLine
 10
8.000005000000001
 20
-10.000011
 30
0.0
 11
8.000005000000001
 21
-30.000011
 31
0.0
  0
LINE
  5
BBF
330
BB8
100
AcDbEntity
  8
0
 62
     1
100
AcDbLine
 10
5.874546000000002
 20
-40.000011
 30
0.0
 11
8.000005000000001
 21
-36.318608
 31
0.0
  0
LINE
  5
BC0
330
BB8
100
AcDbEntity
  8
0
 62
     1
100
AcDbLine
 10
3.000005000000001
 20
-38.978862
 30
0.0
 11
8.000005000000001
 21
-30.318608
 31
0.0
  0
LINE
  5
BC1
330
BB8
100
AcDbEntity
  8
0
 62
     1
100
AcDbLine
 10
3.000005000000001
 20
-32.978862
 30
0.0
 11
8.000005000000001
 21
-24.31860866666666
 31
0.0
  0
LINE
  5
BC2
330
BB8
100
AcDbEntity
  8
0
 62
     1
100
AcDbLine
 10
3.000005000000001
 20
-26.978862
 30
0.0
 11
8.000005000000001
 21
-18.31860866666667
 31
0.0
  0
LINE
  5
BC3
330
BB8
100
AcDbEntity
  8
0
 62
     1
100
AcDbLine
 10
3.000005000000001
 20
-20.978862
 30
0.0
 11
8.000005000000001
 21
-12.31860866666666
 31
0.0
  0
LINE
  5
BC4
330
BB8
100
AcDbEntity
  8
0
 62
     1
100
AcDbLine
 10
3.000005000000001
 20
-14.978862
 30
0.0
 11
8.000005000000001
 21
-6.318608000000001
 31
0.0
  0
LINE
  5
BC5
330
BB8
100
AcDbEntity
  8
0
 62
     1
100
AcDbLine
 10
3.000005000000001
 20
-8.978861999999999
 30
0.0
 11
8.000005000000001
 21
-0.3186080000000002
 31
0.0
  0
LINE
  5
BC6
330
BB8
100
AcDbEntity
  8
0
 62
     1
100
AcDbLine
 10
3.000005000000001
 20
-2.978861999999999
 30
0.0
 11
4.719844999999999
 21
-0.0000109999999998
 31
0.0
  0
ENDBLK
  5
BC8
330
BB8
100
AcDbEntity
  8
0
100
AcDbBlockEnd
  0
BLOCK
  5
21E
330
218
100
AcDbEntity
  8
0
100
AcDbBlockBegin
  2
TB6
 70
     0
 10
0.0
 20
0.0
 30
0.0
  3
TB6
  1

  0
MTEXT
  5
219
330
218
100
AcDbEntity
  8
寸法線
  6
Continuous
100
AcDbMText
 10
917.3216494432054
 20
235.349302881973
 30
0.0
 40
20.0
 41
17.2146
 71
     7
 72
     1
  1

 73
     1
 44
1.0
1001
ACAD
1000
MTEXTBEGIN
1070
    73
1070
     1
1070
    44
1040
1.0
1070
    74
1070
     0
1000
MTEXTEND
  0
LINE
  5
21A
330
218
100
AcDbEntity
  8
本体
  6
CENTER
 62
     1
 48
0.3
100
AcDbLine
 10
9.0
 20
0.0
 30
0.0
 11
-3.0
 21
0.0
 31
0.0
  0
LINE
  5
21C
330
218
100
AcDbEntity
  8
本体
  6
CENTER
 62
     1
 48
0.3
100
AcDbLine
 10
3.0
 20
6.0
 30
0.0
 11
3.0
 21
-6.0
 31
0.0
  0
CIRCLE
  5
21D
330
218
100
AcDbEntity
  8
本体
  6
Continuous
 62
     0
100
AcDbCircle
 10
3.0
 20
0.0
 30
0.0
 40
3.0
  0
ENDBLK
  5
21F
330
218
100
AcDbEntity
  8
0
100
AcDbBlockEnd
  0
BLOCK
  5
2AA
330
2A0
100
AcDbEntity
  8
0
 48
3.0
100
AcDbBlockBegin
  2
*D5
 70
     1
 10
0.0
 20
0.0
 30
0.0
  3
*D5
  1

  0
LINE
  5
1C90
330
2A0
100
AcDbEntity
  8
寸法線
  6
Continuous
 62
     0
 48
3.0
370
    -2
100
AcDbLine
 10
419.2375226261565
 20
671.8669913043782
 30
0.0
 11
419.2375226261565
 21
826.8669913043781
 31
0.0
  0
LINE
  5
1C91
330
2A0
100
AcDbEntity
  8
寸法線
  6
Continuous
 62
     0
 48
3.0
370
    -2
100
AcDbLine
 10
1414.237522626156
 20
671.8669913043782
 30
0.0
 11
1414.237522626156
 21
826.8669913043781
 31
0.0
  0
LINE
  5
1C92
330
2A0
100
AcDbEntity
  8
寸法線
  6
Continuous
 62
     0
 48
3.0
370
    -2
100
AcDbLine
 10
434.2375226261565
 20
811.8669913043781
 30
0.0
 11
1399.237522626156
 21
811.8669913043781
 31
0.0
  0
INSERT
  5
1C93
330
2A0
100
AcDbEntity
  8
寸法線
  6
Continuous
 62
     0
 48
3.0
370
    -2
100
AcDbBlockReference
  2
_Open30
 10
419.2375226261565
 20
811.8669913043781
 30
0.0
 41
15.0
 42
15.0
 43
15.0
 50
180.0
  0
INSERT
  5
1C94
330
2A0
100
AcDbEntity
  8
寸法線
  6
Continuous
 62
     0
 48
3.0
370
    -2
100
AcDbBlockReference
  2
_Open30
 10
1414.237522626156
 20
811.8669913043781
 30
0.0
 41
15.0
 42
15.0
 43
15.0
  0
MTEXT
  5
1C95
330
2A0
100
AcDbEntity
  8
寸法線
  6
Continuous
 62
     0
 48
3.0
100
AcDbMText
 10
916.7375226261565
 20
831.8669913043782
 30
0.0
 40
30.0
 41
0.0
 71
     5
 72
     1
  1
995
 73
     1
 44
1.0
1001
ACAD
1000
MTEXTBEGIN
1070
    73
1070
     1
1070
    44
1040
1.0
1070
    74
1070
     0
1000
MTEXTEND
  0
POINT
  5
1C96
330
2A0
100
AcDbEntity
  8
Defpoints
  6
Continuous
 62
     0
 48
3.0
100
AcDbPoint
 10
419.2375226261565
 20
651.8669913043781
 30
0.0
  0
POINT
  5
1C97
330
2A0
100
AcDbEntity
  8
Defpoints
  6
Continuous
 62
     0
 48
3.0
100
AcDbPoint
 10
1414.237522626156
 20
651.8669913043781
 30
0.0
  0
POINT
  5
1C98
330
2A0
100
AcDbEntity
  8
Defpoints
  6
Continuous
 62
     0
 48
3.0
100
AcDbPoint
 10
1414.237522626156
 20
811.8669913043781
 30
0.0
  0
ENDBLK
  5
2AB
330
2A0
100
AcDbEntity
  8
0
 48
3.0
100
AcDbBlockEnd
  0
BLOCK
  5
2B9
330
2AD
100
AcDbEntity
  8
0
 48
3.0
100
AcDbBlockBegin
  2
*D6
 70
     1
 10
0.0
 20
0.0
 30
0.0
  3
*D6
  1

  0
LINE
  5
1CB8
330
2AD
100
AcDbEntity
  8
寸法線
  6
Continuous
 62
     0
 48
3.0
370
    -2
100
AcDbLine
 10
1426.737522626156
 20
619.8669913043781
 30
0.0
 11
1539.24214654992
 21
619.8669913043781
 31
0.0
  0
LINE
  5
1CB9
330
2AD
100
AcDbEntity
  8
寸法線
  6
Continuous
 62
     0
 48
3.0
370
    -2
100
AcDbLine
 10
1431.737522626156
 20
651.8669913043781
 30
0.0
 11
1539.24214654992
 21
651.8669913043781
 31
0.0
  0
LINE
  5
1CBA
330
2AD
100
AcDbEntity
  8
寸法線
  6
Continuous
 62
     0
 48
3.0
370
    -2
100
AcDbLine
 10
1524.24214654992
 20
604.8669913043782
 30
0.0
 11
1524.24214654992
 21
589.8669913043781
 31
0.0
  0
LINE
  5
1CBB
330
2AD
100
AcDbEntity
  8
寸法線
  6
Continuous
 62
     0
 48
3.0
370
    -2
100
AcDbLine
 10
1524.24214654992
 20
666.8669913043782
 30
0.0
 11
1524.24214654992
 21
727.0446562789974
 31
0.0
  0
LINE
  5
1CBC
330
2AD
100
AcDbEntity
  8
寸法線
  6
Continuous
 62
     0
 48
3.0
370
    -2
100
AcDbLine
 10
1524.24214654992
 20
619.8669913043781
 30
0.0
 11
1524.24214654992
 21
651.8669913043781
 31
0.0
  0
INSERT
  5
1CBD
330
2AD
100
AcDbEntity
  8
寸法線
  6
Continuous
 62
     0
 48
3.0
370
    -2
100
AcDbBlockReference
  2
_Open30
 10
1524.24214654992
 20
619.8669913043781
 30
0.0
 41
15.0
 42
15.0
 43
15.0
 50
90.0
  0
INSERT
  5
1CBE
330
2AD
100
AcDbEntity
  8
寸法線
  6
Continuous
 62
     0
 48
3.0
370
    -2
100
AcDbBlockReference
  2
_Open30
 10
1524.24214654992
 20
651.8669913043781
 30
0.0
 41
15.0
 42
15.0
 43
15.0
 50
270.0
  0
MTEXT
  5
1CBF
330
2AD
100
AcDbEntity
  8
寸法線
  6
Continuous
 62
     0
 48
3.0
100
AcDbMText
 10
1504.24214654992
 20
704.4558237916881
 30
0.0
 40
30.0
 41
0.0
 71
     5
 72
     1
  1
32
 11
0.0000000000000001
 21
1.0
 31
0.0
 73
     1
 44
1.0
1001
ACAD
1000
MTEXTBEGIN
1070
    73
1070
     1
1070
    44
1040
1.0
1070
    74
1070
     0
1000
MTEXTEND
  0
POINT
  5
1CC0
330
2AD
100
AcDbEntity
  8
Defpoints
  6
Continuous
 62
     0
 48
3.0
100
AcDbPoint
 10
1406.737522626156
 20
619.8669913043781
 30
0.0
  0
POINT
  5
1CC1
330
2AD
100
AcDbEntity
  8
Defpoints
  6
Continuous
 62
     0
 48
3.0
100
AcDbPoint
 10
1411.737522626156
 20
651.8669913043781
 30
0.0
  0
POINT
  5
1CC2
330
2AD
100
AcDbEntity
  8
Defpoints
  6
Continuous
 62
     0
 48
3.0
100
AcDbPoint
 10
1524.24214654992
 20
651.8669913043781
 30
0.0
  0
ENDBLK
  5
2BA
330
2AD
100
AcDbEntity
  8
0
 48
3.0
100
AcDbBlockEnd
  0
BLOCK
  5
2C6
330
2BC
100
AcDbEntity
  8
0
 48
3.0
100
AcDbBlockBegin
  2
*D7
 70
     1
 10
0.0
 20
0.0
 30
0.0
  3
*D7
  1

  0
LINE
  5
1CC3
330
2BC
100
AcDbEntity
  8
寸法線
  6
Continuous
 62
     0
 48
3.0
370
    -2
100
AcDbLine
 10
1431.737522626156
 20
651.8669913043781
 30
0.0
 11
1638.20438345342
 21
651.8669913043781
 31
0.0
  0
LINE
  5
1CC4
330
2BC
100
AcDbEntity
  8
寸法線
  6
Continuous
 62
     0
 48
3.0
370
    -2
100
AcDbLine
 10
1426.737522626156
 20
564.8669913043781
 30
0.0
 11
1638.20438345342
 21
564.8669913043781
 31
0.0
  0
LINE
  5
1CC5
330
2BC
100
AcDbEntity
  8
寸法線
  6
Continuous
 62
     0
 48
3.0
370
    -2
100
AcDbLine
 10
1623.20438345342
 20
636.8669913043781
 30
0.0
 11
1623.20438345342
 21
579.8669913043782
 31
0.0
  0
INSERT
  5
1CC6
330
2BC
100
AcDbEntity
  8
寸法線
  6
Continuous
 62
     0
 48
3.0
370
    -2
100
AcDbBlockReference
  2
_Open30
 10
1623.20438345342
 20
651.8669913043781
 30
0.0
 41
15.0
 42
15.0
 43
15.0
 50
90.0
  0
INSERT
  5
1CC7
330
2BC
100
AcDbEntity
  8
寸法線
  6
Continuous
 62
     0
 48
3.0
370
    -2
100
AcDbBlockReference
  2
_Open30
 10
1623.20438345342
 20
564.8669913043781
 30
0.0
 41
15.0
 42
15.0
 43
15.0
 50
270.0
  0
MTEXT
  5
1CC8
330
2BC
100
AcDbEntity
  8
寸法線
  6
Continuous
 62
     0
 48
3.0
100
AcDbMText
 10
1603.204383453419
 20
608.3669913043784
 30
0.0
 40
30.0
 41
0.0
 71
     5
 72
     1
  1
87
 11
0.0000000000000001
 21
1.0
 31
0.0
 73
     1
 44
1.0
1001
ACAD
1000
MTEXTBEGIN
1070
    73
1070
     1
1070
    44
1040
1.0
1070
    74
1070
     0
1000
MTEXTEND
  0
POINT
  5
1CC9
330
2BC
100
AcDbEntity
  8
Defpoints
  6
Continuous
 62
     0
 48
3.0
100
AcDbPoint
 10
1411.737522626156
 20
651.8669913043781
 30
0.0
  0
POINT
  5
1CCA
330
2BC
100
AcDbEntity
  8
Defpoints
  6
Continuous
 62
     0
 48
3.0
100
AcDbPoint
 10
1406.737522626156
 20
564.8669913043781
 30
0.0
  0
POINT
  5
1CCB
330
2BC
100
AcDbEntity
  8
Defpoints
  6
Continuous
 62
     0
 48
3.0
100
AcDbPoint
 10
1623.20438345342
 20
564.8669913043781
 30
0.0
  0
ENDBLK
  5
2C7
330
2BC
100
AcDbEntity
  8
0
 48
3.0
100
AcDbBlockEnd
  0
BLOCK
  5
F6
330
E9
100
AcDbEntity
  8
0
 48
3.0
100
AcDbBlockBegin
  2
*D8
 70
     1
 10
0.0
 20
0.0
 30
0.0
  3
*D8
  1

  0
LINE
  5
1C99
330
E9
100
AcDbEntity
  8
寸法線
  6
Continuous
 62
     0
 48
3.0
370
    -2
100
AcDbLine
 10
1171.737522626156
 20
671.8669913043782
 30
0.0
 11
1171.737522626156
 21
746.8669913043782
 31
0.0
  0
LINE
  5
1C9A
330
E9
100
AcDbEntity
  8
寸法線
  6
Continuous
 62
     0
 48
3.0
370
    -2
100
AcDbLine
 10
1201.737522626156
 20
671.8669913043782
 30
0.0
 11
1201.737522626156
 21
746.8669913043782
 31
0.0
  0
LINE
  5
1C9B
330
E9
100
AcDbEntity
  8
寸法線
  6
Continuous
 62
     0
 48
3.0
370
    -2
100
AcDbLine
 10
1156.737522626156
 20
731.8669913043781
 30
0.0
 11
1141.737522626156
 21
731.8669913043781
 31
0.0
  0
LINE
  5
1C9C
330
E9
100
AcDbEntity
  8
寸法線
  6
Continuous
 62
     0
 48
3.0
370
    -2
100
AcDbLine
 10
1216.737522626156
 20
731.8669913043781
 30
0.0
 11
1277.524324656613
 21
731.8669913043781
 31
0.0
  0
LINE
  5
1C9D
330
E9
100
AcDbEntity
  8
寸法線
  6
Continuous
 62
     0
 48
3.0
370
    -2
100
AcDbLine
 10
1171.737522626156
 20
731.8669913043781
 30
0.0
 11
1201.737522626156
 21
731.8669913043781
 31
0.0
  0
INSERT
  5
1C9E
330
E9
100
AcDbEntity
  8
寸法線
  6
Continuous
 62
     0
 48
3.0
370
    -2
100
AcDbBlockReference
  2
_Open30
 10
1171.737522626156
 20
731.8669913043781
 30
0.0
 41
15.0
 42
15.0
 43
15.0
  0
INSERT
  5
1C9F
330
E9
100
AcDbEntity
  8
寸法線
  6
Continuous
 62
     0
 48
3.0
370
    -2
100
AcDbBlockReference
  2
_Open30
 10
1201.737522626156
 20
731.8669913043781
 30
0.0
 41
15.0
 42
15.0
 43
15.0
 50
180.0
  0
MTEXT
  5
1CA0
330
E9
100
AcDbEntity
  8
寸法線
  6
Continuous
 62
     0
 48
3.0
100
AcDbMText
 10
1254.630923641385
 20
751.8669913043781
 30
0.0
 40
30.0
 41
0.0
 71
     5
 72
     1
  1
30
 73
     1
 44
1.0
1001
ACAD
1000
MTEXTBEGIN
1070
    73
1070
     1
1070
    44
1040
1.0
1070
    74
1070
     0
1000
MTEXTEND
  0
POINT
  5
1CA1
330
E9
100
AcDbEntity
  8
Defpoints
  6
Continuous
 62
     0
 48
3.0
100
AcDbPoint
 10
1171.737522626156
 20
651.8669913043781
 30
0.0
  0
POINT
  5
1CA2
330
E9
100
AcDbEntity
  8
Defpoints
  6
Continuous
 62
     0
 48
3.0
100
AcDbPoint
 10
1201.737522626156
 20
651.8669913043781
 30
0.0
  0
POINT
  5
1CA3
330
E9
100
AcDbEntity
  8
Defpoints
  6
Continuous
 62
     0
 48
3.0
100
AcDbPoint
 10
1201.737522626156
 20
731.8669913043781
 30
0.0
  0
ENDBLK
  5
F7
330
E9
100
AcDbEntity
  8
0
 48
3.0
100
AcDbBlockEnd
  0
BLOCK
  5
110
330
106
100
AcDbEntity
  8
0
 48
3.0
100
AcDbBlockBegin
  2
*D9
 70
     1
 10
0.0
 20
0.0
 30
0.0
  3
*D9
  1

  0
LINE
  5
1CEB
330
106
100
AcDbEntity
  8
寸法線
  6
Continuous
 62
     0
 48
3.0
370
    -2
100
AcDbLine
 10
1874.54799312649
 20
1570.757530061414
 30
0.0
 11
1719.54799312649
 21
1570.757530061414
 31
0.0
  0
LINE
  5
1CEC
330
106
100
AcDbEntity
  8
寸法線
  6
Continuous
 62
     0
 48
3.0
370
    -2
100
AcDbLine
 10
1874.54799312649
 20
1225.757530061414
 30
0.0
 11
1719.54799312649
 21
1225.757530061414
 31
0.0
  0
LINE
  5
1CED
330
106
100
AcDbEntity
  8
寸法線
  6
Continuous
 62
     0
 48
3.0
370
    -2
100
AcDbLine
 10
1734.54799312649
 20
1555.757530061414
 30
0.0
 11
1734.54799312649
 21
1240.757530061414
 31
0.0
  0
INSERT
  5
1CEE
330
106
100
AcDbEntity
  8
寸法線
  6
Continuous
 62
     0
 48
3.0
370
    -2
100
AcDbBlockReference
  2
_Open30
 10
1734.54799312649
 20
1570.757530061414
 30
0.0
 41
15.0
 42
15.0
 43
15.0
 50
90.0
  0
INSERT
  5
1CEF
330
106
100
AcDbEntity
  8
寸法線
  6
Continuous
 62
     0
 48
3.0
370
    -2
100
AcDbBlockReference
  2
_Open30
 10
1734.54799312649
 20
1225.757530061414
 30
0.0
 41
15.0
 42
15.0
 43
15.0
 50
270.0
  0
MTEXT
  5
1CF0
330
106
100
AcDbEntity
  8
寸法線
  6
Continuous
 62
     0
 48
3.0
100
AcDbMText
 10
1714.54799312649
 20
1398.257530061414
 30
0.0
 40
30.0
 41
0.0
 71
     5
 72
     1
  1
345
 11
0.0000000000000001
 21
1.0
 31
0.0
 73
     1
 44
1.0
1001
ACAD
1000
MTEXTBEGIN
1070
    73
1070
     1
1070
    44
1040
1.0
1070
    74
1070
     0
1000
MTEXTEND
  0
POINT
  5
1CF1
330
106
100
AcDbEntity
  8
Defpoints
  6
Continuous
 62
     0
 48
3.0
100
AcDbPoint
 10
1894.54799312649
 20
1570.757530061414
 30
0.0
  0
POINT
  5
1CF2
330
106
100
AcDbEntity
  8
Defpoints
  6
Continuous
 62
     0
 48
3.0
100
AcDbPoint
 10
1894.54799312649
 20
1225.757530061414
 30
0.0
  0
POINT
  5
1CF3
330
106
100
AcDbEntity
  8
Defpoints
  6
Continuous
 62
     0
 48
3.0
100
AcDbPoint
 10
1734.54799312649
 20
1225.757530061414
 30
0.0
  0
ENDBLK
  5
111
330
106
100
AcDbEntity
  8
0
 48
3.0
100
AcDbBlockEnd
  0
BLOCK
  5
11D
330
113
100
AcDbEntity
  8
0
 48
3.0
100
AcDbBlockBegin
  2
*D10
 70
     1
 10
0.0
 20
0.0
 30
0.0
  3
*D10
  1

  0
LINE
  5
1C4B
330
113
100
AcDbEntity
  8
寸法線
  6
Continuous
 62
     0
 48
3.0
370
    -2
100
AcDbLine
 10
2007.54799512649
 20
1560.757520061414
 30
0.0
 11
2099.428911634366
 21
1560.757520061414
 31
0.0
  0
LINE
  5
1C4C
330
113
100
AcDbEntity
  8
寸法線
  6
Continuous
 62
     0
 48
3.0
370
    -2
100
AcDbLine
 10
2007.54799512649
 20
1235.757540061414
 30
0.0
 11
2099.428911634366
 21
1235.757540061414
 31
0.0
  0
LINE
  5
1C4D
330
113
100
AcDbEntity
  8
寸法線
  6
Continuous
 62
     0
 48
3.0
370
    -2
100
AcDbLine
 10
2084.428911634367
 20
1545.757520061414
 30
0.0
 11
2084.428911634367
 21
1250.757540061414
 31
0.0
  0
INSERT
  5
1C4E
330
113
100
AcDbEntity
  8
寸法線
  6
Continuous
 62
     0
 48
3.0
370
    -2
100
AcDbBlockReference
  2
_Open30
 10
2084.428911634367
 20
1560.757520061414
 30
0.0
 41
15.0
 42
15.0
 43
15.0
 50
90.0
  0
INSERT
  5
1C4F
330
113
100
AcDbEntity
  8
寸法線
  6
Continuous
 62
     0
 48
3.0
370
    -2
100
AcDbBlockReference
  2
_Open30
 10
2084.428911634367
 20
1235.757540061414
 30
0.0
 41
15.0
 42
15.0
 43
15.0
 50
270.0
  0
MTEXT
  5
1C50
330
113
100
AcDbEntity
  8
寸法線
  6
Continuous
 62
     0
 48
3.0
100
AcDbMText
 10
2064.428911634366
 20
1398.257530061414
 30
0.0
 40
30.0
 41
0.0
 71
     5
 72
     1
  1
325
 11
0.0000000000000001
 21
1.0
 31
0.0
 73
     1
 44
1.0
1001
ACAD
1000
MTEXTBEGIN
1070
    73
1070
     1
1070
    44
1040
1.0
1070
    74
1070
     0
1000
MTEXTEND
  0
POINT
  5
1C51
330
113
100
AcDbEntity
  8
Defpoints
  6
Continuous
 62
     0
 48
3.0
100
AcDbPoint
 10
1987.54799512649
 20
1560.757520061414
 30
0.0
  0
POINT
  5
1C52
330
113
100
AcDbEntity
  8
Defpoints
  6
Continuous
 62
     0
 48
3.0
100
AcDbPoint
 10
1987.54799512649
 20
1235.757540061414
 30
0.0
  0
POINT
  5
1C53
330
113
100
AcDbEntity
  8
Defpoints
  6
Continuous
 62
     0
 48
3.0
100
AcDbPoint
 10
2084.428911634367
 20
1235.757540061414
 30
0.0
  0
ENDBLK
  5
11E
330
113
100
AcDbEntity
  8
0
 48
3.0
100
AcDbBlockEnd
  0
BLOCK
  5
BA6
330
B9C
100
AcDbEntity
  8
0
 48
3.0
100
AcDbBlockBegin
  2
*D11
 70
     1
 10
0.0
 20
0.0
 30
0.0
  3
*D11
  1

  0
LINE
  5
1CD7
330
B9C
100
AcDbEntity
  8
寸法線
  6
Continuous
 62
     0
 48
3.0
370
    -2
100
AcDbLine
 10
1426.737522626156
 20
569.8669913043781
 30
0.0
 11
1539.24214654992
 21
569.8669913043781
 31
0.0
  0
LINE
  5
1CD8
330
B9C
100
AcDbEntity
  8
寸法線
  6
Continuous
 62
     0
 48
3.0
370
    -2
100
AcDbLine
 10
1426.737522626156
 20
619.8669913043781
 30
0.0
 11
1539.24214654992
 21
619.8669913043781
 31
0.0
  0
LINE
  5
1CD9
330
B9C
100
AcDbEntity
  8
寸法線
  6
Continuous
 62
     0
 48
3.0
370
    -2
100
AcDbLine
 10
1524.24214654992
 20
584.8669913043782
 30
0.0
 11
1524.24214654992
 21
604.8669913043782
 31
0.0
  0
INSERT
  5
1CDA
330
B9C
100
AcDbEntity
  8
寸法線
  6
Continuous
 62
     0
 48
3.0
370
    -2
100
AcDbBlockReference
  2
_Open30
 10
1524.24214654992
 20
569.8669913043781
 30
0.0
 41
15.0
 42
15.0
 43
15.0
 50
270.0
  0
INSERT
  5
1CDB
330
B9C
100
AcDbEntity
  8
寸法線
  6
Continuous
 62
     0
 48
3.0
370
    -2
100
AcDbBlockReference
  2
_Open30
 10
1524.24214654992
 20
619.8669913043781
 30
0.0
 41
15.0
 42
15.0
 43
15.0
 50
90.0
  0
MTEXT
  5
1CDC
330
B9C
100
AcDbEntity
  8
寸法線
  6
Continuous
 62
     0
 48
3.0
100
AcDbMText
 10
1504.24214654992
 20
594.8669913043784
 30
0.0
 40
30.0
 41
0.0
 71
     5
 72
     1
  1
50
 11
0.0000000000000001
 21
1.0
 31
0.0
 73
     1
 44
1.0
1001
ACAD
1000
MTEXTBEGIN
1070
    73
1070
     1
1070
    44
1040
1.0
1070
    74
1070
     0
1000
MTEXTEND
  0
POINT
  5
1CDD
330
B9C
100
AcDbEntity
  8
Defpoints
  6
Continuous
 62
     0
 48
3.0
100
AcDbPoint
 10
1406.737522626156
 20
569.8669913043781
 30
0.0
  0
POINT
  5
1CDE
330
B9C
100
AcDbEntity
  8
Defpoints
  6
Continuous
 62
     0
 48
3.0
100
AcDbPoint
 10
1406.737522626156
 20
619.8669913043781
 30
0.0
  0
POINT
  5
1CDF
330
B9C
100
AcDbEntity
  8
Defpoints
  6
Continuous
 62
     0
 48
3.0
100
AcDbPoint
 10
1524.24214654992
 20
619.8669913043781
 30
0.0
  0
ENDBLK
  5
BA7
330
B9C
100
AcDbEntity
  8
0
 48
3.0
100
AcDbBlockEnd
  0
BLOCK
  5
BB5
330
BA9
100
AcDbEntity
  8
0
 48
3.0
100
AcDbBlockBegin
  2
*D12
 70
     1
 10
0.0
 20
0.0
 30
0.0
  3
*D12
  1

  0
LINE
  5
1CCC
330
BA9
100
AcDbEntity
  8
寸法線
  6
Continuous
 62
     0
 48
3.0
370
    -2
100
AcDbLine
 10
1426.737522626156
 20
569.8669913043781
 30
0.0
 11
1539.24214654992
 21
569.8669913043781
 31
0.0
  0
LINE
  5
1CCD
330
BA9
100
AcDbEntity
  8
寸法線
  6
Continuous
 62
     0
 48
3.0
370
    -2
100
AcDbLine
 10
1426.737522626156
 20
564.8669913043781
 30
0.0
 11
1539.24214654992
 21
564.8669913043781
 31
0.0
  0
LINE
  5
1CCE
330
BA9
100
AcDbEntity
  8
寸法線
  6
Continuous
 62
     0
 48
3.0
370
    -2
100
AcDbLine
 10
1524.24214654992
 20
584.8669913043782
 30
0.0
 11
1524.24214654992
 21
599.8669913043782
 31
0.0
  0
LINE
  5
1CCF
330
BA9
100
AcDbEntity
  8
寸法線
  6
Continuous
 62
     0
 48
3.0
370
    -2
100
AcDbLine
 10
1524.24214654992
 20
549.8669913043782
 30
0.0
 11
1524.24214654992
 21
509.3339963805203
 31
0.0
  0
LINE
  5
1CD0
330
BA9
100
AcDbEntity
  8
寸法線
  6
Continuous
 62
     0
 48
3.0
370
    -2
100
AcDbLine
 10
1524.24214654992
 20
569.8669913043781
 30
0.0
 11
1524.24214654992
 21
564.8669913043781
 31
0.0
  0
INSERT
  5
1CD1
330
BA9
100
AcDbEntity
  8
寸法線
  6
Continuous
 62
     0
 48
3.0
370
    -2
100
AcDbBlockReference
  2
_Open30
 10
1524.24214654992
 20
569.8669913043781
 30
0.0
 41
15.0
 42
15.0
 43
15.0
 50
270.0
  0
INSERT
  5
1CD2
330
BA9
100
AcDbEntity
  8
寸法線
  6
Continuous
 62
     0
 48
3.0
370
    -2
100
AcDbBlockReference
  2
_Open30
 10
1524.24214654992
 20
564.8669913043781
 30
0.0
 41
15.0
 42
15.0
 43
15.0
 50
90.0
  0
MTEXT
  5
1CD3
330
BA9
100
AcDbEntity
  8
寸法線
  6
Continuous
 62
     0
 48
3.0
100
AcDbMText
 10
1504.24214654992
 20
522.1004938424495
 30
0.0
 40
30.0
 41
0.0
 71
     5
 72
     1
  1
5
 11
0.0000000000000001
 21
1.0
 31
0.0
 73
     1
 44
1.0
1001
ACAD
1000
MTEXTBEGIN
1070
    73
1070
     1
1070
    44
1040
1.0
1070
    74
1070
     0
1000
MTEXTEND
  0
POINT
  5
1CD4
330
BA9
100
AcDbEntity
  8
Defpoints
  6
Continuous
 62
     0
 48
3.0
100
AcDbPoint
 10
1406.737522626156
 20
569.8669913043781
 30
0.0
  0
POINT
  5
1CD5
330
BA9
100
AcDbEntity
  8
Defpoints
  6
Continuous
 62
     0
 48
3.0
100
AcDbPoint
 10
1406.737522626156
 20
564.8669913043781
 30
0.0
  0
POINT
  5
1CD6
330
BA9
100
AcDbEntity
  8
Defpoints
  6
Continuous
 62
     0
 48
3.0
100
AcDbPoint
 10
1524.24214654992
 20
564.8669913043781
 30
0.0
  0
ENDBLK
  5
BB6
330
BA9
100
AcDbEntity
  8
0
 48
3.0
100
AcDbBlockEnd
  0
BLOCK
  5
CB1
330
CA7
100
AcDbEntity
  8
0
 48
3.0
100
AcDbBlockBegin
  2
*D13
 70
     1
 10
0.0
 20
0.0
 30
0.0
  3
*D13
  1

  0
LINE
  5
1CAF
330
CA7
100
AcDbEntity
  8
寸法線
  6
Continuous
 62
     0
 48
3.0
370
    -2
100
AcDbLine
 10
429.2375226261565
 20
544.8669913043781
 30
0.0
 11
429.2375226261565
 21
389.8669913043782
 31
0.0
  0
LINE
  5
1CB0
330
CA7
100
AcDbEntity
  8
寸法線
  6
Continuous
 62
     0
 48
3.0
370
    -2
100
AcDbLine
 10
1404.237522626156
 20
544.8669913043781
 30
0.0
 11
1404.237522626156
 21
389.8669913043782
 31
0.0
  0
LINE
  5
1CB1
330
CA7
100
AcDbEntity
  8
寸法線
  6
Continuous
 62
     0
 48
3.0
370
    -2
100
AcDbLine
 10
444.2375226261565
 20
404.8669913043782
 30
0.0
 11
1389.237522626155
 21
404.8669913043782
 31
0.0
  0
INSERT
  5
1CB2
330
CA7
100
AcDbEntity
  8
寸法線
  6
Continuous
 62
     0
 48
3.0
370
    -2
100
AcDbBlockReference
  2
_Open30
 10
429.2375226261565
 20
404.8669913043782
 30
0.0
 41
15.0
 42
15.0
 43
15.0
 50
180.0
  0
INSERT
  5
1CB3
330
CA7
100
AcDbEntity
  8
寸法線
  6
Continuous
 62
     0
 48
3.0
370
    -2
100
AcDbBlockReference
  2
_Open30
 10
1404.237522626156
 20
404.8669913043782
 30
0.0
 41
15.0
 42
15.0
 43
15.0
  0
MTEXT
  5
1CB4
330
CA7
100
AcDbEntity
  8
寸法線
  6
Continuous
 62
     0
 48
3.0
100
AcDbMText
 10
916.737522626156
 20
424.8669913043782
 30
0.0
 40
30.0
 41
0.0
 71
     5
 72
     1
  1
975
 73
     1
 44
1.0
1001
ACAD
1000
MTEXTBEGIN
1070
    73
1070
     1
1070
    44
1040
1.0
1070
    74
1070
     0
1000
MTEXTEND
  0
POINT
  5
1CB5
330
CA7
100
AcDbEntity
  8
Defpoints
  6
Continuous
 62
     0
 48
3.0
100
AcDbPoint
 10
429.2375226261565
 20
564.8669913043781
 30
0.0
  0
POINT
  5
1CB6
330
CA7
100
AcDbEntity
  8
Defpoints
  6
Continuous
 62
     0
 48
3.0
100
AcDbPoint
 10
1404.237522626156
 20
564.8669913043781
 30
0.0
  0
POINT
  5
1CB7
330
CA7
100
AcDbEntity
  8
Defpoints
  6
Continuous
 62
     0
 48
3.0
100
AcDbPoint
 10
1404.237522626156
 20
404.8669913043782
 30
0.0
  0
ENDBLK
  5
CB2
330
CA7
100
AcDbEntity
  8
0
 48
3.0
100
AcDbBlockEnd
  0
BLOCK
  5
CF5
330
CEB
100
AcDbEntity
  8
0
 48
3.0
100
AcDbBlockBegin
  2
*D14
 70
     1
 10
0.0
 20
0.0
 30
0.0
  3
*D14
  1

  0
LINE
  5
1CE2
330
CEB
100
AcDbEntity
  8
寸法線
 62
     0
 48
3.0
370
    -2
100
AcDbLine
 10
1871.54799312649
 20
1523.257530061414
 30
0.0
 11
1799.54799312649
 21
1523.257530061414
 31
0.0
  0
LINE
  5
1CE3
330
CEB
100
AcDbEntity
  8
寸法線
 62
     0
 48
3.0
370
    -2
100
AcDbLine
 10
1871.54799312649
 20
1473.257530061414
 30
0.0
 11
1799.54799312649
 21
1473.257530061414
 31
0.0
  0
LINE
  5
1CE4
330
CEB
100
AcDbEntity
  8
寸法線
 62
     0
 48
3.0
370
    -2
100
AcDbLine
 10
1814.54799312649
 20
1508.257530061414
 30
0.0
 11
1814.54799312649
 21
1488.257530061414
 31
0.0
  0
INSERT
  5
1CE5
330
CEB
100
AcDbEntity
  8
寸法線
 62
     0
 48
3.0
370
    -2
100
AcDbBlockReference
  2
_Open30
 10
1814.54799312649
 20
1523.257530061414
 30
0.0
 41
15.0
 42
15.0
 43
15.0
 50
90.0
  0
INSERT
  5
1CE6
330
CEB
100
AcDbEntity
  8
寸法線
 62
     0
 48
3.0
370
    -2
100
AcDbBlockReference
  2
_Open30
 10
1814.54799312649
 20
1473.257530061414
 30
0.0
 41
15.0
 42
15.0
 43
15.0
 50
270.0
  0
MTEXT
  5
1CE7
330
CEB
100
AcDbEntity
  8
寸法線
 62
     0
 48
3.0
100
AcDbMText
 10
1794.54799312649
 20
1498.257530061414
 30
0.0
 40
30.0
 41
0.0
 71
     5
 72
     1
  1
50
 11
0.0000000000000001
 21
1.0
 31
0.0
 73
     1
 44
1.0
1001
ACAD
1000
MTEXTBEGIN
1070
    73
1070
     1
1070
    44
1040
1.0
1070
    74
1070
     0
1000
MTEXTEND
  0
POINT
  5
1CE8
330
CEB
100
AcDbEntity
  8
Defpoints
 62
     0
 48
3.0
100
AcDbPoint
 10
1891.54799312649
 20
1523.257530061414
 30
0.0
  0
POINT
  5
1CE9
330
CEB
100
AcDbEntity
  8
Defpoints
 62
     0
 48
3.0
100
AcDbPoint
 10
1891.54799312649
 20
1473.257530061414
 30
0.0
  0
POINT
  5
1CEA
330
CEB
100
AcDbEntity
  8
Defpoints
 62
     0
 48
3.0
100
AcDbPoint
 10
1814.54799312649
 20
1473.257530061414
 30
0.0
  0
ENDBLK
  5
CF6
330
CEB
100
AcDbEntity
  8
0
 48
3.0
100
AcDbBlockEnd
  0
BLOCK
  5
1C36
330
1C2C
100
AcDbEntity
  8
0
 48
3.0
100
AcDbBlockBegin
  2
P-H50
 70
     0
 10
0.0
 20
0.0
 30
0.0
  3
P-H50
  1

  0
LINE
  5
1C2D
330
1C2C
100
AcDbEntity
  8
嵩上断面
100
AcDbLine
 10
2.999997
 20
0.000001
 30
0.0
 11
46.999997
 21
0.000001
 31
0.0
  0
LINE
  5
1C2E
330
1C2C
100
AcDbEntity
  8
嵩上断面
100
AcDbLine
 10
-0.000003
 20
-2.999999
 30
0.0
 11
-0.000003
 21
-36.999999
 31
0.0
  0
LINE
  5
1C2F
330
1C2C
100
AcDbEntity
  8
嵩上断面
100
AcDbLine
 10
2.999997
 20
-39.999999
 30
0.0
 11
46.999997
 21
-39.999999
 31
0.0
  0
ARC
  5
1C30
330
1C2C
100
AcDbEntity
  8
嵩上断面
100
AcDbCircle
 10
2.999997
 20
-36.999999
 30
0.0
 40
3.0
100
AcDbArc
 50
180.0
 51
270.0
  0
ARC
  5
1C31
330
1C2C
100
AcDbEntity
  8
嵩上断面
100
AcDbCircle
 10
2.999997
 20
-2.999999
 30
0.0
 40
3.0
100
AcDbArc
 50
90.0
 51
180.0
  0
LINE
  5
1C32
330
1C2C
100
AcDbEntity
  8
嵩上断面
100
AcDbLine
 10
49.999997
 20
-36.999999
 30
0.0
 11
49.999997
 21
-2.999999
 31
0.0
  0
ARC
  5
1C33
330
1C2C
100
AcDbEntity
  8
嵩上断面
100
AcDbCircle
 10
46.999997
 20
-36.999999
 30
0.0
 40
3.0
100
AcDbArc
 50
270.0
 51
0.0
  0
ARC
  5
1C34
330
1C2C
100
AcDbEntity
  8
嵩上断面
100
AcDbCircle
 10
46.999997
 20
-2.999999
 30
0.0
 40
3.0
100
AcDbArc
 50
0.0
 51
90.0
  0
LWPOLYLINE
  5
1C35
330
1C2C
100
AcDbEntity
  8
嵩上断面
  6
Continuous
100
AcDbPolyline
 90
        4
 70
     1
 43
0.0
 10
2.299996999999999
 20
-37.69999900000001
 10
47.699997
 20
-37.69999900000001
 10
47.699997
 20
-2.299998999999999
 10
2.299996999999999
 20
-2.299998999999999
  0
ENDBLK
  5
1C37
330
1C2C
100
AcDbEntity
  8
0
 48
3.0
100
AcDbBlockEnd
  0
BLOCK
  5
1DCF
330
1DCA
100
AcDbEntity
  8
0
 48
3.0
100
AcDbBlockBegin
  2
鎌下
 70
     0
 10
0.0
 20
0.0
 30
0.0
  3
鎌下
  1

  0
MTEXT
  5
1DCB
330
1DCA
100
AcDbEntity
  8
外枠
  6
Continuous
100
AcDbMText
 10
40.55333581259037
 20
-88.14888116777728
 30
0.0
 40
28.17460800000001
 41
43.8527
 71
     1
 72
     5
  1
{\fHGSeikaishotaiPRO|b0|i0|c128|p65;下}
 73
     1
 44
1.0
1001
ACAD
1000
MTEXTBEGIN
1070
    73
1070
     1
1070
    44
1040
1.0
1070
    74
1070
     0
1000
MTEXTEND
  0
MTEXT
  5
1DCC
330
1DCA
100
AcDbEntity
  8
外枠
  6
Continuous
100
AcDbMText
 10
40.55333581259037
 20
-45.61885629864991
 30
0.0
 40
28.17460800000001
 41
43.8527
 71
     1
 72
     5
  1
{\fHGSeikaishotaiPRO|b0|i0|c128|p65;鎌}
 73
     1
 44
1.0
1001
ACAD
1000
MTEXTBEGIN
1070
    73
1070
     1
1070
    44
1040
1.0
1070
    74
1070
     0
1000
MTEXTEND
  0
ELLIPSE
  5
1DCD
330
1DCA
100
AcDbEntity
  8
外枠
  6
Continuous
100
AcDbEllipse
 10
61.68068686355036
 20
-84.59863033186412
 30
0.0
 11
0.0
 21
-47.8594442149426
 31
0.0
210
0.0
220
0.0
230
1.0
 40
0.7999999999999857
 41
0.0
 42
6.283185307179586
  0
ENDBLK
  5
1DD0
330
1DCA
100
AcDbEntity
  8
0
 48
3.0
100
AcDbBlockEnd
  0
BLOCK
  5
1F62
330
1F61
100
AcDbEntity
  8
0
 48
3.0
100
AcDbBlockBegin
  2
*U17
 70
     1
 10
0.0
 20
0.0
 30
0.0
  3
*U17
  1

  0
LINE
  5
1F68
330
1F61
100
AcDbEntity
  8
本体
  6
Continuous
100
AcDbLine
 10
-15.0
 20
16.0
 30
0.0
 11
10.0
 21
16.0
 31
0.0
  0
LINE
  5
1F69
330
1F61
100
AcDbEntity
  8
本体
  6
Continuous
100
AcDbLine
 10
-15.0
 20
10.0
 30
0.0
 11
10.0
 21
10.0
 31
0.0
  0
LINE
  5
1F6A
330
1F61
100
AcDbEntity
  8
本体
  6
Continuous
100
AcDbLine
 10
-15.0
 20
10.0
 30
0.0
 11
10.0
 21
16.0
 31
0.0
  0
LINE
  5
1F6B
330
1F61
100
AcDbEntity
  8
本体
100
AcDbLine
 10
11.0
 20
9.0
 30
0.0
 11
11.0
 21
-9.0
 31
0.0
  0
LINE
  5
1F6C
330
1F61
100
AcDbEntity
  8
本体
100
AcDbLine
 10
14.0
 20
9.0
 30
0.0
 11
14.0
 21
-9.0
 31
0.0
  0
LINE
  5
1F6D
330
1F61
100
AcDbEntity
  8
本体
100
AcDbLine
 10
11.0
 20
9.0
 30
0.0
 11
11.0
 21
-9.0
 31
0.0
  0
LINE
  5
1F6E
330
1F61
100
AcDbEntity
  8
本体
100
AcDbLine
 10
14.0
 20
9.0
 30
0.0
 11
14.0
 21
-9.0
 31
0.0
  0
LINE
  5
1F6F
330
1F61
100
AcDbEntity
  8
本体
100
AcDbLine
 10
11.0
 20
9.0
 30
0.0
 11
11.0
 21
-9.0
 31
0.0
  0
LINE
  5
1F70
330
1F61
100
AcDbEntity
  8
本体
100
AcDbLine
 10
14.0
 20
9.0
 30
0.0
 11
14.0
 21
-9.0
 31
0.0
  0
LINE
  5
1F71
330
1F61
100
AcDbEntity
  8
本体
100
AcDbLine
 10
10.0
 20
-16.0
 30
0.0
 11
15.0
 21
-16.0
 31
0.0
  0
LINE
  5
1F72
330
1F61
100
AcDbEntity
  8
本体
100
AcDbLine
 10
10.0
 20
-16.0
 30
0.0
 11
15.0
 21
-16.0
 31
0.0
  0
LINE
  5
1F73
330
1F61
100
AcDbEntity
  8
本体
100
AcDbLine
 10
10.0
 20
-16.0
 30
0.0
 11
15.0
 21
-16.0
 31
0.0
  0
LINE
  5
1F74
330
1F61
100
AcDbEntity
  8
本体
100
AcDbLine
 10
15.0
 20
-16.0
 30
0.0
 11
15.0
 21
-10.0
 31
0.0
  0
LINE
  5
1F75
330
1F61
100
AcDbEntity
  8
本体
100
AcDbLine
 10
15.0
 20
-10.0
 30
0.0
 11
14.0
 21
-9.0
 31
0.0
  0
LINE
  5
1F76
330
1F61
100
AcDbEntity
  8
本体
100
AcDbLine
 10
15.0
 20
-16.0
 30
0.0
 11
15.0
 21
-10.0
 31
0.0
  0
LINE
  5
1F77
330
1F61
100
AcDbEntity
  8
本体
100
AcDbLine
 10
15.0
 20
-10.0
 30
0.0
 11
14.0
 21
-9.0
 31
0.0
  0
LINE
  5
1F78
330
1F61
100
AcDbEntity
  8
本体
100
AcDbLine
 10
15.0
 20
-16.0
 30
0.0
 11
15.0
 21
-10.0
 31
0.0
  0
LINE
  5
1F79
330
1F61
100
AcDbEntity
  8
本体
100
AcDbLine
 10
15.0
 20
-10.0
 30
0.0
 11
14.0
 21
-9.0
 31
0.0
  0
LINE
  5
1F7A
330
1F61
100
AcDbEntity
  8
本体
100
AcDbLine
 10
10.0
 20
-16.0
 30
0.0
 11
10.0
 21
-10.0
 31
0.0
  0
LINE
  5
1F7B
330
1F61
100
AcDbEntity
  8
本体
100
AcDbLine
 10
10.0
 20
-16.0
 30
0.0
 11
10.0
 21
-10.0
 31
0.0
  0
LINE
  5
1F7C
330
1F61
100
AcDbEntity
  8
本体
100
AcDbLine
 10
10.0
 20
-16.0
 30
0.0
 11
10.0
 21
-10.0
 31
0.0
  0
LINE
  5
1F7D
330
1F61
100
AcDbEntity
  8
本体
100
AcDbLine
 10
10.0
 20
-10.0
 30
0.0
 11
11.0
 21
-9.0
 31
0.0
  0
LINE
  5
1F7E
330
1F61
100
AcDbEntity
  8
本体
100
AcDbLine
 10
10.0
 20
-10.0
 30
0.0
 11
11.0
 21
-9.0
 31
0.0
  0
LINE
  5
1F7F
330
1F61
100
AcDbEntity
  8
本体
100
AcDbLine
 10
10.0
 20
-10.0
 30
0.0
 11
11.0
 21
-9.0
 31
0.0
  0
LINE
  5
1F80
330
1F61
100
AcDbEntity
  8
本体
100
AcDbLine
 10
15.0
 20
16.0
 30
0.0
 11
15.0
 21
10.0
 31
0.0
  0
LINE
  5
1F81
330
1F61
100
AcDbEntity
  8
本体
100
AcDbLine
 10
15.0
 20
10.0
 30
0.0
 11
14.0
 21
9.0
 31
0.0
  0
LINE
  5
1F82
330
1F61
100
AcDbEntity
  8
本体
100
AcDbLine
 10
15.0
 20
16.0
 30
0.0
 11
15.0
 21
10.0
 31
0.0
  0
LINE
  5
1F83
330
1F61
100
AcDbEntity
  8
本体
100
AcDbLine
 10
15.0
 20
10.0
 30
0.0
 11
14.0
 21
9.0
 31
0.0
  0
LINE
  5
1F84
330
1F61
100
AcDbEntity
  8
本体
100
AcDbLine
 10
15.0
 20
16.0
 30
0.0
 11
15.0
 21
10.0
 31
0.0
  0
LINE
  5
1F85
330
1F61
100
AcDbEntity
  8
本体
100
AcDbLine
 10
15.0
 20
10.0
 30
0.0
 11
14.0
 21
9.0
 31
0.0
  0
LINE
  5
1F86
330
1F61
100
AcDbEntity
  8
本体
100
AcDbLine
 10
10.0
 20
16.0
 30
0.0
 11
10.0
 21
10.0
 31
0.0
  0
LINE
  5
1F87
330
1F61
100
AcDbEntity
  8
本体
100
AcDbLine
 10
10.0
 20
16.0
 30
0.0
 11
10.0
 21
10.0
 31
0.0
  0
LINE
  5
1F88
330
1F61
100
AcDbEntity
  8
本体
100
AcDbLine
 10
10.0
 20
16.0
 30
0.0
 11
10.0
 21
10.0
 31
0.0
  0
LINE
  5
1F89
330
1F61
100
AcDbEntity
  8
本体
100
AcDbLine
 10
10.0
 20
16.0
 30
0.0
 11
15.0
 21
16.0
 31
0.0
  0
LINE
  5
1F8A
330
1F61
100
AcDbEntity
  8
本体
100
AcDbLine
 10
10.0
 20
10.0
 30
0.0
 11
11.0
 21
9.0
 31
0.0
  0
LINE
  5
1F8B
330
1F61
100
AcDbEntity
  8
本体
100
AcDbLine
 10
10.0
 20
16.0
 30
0.0
 11
15.0
 21
16.0
 31
0.0
  0
LINE
  5
1F8C
330
1F61
100
AcDbEntity
  8
本体
100
AcDbLine
 10
10.0
 20
10.0
 30
0.0
 11
11.0
 21
9.0
 31
0.0
  0
LINE
  5
1F8D
330
1F61
100
AcDbEntity
  8
本体
100
AcDbLine
 10
10.0
 20
16.0
 30
0.0
 11
15.0
 21
16.0
 31
0.0
  0
LINE
  5
1F8E
330
1F61
100
AcDbEntity
  8
本体
100
AcDbLine
 10
10.0
 20
10.0
 30
0.0
 11
11.0
 21
9.0
 31
0.0
  0
LINE
  5
1F8F
330
1F61
100
AcDbEntity
  8
本体
 48
3.0
100
AcDbLine
 10
-15.0
 20
-16.0
 30
0.0
 11
10.0
 21
-16.0
 31
0.0
  0
ENDBLK
  5
1F63
330
1F61
100
AcDbEntity
  8
0
 48
3.0
100
AcDbBlockEnd
  0
BLOCK
  5
1F65
330
1F64
100
AcDbEntity
  8
0
 48
3.0
100
AcDbBlockBegin
  2
*U18
 70
     1
 10
0.0
 20
0.0
 30
0.0
  3
*U18
  1

  0
INSERT
  5
1F9E
330
1F64
100
AcDbEntity
  8
本体
  6
ByBlock
 62
     0
370
    -2
380
     1
100
AcDbBlockReference
  2
*U17
 10
0.0
 20
0.0
 30
0.0
  0
INSERT
  5
1F9F
330
1F64
100
AcDbEntity
  8
本体
  6
ByBlock
 62
     0
370
    -2
380
     1
100
AcDbBlockReference
  2
*U17
 10
30.0
 20
0.0
 30
0.0
  0
INSERT
  5
1FA0
330
1F64
100
AcDbEntity
  8
本体
  6
ByBlock
 62
     0
370
    -2
380
     1
100
AcDbBlockReference
  2
*U17
 10
60.0
 20
0.0
 30
0.0
  0
INSERT
  5
1FA1
330
1F64
100
AcDbEntity
  8
本体
  6
ByBlock
 62
     0
370
    -2
380
     1
100
AcDbBlockReference
  2
*U17
 10
90.0
 20
0.0
 30
0.0
  0
INSERT
  5
1FA2
330
1F64
100
AcDbEntity
  8
本体
  6
ByBlock
 62
     0
370
    -2
380
     1
100
AcDbBlockReference
  2
*U17
 10
120.0
 20
0.0
 30
0.0
  0
INSERT
  5
1FA3
330
1F64
100
AcDbEntity
  8
本体
  6
ByBlock
 62
     0
370
    -2
380
     1
100
AcDbBlockReference
  2
*U17
 10
150.0
 20
0.0
 30
0.0
  0
INSERT
  5
1FA4
330
1F64
100
AcDbEntity
  8
本体
  6
ByBlock
 62
     0
370
    -2
380
     1
100
AcDbBlockReference
  2
*U17
 10
180.0
 20
0.0
 30
0.0
  0
INSERT
  5
1FA5
330
1F64
100
AcDbEntity
  8
本体
  6
ByBlock
 62
     0
370
    -2
380
     1
100
AcDbBlockReference
  2
*U17
 10
210.0
 20
0.0
 30
0.0
  0
INSERT
  5
1FA6
330
1F64
100
AcDbEntity
  8
本体
  6
ByBlock
 62
     0
370
    -2
380
     1
100
AcDbBlockReference
  2
*U17
 10
240.0
 20
0.0
 30
0.0
  0
INSERT
  5
1FA7
330
1F64
100
AcDbEntity
  8
本体
  6
ByBlock
 62
     0
370
    -2
380
     1
100
AcDbBlockReference
  2
*U17
 10
270.0
 20
0.0
 30
0.0
  0
INSERT
  5
1FA8
330
1F64
100
AcDbEntity
  8
本体
  6
ByBlock
 62
     0
370
    -2
380
     1
100
AcDbBlockReference
  2
*U17
 10
300.0
 20
0.0
 30
0.0
  0
INSERT
  5
1FA9
330
1F64
100
AcDbEntity
  8
本体
  6
ByBlock
 62
     0
370
    -2
380
     1
100
AcDbBlockReference
  2
*U17
 10
330.0
 20
0.0
 30
0.0
  0
INSERT
  5
1FAA
330
1F64
100
AcDbEntity
  8
本体
  6
ByBlock
 62
     0
370
    -2
380
     1
100
AcDbBlockReference
  2
*U17
 10
360.0
 20
0.0
 30
0.0
  0
INSERT
  5
1FAB
330
1F64
100
AcDbEntity
  8
本体
  6
ByBlock
 62
     0
370
    -2
380
     1
100
AcDbBlockReference
  2
*U17
 10
390.0
 20
0.0
 30
0.0
  0
INSERT
  5
1FAC
330
1F64
100
AcDbEntity
  8
本体
  6
ByBlock
 62
     0
370
    -2
380
     1
100
AcDbBlockReference
  2
*U17
 10
420.0
 20
0.0
 30
0.0
  0
INSERT
  5
1FAD
330
1F64
100
AcDbEntity
  8
本体
  6
ByBlock
 62
     0
370
    -2
380
     1
100
AcDbBlockReference
  2
*U17
 10
450.0
 20
0.0
 30
0.0
  0
INSERT
  5
1FAE
330
1F64
100
AcDbEntity
  8
本体
  6
ByBlock
 62
     0
370
    -2
380
     1
100
AcDbBlockReference
  2
*U17
 10
480.0
 20
0.0
 30
0.0
  0
INSERT
  5
1FAF
330
1F64
100
AcDbEntity
  8
本体
  6
ByBlock
 62
     0
370
    -2
380
     1
100
AcDbBlockReference
  2
*U17
 10
510.0
 20
0.0
 30
0.0
  0
INSERT
  5
1FB0
330
1F64
100
AcDbEntity
  8
本体
  6
ByBlock
 62
     0
370
    -2
380
     1
100
AcDbBlockReference
  2
*U17
 10
540.0
 20
0.0
 30
0.0
  0
INSERT
  5
1FB1
330
1F64
100
AcDbEntity
  8
本体
  6
ByBlock
 62
     0
370
    -2
380
     1
100
AcDbBlockReference
  2
*U17
 10
570.0
 20
0.0
 30
0.0
  0
INSERT
  5
1FB2
330
1F64
100
AcDbEntity
  8
本体
  6
ByBlock
 62
     0
370
    -2
380
     1
100
AcDbBlockReference
  2
*U17
 10
600.0
 20
0.0
 30
0.0
  0
INSERT
  5
1FB3
330
1F64
100
AcDbEntity
  8
本体
  6
ByBlock
 62
     0
370
    -2
380
     1
100
AcDbBlockReference
  2
*U17
 10
630.0
 20
0.0
 30
0.0
  0
INSERT
  5
1FB4
330
1F64
100
AcDbEntity
  8
本体
  6
ByBlock
 62
     0
370
    -2
380
     1
100
AcDbBlockReference
  2
*U17
 10
660.0
 20
0.0
 30
0.0
  0
INSERT
  5
1FB5
330
1F64
100
AcDbEntity
  8
本体
  6
ByBlock
 62
     0
370
    -2
380
     1
100
AcDbBlockReference
  2
*U17
 10
690.0
 20
0.0
 30
0.0
  0
INSERT
  5
1FB6
330
1F64
100
AcDbEntity
  8
本体
  6
ByBlock
 62
     0
370
    -2
380
     1
100
AcDbBlockReference
  2
*U17
 10
720.0
 20
0.0
 30
0.0
  0
INSERT
  5
1FB7
330
1F64
100
AcDbEntity
  8
本体
  6
ByBlock
 62
     0
370
    -2
380
     1
100
AcDbBlockReference
  2
*U17
 10
750.0
 20
0.0
 30
0.0
  0
INSERT
  5
1FB8
330
1F64
100
AcDbEntity
  8
本体
  6
ByBlock
 62
     0
370
    -2
380
     1
100
AcDbBlockReference
  2
*U17
 10
780.0
 20
0.0
 30
0.0
  0
INSERT
  5
1FB9
330
1F64
100
AcDbEntity
  8
本体
  6
ByBlock
 62
     0
370
    -2
380
     1
100
AcDbBlockReference
  2
*U17
 10
810.0
 20
0.0
 30
0.0
  0
INSERT
  5
1FBA
330
1F64
100
AcDbEntity
  8
本体
  6
ByBlock
 62
     0
370
    -2
380
     1
100
AcDbBlockReference
  2
*U17
 10
840.0
 20
0.0
 30
0.0
  0
INSERT
  5
1FBB
330
1F64
100
AcDbEntity
  8
本体
  6
ByBlock
 62
     0
370
    -2
380
     1
100
AcDbBlockReference
  2
*U17
 10
870.0
 20
0.0
 30
0.0
  0
INSERT
  5
2118
330
1F64
100
AcDbEntity
  8
本体
  6
ByBlock
 62
     0
370
    -2
380
     1
100
AcDbBlockReference
  2
*U17
 10
900.0
 20
0.0
 30
0.0
  0
ENDBLK
  5
1F66
330
1F64
100
AcDbEntity
  8
0
 48
3.0
100
AcDbBlockEnd
  0
BLOCK
  5
2049
330
2048
100
AcDbEntity
  8
0
 48
3.0
100
AcDbBlockBegin
  2
*U19
 70
     1
 10
0.0
 20
0.0
 30
0.0
  3
*U19
  1

  0
LINE
  5
204F
330
2048
100
AcDbEntity
  8
本体
  6
Continuous
100
AcDbLine
 10
-17.5
 20
122.0
 30
0.0
 11
12.5
 21
128.0
 31
0.0
  0
LINE
  5
2050
330
2048
100
AcDbEntity
  8
本体
  6
Continuous
100
AcDbLine
 10
17.5
 20
168.0
 30
0.0
 11
17.5
 21
128.0
 31
0.0
  0
LINE
  5
2051
330
2048
100
AcDbEntity
  8
本体
  6
Continuous
100
AcDbLine
 10
12.5
 20
168.0
 30
0.0
 11
12.5
 21
128.0
 31
0.0
  0
LINE
  5
2052
330
2048
100
AcDbEntity
  8
本体
  6
Continuous
100
AcDbLine
 10
12.5
 20
-168.0
 30
0.0
 11
12.5
 21
-128.0
 31
0.0
  0
LINE
  5
2053
330
2048
100
AcDbEntity
  8
本体
  6
Continuous
100
AcDbLine
 10
17.5
 20
-168.0
 30
0.0
 11
17.5
 21
-128.0
 31
0.0
  0
LINE
  5
2054
330
2048
100
AcDbEntity
  8
本体
  6
Continuous
100
AcDbLine
 10
17.5
 20
122.0
 30
0.0
 11
17.5
 21
78.0
 31
0.0
  0
LINE
  5
2055
330
2048
100
AcDbEntity
  8
本体
  6
Continuous
100
AcDbLine
 10
12.5
 20
122.0
 30
0.0
 11
12.5
 21
78.0
 31
0.0
  0
LINE
  5
2056
330
2048
100
AcDbEntity
  8
エンボス
  6
Continuous
100
AcDbLine
 10
12.5
 20
106.5
 30
0.0
 11
17.5
 21
104.5
 31
0.0
  0
LINE
  5
2057
330
2048
100
AcDbEntity
  8
エンボス
  6
Continuous
100
AcDbLine
 10
12.5
 20
90.5
 30
0.0
 11
17.5
 21
92.5
 31
0.0
  0
LINE
  5
2058
330
2048
100
AcDbEntity
  8
エンボス
  6
Continuous
100
AcDbLine
 10
17.5
 20
85.5
 30
0.0
 11
12.5
 21
87.5
 31
0.0
  0
LINE
  5
2059
330
2048
100
AcDbEntity
  8
エンボス
  6
Continuous
100
AcDbLine
 10
17.5
 20
101.5
 30
0.0
 11
12.5
 21
99.50000000000001
 31
0.0
  0
LINE
  5
205A
330
2048
100
AcDbEntity
  8
エンボス
  6
Continuous
100
AcDbLine
 10
12.5
 20
118.5
 30
0.0
 11
17.5
 21
120.5
 31
0.0
  0
LINE
  5
205B
330
2048
100
AcDbEntity
  8
エンボス
  6
Continuous
100
AcDbLine
 10
17.5
 20
113.5
 30
0.0
 11
12.5
 21
115.5
 31
0.0
  0
LINE
  5
205C
330
2048
100
AcDbEntity
  8
本体
  6
Continuous
100
AcDbLine
 10
-17.5
 20
72.0
 30
0.0
 11
12.5
 21
78.0
 31
0.0
  0
LINE
  5
205D
330
2048
100
AcDbEntity
  8
本体
  6
Continuous
100
AcDbLine
 10
12.5
 20
72.0
 30
0.0
 11
12.5
 21
28.0
 31
0.0
  0
LINE
  5
205E
330
2048
100
AcDbEntity
  8
本体
  6
Continuous
100
AcDbLine
 10
17.5
 20
72.0
 30
0.0
 11
17.5
 21
28.0
 31
0.0
  0
LINE
  5
205F
330
2048
100
AcDbEntity
  8
エンボス
  6
Continuous
100
AcDbLine
 10
17.5
 20
35.5
 30
0.0
 11
12.5
 21
37.5
 31
0.0
  0
LINE
  5
2060
330
2048
100
AcDbEntity
  8
エンボス
  6
Continuous
100
AcDbLine
 10
12.5
 20
68.5
 30
0.0
 11
17.5
 21
70.5
 31
0.0
  0
LINE
  5
2061
330
2048
100
AcDbEntity
  8
エンボス
  6
Continuous
100
AcDbLine
 10
12.5
 20
56.5
 30
0.0
 11
17.5
 21
54.5
 31
0.0
  0
LINE
  5
2062
330
2048
100
AcDbEntity
  8
エンボス
  6
Continuous
100
AcDbLine
 10
12.5
 20
40.49999999999999
 30
0.0
 11
17.5
 21
42.5
 31
0.0
  0
LINE
  5
2063
330
2048
100
AcDbEntity
  8
エンボス
  6
Continuous
100
AcDbLine
 10
17.5
 20
51.5
 30
0.0
 11
12.5
 21
49.5
 31
0.0
  0
LINE
  5
2064
330
2048
100
AcDbEntity
  8
エンボス
  6
Continuous
100
AcDbLine
 10
17.5
 20
63.5
 30
0.0
 11
12.5
 21
65.5
 31
0.0
  0
LINE
  5
2065
330
2048
100
AcDbEntity
  8
本体
  6
Continuous
100
AcDbLine
 10
-17.5
 20
22.0
 30
0.0
 11
12.5
 21
28.0
 31
0.0
  0
LINE
  5
2066
330
2048
100
AcDbEntity
  8
本体
  6
Continuous
100
AcDbLine
 10
12.5
 20
22.0
 30
0.0
 11
12.5
 21
-22.0
 31
0.0
  0
LINE
  5
2067
330
2048
100
AcDbEntity
  8
本体
  6
Continuous
100
AcDbLine
 10
17.5
 20
22.0
 30
0.0
 11
17.5
 21
-22.0
 31
0.0
  0
LINE
  5
2068
330
2048
100
AcDbEntity
  8
エンボス
  6
Continuous
100
AcDbLine
 10
17.5
 20
-14.5
 30
0.0
 11
12.5
 21
-12.5
 31
0.0
  0
LINE
  5
2069
330
2048
100
AcDbEntity
  8
エンボス
  6
Continuous
100
AcDbLine
 10
12.5
 20
18.5
 30
0.0
 11
17.5
 21
20.5
 31
0.0
  0
LINE
  5
206A
330
2048
100
AcDbEntity
  8
エンボス
  6
Continuous
100
AcDbLine
 10
12.5
 20
6.5
 30
0.0
 11
17.5
 21
4.5
 31
0.0
  0
LINE
  5
206B
330
2048
100
AcDbEntity
  8
エンボス
  6
Continuous
100
AcDbLine
 10
12.5
 20
-9.5
 30
0.0
 11
17.5
 21
-7.5
 31
0.0
  0
LINE
  5
206C
330
2048
100
AcDbEntity
  8
エンボス
  6
Continuous
100
AcDbLine
 10
17.5
 20
1.5
 30
0.0
 11
12.5
 21
-0.5
 31
0.0
  0
LINE
  5
206D
330
2048
100
AcDbEntity
  8
エンボス
  6
Continuous
100
AcDbLine
 10
17.5
 20
13.5
 30
0.0
 11
12.5
 21
15.5
 31
0.0
  0
LINE
  5
206E
330
2048
100
AcDbEntity
  8
本体
  6
Continuous
100
AcDbLine
 10
-17.5
 20
-28.0
 30
0.0
 11
12.5
 21
-22.0
 31
0.0
  0
LINE
  5
206F
330
2048
100
AcDbEntity
  8
本体
  6
Continuous
100
AcDbLine
 10
12.5
 20
-28.0
 30
0.0
 11
12.5
 21
-72.0
 31
0.0
  0
LINE
  5
2070
330
2048
100
AcDbEntity
  8
本体
  6
Continuous
100
AcDbLine
 10
17.5
 20
-28.0
 30
0.0
 11
17.5
 21
-72.0
 31
0.0
  0
LINE
  5
2071
330
2048
100
AcDbEntity
  8
エンボス
  6
Continuous
100
AcDbLine
 10
17.5
 20
-64.5
 30
0.0
 11
12.5
 21
-62.5
 31
0.0
  0
LINE
  5
2072
330
2048
100
AcDbEntity
  8
エンボス
  6
Continuous
100
AcDbLine
 10
12.5
 20
-31.5
 30
0.0
 11
17.5
 21
-29.5
 31
0.0
  0
LINE
  5
2073
330
2048
100
AcDbEntity
  8
エンボス
  6
Continuous
100
AcDbLine
 10
12.5
 20
-43.5
 30
0.0
 11
17.5
 21
-45.49999999999999
 31
0.0
  0
LINE
  5
2074
330
2048
100
AcDbEntity
  8
エンボス
  6
Continuous
100
AcDbLine
 10
12.5
 20
-59.5
 30
0.0
 11
17.5
 21
-57.5
 31
0.0
  0
LINE
  5
2075
330
2048
100
AcDbEntity
  8
エンボス
  6
Continuous
100
AcDbLine
 10
17.5
 20
-48.5
 30
0.0
 11
12.5
 21
-50.5
 31
0.0
  0
LINE
  5
2076
330
2048
100
AcDbEntity
  8
エンボス
  6
Continuous
100
AcDbLine
 10
17.5
 20
-36.5
 30
0.0
 11
12.5
 21
-34.5
 31
0.0
  0
LINE
  5
2077
330
2048
100
AcDbEntity
  8
本体
  6
Continuous
100
AcDbLine
 10
-17.5
 20
-78.0
 30
0.0
 11
12.5
 21
-72.0
 31
0.0
  0
LINE
  5
2078
330
2048
100
AcDbEntity
  8
本体
  6
Continuous
100
AcDbLine
 10
12.5
 20
-78.0
 30
0.0
 11
12.5
 21
-122.0
 31
0.0
  0
LINE
  5
2079
330
2048
100
AcDbEntity
  8
本体
  6
Continuous
100
AcDbLine
 10
17.5
 20
-78.0
 30
0.0
 11
17.5
 21
-122.0
 31
0.0
  0
LINE
  5
207A
330
2048
100
AcDbEntity
  8
エンボス
  6
Continuous
100
AcDbLine
 10
17.5
 20
-114.5
 30
0.0
 11
12.5
 21
-112.5
 31
0.0
  0
LINE
  5
207B
330
2048
100
AcDbEntity
  8
エンボス
  6
Continuous
100
AcDbLine
 10
12.5
 20
-81.5
 30
0.0
 11
17.5
 21
-79.5
 31
0.0
  0
LINE
  5
207C
330
2048
100
AcDbEntity
  8
エンボス
  6
Continuous
100
AcDbLine
 10
12.5
 20
-93.49999999999999
 30
0.0
 11
17.5
 21
-95.5
 31
0.0
  0
LINE
  5
207D
330
2048
100
AcDbEntity
  8
エンボス
  6
Continuous
100
AcDbLine
 10
12.5
 20
-109.5
 30
0.0
 11
17.5
 21
-107.5
 31
0.0
  0
LINE
  5
207E
330
2048
100
AcDbEntity
  8
エンボス
  6
Continuous
100
AcDbLine
 10
17.5
 20
-98.50000000000001
 30
0.0
 11
12.5
 21
-100.5
 31
0.0
  0
LINE
  5
207F
330
2048
100
AcDbEntity
  8
エンボス
  6
Continuous
100
AcDbLine
 10
17.5
 20
-86.5
 30
0.0
 11
12.5
 21
-84.50000000000001
 31
0.0
  0
LINE
  5
2080
330
2048
100
AcDbEntity
  8
本体
  6
Continuous
100
AcDbLine
 10
-17.5
 20
-128.0
 30
0.0
 11
12.5
 21
-122.0
 31
0.0
  0
LINE
  5
2081
330
2048
100
AcDbEntity
  8
エンボス
  6
Continuous
100
AcDbLine
 10
17.5
 20
-164.5
 30
0.0
 11
12.5
 21
-162.5
 31
0.0
  0
LINE
  5
2082
330
2048
100
AcDbEntity
  8
エンボス
  6
Continuous
100
AcDbLine
 10
12.5
 20
-131.5
 30
0.0
 11
17.5
 21
-129.5
 31
0.0
  0
LINE
  5
2083
330
2048
100
AcDbEntity
  8
エンボス
  6
Continuous
100
AcDbLine
 10
12.5
 20
-143.5
 30
0.0
 11
17.5
 21
-145.5
 31
0.0
  0
LINE
  5
2084
330
2048
100
AcDbEntity
  8
エンボス
  6
Continuous
100
AcDbLine
 10
12.5
 20
-159.5
 30
0.0
 11
17.5
 21
-157.5
 31
0.0
  0
LINE
  5
2085
330
2048
100
AcDbEntity
  8
エンボス
  6
Continuous
100
AcDbLine
 10
17.5
 20
-148.5
 30
0.0
 11
12.5
 21
-150.5
 31
0.0
  0
LINE
  5
2086
330
2048
100
AcDbEntity
  8
エンボス
  6
Continuous
100
AcDbLine
 10
17.5
 20
-136.5
 30
0.0
 11
12.5
 21
-134.5
 31
0.0
  0
LINE
  5
2087
330
2048
100
AcDbEntity
  8
エンボス
  6
Continuous
100
AcDbLine
 10
12.5
 20
156.5
 30
0.0
 11
17.5
 21
154.5
 31
0.0
  0
LINE
  5
2088
330
2048
100
AcDbEntity
  8
エンボス
  6
Continuous
100
AcDbLine
 10
12.5
 20
140.5
 30
0.0
 11
17.5
 21
142.5
 31
0.0
  0
LINE
  5
2089
330
2048
100
AcDbEntity
  8
エンボス
  6
Continuous
100
AcDbLine
 10
17.5
 20
135.5
 30
0.0
 11
12.5
 21
137.5
 31
0.0
  0
LINE
  5
208A
330
2048
100
AcDbEntity
  8
エンボス
  6
Continuous
100
AcDbLine
 10
17.5
 20
151.5
 30
0.0
 11
12.5
 21
149.5
 31
0.0
  0
LINE
  5
208B
330
2048
100
AcDbEntity
  8
エンボス
  6
Continuous
100
AcDbLine
 10
17.5
 20
163.5
 30
0.0
 11
12.5
 21
165.5
 31
0.0
  0
ENDBLK
  5
204A
330
2048
100
AcDbEntity
  8
0
 48
3.0
100
AcDbBlockEnd
  0
BLOCK
  5
204C
330
204B
100
AcDbEntity
  8
0
 48
3.0
100
AcDbBlockBegin
  2
*U20
 70
     1
 10
0.0
 20
0.0
 30
0.0
  3
*U20
  1

  0
INSERT
  5
2096
330
204B
100
AcDbEntity
  8
本体
  6
ByBlock
 62
     0
370
    -2
380
     1
100
AcDbBlockReference
  2
*U19
 10
0.0
 20
0.0
 30
0.0
  0
INSERT
  5
2097
330
204B
100
AcDbEntity
  8
本体
  6
ByBlock
 62
     0
370
    -2
380
     1
100
AcDbBlockReference
  2
*U19
 10
30.0
 20
0.0
 30
0.0
  0
INSERT
  5
2098
330
204B
100
AcDbEntity
  8
本体
  6
ByBlock
 62
     0
370
    -2
380
     1
100
AcDbBlockReference
  2
*U19
 10
60.0
 20
0.0
 30
0.0
  0
INSERT
  5
2099
330
204B
100
AcDbEntity
  8
本体
  6
ByBlock
 62
     0
370
    -2
380
     1
100
AcDbBlockReference
  2
*U19
 10
90.0
 20
0.0
 30
0.0
  0
INSERT
  5
209A
330
204B
100
AcDbEntity
  8
本体
  6
ByBlock
 62
     0
370
    -2
380
     1
100
AcDbBlockReference
  2
*U19
 10
120.0
 20
0.0
 30
0.0
  0
INSERT
  5
209B
330
204B
100
AcDbEntity
  8
本体
  6
ByBlock
 62
     0
370
    -2
380
     1
100
AcDbBlockReference
  2
*U19
 10
150.0
 20
0.0
 30
0.0
  0
INSERT
  5
209C
330
204B
100
AcDbEntity
  8
本体
  6
ByBlock
 62
     0
370
    -2
380
     1
100
AcDbBlockReference
  2
*U19
 10
180.0
 20
0.0
 30
0.0
  0
INSERT
  5
209D
330
204B
100
AcDbEntity
  8
本体
  6
ByBlock
 62
     0
370
    -2
380
     1
100
AcDbBlockReference
  2
*U19
 10
210.0
 20
0.0
 30
0.0
  0
INSERT
  5
209E
330
204B
100
AcDbEntity
  8
本体
  6
ByBlock
 62
     0
370
    -2
380
     1
100
AcDbBlockReference
  2
*U19
 10
240.0
 20
0.0
 30
0.0
  0
INSERT
  5
209F
330
204B
100
AcDbEntity
  8
本体
  6
ByBlock
 62
     0
370
    -2
380
     1
100
AcDbBlockReference
  2
*U19
 10
270.0
 20
0.0
 30
0.0
  0
INSERT
  5
20A0
330
204B
100
AcDbEntity
  8
本体
  6
ByBlock
 62
     0
370
    -2
380
     1
100
AcDbBlockReference
  2
*U19
 10
300.0
 20
0.0
 30
0.0
  0
INSERT
  5
20A1
330
204B
100
AcDbEntity
  8
本体
  6
ByBlock
 62
     0
370
    -2
380
     1
100
AcDbBlockReference
  2
*U19
 10
330.0
 20
0.0
 30
0.0
  0
INSERT
  5
20A2
330
204B
100
AcDbEntity
  8
本体
  6
ByBlock
 62
     0
370
    -2
380
     1
100
AcDbBlockReference
  2
*U19
 10
360.0
 20
0.0
 30
0.0
  0
INSERT
  5
20A3
330
204B
100
AcDbEntity
  8
本体
  6
ByBlock
 62
     0
370
    -2
380
     1
100
AcDbBlockReference
  2
*U19
 10
390.0
 20
0.0
 30
0.0
  0
INSERT
  5
20A4
330
204B
100
AcDbEntity
  8
本体
  6
ByBlock
 62
     0
370
    -2
380
     1
100
AcDbBlockReference
  2
*U19
 10
420.0
 20
0.0
 30
0.0
  0
INSERT
  5
20A5
330
204B
100
AcDbEntity
  8
本体
  6
ByBlock
 62
     0
370
    -2
380
     1
100
AcDbBlockReference
  2
*U19
 10
450.0
 20
0.0
 30
0.0
  0
INSERT
  5
20A6
330
204B
100
AcDbEntity
  8
本体
  6
ByBlock
 62
     0
370
    -2
380
     1
100
AcDbBlockReference
  2
*U19
 10
480.0
 20
0.0
 30
0.0
  0
INSERT
  5
20A7
330
204B
100
AcDbEntity
  8
本体
  6
ByBlock
 62
     0
370
    -2
380
     1
100
AcDbBlockReference
  2
*U19
 10
510.0
 20
0.0
 30
0.0
  0
INSERT
  5
20A8
330
204B
100
AcDbEntity
  8
本体
  6
ByBlock
 62
     0
370
    -2
380
     1
100
AcDbBlockReference
  2
*U19
 10
540.0
 20
0.0
 30
0.0
  0
INSERT
  5
20A9
330
204B
100
AcDbEntity
  8
本体
  6
ByBlock
 62
     0
370
    -2
380
     1
100
AcDbBlockReference
  2
*U19
 10
570.0
 20
0.0
 30
0.0
  0
INSERT
  5
20AA
330
204B
100
AcDbEntity
  8
本体
  6
ByBlock
 62
     0
370
    -2
380
     1
100
AcDbBlockReference
  2
*U19
 10
600.0
 20
0.0
 30
0.0
  0
INSERT
  5
20AB
330
204B
100
AcDbEntity
  8
本体
  6
ByBlock
 62
     0
370
    -2
380
     1
100
AcDbBlockReference
  2
*U19
 10
630.0
 20
0.0
 30
0.0
  0
INSERT
  5
20AC
330
204B
100
AcDbEntity
  8
本体
  6
ByBlock
 62
     0
370
    -2
380
     1
100
AcDbBlockReference
  2
*U19
 10
660.0
 20
0.0
 30
0.0
  0
INSERT
  5
20AD
330
204B
100
AcDbEntity
  8
本体
  6
ByBlock
 62
     0
370
    -2
380
     1
100
AcDbBlockReference
  2
*U19
 10
690.0
 20
0.0
 30
0.0
  0
INSERT
  5
20AE
330
204B
100
AcDbEntity
  8
本体
  6
ByBlock
 62
     0
370
    -2
380
     1
100
AcDbBlockReference
  2
*U19
 10
720.0
 20
0.0
 30
0.0
  0
INSERT
  5
20AF
330
204B
100
AcDbEntity
  8
本体
  6
ByBlock
 62
     0
370
    -2
380
     1
100
AcDbBlockReference
  2
*U19
 10
750.0
 20
0.0
 30
0.0
  0
INSERT
  5
20B0
330
204B
100
AcDbEntity
  8
本体
  6
ByBlock
 62
     0
370
    -2
380
     1
100
AcDbBlockReference
  2
*U19
 10
780.0
 20
0.0
 30
0.0
  0
INSERT
  5
20B1
330
204B
100
AcDbEntity
  8
本体
  6
ByBlock
 62
     0
370
    -2
380
     1
100
AcDbBlockReference
  2
*U19
 10
810.0
 20
0.0
 30
0.0
  0
INSERT
  5
20B2
330
204B
100
AcDbEntity
  8
本体
  6
ByBlock
 62
     0
370
    -2
380
     1
100
AcDbBlockReference
  2
*U19
 10
840.0
 20
0.0
 30
0.0
  0
INSERT
  5
20B3
330
204B
100
AcDbEntity
  8
本体
  6
ByBlock
 62
     0
370
    -2
380
     1
100
AcDbBlockReference
  2
*U19
 10
870.0
 20
0.0
 30
0.0
  0
INSERT
  5
20B4
330
204B
100
AcDbEntity
  8
本体
  6
ByBlock
 62
     0
370
    -2
380
     1
100
AcDbBlockReference
  2
*U19
 10
900.0
 20
0.0
 30
0.0
  0
INSERT
  5
20B5
330
204B
100
AcDbEntity
  8
本体
  6
ByBlock
 62
     0
370
    -2
380
     1
100
AcDbBlockReference
  2
*U19
 10
930.0
 20
0.0
 30
0.0
  0
ENDBLK
  5
204D
330
204B
100
AcDbEntity
  8
0
 48
3.0
100
AcDbBlockEnd
  0
ENDSEC
  0
SECTION
  2
ENTITIES
  0
LINE
  5
12
330
2
100
AcDbEntity
  8
外枠
 48
80.0
370
     9
100
AcDbLine
 10
0.0
 20
0.0
 30
0.0
 11
2789.511161023067
 21
0.0
 31
0.0
  0
LINE
  5
13
330
2
100
AcDbEntity
  8
外枠
 48
80.0
370
     9
100
AcDbLine
 10
2789.511161023071
 20
1973.26911249564
 30
0.0
 11
0.0
 21
1973.26911249564
 31
0.0
  0
LINE
  5
14
330
2
100
AcDbEntity
  8
外枠
 48
100.0
370
     9
100
AcDbLine
 10
10.0
 20
10.0
 30
0.0
 11
2780.119625023061
 21
10.0
 31
0.0
  0
LINE
  5
17
330
2
100
AcDbEntity
  8
外枠
  6
Continuous
 48
100.0
370
     9
100
AcDbLine
 10
9.999999999996362
 20
155.3992728208031
 30
0.0
 11
2780.119625023061
 21
155.3992728207995
 31
0.0
  0
LINE
  5
18
330
2
100
AcDbEntity
  8
外枠
  6
Continuous
 48
100.0
370
     9
100
AcDbLine
 10
9.999999999996362
 20
160.0950408208045
 30
0.0
 11
2780.119625023061
 21
160.0950408207973
 31
0.0
  0
LINE
  5
19
330
2
100
AcDbEntity
  8
外枠
 48
100.0
370
     9
100
AcDbLine
 10
10.0
 20
1963.877576495633
 30
0.0
 11
2780.119625023053
 21
1963.877576495637
 31
0.0
  0
LINE
  5
1A
330
2
100
AcDbEntity
  8
外枠
 48
80.0
370
     9
100
AcDbLine
 10
0.0
 20
0.0
 30
0.0
 11
0.0
 21
1973.26911249564
 31
0.0
  0
LINE
  5
1B
330
2
100
AcDbEntity
  8
外枠
 48
100.0
370
     9
100
AcDbLine
 10
10.0
 20
1963.877576495633
 30
0.0
 11
10.0
 21
10.0
 31
0.0
  0
LINE
  5
1C
330
2
100
AcDbEntity
  8
外枠
  6
Continuous
 48
100.0
370
     9
100
AcDbLine
 10
10.0
 20
82.69963641040158
 30
0.0
 11
1153.530108552004
 21
82.69963641039794
 31
0.0
  0
MTEXT
  5
1D
330
2
100
AcDbEntity
  8
外枠
  6
Continuous
 48
100.0
370
     9
100
AcDbMText
 10
555.6000408682721
 20
136.1535564242149
 30
0.0
 40
29.0
 41
664.6118999999999
 71
     1
 72
     5
  1
自由勾配側溝用グレーチング
 73
     1
 44
1.0
1001
ACAD
1000
MTEXTBEGIN
1070
    73
1070
     1
1070
    44
1040
1.0
1070
    74
1070
     0
1000
MTEXTEND
  0
MTEXT
  5
1E
330
2
100
AcDbEntity
  8
外枠
  6
Continuous
 48
100.0
370
     9
100
AcDbMText
 10
246.8574963386418
 20
64.81814764649607
 30
0.0
 40
35.0
 41
532.9183
 71
     1
 72
     5
  1
345\U+00D7995\U+00D732/87
 73
     1
 44
1.0
1001
ACAD
1000
MTEXTBEGIN
1070
    73
1070
     1
1070
    44
1040
1.0
1070
    74
1070
     0
1000
MTEXTEND
  0
MTEXT
  5
1F
330
2
100
AcDbEntity
  8
外枠
  6
Continuous
 48
100.0
370
     9
100
AcDbMText
 10
73.47653388609796
 20
137.3760680266387
 30
0.0
 40
30.0
 41
126.3036
 71
     1
 72
     5
  1
T-6
 73
     1
 44
1.0
1001
ACAD
1000
MTEXTBEGIN
1070
    73
1070
     1
1070
    44
1040
1.0
1070
    74
1070
     0
1000
MTEXTEND
  0
MTEXT
  5
20
330
2
100
AcDbEntity
  8
外枠
  6
Continuous
 48
100.0
370
     9
100
AcDbMText
 10
68.92783543177666
 20
59.95966632915224
 30
0.0
 40
35.0
 41
88.86979999999999
 71
     1
 72
     5
  1
TFVP
 73
     1
 44
1.0
1001
ACAD
1000
MTEXTBEGIN
1070
    73
1070
     1
1070
    44
1040
1.0
1070
    74
1070
     0
1000
MTEXTEND
  0
LINE
  5
21
330
2
100
AcDbEntity
  8
外枠
 48
100.0
370
     9
100
AcDbLine
 10
45.0
 20
155.3992728208031
 30
0.0
 11
45.0
 21
10.0
 31
0.0
  0
MTEXT
  5
22
330
2
100
AcDbEntity
  8
外枠
  6
Continuous
 48
100.0
370
     9
100
AcDbMText
 10
15.05670849094895
 20
75.82038473524153
 30
0.0
 40
20.0
 41
23.52947333656417
 71
     1
 72
     5
  1
品\P番
 73
     1
 44
1.0
1001
ACAD
1000
MTEXTBEGIN
1070
    73
1070
     1
1070
    44
1040
1.0
1070
    74
1070
     0
1000
MTEXTEND
  0
MTEXT
  5
23
330
2
100
AcDbEntity
  8
外枠
  6
Continuous
 48
100.0
370
     9
100
AcDbMText
 10
14.92010060012399
 20
149.3317229429121
 30
0.0
 40
20.0
 41
30.07989939987533
 71
     1
 72
     5
  1
荷\P重
 73
     1
 44
1.0
1001
ACAD
1000
MTEXTBEGIN
1070
    73
1070
     1
1070
    44
1040
1.0
1070
    74
1070
     0
1000
MTEXTEND
  0
LINE
  5
24
330
2
100
AcDbEntity
  8
外枠
 48
100.0
370
     9
100
AcDbLine
 10
179.1040495562847
 20
155.3992728208031
 30
0.0
 11
179.1040495562847
 21
10.0
 31
0.0
  0
MTEXT
  5
25
330
2
100
AcDbEntity
  8
外枠
  6
Continuous
 48
100.0
370
     9
100
AcDbMText
 10
268.9341625605839
 20
133.8572910967996
 30
0.0
 40
30.0
 41
163.9045
 71
     1
 72
     5
  1
VS250用
 73
     1
 44
1.0
1001
ACAD
1000
MTEXTBEGIN
1070
    73
1070
     1
1070
    44
1040
1.0
1070
    74
1070
     0
1000
MTEXTEND
  0
MTEXT
  5
26
330
2
100
AcDbEntity
  8
外枠
  6
Continuous
 48
100.0
370
     9
100
AcDbMText
 10
184.4346535744698
 20
149.3074501239389
 30
0.0
 40
20.0
 41
29.6694
 71
     1
 72
     5
  1
溝幅
 73
     1
 44
1.0
1001
ACAD
1000
MTEXTBEGIN
1070
    73
1070
     1
1070
    44
1040
1.0
1070
    74
1070
     0
1000
MTEXTEND
  0
LINE
  5
27
330
2
100
AcDbEntity
  8
外枠
 48
100.0
370
     9
100
AcDbLine
 10
214.1040495562847
 20
155.3992728208031
 30
0.0
 11
214.1040495562847
 21
82.69963641040158
 31
0.0
  0
MTEXT
  5
28
330
2
100
AcDbEntity
  8
外枠
  6
Continuous
 48
100.0
370
     9
100
AcDbMText
 10
477.8955451146976
 20
149.3074501239389
 30
0.0
 40
20.0
 41
29.6694
 71
     1
 72
     5
  1
品名
 73
     1
 44
1.0
1001
ACAD
1000
MTEXTBEGIN
1070
    73
1070
     1
1070
    44
1040
1.0
1070
    74
1070
     0
1000
MTEXTEND
  0
LINE
  5
29
330
2
100
AcDbEntity
  8
外枠
 48
100.0
370
     9
100
AcDbLine
 10
472.5649410965124
 20
155.3992728208031
 30
0.0
 11
472.5649410965124
 21
82.69963641040158
 31
0.0
  0
LINE
  5
2A
330
2
100
AcDbEntity
  8
外枠
 48
100.0
370
     9
100
AcDbLine
 10
507.5649410965125
 20
155.3992728208031
 30
0.0
 11
507.5649410965125
 21
82.69963641040158
 31
0.0
  0
MTEXT
  5
2B
330
2
100
AcDbEntity
  8
外枠
  6
Continuous
 48
100.0
370
     9
100
AcDbMText
 10
728.477887653953
 20
76.92551173516403
 30
0.0
 40
20.0
 41
664.6118999999999
 71
     1
 72
     5
  1
摘\P要
 73
     1
 44
1.0
1001
ACAD
1000
MTEXTBEGIN
1070
    73
1070
     1
1070
    44
1040
1.0
1070
    74
1070
     0
1000
MTEXTEND
  0
LINE
  5
2C
330
2
100
AcDbEntity
  8
外枠
 48
100.0
370
     9
100
AcDbLine
 10
723.8282373115871
 20
82.6996364103943
 30
0.0
 11
723.8282373115871
 21
9.999999999992724
 31
0.0
  0
LINE
  5
2F
330
2
100
AcDbEntity
  8
外枠
 48
100.0
370
     9
100
AcDbLine
 10
758.8282373115871
 20
82.6996364103943
 30
0.0
 11
758.8282373115871
 21
9.999999999992724
 31
0.0
  0
LINE
  5
31
330
2
100
AcDbEntity
  8
外枠
 48
100.0
370
     9
100
AcDbLine
 10
974.9513069700951
 20
82.6996364103943
 30
0.0
 11
974.9513069700951
 21
9.999999999992724
 31
0.0
  0
MTEXT
  5
32
330
2
100
AcDbEntity
  8
外枠
  6
Continuous
 48
100.0
370
     9
100
AcDbMText
 10
979.7329598959768
 20
74.84825461820583
 30
0.0
 40
20.0
 41
31.38947761565365
 71
     1
 72
     5
  1
材\P質
 73
     1
 44
1.0
1001
ACAD
1000
MTEXTBEGIN
1070
    73
1070
     1
1070
    44
1040
1.0
1070
    74
1070
     0
1000
MTEXTEND
  0
LINE
  5
33
330
2
100
AcDbEntity
  8
外枠
 48
100.0
370
     9
100
AcDbLine
 10
1009.951306970095
 20
82.6996364103943
 30
0.0
 11
1009.951306970095
 21
9.999999999992724
 31
0.0
  0
LINE
  5
37
330
2
100
AcDbEntity
  8
外枠
 48
80.0
370
     9
100
AcDbLine
 10
2789.511161023067
 20
0.0
 30
0.0
 11
2789.511161023071
 21
1973.26911249564
 31
0.0
  0
LINE
  5
38
330
2
100
AcDbEntity
  8
外枠
 48
100.0
370
     9
100
AcDbLine
 10
2780.119625023053
 20
1963.877576495637
 30
0.0
 11
2780.119625023061
 21
10.0
 31
0.0
  0
LINE
  5
3A
330
2
100
AcDbEntity
  8
外枠
 48
3.0
100
AcDbLine
 10
1607.072254912545
 20
61.67068719952067
 30
0.0
 11
2262.173600934632
 21
61.67068719952067
 31
0.0
  0
MTEXT
  5
3B
330
2
100
AcDbEntity
  8
外枠
  6
Continuous
 48
100.0
370
     9
100
AcDbMText
 10
1683.622173868318
 20
50.71504764095289
 30
0.0
 40
30.00024
 41
539.4827578564582
 71
     1
 72
     5
  1
T A K A R A   G R A T I N G
 73
     1
 44
1.0
1001
ACAD
1000
MTEXTBEGIN
1070
    73
1070
     1
1070
    44
1040
1.0
1070
    74
1070
     0
1000
MTEXTEND
  0
MTEXT
  5
3C
330
2
100
AcDbEntity
  8
外枠
  6
Continuous
 48
100.0
370
     9
100
AcDbMText
 10
1728.02061463669
 20
127.1672938476838
 30
0.0
 40
30.0
 41
282.8297
 71
     1
 72
     5
  1
株 式 会 社
 73
     1
 44
1.0
1001
ACAD
1000
MTEXTBEGIN
1070
    73
1070
     1
1070
    44
1040
1.0
1070
    74
1070
     0
1000
MTEXTEND
  0
LINE
  5
3D
330
2
100
AcDbEntity
  8
外枠
  6
Continuous
 48
100.0
370
     9
100
AcDbLine
 10
1508.680137877982
 20
155.3992728208068
 30
0.0
 11
1508.680137877982
 21
10.00000000000364
 31
0.0
  0
LINE
  5
3E
330
2
100
AcDbEntity
  8
外枠
  6
Continuous
 48
100.0
370
     9
100
AcDbLine
 10
1593.95141853916
 20
155.3992728207995
 30
0.0
 11
1593.95141853916
 21
9.999999999996362
 31
0.0
  0
LINE
  5
3F
330
2
100
AcDbEntity
  8
外枠
  6
Continuous
 48
100.0
370
     9
100
AcDbLine
 10
1616.777813337499
 20
106.634063069062
 30
0.0
 11
1612.463999974505
 21
110.08511375945
 31
0.0
  0
LINE
  5
40
330
2
100
AcDbEntity
  8
外枠
  6
Continuous
 48
100.0
370
     9
100
AcDbLine
 10
1616.777813337499
 20
106.634063069062
 30
0.0
 11
1612.463999974505
 21
103.183012378663
 31
0.0
  0
LINE
  5
41
330
2
100
AcDbEntity
  8
外枠
  6
Continuous
 48
100.0
370
     9
100
AcDbLine
 10
1616.777813337505
 20
113.5361644498489
 30
0.0
 11
1612.463999974505
 21
110.08511375945
 31
0.0
  0
LINE
  5
42
330
2
100
AcDbEntity
  8
外枠
  6
Continuous
 48
100.0
370
     9
100
AcDbLine
 10
1616.777813337499
 20
99.73196168827508
 30
0.0
 11
1612.463999974505
 21
103.183012378663
 31
0.0
  0
MTEXT
  5
43
330
2
100
AcDbEntity
  8
外枠
  6
Continuous
 48
100.0
370
     9
100
AcDbMText
 10
1520.476936402745
 20
137.4995509975779
 30
0.0
 40
20.0
 41
1015.1375
 71
     1
 72
     5
  1
21.0
 73
     1
 44
1.0
1001
ACAD
1000
MTEXTBEGIN
1070
    73
1070
     1
1070
    44
1040
1.0
1070
    74
1070
     0
1000
MTEXTEND
  0
MTEXT
  5
44
330
2
100
AcDbEntity
  8
外枠
  6
Continuous
 48
100.0
370
     9
100
AcDbMText
 10
1568.464698185987
 20
108.4136993179927
 30
0.0
 40
18.0
 41
25.456
 71
     1
 72
     5
  1
kg
 73
     1
 44
1.0
1001
ACAD
1000
MTEXTBEGIN
1070
    73
1070
     1
1070
    44
1040
1.0
1070
    74
1070
     0
1000
MTEXTEND
  0
LINE
  5
45
330
2
100
AcDbEntity
  8
外枠
  6
Continuous
 48
100.0
370
     9
100
AcDbLine
 10
1649.122643507042
 20
139.4120285854742
 30
0.0
 11
1653.436456870031
 21
135.9609778950862
 31
0.0
  0
LINE
  5
46
330
2
100
AcDbEntity
  8
外枠
  6
Continuous
 48
100.0
370
     9
100
AcDbLine
 10
1666.377896959009
 20
139.4120285854742
 30
0.0
 11
1662.06408359602
 21
135.9609778950862
 31
0.0
  0
MTEXT
  5
47
330
2
100
AcDbEntity
  8
外枠
  6
Continuous
 48
100.0
370
     9
100
AcDbMText
 10
1642.840555134189
 20
120.8184913847756
 30
0.0
 40
23.95393639053264
 41
23.85059431815661
 71
     1
 72
     5
  1
{\fＭＳ ゴシック|b0|i0|c128|p49;宝}
 73
     1
 44
1.0
1001
ACAD
1000
MTEXTBEGIN
1070
    73
1070
     1
1070
    44
1040
1.0
1070
    74
1070
     0
1000
MTEXTEND
  0
LINE
  5
48
330
2
100
AcDbEntity
  8
外枠
  6
Continuous
 48
100.0
370
     9
100
AcDbLine
 10
1662.06408359602
 20
135.9609778950862
 30
0.0
 11
1694.408913765557
 21
110.08511375945
 31
0.0
  0
LINE
  5
49
330
2
100
AcDbEntity
  8
外枠
  6
Continuous
 48
100.0
370
     9
100
AcDbLine
 10
1657.750270233026
 20
132.5099272046927
 30
0.0
 11
1690.095100402563
 21
106.634063069062
 31
0.0
  0
LINE
  5
4A
330
2
100
AcDbEntity
  8
外枠
  6
Continuous
 48
100.0
370
     9
100
AcDbLine
 10
1690.095100402563
 20
106.634063069062
 30
0.0
 11
1657.750270233026
 21
80.75819893343123
 31
0.0
  0
LINE
  5
4B
330
2
100
AcDbEntity
  8
外枠
  6
Continuous
 48
100.0
370
     9
100
AcDbLine
 10
1694.408913765557
 20
103.183012378663
 30
0.0
 11
1662.06408359602
 21
77.30714824303777
 31
0.0
  0
LINE
  5
4C
330
2
100
AcDbEntity
  8
外枠
  6
Continuous
 48
100.0
370
     9
100
AcDbLine
 10
1657.750270233026
 20
80.75819893342577
 30
0.0
 11
1625.405440063488
 21
106.634063069062
 31
0.0
  0
LINE
  5
4D
330
2
100
AcDbEntity
  8
外枠
  6
Continuous
 48
100.0
370
     9
100
AcDbLine
 10
1653.436456870031
 20
77.30714824303777
 30
0.0
 11
1621.0916267005
 21
103.183012378663
 31
0.0
  0
LINE
  5
4E
330
2
100
AcDbEntity
  8
外枠
  6
Continuous
 48
100.0
370
     9
100
AcDbLine
 10
1621.0916267005
 20
103.183012378663
 30
0.0
 11
1616.777813337505
 21
99.73196168827508
 31
0.0
  0
LINE
  5
4F
330
2
100
AcDbEntity
  8
外枠
  6
Continuous
 48
100.0
370
     9
100
AcDbLine
 10
1653.436456870031
 20
77.30714824303777
 30
0.0
 11
1649.122643507042
 21
73.85609755263885
 31
0.0
  0
LINE
  5
50
330
2
100
AcDbEntity
  8
外枠
  6
Continuous
 48
100.0
370
     9
100
AcDbLine
 10
1653.436456870031
 20
70.4050468622454
 30
0.0
 11
1649.122643507042
 21
73.85609755263885
 31
0.0
  0
LINE
  5
51
330
2
100
AcDbEntity
  8
外枠
  6
Continuous
 48
100.0
370
     9
100
AcDbLine
 10
1657.750270233026
 20
73.85609755263885
 30
0.0
 11
1653.436456870031
 21
70.4050468622454
 31
0.0
  0
LINE
  5
52
330
2
100
AcDbEntity
  8
外枠
  6
Continuous
 48
100.0
370
     9
100
AcDbLine
 10
1666.377896959009
 20
73.85609755263885
 30
0.0
 11
1662.06408359602
 21
70.4050468622454
 31
0.0
  0
LINE
  5
53
330
2
100
AcDbEntity
  8
外枠
  6
Continuous
 48
100.0
370
     9
100
AcDbLine
 10
1662.06408359602
 20
70.4050468622454
 30
0.0
 11
1657.750270233026
 21
73.85609755263885
 31
0.0
  0
LINE
  5
54
330
2
100
AcDbEntity
  8
外枠
  6
Continuous
 48
100.0
370
     9
100
AcDbLine
 10
1666.377896959009
 20
73.85609755263885
 30
0.0
 11
1662.06408359602
 21
77.30714824303777
 31
0.0
  0
LINE
  5
55
330
2
100
AcDbEntity
  8
外枠
  6
Continuous
 48
100.0
370
     9
100
AcDbLine
 10
1657.750270233026
 20
132.5099272046927
 30
0.0
 11
1625.405440063483
 21
106.634063069062
 31
0.0
  0
LINE
  5
56
330
2
100
AcDbEntity
  8
外枠
  6
Continuous
 48
100.0
370
     9
100
AcDbLine
 10
1653.436456870031
 20
135.9609778950862
 30
0.0
 11
1621.0916267005
 21
110.08511375945
 31
0.0
  0
LINE
  5
57
330
2
100
AcDbEntity
  8
外枠
  6
Continuous
 48
100.0
370
     9
100
AcDbLine
 10
1621.0916267005
 20
110.08511375945
 30
0.0
 11
1616.777813337505
 21
113.5361644498489
 31
0.0
  0
LINE
  5
58
330
2
100
AcDbEntity
  8
外枠
  6
Continuous
 48
100.0
370
     9
100
AcDbLine
 10
1694.408913765557
 20
103.183012378663
 30
0.0
 11
1698.722727128541
 21
99.73196168827508
 31
0.0
  0
LINE
  5
59
330
2
100
AcDbEntity
  8
外枠
  6
Continuous
 48
100.0
370
     9
100
AcDbLine
 10
1703.036540491541
 20
103.183012378663
 30
0.0
 11
1698.722727128541
 21
99.73196168827508
 31
0.0
  0
LINE
  5
5A
330
2
100
AcDbEntity
  8
外枠
  6
Continuous
 48
100.0
370
     9
100
AcDbLine
 10
1698.722727128541
 20
113.5361644498489
 30
0.0
 11
1694.408913765557
 21
110.08511375945
 31
0.0
  0
LINE
  5
5B
330
2
100
AcDbEntity
  8
外枠
  6
Continuous
 48
100.0
370
     9
100
AcDbLine
 10
1698.722727128541
 20
106.634063069062
 30
0.0
 11
1703.036540491541
 21
103.183012378663
 31
0.0
  0
LINE
  5
5C
330
2
100
AcDbEntity
  8
外枠
  6
Continuous
 48
100.0
370
     9
100
AcDbLine
 10
1698.722727128541
 20
113.5361644498489
 30
0.0
 11
1703.036540491541
 21
110.08511375945
 31
0.0
  0
LINE
  5
5D
330
2
100
AcDbEntity
  8
外枠
  6
Continuous
 48
100.0
370
     9
100
AcDbLine
 10
1703.036540491541
 20
110.08511375945
 30
0.0
 11
1698.722727128541
 21
106.634063069062
 31
0.0
  0
LINE
  5
5E
330
2
100
AcDbEntity
  8
外枠
  6
Continuous
 48
100.0
370
     9
100
AcDbLine
 10
1653.436456870031
 20
142.8630792758676
 30
0.0
 11
1649.122643507042
 21
139.4120285854742
 31
0.0
  0
LINE
  5
5F
330
2
100
AcDbEntity
  8
外枠
  6
Continuous
 48
100.0
370
     9
100
AcDbLine
 10
1662.06408359602
 20
142.8630792758676
 30
0.0
 11
1666.377896959009
 21
139.4120285854742
 31
0.0
  0
LINE
  5
60
330
2
100
AcDbEntity
  8
外枠
  6
Continuous
 48
100.0
370
     9
100
AcDbLine
 10
1653.436456870031
 20
142.8630792758676
 30
0.0
 11
1657.750270233026
 21
139.4120285854742
 31
0.0
  0
LINE
  5
61
330
2
100
AcDbEntity
  8
外枠
  6
Continuous
 48
100.0
370
     9
100
AcDbLine
 10
1662.06408359602
 20
142.8630792758676
 30
0.0
 11
1657.750270233026
 21
139.4120285854742
 31
0.0
  0
MTEXT
  5
62
330
2
100
AcDbEntity
  8
外枠
  6
Continuous
 48
100.0
370
     9
100
AcDbMText
 10
1982.246612759803
 20
141.5312822365363
 30
0.0
 40
50.0
 41
269.1378
 71
     1
 72
     5
  1
宝 機 材
 73
     1
 44
1.0
1001
ACAD
1000
MTEXTBEGIN
1070
    73
1070
     1
1070
    44
1040
1.0
1070
    74
1070
     0
1000
MTEXTEND
  0
INSERT
  5
63
330
2
100
AcDbEntity
  8
0
100
AcDbBlockReference
  2
GIB詳細
 10
2565.418449883758
 20
297.7225231137781
 30
0.0
  0
LINE
  5
AB
330
2
100
AcDbEntity
  8
外枠
  6
Continuous
 48
100.0
370
     9
100
AcDbLine
 10
2694.775480668144
 20
78.59726492113622
 30
0.0
 11
2729.639779322774
 21
43.73296626650699
 31
0.0
  0
LINE
  5
AC
330
2
100
AcDbEntity
  8
外枠
  6
Continuous
 48
100.0
370
     9
100
AcDbLine
 10
2729.639779322774
 20
113.4615635757691
 30
0.0
 11
2694.775480668144
 21
78.59726492113622
 31
0.0
  0
LINE
  5
AE
330
2
100
AcDbEntity
  8
外枠
  6
Continuous
 48
100.0
370
     9
100
AcDbLine
 10
2271.730765417811
 20
155.3992728207995
 30
0.0
 11
2271.730765417811
 21
10.0
 31
0.0
  0
LINE
  5
AF
330
2
100
AcDbEntity
  8
外枠
  6
Continuous
 48
100.0
370
     9
100
AcDbLine
 10
2387.385592047314
 20
155.3992728207995
 30
0.0
 11
2387.385592047314
 21
9.999999999996362
 31
0.0
  0
MTEXT
  5
B0
330
2
100
AcDbEntity
  8
外枠
  6
Continuous
 48
100.0
370
     9
100
AcDbMText
 10
2518.897970034654
 20
80.52451510381798
 30
0.0
 40
16.435188
 41
274.138099993296
 71
     1
 72
     5
  1
縮尺（A4用紙)
 73
     1
 44
1.0
1001
ACAD
1000
MTEXTBEGIN
1070
    73
1070
     1
1070
    44
1040
1.0
1070
    74
1070
     0
1000
MTEXTEND
  0
LINE
  5
B1
330
2
100
AcDbEntity
  8
外枠
  6
Continuous
 48
100.0
370
     9
100
AcDbLine
 10
2503.04041867681
 20
155.3992728207995
 30
0.0
 11
2503.04041867681
 21
9.999999999996362
 31
0.0
  0
LINE
  5
B2
330
2
100
AcDbEntity
  8
外枠
  6
Continuous
 48
100.0
370
     9
100
AcDbLine
 10
2676.662359028593
 20
155.3992728207995
 30
0.0
 11
2676.662359028593
 21
10.0
 31
0.0
  0
MTEXT
  5
B3
330
2
100
AcDbEntity
  8
外枠
  6
Continuous
 48
100.0
370
     9
100
AcDbMText
 10
2557.587330290393
 20
42.24161905183791
 30
0.0
 40
23.47884
 41
274.138099993296
 71
     1
 72
     5
  1
1：10
 73
     1
 44
1.0
1001
ACAD
1000
MTEXTBEGIN
1070
    73
1070
     1
1070
    44
1040
1.0
1070
    74
1070
     0
1000
MTEXTEND
  0
MTEXT
  5
B4
330
2
100
AcDbEntity
  8
外枠
  6
Continuous
 48
100.0
370
     9
100
AcDbMText
 10
2280.290404386422
 20
149.5129012429788
 30
0.0
 40
18.783072
 41
274.13809060176
 71
     1
 72
     5
  1
Check
 73
     1
 44
1.0
1001
ACAD
1000
MTEXTBEGIN
1070
    73
1070
     1
1070
    44
1040
1.0
1070
    74
1070
     0
1000
MTEXTEND
  0
MTEXT
  5
B5
330
2
100
AcDbEntity
  8
外枠
  6
Continuous
 48
100.0
370
     9
100
AcDbMText
 10
2398.03460165154
 20
149.5129012429788
 30
0.0
 40
18.783072
 41
274.13809060176
 71
     1
 72
     5
  1
Draw
 73
     1
 44
1.0
1001
ACAD
1000
MTEXTBEGIN
1070
    73
1070
     1
1070
    44
1040
1.0
1070
    74
1070
     0
1000
MTEXTEND
  0
LINE
  5
B7
330
2
100
AcDbEntity
  8
外枠
  6
Continuous
 48
100.0
370
     9
100
AcDbLine
 10
2676.662359028593
 20
85.04752041039683
 30
0.0
 11
2503.04041867681
 21
85.04752041039683
 31
0.0
  0
MTEXT
  5
B8
330
2
100
AcDbEntity
  8
外枠
  6
Continuous
 48
100.0
370
     9
100
AcDbMText
 10
2518.897970034654
 20
153.7304166203976
 30
0.0
 40
16.435188
 41
274.138099993296
 71
     1
 72
     5
  1
図面作成日
 73
     1
 44
1.0
1001
ACAD
1000
MTEXTBEGIN
1070
    73
1070
     1
1070
    44
1040
1.0
1070
    74
1070
     0
1000
MTEXTEND
  0
LINE
  5
BA
330
2
100
AcDbEntity
  8
外枠
  6
Continuous
 48
100.0
370
     9
100
AcDbLine
 10
2729.639779322774
 20
43.73296626650699
 30
0.0
 11
2764.504077977396
 21
78.59726492113622
 31
0.0
  0
LINE
  5
BB
330
2
100
AcDbEntity
  8
外枠
  6
Continuous
 48
100.0
370
     9
100
AcDbLine
 10
2764.504077977396
 20
78.59726492113622
 30
0.0
 11
2729.639779322774
 21
113.4615635757691
 31
0.0
  0
LINE
  5
C6
330
2
100
AcDbEntity
  8
本体
  6
Continuous
100
AcDbLine
 10
419.2375226261565
 20
1570.757530061414
 30
0.0
 11
1414.237522626156
 21
1570.757530061414
 31
0.0
  0
LINE
  5
C7
330
2
100
AcDbEntity
  8
本体
  6
Continuous
100
AcDbLine
 10
419.2375226261565
 20
1566.257530061414
 30
0.0
 11
1414.237522626156
 21
1566.257530061414
 31
0.0
  0
LINE
  5
C8
330
2
100
AcDbEntity
  8
本体
  6
Continuous
100
AcDbLine
 10
419.2375226261565
 20
1526.257530061414
 30
0.0
 11
1414.237522626156
 21
1526.257530061414
 31
0.0
  0
LINE
  5
C9
330
2
100
AcDbEntity
  8
本体
  6
Continuous
100
AcDbLine
 10
419.2375226261565
 20
1520.257530061414
 30
0.0
 11
1414.237522626156
 21
1520.257530061414
 31
0.0
  0
LINE
  5
D2
330
2
100
AcDbEntity
  8
本体
  6
Continuous
100
AcDbLine
 10
1894.54799312649
 20
1570.757530061414
 30
0.0
 11
1894.54799312649
 21
1564.757530061414
 31
0.0
  0
LINE
  5
D3
330
2
100
AcDbEntity
  8
本体
  6
Continuous
100
AcDbLine
 10
1894.54799312649
 20
1564.757530061414
 30
0.0
 11
1932.54799312649
 21
1564.757530061414
 31
0.0
  0
LINE
  5
D4
330
2
100
AcDbEntity
  8
本体
  6
Continuous
100
AcDbLine
 10
1932.54799312649
 20
1564.757530061414
 30
0.0
 11
1932.54799312649
 21
1567.757530061414
 31
0.0
  0
LINE
  5
D5
330
2
100
AcDbEntity
  8
本体
  6
Continuous
100
AcDbLine
 10
1932.54799312649
 20
1567.757530061414
 30
0.0
 11
1894.54799312649
 21
1570.757530061414
 31
0.0
  0
LINE
  5
D6
330
2
100
AcDbEntity
  8
本体
  6
Continuous
100
AcDbLine
 10
1894.54799312649
 20
1231.757530061414
 30
0.0
 11
1932.54799312649
 21
1231.757530061414
 31
0.0
  0
LINE
  5
D7
330
2
100
AcDbEntity
  8
本体
  6
Continuous
100
AcDbLine
 10
1932.54799312649
 20
1228.757530061414
 30
0.0
 11
1894.54799312649
 21
1225.757530061414
 31
0.0
  0
LINE
  5
D8
330
2
100
AcDbEntity
  8
本体
  6
Continuous
100
AcDbLine
 10
1894.54799312649
 20
1225.757530061414
 30
0.0
 11
1894.54799312649
 21
1231.757530061414
 31
0.0
  0
LINE
  5
D9
330
2
100
AcDbEntity
  8
本体
  6
Continuous
100
AcDbLine
 10
1932.54799312649
 20
1231.757530061414
 30
0.0
 11
1932.54799312649
 21
1228.757530061414
 31
0.0
  0
LINE
  5
DA
330
2
100
AcDbEntity
  8
本体
  6
Continuous
100
AcDbLine
 10
1894.54799312649
 20
1564.757530061414
 30
0.0
 11
1894.54799312649
 21
1231.757530061414
 31
0.0
  0
LINE
  5
DB
330
2
100
AcDbEntity
  8
本体
  6
Continuous
100
AcDbLine
 10
1932.54799312649
 20
1564.757530061414
 30
0.0
 11
1932.54799312649
 21
1231.757530061414
 31
0.0
  0
LINE
  5
DC
330
2
100
AcDbEntity
  8
本体
  6
Continuous
100
AcDbLine
 10
1900.54799312649
 20
1564.757530061414
 30
0.0
 11
1900.54799312649
 21
1231.757530061414
 31
0.0
  0
DIMENSION
  5
E8
330
2
100
AcDbEntity
  8
寸法線
  6
Continuous
100
AcDbDimension
  2
*D8
 10
1201.737522626156
 20
731.8669913043781
 30
0.0
 11
1254.630923641385
 21
751.8669913043781
 31
0.0
 70
    32
 71
     5
 42
30.0
  3
ISO-25
100
AcDbAlignedDimension
 13
1171.737522626156
 23
651.8669913043781
 33
0.0
 14
1201.737522626156
 24
651.8669913043781
 34
0.0
100
AcDbRotatedDimension
  0
DIMENSION
  5
105
330
2
100
AcDbEntity
  8
寸法線
  6
Continuous
100
AcDbDimension
  2
*D9
 10
1734.54799312649
 20
1225.757530061414
 30
0.0
 11
1714.54799312649
 21
1398.257530061414
 31
0.0
 70
    32
 71
     5
 42
345.0
  3
ISO-25
100
AcDbAlignedDimension
 13
1894.54799312649
 23
1570.757530061414
 33
0.0
 14
1894.54799312649
 24
1225.757530061414
 34
0.0
 50
90.0
100
AcDbRotatedDimension
  0
DIMENSION
  5
112
330
2
100
AcDbEntity
  8
寸法線
  6
Continuous
100
AcDbDimension
  2
*D10
 10
2084.428911634367
 20
1235.757540061414
 30
0.0
 11
2064.428911634366
 21
1398.257530061414
 31
0.0
 70
    32
 71
     5
 42
324.9999800000001
  3
ISO-25
100
AcDbAlignedDimension
 13
1987.54799512649
 23
1560.757520061414
 33
0.0
 14
1987.54799512649
 24
1235.757540061414
 34
0.0
 50
90.0
100
AcDbRotatedDimension
  0
LEADER
  5
11F
330
2
100
AcDbEntity
  8
寸法線
  6
Continuous
100
AcDbLeader
  3
ISO-25
 73
     0
 74
     0
 75
     1
 40
36.39593908629441
 41
132.1827411167512
 76
     3
 10
1414.317062994744
 20
1570.757530061414
 30
0.0
 10
1470.027741113399
 20
1643.968208180069
 30
0.0
 10
1485.027741113399
 20
1643.968208180069
 30
0.0
340
120
1001
ACAD
1000
DSTYLE
1002
{
1070
     5
1000
OPEN30
1070
    77
1070
     1
1070
   147
1040
0.5
1070
   342
1005
DE
1002
}
  0
MTEXT
  5
120
102
{ACAD_REACTORS
330
11F
102
}
330
2
100
AcDbEntity
  8
寸法線
  6
Continuous
100
AcDbMText
 10
1490.027741113399
 20
1648.968208180068
 30
0.0
 40
30.0
 41
0.0
 71
     7
 72
     1
  1
6/3\U+00D732
 73
     1
 44
1.0
1001
ACAD
1000
MTEXTBEGIN
1070
    73
1070
     1
1070
    44
1040
1.0
1070
    74
1070
     0
1000
MTEXTEND
  0
LEADER
  5
121
330
2
100
AcDbEntity
  8
寸法線
  6
Continuous
100
AcDbLeader
  3
ISO-25
 73
     0
 74
     0
 75
     1
 40
31.82741116751269
 41
385.4314720812182
 76
     3
 10
1955.04799012649
 20
1560.757531061414
 30
0.0
 10
2025.758667245145
 20
1643.968208180069
 30
0.0
 10
2040.758667245146
 20
1643.968208180069
 30
0.0
340
122
213
-6.0
223
0.0
233
0.0
1001
ACAD
1000
DSTYLE
1002
{
1070
     5
1000
OPEN30
1070
    77
1070
     1
1070
   147
1040
0.5
1070
   342
1005
DE
1002
}
  0
MTEXT
  5
122
102
{ACAD_REACTORS
330
121
102
}
330
2
100
AcDbEntity
  8
寸法線
  6
Continuous
100
AcDbMText
 10
2051.758667245145
 20
1648.968208180069
 30
0.0
 40
30.0
 41
0.0
 71
     7
 72
     1
  1
P2.3\U+00D750\U+00D740+HGRゴム
 73
     1
 44
1.0
1001
ACAD
1000
MTEXTBEGIN
1070
    73
1070
     1
1070
    44
1040
1.0
1070
    74
1070
     0
1000
MTEXTEND
  0
LINE
  5
123
102
{ACAD_REACTORS
330
1C8D
102
}
330
2
100
AcDbEntity
  8
ゴム
  6
Continuous
100
AcDbLine
 10
1404.237522626156
 20
564.8669913043781
 30
0.0
 11
429.2375226261565
 21
564.8669913043781
 31
0.0
  0
LINE
  5
124
330
2
100
AcDbEntity
  8
嵩上断面
  6
Continuous
100
AcDbLine
 10
1404.237522626156
 20
619.8669913043781
 30
0.0
 11
429.2375226261565
 21
619.8669913043781
 31
0.0
  0
LINE
  5
125
330
2
100
AcDbEntity
  8
嵩上断面
  6
HIDDEN
 48
2.0
100
AcDbLine
 10
1404.237522626156
 20
617.5669913043781
 30
0.0
 11
429.2375226261565
 21
617.5669913043781
 31
0.0
  0
LINE
  5
127
330
2
100
AcDbEntity
  8
中心線
  6
Continuous
100
AcDbLine
 10
1171.737522626156
 20
659.3281113121824
 30
0.0
 11
1171.737522626156
 21
605.3281113121824
 31
0.0
  0
LINE
  5
128
330
2
100
AcDbEntity
  8
中心線
  6
Continuous
100
AcDbLine
 10
1201.737522626156
 20
659.3281113121824
 30
0.0
 11
1201.737522626156
 21
605.3281113121824
 31
0.0
  0
LINE
  5
1D2
330
2
100
AcDbEntity
  8
本体
  6
Continuous
100
AcDbLine
 10
419.2375226261565
 20
1230.257530061414
 30
0.0
 11
1414.237522626156
 21
1230.257530061414
 31
0.0
  0
LINE
  5
1D3
330
2
100
AcDbEntity
  8
本体
  6
Continuous
100
AcDbLine
 10
419.2375226261565
 20
1225.757530061414
 30
0.0
 11
1414.237522626156
 21
1225.757530061414
 31
0.0
  0
INSERT
  5
217
330
2
100
AcDbEntity
  8
本体
  6
Continuous
100
AcDbBlockReference
  2
TB6
 10
1894.54799312649
 20
1523.257530061414
 30
0.0
  0
INSERT
  5
220
330
2
100
AcDbEntity
  8
本体
  6
Continuous
100
AcDbBlockReference
  2
TB6
 10
1894.54799312649
 20
1423.257530061414
 30
0.0
  0
INSERT
  5
221
330
2
100
AcDbEntity
  8
本体
  6
Continuous
100
AcDbBlockReference
  2
TB6
 10
1894.54799312649
 20
1323.257530061414
 30
0.0
  0
DIMENSION
  5
29F
330
2
100
AcDbEntity
  8
寸法線
  6
Continuous
100
AcDbDimension
  2
*D5
 10
1414.237522626156
 20
811.8669913043781
 30
0.0
 11
916.7375226261565
 21
831.8669913043782
 31
0.0
 70
    32
 71
     5
 42
995.0
  3
ISO-25
100
AcDbAlignedDimension
 13
419.2375226261565
 23
651.8669913043781
 33
0.0
 14
1414.237522626156
 24
651.8669913043781
 34
0.0
100
AcDbRotatedDimension
  0
DIMENSION
  5
2AC
330
2
100
AcDbEntity
  8
寸法線
  6
Continuous
100
AcDbDimension
  2
*D6
 10
1524.24214654992
 20
651.8669913043781
 30
0.0
 11
1504.24214654992
 21
704.4558237916881
 31
0.0
 70
    32
 71
     5
 42
32.0
  3
ISO-25
100
AcDbAlignedDimension
 13
1406.737522626156
 23
619.8669913043781
 33
0.0
 14
1411.737522626156
 24
651.8669913043781
 34
0.0
 50
90.0
100
AcDbRotatedDimension
  0
DIMENSION
  5
2BB
330
2
100
AcDbEntity
  8
寸法線
  6
Continuous
100
AcDbDimension
  2
*D7
 10
1623.20438345342
 20
564.8669913043781
 30
0.0
 11
1603.204383453419
 21
608.3669913043784
 31
0.0
 70
    32
 71
     5
 42
87.0
  3
ISO-25
100
AcDbAlignedDimension
 13
1411.737522626156
 23
651.8669913043781
 33
0.0
 14
1406.737522626156
 24
564.8669913043781
 34
0.0
 50
90.0
100
AcDbRotatedDimension
  0
LINE
  5
855
330
2
100
AcDbEntity
  8
本体
  6
Continuous
100
AcDbLine
 10
425.0499811206278
 20
645.8669913043782
 30
0.0
 11
449.2375226261565
 21
651.8669913043781
 31
0.0
  0
LINE
  5
856
330
2
100
AcDbEntity
  8
本体
  6
Continuous
100
AcDbLine
 10
425.0499811206278
 20
645.8669913043782
 30
0.0
 11
449.2375226261565
 21
645.8669913043782
 31
0.0
  0
LINE
  5
857
330
2
100
AcDbEntity
  8
本体
  6
Continuous
100
AcDbLine
 10
424.2375226261565
 20
651.8669913043781
 30
0.0
 11
449.2375226261565
 21
651.8669913043781
 31
0.0
  0
LINE
  5
888
330
2
100
AcDbEntity
  8
本体
  6
Continuous
100
AcDbLine
 10
1926.54799312649
 20
1564.757530061414
 30
0.0
 11
1926.54799312649
 21
1231.757530061414
 31
0.0
  0
LINE
  5
B97
102
{ACAD_REACTORS
330
1C8D
102
}
330
2
100
AcDbEntity
  8
嵩上断面
  6
Continuous
100
AcDbLine
 10
1404.237522626156
 20
569.8669913043781
 30
0.0
 11
429.2375226261565
 21
569.8669913043781
 31
0.0
  0
LINE
  5
B98
330
2
100
AcDbEntity
  8
嵩上断面
  6
HIDDEN
 48
2.0
100
AcDbLine
 10
1404.237522626156
 20
572.1669913043782
 30
0.0
 11
429.2375226261565
 21
572.1669913043782
 31
0.0
  0
DIMENSION
  5
B9B
330
2
100
AcDbEntity
  8
寸法線
  6
Continuous
100
AcDbDimension
  2
*D11
 10
1524.24214654992
 20
619.8669913043781
 30
0.0
 11
1504.24214654992
 21
594.8669913043784
 31
0.0
 70
    32
 71
     5
 42
50.0
  3
ISO-25
100
AcDbAlignedDimension
 13
1406.737522626156
 23
569.8669913043781
 33
0.0
 14
1406.737522626156
 24
619.8669913043781
 34
0.0
 50
90.0
100
AcDbRotatedDimension
  0
DIMENSION
  5
BA8
330
2
100
AcDbEntity
  8
寸法線
  6
Continuous
100
AcDbDimension
  2
*D12
 10
1524.24214654992
 20
564.8669913043781
 30
0.0
 11
1504.24214654992
 21
522.1004938424495
 31
0.0
 70
    32
 71
     5
 42
5.0
  3
ISO-25
100
AcDbAlignedDimension
 13
1406.737522626156
 23
569.8669913043781
 33
0.0
 14
1406.737522626156
 24
564.8669913043781
 34
0.0
 50
90.0
100
AcDbRotatedDimension
  0
INSERT
  5
BB7
330
2
100
AcDbEntity
  8
ゴム
  6
Continuous
100
AcDbBlockReference
  2
平ゴムパッキン
 10
1979.54799012649
 20
1560.757531061414
 30
0.0
  0
LINE
  5
BCA
330
2
100
AcDbEntity
  8
嵩上断面
  6
Continuous
100
AcDbLine
 10
1404.237522626156
 20
619.8669913043781
 30
0.0
 11
1404.237522626156
 21
569.8669913043781
 31
0.0
  0
LINE
  5
BCB
330
2
100
AcDbEntity
  8
嵩上断面
  6
Continuous
100
AcDbLine
 10
429.2375226261565
 20
619.8669913043781
 30
0.0
 11
429.2375226261564
 21
569.8669913043781
 31
0.0
  0
DIMENSION
  5
CA6
330
2
100
AcDbEntity
  8
寸法線
  6
Continuous
100
AcDbDimension
  2
*D13
 10
1404.237522626156
 20
404.8669913043782
 30
0.0
 11
916.737522626156
 21
424.8669913043782
 31
0.0
 70
    32
 71
     5
 42
974.9999999999991
  3
ISO-25
100
AcDbAlignedDimension
 13
429.2375226261565
 23
564.8669913043781
 33
0.0
 14
1404.237522626156
 24
564.8669913043781
 34
0.0
100
AcDbRotatedDimension
  0
LINE
  5
CDA
330
2
100
AcDbEntity
  8
嵩上断面
  6
HIDDEN
 48
3.0
100
AcDbLine
 10
429.2375226261565
 20
1563.257531061414
 30
0.0
 11
1404.237522626156
 21
1563.257531061414
 31
0.0
  0
LINE
  5
CDD
330
2
100
AcDbEntity
  8
嵩上断面
  6
HIDDEN
 48
3.0
100
AcDbLine
 10
429.2375226261565
 20
1233.257529061414
 30
0.0
 11
1404.237522626156
 21
1233.257529061414
 31
0.0
  0
LINE
  5
CDE
330
2
100
AcDbEntity
  8
嵩上断面
  6
HIDDEN
 48
3.0
100
AcDbLine
 10
1404.237522626156
 20
1233.257529061414
 30
0.0
 11
1404.237522626156
 21
1273.257529061414
 31
0.0
  0
LINE
  5
CDF
330
2
100
AcDbEntity
  8
嵩上断面
  6
HIDDEN
 48
3.0
100
AcDbLine
 10
429.2375226261565
 20
1563.257531061414
 30
0.0
 11
429.2375226261565
 21
1523.257531061414
 31
0.0
  0
LINE
  5
CE0
330
2
100
AcDbEntity
  8
嵩上断面
  6
HIDDEN
 48
3.0
100
AcDbLine
 10
1404.237522626156
 20
1523.257531061414
 30
0.0
 11
1404.237522626156
 21
1563.257531061414
 31
0.0
  0
LINE
  5
CE1
330
2
100
AcDbEntity
  8
嵩上断面
  6
HIDDEN
 48
3.0
100
AcDbLine
 10
429.2375226261565
 20
1273.257529061414
 30
0.0
 11
429.2375226261565
 21
1233.257529061414
 31
0.0
  0
INSERT
  5
CE7
330
2
100
AcDbEntity
  8
本体
  6
Continuous
100
AcDbBlockReference
  2
TB6
 10
1894.54799312649
 20
1273.257530061414
 30
0.0
  0
INSERT
  5
CE8
330
2
100
AcDbEntity
  8
本体
  6
Continuous
100
AcDbBlockReference
  2
TB6
 10
1894.54799312649
 20
1373.257530061414
 30
0.0
  0
INSERT
  5
CE9
330
2
100
AcDbEntity
  8
本体
  6
Continuous
100
AcDbBlockReference
  2
TB6
 10
1894.54799312649
 20
1473.257530061414
 30
0.0
  0
DIMENSION
  5
CEA
330
2
100
AcDbEntity
  8
寸法線
 48
3.0
100
AcDbDimension
  2
*D14
 10
1814.54799312649
 20
1473.257530061414
 30
0.0
 11
1794.54799312649
 21
1498.257530061414
 31
0.0
 70
    32
 71
     5
 42
50.0
  3
ISO-25
100
AcDbAlignedDimension
 13
1891.54799312649
 23
1523.257530061414
 33
0.0
 14
1891.54799312649
 24
1473.257530061414
 34
0.0
 50
90.0
100
AcDbRotatedDimension
  0
LINE
  5
E54
330
2
100
AcDbEntity
  8
本体
  6
Continuous
100
AcDbLine
 10
419.2375226261565
 20
1476.257530061414
 30
0.0
 11
1414.237522626156
 21
1476.257530061414
 31
0.0
  0
LINE
  5
E55
330
2
100
AcDbEntity
  8
本体
  6
Continuous
100
AcDbLine
 10
419.2375226261565
 20
1470.257530061414
 30
0.0
 11
1414.237522626156
 21
1470.257530061414
 31
0.0
  0
LINE
  5
F8A
330
2
100
AcDbEntity
  8
本体
  6
Continuous
100
AcDbLine
 10
419.2375226261565
 20
1426.257530061414
 30
0.0
 11
1414.237522626156
 21
1426.257530061414
 31
0.0
  0
LINE
  5
F8B
330
2
100
AcDbEntity
  8
本体
  6
Continuous
100
AcDbLine
 10
419.2375226261565
 20
1420.257530061414
 30
0.0
 11
1414.237522626156
 21
1420.257530061414
 31
0.0
  0
LINE
  5
10C0
330
2
100
AcDbEntity
  8
本体
  6
Continuous
100
AcDbLine
 10
419.2375226261565
 20
1376.257530061414
 30
0.0
 11
1414.237522626156
 21
1376.257530061414
 31
0.0
  0
LINE
  5
10C1
330
2
100
AcDbEntity
  8
本体
  6
Continuous
100
AcDbLine
 10
419.2375226261565
 20
1370.257530061414
 30
0.0
 11
1414.237522626156
 21
1370.257530061414
 31
0.0
  0
LINE
  5
11F6
330
2
100
AcDbEntity
  8
本体
  6
Continuous
100
AcDbLine
 10
419.2375226261565
 20
1326.257530061414
 30
0.0
 11
1414.237522626156
 21
1326.257530061414
 31
0.0
  0
LINE
  5
11F7
330
2
100
AcDbEntity
  8
本体
  6
Continuous
100
AcDbLine
 10
419.2375226261565
 20
1320.257530061414
 30
0.0
 11
1414.237522626156
 21
1320.257530061414
 31
0.0
  0
LINE
  5
132D
330
2
100
AcDbEntity
  8
本体
  6
Continuous
100
AcDbLine
 10
419.2375226261565
 20
1270.257530061414
 30
0.0
 11
1414.237522626156
 21
1270.257530061414
 31
0.0
  0
LINE
  5
132E
330
2
100
AcDbEntity
  8
本体
  6
Continuous
100
AcDbLine
 10
419.2375226261565
 20
1276.257530061414
 30
0.0
 11
1414.237522626156
 21
1276.257530061414
 31
0.0
  0
LINE
  5
1352
330
2
100
AcDbEntity
  8
嵩上断面
  6
HIDDEN
 48
3.0
100
AcDbLine
 10
429.2375226261565
 20
1273.257529061414
 30
0.0
 11
1404.237522626156
 21
1273.257529061414
 31
0.0
  0
LINE
  5
1353
330
2
100
AcDbEntity
  8
嵩上断面
  6
HIDDEN
 48
3.0
100
AcDbLine
 10
429.2375226261565
 20
1523.257531061414
 30
0.0
 11
1404.237522626156
 21
1523.257531061414
 31
0.0
  0
MTEXT
  5
14DE
330
2
100
AcDbEntity
  8
外枠
  6
Continuous
 48
100.0
370
     9
100
AcDbMText
 10
1022.193186254242
 20
77.61017986570414
 30
0.0
 40
18.0
 41
122.0406
 71
     1
 72
     5
  1
【主部材】
 73
     1
 44
1.0
1001
ACAD
1000
MTEXTBEGIN
1070
    73
1070
     1
1070
    44
1040
1.0
1070
    74
1070
     0
1000
MTEXTEND
  0
MTEXT
  5
14DF
330
2
100
AcDbEntity
  8
外枠
  6
Continuous
 48
100.0
370
     9
100
AcDbMText
 10
1038.975343934131
 20
43.7816999552947
 30
0.0
 40
25.0
 41
122.0406
 71
     1
 72
     5
  1
SS400
 73
     1
 44
1.0
1001
ACAD
1000
MTEXTBEGIN
1070
    73
1070
     1
1070
    44
1040
1.0
1070
    74
1070
     0
1000
MTEXTEND
  0
MTEXT
  5
14E0
330
2
100
AcDbEntity
  8
外枠
  6
Continuous
 48
100.0
370
     9
100
AcDbMText
 10
1202.677957061338
 20
120.1377642323818
 30
0.0
 40
25.0
 41
1015.1375
 71
     1
 72
     5
  1
溶融亜鉛めっき仕上
 73
     1
 44
1.0
1001
ACAD
1000
MTEXTBEGIN
1070
    73
1070
     1
1070
    44
1040
1.0
1070
    74
1070
     0
1000
MTEXTEND
  0
MTEXT
  5
14E1
330
2
100
AcDbEntity
  8
外枠
  6
Continuous
 48
100.0
370
     9
100
AcDbMText
 10
1199.761738767627
 20
151.0819879350654
 30
0.0
 40
18.0
 41
301.8661
 71
     1
 72
     5
  1
【グレーチング】JIS　H8641
 73
     1
 44
1.0
1001
ACAD
1000
MTEXTBEGIN
1070
    73
1070
     1
1070
    44
1040
1.0
1070
    74
1070
     0
1000
MTEXTEND
  0
MTEXT
  5
14E2
330
2
100
AcDbEntity
  8
外枠
  6
Continuous
 48
100.0
370
     9
100
AcDbMText
 10
1159.385398923399
 20
148.6111115828503
 30
0.0
 40
20.0
 41
1015.1375
 71
     1
 72
     5
  1
表\P面\P処\P理
 73
     1
 44
1.0
1001
ACAD
1000
MTEXTBEGIN
1070
    73
1070
     1
1070
    44
1040
1.0
1070
    74
1070
     0
1000
MTEXTEND
  0
LINE
  5
14E3
330
2
100
AcDbEntity
  8
外枠
  6
Continuous
 48
100.0
370
     9
100
AcDbLine
 10
1188.531791166651
 20
155.3992728207999
 30
0.0
 11
1188.531791166651
 21
9.999999999996816
 31
0.0
  0
LINE
  5
14E4
330
2
100
AcDbEntity
  8
外枠
  6
Continuous
 48
100.0
370
     9
100
AcDbLine
 10
1153.531306970095
 20
155.3992728207999
 30
0.0
 11
1153.531306970095
 21
9.999999999996816
 31
0.0
  0
LINE
  5
14E5
330
2
100
AcDbEntity
  8
外枠
 48
3.0
100
AcDbLine
 10
1188.531791166651
 20
82.6996364103984
 30
0.0
 11
1593.951336296073
 21
82.6996364103984
 31
0.0
  0
LINE
  5
15E1
330
2
100
AcDbEntity
  8
本体
100
AcDbLine
 10
450.2375226261565
 20
644.8669913043781
 30
0.0
 11
450.2375226261565
 21
626.8669913043781
 31
0.0
  0
LINE
  5
15E2
330
2
100
AcDbEntity
  8
本体
100
AcDbLine
 10
453.2375226261565
 20
644.8669913043781
 30
0.0
 11
453.2375226261565
 21
626.8669913043781
 31
0.0
  0
LINE
  5
15E3
330
2
100
AcDbEntity
  8
本体
100
AcDbLine
 10
450.2375226261565
 20
644.8669913043781
 30
0.0
 11
450.2375226261565
 21
626.8669913043781
 31
0.0
  0
LINE
  5
15E4
330
2
100
AcDbEntity
  8
本体
100
AcDbLine
 10
453.2375226261565
 20
644.8669913043781
 30
0.0
 11
453.2375226261565
 21
626.8669913043781
 31
0.0
  0
LINE
  5
15E5
330
2
100
AcDbEntity
  8
本体
100
AcDbLine
 10
450.2375226261565
 20
644.8669913043781
 30
0.0
 11
450.2375226261565
 21
626.8669913043781
 31
0.0
  0
LINE
  5
15E6
330
2
100
AcDbEntity
  8
本体
100
AcDbLine
 10
453.2375226261565
 20
644.8669913043781
 30
0.0
 11
453.2375226261565
 21
626.8669913043781
 31
0.0
  0
LINE
  5
15E8
330
2
100
AcDbEntity
  8
本体
100
AcDbLine
 10
449.2375226261565
 20
619.8669913043781
 30
0.0
 11
454.2375226261565
 21
619.8669913043781
 31
0.0
  0
LINE
  5
15E9
330
2
100
AcDbEntity
  8
本体
100
AcDbLine
 10
449.2375226261565
 20
619.8669913043781
 30
0.0
 11
454.2375226261565
 21
619.8669913043781
 31
0.0
  0
LINE
  5
15EA
330
2
100
AcDbEntity
  8
本体
100
AcDbLine
 10
449.2375226261565
 20
619.8669913043781
 30
0.0
 11
454.2375226261565
 21
619.8669913043781
 31
0.0
  0
LINE
  5
15EB
330
2
100
AcDbEntity
  8
本体
100
AcDbLine
 10
454.2375226261565
 20
619.8669913043781
 30
0.0
 11
454.2375226261565
 21
625.8669913043782
 31
0.0
  0
LINE
  5
15EC
330
2
100
AcDbEntity
  8
本体
100
AcDbLine
 10
454.2375226261565
 20
625.8669913043782
 30
0.0
 11
453.2375226261565
 21
626.8669913043781
 31
0.0
  0
LINE
  5
15ED
330
2
100
AcDbEntity
  8
本体
100
AcDbLine
 10
454.2375226261565
 20
619.8669913043781
 30
0.0
 11
454.2375226261565
 21
625.8669913043782
 31
0.0
  0
LINE
  5
15EE
330
2
100
AcDbEntity
  8
本体
100
AcDbLine
 10
454.2375226261565
 20
625.8669913043782
 30
0.0
 11
453.2375226261565
 21
626.8669913043781
 31
0.0
  0
LINE
  5
15EF
330
2
100
AcDbEntity
  8
本体
100
AcDbLine
 10
454.2375226261565
 20
619.8669913043781
 30
0.0
 11
454.2375226261565
 21
625.8669913043782
 31
0.0
  0
LINE
  5
15F0
330
2
100
AcDbEntity
  8
本体
100
AcDbLine
 10
454.2375226261565
 20
625.8669913043782
 30
0.0
 11
453.2375226261565
 21
626.8669913043781
 31
0.0
  0
LINE
  5
15F1
330
2
100
AcDbEntity
  8
本体
100
AcDbLine
 10
449.2375226261565
 20
619.8669913043781
 30
0.0
 11
449.2375226261565
 21
625.8669913043782
 31
0.0
  0
LINE
  5
15F2
330
2
100
AcDbEntity
  8
本体
100
AcDbLine
 10
449.2375226261565
 20
619.8669913043781
 30
0.0
 11
449.2375226261565
 21
625.8669913043782
 31
0.0
  0
LINE
  5
15F3
330
2
100
AcDbEntity
  8
本体
100
AcDbLine
 10
449.2375226261565
 20
619.8669913043781
 30
0.0
 11
449.2375226261565
 21
625.8669913043782
 31
0.0
  0
LINE
  5
15F4
330
2
100
AcDbEntity
  8
本体
100
AcDbLine
 10
449.2375226261565
 20
625.8669913043782
 30
0.0
 11
450.2375226261565
 21
626.8669913043781
 31
0.0
  0
LINE
  5
15F5
330
2
100
AcDbEntity
  8
本体
100
AcDbLine
 10
449.2375226261565
 20
625.8669913043782
 30
0.0
 11
450.2375226261565
 21
626.8669913043781
 31
0.0
  0
LINE
  5
15F6
330
2
100
AcDbEntity
  8
本体
100
AcDbLine
 10
449.2375226261565
 20
625.8669913043782
 30
0.0
 11
450.2375226261565
 21
626.8669913043781
 31
0.0
  0
LINE
  5
15FA
330
2
100
AcDbEntity
  8
本体
100
AcDbLine
 10
454.2375226261565
 20
651.8669913043781
 30
0.0
 11
454.2375226261565
 21
645.8669913043782
 31
0.0
  0
LINE
  5
15FB
330
2
100
AcDbEntity
  8
本体
100
AcDbLine
 10
454.2375226261565
 20
645.8669913043782
 30
0.0
 11
453.2375226261565
 21
644.8669913043781
 31
0.0
  0
LINE
  5
15FC
330
2
100
AcDbEntity
  8
本体
100
AcDbLine
 10
454.2375226261565
 20
651.8669913043781
 30
0.0
 11
454.2375226261565
 21
645.8669913043782
 31
0.0
  0
LINE
  5
15FD
330
2
100
AcDbEntity
  8
本体
100
AcDbLine
 10
454.2375226261565
 20
645.8669913043782
 30
0.0
 11
453.2375226261565
 21
644.8669913043781
 31
0.0
  0
LINE
  5
15FE
330
2
100
AcDbEntity
  8
本体
100
AcDbLine
 10
454.2375226261565
 20
651.8669913043781
 30
0.0
 11
454.2375226261565
 21
645.8669913043782
 31
0.0
  0
LINE
  5
15FF
330
2
100
AcDbEntity
  8
本体
100
AcDbLine
 10
454.2375226261565
 20
645.8669913043782
 30
0.0
 11
453.2375226261565
 21
644.8669913043781
 31
0.0
  0
LINE
  5
1600
330
2
100
AcDbEntity
  8
本体
100
AcDbLine
 10
449.2375226261565
 20
651.8669913043781
 30
0.0
 11
449.2375226261565
 21
645.8669913043782
 31
0.0
  0
LINE
  5
1601
330
2
100
AcDbEntity
  8
本体
100
AcDbLine
 10
449.2375226261565
 20
651.8669913043781
 30
0.0
 11
449.2375226261565
 21
645.8669913043782
 31
0.0
  0
LINE
  5
1602
330
2
100
AcDbEntity
  8
本体
100
AcDbLine
 10
449.2375226261565
 20
651.8669913043781
 30
0.0
 11
449.2375226261565
 21
645.8669913043782
 31
0.0
  0
LINE
  5
1603
330
2
100
AcDbEntity
  8
本体
100
AcDbLine
 10
449.2375226261565
 20
651.8669913043781
 30
0.0
 11
454.2375226261565
 21
651.8669913043781
 31
0.0
  0
LINE
  5
1604
330
2
100
AcDbEntity
  8
本体
100
AcDbLine
 10
449.2375226261565
 20
645.8669913043782
 30
0.0
 11
450.2375226261565
 21
644.8669913043781
 31
0.0
  0
LINE
  5
1605
330
2
100
AcDbEntity
  8
本体
100
AcDbLine
 10
449.2375226261565
 20
651.8669913043781
 30
0.0
 11
454.2375226261565
 21
651.8669913043781
 31
0.0
  0
LINE
  5
1606
330
2
100
AcDbEntity
  8
本体
100
AcDbLine
 10
449.2375226261565
 20
645.8669913043782
 30
0.0
 11
450.2375226261565
 21
644.8669913043781
 31
0.0
  0
LINE
  5
1607
330
2
100
AcDbEntity
  8
本体
100
AcDbLine
 10
449.2375226261565
 20
651.8669913043781
 30
0.0
 11
454.2375226261565
 21
651.8669913043781
 31
0.0
  0
LINE
  5
1608
330
2
100
AcDbEntity
  8
本体
100
AcDbLine
 10
449.2375226261565
 20
645.8669913043782
 30
0.0
 11
450.2375226261565
 21
644.8669913043781
 31
0.0
  0
LINE
  5
1ACF
330
2
100
AcDbEntity
  8
本体
  6
Continuous
100
AcDbLine
 10
1384.237522626156
 20
651.8669913043781
 30
0.0
 11
1409.297462457401
 21
651.8688757057462
 31
0.0
  0
LINE
  5
1AD0
330
2
100
AcDbEntity
  8
本体
  6
Continuous
100
AcDbLine
 10
1384.237522626156
 20
645.8669913043782
 30
0.0
 11
1408.171758972596
 21
645.8669913043782
 31
0.0
  0
LINE
  5
1AD1
330
2
100
AcDbEntity
  8
本体
  6
Continuous
100
AcDbLine
 10
1384.237522626156
 20
645.8669913043782
 30
0.0
 11
1409.297462457401
 21
651.8688757057462
 31
0.0
  0
MTEXT
  5
1BB3
330
2
100
AcDbEntity
  8
外枠
  6
Continuous
 48
100.0
370
     9
100
AcDbMText
 10
2509.985545378613
 20
121.2206105686568
 30
0.0
 40
23.47884
 41
274.1381
 71
     1
 72
     5
  1
'14・09・01
 73
     1
 44
1.0
1001
ACAD
1000
MTEXTBEGIN
1070
    73
1070
     1
1070
    44
1040
1.0
1070
    74
1070
     0
1000
MTEXTEND
  0
INSERT
  5
1C3A
330
2
100
AcDbEntity
  8
本体
 48
3.0
100
AcDbBlockReference
  2
P-H50
 10
1932.54799512649
 20
1560.757520061414
 30
0.0
  0
INSERT
  5
1C40
330
2
100
AcDbEntity
  8
本体
 48
3.0
100
AcDbBlockReference
  2
P-H50
 10
1932.54799512649
 20
1235.757540061414
 30
0.0
 41
-1.0
 50
180.0
  0
INSERT
  5
1C41
330
2
100
AcDbEntity
  8
ゴム
  6
Continuous
100
AcDbBlockReference
  2
平ゴムパッキン
 10
1979.54799012649
 20
1235.757529061414
 30
0.0
 41
-1.0
 50
180.0
  0
LINE
  5
1C7D
102
{ACAD_REACTORS
330
1C8D
102
}
330
2
100
AcDbEntity
  8
ゴム
 48
3.0
100
AcDbLine
 10
429.2375226261564
 20
569.8669913043781
 30
0.0
 11
429.2375226261565
 21
564.8669913043781
 31
0.0
  0
LINE
  5
1C7F
102
{ACAD_REACTORS
330
1C8D
102
}
330
2
100
AcDbEntity
  8
ゴム
 48
3.0
100
AcDbLine
 10
1404.237522626156
 20
569.8669913043781
 30
0.0
 11
1404.237522626156
 21
564.8669913043781
 31
0.0
  0
HATCH
  5
1C8D
330
2
100
AcDbEntity
  8
ゴム
 48
3.0
100
AcDbHatch
 10
0.0
 20
0.0
 30
0.0
210
0.0
220
0.0
230
1.0
  2
ANSI31
 70
     0
 71
     1
 91
        1
 92
        7
 72
     0
 73
     1
 93
        4
 10
1404.237522626156
 20
569.8669913043783
 10
429.2375226261563
 20
569.8669913043783
 10
429.2375226261564
 20
564.8669913043781
 10
1404.237522626156
 20
564.8669913043781
 97
        4
330
B97
330
1C7D
330
123
330
1C7F
 75
     0
 76
     1
 52
0.0
 41
1.0
 77
     0
 78
     1
 53
45.0
 43
0.0
 44
0.0
 45
-2.245064030267287
 46
2.245064030267288
 79
     0
 47
2.468055052498481
 98
        1
 10
1007.888183505674
 20
568.4756488019989
  0
MTEXT
  5
1CFB
330
2
100
AcDbEntity
  8
外枠
  6
Continuous
100
AcDbMText
 10
2427.938927859905
 20
67.25039165302224
 30
0.0
 40
28.17460800000001
 41
43.8527
 71
     1
 72
     5
  1
{\fHG正楷書体-PRO|b0|i0|c128|p65;水}
 73
     1
 44
1.0
1001
ACAD
1000
MTEXTBEGIN
1070
    73
1070
     1
1070
    44
1040
1.0
1070
    74
1070
     0
1000
MTEXTEND
  0
MTEXT
  5
1CFC
330
2
100
AcDbEntity
  8
外枠
  6
Continuous
100
AcDbMText
 10
2427.938927859905
 20
109.7804165221496
 30
0.0
 40
28.17460800000001
 41
43.8527
 71
     1
 72
     5
  1
{\fHG正楷書体-PRO|b0|i0|c128|p65;清}
 73
     1
 44
1.0
1001
ACAD
1000
MTEXTBEGIN
1070
    73
1070
     1
1070
    44
1040
1.0
1070
    74
1070
     0
1000
MTEXTEND
  0
ELLIPSE
  5
1CFD
330
2
100
AcDbEntity
  8
外枠
  6
Continuous
100
AcDbEllipse
 10
2449.066278910865
 20
70.80064248893541
 30
0.0
 11
0.0
 21
-47.8594442149426
 31
0.0
210
0.0
220
0.0
230
1.0
 40
0.7999999999999857
 41
0.0
 42
6.283185307179586
  0
INSERT
  5
1DD1
330
2
100
AcDbEntity
  8
外枠
 48
3.0
100
AcDbBlockReference
  2
鎌下
 10
2271.730765417811
 20
155.3992728207995
 30
0.0
  0
LINE
  5
1E6D
330
2
100
AcDbEntity
  8
本体
100
AcDbLine
 10
423.2513215132703
 20
625.4086784268496
 30
0.0
 11
424.0849566667478
 21
626.5510673408742
 31
0.0
  0
LINE
  5
1E6E
330
2
100
AcDbEntity
  8
本体
100
AcDbLine
 10
420.1637839077982
 20
645.1689191018715
 30
0.0
 11
421.3061728218228
 21
644.3352839483941
 31
0.0
  0
LINE
  5
1E6F
330
2
100
AcDbEntity
  8
本体
100
AcDbLine
 10
419.2375226261565
 20
651.0969913043782
 30
0.0
 11
424.177582794912
 21
651.8688757057462
 31
0.0
  0
LINE
  5
1E70
330
2
100
AcDbEntity
  8
本体
100
AcDbLine
 10
423.2513215132703
 20
625.4086784268496
 30
0.0
 11
424.0849566667478
 21
626.5510673408742
 31
0.0
  0
LINE
  5
1E71
330
2
100
AcDbEntity
  8
本体
100
AcDbLine
 10
420.1637839077982
 20
645.1689191018715
 30
0.0
 11
421.3061728218228
 21
644.3352839483941
 31
0.0
  0
LINE
  5
1E72
330
2
100
AcDbEntity
  8
本体
100
AcDbLine
 10
419.2375226261565
 20
651.0969913043782
 30
0.0
 11
424.177582794912
 21
651.8688757057462
 31
0.0
  0
LINE
  5
1E73
330
2
100
AcDbEntity
  8
本体
100
AcDbLine
 10
423.2513215132703
 20
625.4086784268496
 30
0.0
 11
424.0849566667478
 21
626.5510673408742
 31
0.0
  0
LINE
  5
1E74
330
2
100
AcDbEntity
  8
本体
100
AcDbLine
 10
420.1637839077982
 20
645.1689191018715
 30
0.0
 11
421.3061728218228
 21
644.3352839483941
 31
0.0
  0
LINE
  5
1E75
330
2
100
AcDbEntity
  8
本体
100
AcDbLine
 10
419.2375226261565
 20
651.0969913043782
 30
0.0
 11
424.177582794912
 21
651.8688757057462
 31
0.0
  0
LINE
  5
1E76
330
2
100
AcDbEntity
  8
本体
100
AcDbLine
 10
424.1775827949119
 20
619.4806062243429
 30
0.0
 11
423.2513215132703
 21
625.4086784268496
 31
0.0
  0
LINE
  5
1E77
330
2
100
AcDbEntity
  8
本体
100
AcDbLine
 10
424.1775827949119
 20
619.4806062243429
 30
0.0
 11
423.2513215132703
 21
625.4086784268496
 31
0.0
  0
LINE
  5
1E78
330
2
100
AcDbEntity
  8
本体
100
AcDbLine
 10
424.1775827949119
 20
619.4806062243429
 30
0.0
 11
423.2513215132703
 21
625.4086784268496
 31
0.0
  0
LINE
  5
1E79
330
2
100
AcDbEntity
  8
本体
100
AcDbLine
 10
419.2375226261565
 20
651.0969913043782
 30
0.0
 11
420.1637839077982
 21
645.1689191018715
 31
0.0
  0
LINE
  5
1E7A
330
2
100
AcDbEntity
  8
本体
100
AcDbLine
 10
419.2375226261565
 20
651.0969913043782
 30
0.0
 11
420.1637839077982
 21
645.1689191018715
 31
0.0
  0
LINE
  5
1E7B
330
2
100
AcDbEntity
  8
本体
100
AcDbLine
 10
419.2375226261565
 20
651.0969913043782
 30
0.0
 11
420.1637839077982
 21
645.1689191018715
 31
0.0
  0
LINE
  5
1E7C
330
2
100
AcDbEntity
  8
本体
100
AcDbLine
 10
424.270208923076
 20
644.7984145892148
 30
0.0
 11
427.048992768001
 21
627.0141979816951
 31
0.0
  0
LINE
  5
1E7D
330
2
100
AcDbEntity
  8
本体
100
AcDbLine
 10
421.3061728218228
 20
644.3352839483941
 30
0.0
 11
424.0849566667478
 21
626.5510673408742
 31
0.0
  0
LINE
  5
1E7E
330
2
100
AcDbEntity
  8
本体
100
AcDbLine
 10
424.270208923076
 20
644.7984145892148
 30
0.0
 11
427.048992768001
 21
627.0141979816951
 31
0.0
  0
LINE
  5
1E7F
330
2
100
AcDbEntity
  8
本体
100
AcDbLine
 10
421.3061728218228
 20
644.3352839483941
 30
0.0
 11
424.0849566667478
 21
626.5510673408742
 31
0.0
  0
LINE
  5
1E80
330
2
100
AcDbEntity
  8
本体
100
AcDbLine
 10
424.270208923076
 20
644.7984145892148
 30
0.0
 11
427.048992768001
 21
627.0141979816951
 31
0.0
  0
LINE
  5
1E81
330
2
100
AcDbEntity
  8
本体
100
AcDbLine
 10
421.3061728218228
 20
644.3352839483941
 30
0.0
 11
424.0849566667478
 21
626.5510673408742
 31
0.0
  0
LINE
  5
1E82
330
2
100
AcDbEntity
  8
本体
100
AcDbLine
 10
428.1913816820258
 20
626.1805628282177
 30
0.0
 11
427.048992768001
 21
627.0141979816951
 31
0.0
  0
LINE
  5
1E83
330
2
100
AcDbEntity
  8
本体
100
AcDbLine
 10
429.1176429636674
 20
620.252490625711
 30
0.0
 11
428.1913816820258
 21
626.1805628282177
 31
0.0
  0
LINE
  5
1E84
330
2
100
AcDbEntity
  8
本体
100
AcDbLine
 10
428.1913816820258
 20
626.1805628282177
 30
0.0
 11
427.048992768001
 21
627.0141979816951
 31
0.0
  0
LINE
  5
1E85
330
2
100
AcDbEntity
  8
本体
100
AcDbLine
 10
429.1176429636674
 20
620.252490625711
 30
0.0
 11
428.1913816820258
 21
626.1805628282177
 31
0.0
  0
LINE
  5
1E86
330
2
100
AcDbEntity
  8
本体
100
AcDbLine
 10
428.1913816820258
 20
626.1805628282177
 30
0.0
 11
427.048992768001
 21
627.0141979816951
 31
0.0
  0
LINE
  5
1E87
330
2
100
AcDbEntity
  8
本体
100
AcDbLine
 10
429.1176429636674
 20
620.252490625711
 30
0.0
 11
428.1913816820258
 21
626.1805628282177
 31
0.0
  0
LINE
  5
1E88
330
2
100
AcDbEntity
  8
本体
100
AcDbLine
 10
425.1038440765537
 20
645.9408035032395
 30
0.0
 11
424.270208923076
 21
644.7984145892148
 31
0.0
  0
LINE
  5
1E89
330
2
100
AcDbEntity
  8
本体
100
AcDbLine
 10
424.177582794912
 20
651.8688757057462
 30
0.0
 11
425.1038440765537
 21
645.9408035032395
 31
0.0
  0
LINE
  5
1E8A
330
2
100
AcDbEntity
  8
本体
100
AcDbLine
 10
425.1038440765537
 20
645.9408035032395
 30
0.0
 11
424.270208923076
 21
644.7984145892148
 31
0.0
  0
LINE
  5
1E8B
330
2
100
AcDbEntity
  8
本体
100
AcDbLine
 10
424.177582794912
 20
651.8688757057462
 30
0.0
 11
425.1038440765537
 21
645.9408035032395
 31
0.0
  0
LINE
  5
1E8C
330
2
100
AcDbEntity
  8
本体
100
AcDbLine
 10
425.1038440765537
 20
645.9408035032395
 30
0.0
 11
424.270208923076
 21
644.7984145892148
 31
0.0
  0
LINE
  5
1E8D
330
2
100
AcDbEntity
  8
本体
100
AcDbLine
 10
424.177582794912
 20
651.8688757057462
 30
0.0
 11
425.1038440765537
 21
645.9408035032395
 31
0.0
  0
LINE
  5
1E8E
330
2
100
AcDbEntity
  8
本体
100
AcDbLine
 10
424.1775827949119
 20
619.4806062243429
 30
0.0
 11
429.1176429636674
 21
620.252490625711
 31
0.0
  0
LINE
  5
1E8F
330
2
100
AcDbEntity
  8
本体
100
AcDbLine
 10
424.1775827949119
 20
619.4806062243429
 30
0.0
 11
429.1176429636674
 21
620.252490625711
 31
0.0
  0
LINE
  5
1E90
330
2
100
AcDbEntity
  8
本体
100
AcDbLine
 10
424.1775827949119
 20
619.4806062243429
 30
0.0
 11
429.1176429636674
 21
620.252490625711
 31
0.0
  0
LINE
  5
1E91
330
2
100
AcDbEntity
  8
本体
100
AcDbLine
 10
1412.16887243049
 20
644.3352839483941
 30
0.0
 11
1409.390088585565
 21
626.5510673408743
 31
0.0
  0
LINE
  5
1E92
330
2
100
AcDbEntity
  8
本体
100
AcDbLine
 10
1409.204836329236
 20
644.7984145892148
 30
0.0
 11
1406.426052484311
 21
627.0141979816951
 31
0.0
  0
LINE
  5
1E93
330
2
100
AcDbEntity
  8
本体
100
AcDbLine
 10
1412.16887243049
 20
644.3352839483941
 30
0.0
 11
1409.390088585565
 21
626.5510673408743
 31
0.0
  0
LINE
  5
1E94
330
2
100
AcDbEntity
  8
本体
100
AcDbLine
 10
1409.204836329236
 20
644.7984145892148
 30
0.0
 11
1406.426052484311
 21
627.0141979816951
 31
0.0
  0
LINE
  5
1E95
330
2
100
AcDbEntity
  8
本体
100
AcDbLine
 10
1412.16887243049
 20
644.3352839483941
 30
0.0
 11
1409.390088585565
 21
626.5510673408743
 31
0.0
  0
LINE
  5
1E96
330
2
100
AcDbEntity
  8
本体
100
AcDbLine
 10
1409.204836329236
 20
644.7984145892148
 30
0.0
 11
1406.426052484311
 21
627.0141979816951
 31
0.0
  0
LINE
  5
1E97
330
2
100
AcDbEntity
  8
本体
100
AcDbLine
 10
1405.283663570287
 20
626.1805628282177
 30
0.0
 11
1406.426052484311
 21
627.0141979816951
 31
0.0
  0
LINE
  5
1E98
330
2
100
AcDbEntity
  8
本体
100
AcDbLine
 10
1405.283663570287
 20
626.1805628282177
 30
0.0
 11
1406.426052484311
 21
627.0141979816951
 31
0.0
  0
LINE
  5
1E99
330
2
100
AcDbEntity
  8
本体
100
AcDbLine
 10
1405.283663570287
 20
626.1805628282177
 30
0.0
 11
1406.426052484311
 21
627.0141979816951
 31
0.0
  0
LINE
  5
1E9A
330
2
100
AcDbEntity
  8
本体
100
AcDbLine
 10
1404.357402288645
 20
620.252490625711
 30
0.0
 11
1405.283663570287
 21
626.1805628282177
 31
0.0
  0
LINE
  5
1E9B
330
2
100
AcDbEntity
  8
本体
100
AcDbLine
 10
1404.357402288645
 20
620.252490625711
 30
0.0
 11
1405.283663570287
 21
626.1805628282177
 31
0.0
  0
LINE
  5
1E9C
330
2
100
AcDbEntity
  8
本体
100
AcDbLine
 10
1404.357402288645
 20
620.252490625711
 30
0.0
 11
1405.283663570287
 21
626.1805628282177
 31
0.0
  0
LINE
  5
1E9D
330
2
100
AcDbEntity
  8
本体
100
AcDbLine
 10
1410.223723739042
 20
625.4086784268496
 30
0.0
 11
1409.390088585565
 21
626.5510673408743
 31
0.0
  0
LINE
  5
1E9E
330
2
100
AcDbEntity
  8
本体
100
AcDbLine
 10
1409.297462457401
 20
619.4806062243429
 30
0.0
 11
1410.223723739042
 21
625.4086784268496
 31
0.0
  0
LINE
  5
1E9F
330
2
100
AcDbEntity
  8
本体
100
AcDbLine
 10
1410.223723739042
 20
625.4086784268496
 30
0.0
 11
1409.390088585565
 21
626.5510673408743
 31
0.0
  0
LINE
  5
1EA0
330
2
100
AcDbEntity
  8
本体
100
AcDbLine
 10
1409.297462457401
 20
619.4806062243429
 30
0.0
 11
1410.223723739042
 21
625.4086784268496
 31
0.0
  0
LINE
  5
1EA1
330
2
100
AcDbEntity
  8
本体
100
AcDbLine
 10
1410.223723739042
 20
625.4086784268496
 30
0.0
 11
1409.390088585565
 21
626.5510673408743
 31
0.0
  0
LINE
  5
1EA2
330
2
100
AcDbEntity
  8
本体
100
AcDbLine
 10
1409.297462457401
 20
619.4806062243429
 30
0.0
 11
1410.223723739042
 21
625.4086784268496
 31
0.0
  0
LINE
  5
1EA3
330
2
100
AcDbEntity
  8
本体
100
AcDbLine
 10
1404.357402288645
 20
620.252490625711
 30
0.0
 11
1409.297462457401
 21
619.4806062243429
 31
0.0
  0
LINE
  5
1EA4
330
2
100
AcDbEntity
  8
本体
100
AcDbLine
 10
1404.357402288645
 20
620.252490625711
 30
0.0
 11
1409.297462457401
 21
619.4806062243429
 31
0.0
  0
LINE
  5
1EA5
330
2
100
AcDbEntity
  8
本体
100
AcDbLine
 10
1404.357402288645
 20
620.252490625711
 30
0.0
 11
1409.297462457401
 21
619.4806062243429
 31
0.0
  0
LINE
  5
1EA6
330
2
100
AcDbEntity
  8
本体
100
AcDbLine
 10
1408.371201175759
 20
645.9408035032397
 30
0.0
 11
1409.204836329236
 21
644.7984145892148
 31
0.0
  0
LINE
  5
1EA7
330
2
100
AcDbEntity
  8
本体
100
AcDbLine
 10
1409.297462457401
 20
651.8688757057462
 30
0.0
 11
1414.237522626156
 21
651.0969913043782
 31
0.0
  0
LINE
  5
1EA8
330
2
100
AcDbEntity
  8
本体
100
AcDbLine
 10
1408.371201175759
 20
645.9408035032397
 30
0.0
 11
1409.204836329236
 21
644.7984145892148
 31
0.0
  0
LINE
  5
1EA9
330
2
100
AcDbEntity
  8
本体
100
AcDbLine
 10
1409.297462457401
 20
651.8688757057462
 30
0.0
 11
1414.237522626156
 21
651.0969913043782
 31
0.0
  0
LINE
  5
1EAA
330
2
100
AcDbEntity
  8
本体
100
AcDbLine
 10
1408.371201175759
 20
645.9408035032397
 30
0.0
 11
1409.204836329236
 21
644.7984145892148
 31
0.0
  0
LINE
  5
1EAB
330
2
100
AcDbEntity
  8
本体
100
AcDbLine
 10
1409.297462457401
 20
651.8688757057462
 30
0.0
 11
1414.237522626156
 21
651.0969913043782
 31
0.0
  0
LINE
  5
1EAC
330
2
100
AcDbEntity
  8
本体
100
AcDbLine
 10
1409.297462457401
 20
651.8688757057462
 30
0.0
 11
1408.371201175759
 21
645.9408035032397
 31
0.0
  0
LINE
  5
1EAD
330
2
100
AcDbEntity
  8
本体
100
AcDbLine
 10
1409.297462457401
 20
651.8688757057462
 30
0.0
 11
1408.371201175759
 21
645.9408035032397
 31
0.0
  0
LINE
  5
1EAE
330
2
100
AcDbEntity
  8
本体
100
AcDbLine
 10
1409.297462457401
 20
651.8688757057462
 30
0.0
 11
1408.371201175759
 21
645.9408035032397
 31
0.0
  0
LINE
  5
1EAF
330
2
100
AcDbEntity
  8
本体
100
AcDbLine
 10
1413.311261344515
 20
645.1689191018716
 30
0.0
 11
1412.16887243049
 21
644.3352839483941
 31
0.0
  0
LINE
  5
1EB0
330
2
100
AcDbEntity
  8
本体
100
AcDbLine
 10
1414.237522626156
 20
651.0969913043782
 30
0.0
 11
1413.311261344515
 21
645.1689191018716
 31
0.0
  0
LINE
  5
1EB1
330
2
100
AcDbEntity
  8
本体
100
AcDbLine
 10
1413.311261344515
 20
645.1689191018716
 30
0.0
 11
1412.16887243049
 21
644.3352839483941
 31
0.0
  0
LINE
  5
1EB2
330
2
100
AcDbEntity
  8
本体
100
AcDbLine
 10
1414.237522626156
 20
651.0969913043782
 30
0.0
 11
1413.311261344515
 21
645.1689191018716
 31
0.0
  0
LINE
  5
1EB3
330
2
100
AcDbEntity
  8
本体
100
AcDbLine
 10
1413.311261344515
 20
645.1689191018716
 30
0.0
 11
1412.16887243049
 21
644.3352839483941
 31
0.0
  0
LINE
  5
1EB4
330
2
100
AcDbEntity
  8
本体
100
AcDbLine
 10
1414.237522626156
 20
651.0969913043782
 30
0.0
 11
1413.311261344515
 21
645.1689191018716
 31
0.0
  0
LINE
  5
1F5D
330
2
100
AcDbEntity
  8
本体
 48
3.0
100
AcDbLine
 10
1384.237522626156
 20
619.8669913043781
 30
0.0
 11
1406.827432373023
 21
619.8665484250271
 31
0.0
  0
LINE
  5
1F5E
330
2
100
AcDbEntity
  8
本体
 48
3.0
100
AcDbLine
 10
449.2375226261565
 20
619.8669913043781
 30
0.0
 11
426.6476128792897
 21
619.8665484250271
 31
0.0
  0
INSERT
  5
1F67
102
{ACAD_REACTORS
330
1F9B
102
}
330
2
100
AcDbEntity
  8
本体
100
AcDbBlockReference
  2
*U18
 10
469.2375226261565
 20
635.8669913043781
 30
0.0
  0
LINE
  5
1FD1
330
2
100
AcDbEntity
  8
本体
 48
3.0
100
AcDbLine
 10
419.2375226261565
 20
1570.757530061414
 30
0.0
 11
419.2375226261565
 21
1225.757530061414
 31
0.0
  0
LINE
  5
1FD2
330
2
100
AcDbEntity
  8
本体
 48
3.0
100
AcDbLine
 10
1414.237522626156
 20
1570.757530061414
 30
0.0
 11
1414.237522626156
 21
1225.757530061414
 31
0.0
  0
LINE
  5
1FD3
330
2
100
AcDbEntity
  8
本体
  6
Continuous
100
AcDbLine
 10
1379.237522626156
 20
1520.257530061414
 30
0.0
 11
1409.237522626156
 21
1526.257530061414
 31
0.0
  0
LINE
  5
1FD4
330
2
100
AcDbEntity
  8
本体
  6
Continuous
100
AcDbLine
 10
1414.237522626156
 20
1566.257530061414
 30
0.0
 11
1414.237522626156
 21
1526.257530061414
 31
0.0
  0
LINE
  5
1FD5
330
2
100
AcDbEntity
  8
本体
  6
Continuous
100
AcDbLine
 10
1409.237522626156
 20
1566.257530061414
 30
0.0
 11
1409.237522626156
 21
1526.257530061414
 31
0.0
  0
LINE
  5
1FD6
330
2
100
AcDbEntity
  8
本体
  6
Continuous
100
AcDbLine
 10
1409.237522626156
 20
1230.257530061414
 30
0.0
 11
1409.237522626156
 21
1270.257530061414
 31
0.0
  0
LINE
  5
1FD7
330
2
100
AcDbEntity
  8
本体
  6
Continuous
100
AcDbLine
 10
1414.237522626156
 20
1230.257530061414
 30
0.0
 11
1414.237522626156
 21
1270.257530061414
 31
0.0
  0
LINE
  5
1FD8
330
2
100
AcDbEntity
  8
本体
  6
Continuous
100
AcDbLine
 10
1414.237522626156
 20
1520.257530061414
 30
0.0
 11
1414.237522626156
 21
1476.257530061414
 31
0.0
  0
LINE
  5
1FD9
330
2
100
AcDbEntity
  8
本体
  6
Continuous
100
AcDbLine
 10
1409.237522626156
 20
1520.257530061414
 30
0.0
 11
1409.237522626156
 21
1476.257530061414
 31
0.0
  0
LINE
  5
1FDA
330
2
100
AcDbEntity
  8
エンボス
  6
Continuous
100
AcDbLine
 10
1409.237522626156
 20
1504.757530061414
 30
0.0
 11
1414.237522626156
 21
1502.757530061414
 31
0.0
  0
LINE
  5
1FDB
330
2
100
AcDbEntity
  8
エンボス
  6
Continuous
100
AcDbLine
 10
1409.237522626156
 20
1488.757530061414
 30
0.0
 11
1414.237522626156
 21
1490.757530061414
 31
0.0
  0
LINE
  5
1FDC
330
2
100
AcDbEntity
  8
エンボス
  6
Continuous
100
AcDbLine
 10
1414.237522626156
 20
1483.757530061414
 30
0.0
 11
1409.237522626156
 21
1485.757530061414
 31
0.0
  0
LINE
  5
1FDD
330
2
100
AcDbEntity
  8
エンボス
  6
Continuous
100
AcDbLine
 10
1414.237522626156
 20
1499.757530061414
 30
0.0
 11
1409.237522626156
 21
1497.757530061414
 31
0.0
  0
LINE
  5
1FDE
330
2
100
AcDbEntity
  8
エンボス
  6
Continuous
100
AcDbLine
 10
1409.237522626156
 20
1516.757530061414
 30
0.0
 11
1414.237522626156
 21
1518.757530061414
 31
0.0
  0
LINE
  5
1FDF
330
2
100
AcDbEntity
  8
エンボス
  6
Continuous
100
AcDbLine
 10
1414.237522626156
 20
1511.757530061414
 30
0.0
 11
1409.237522626156
 21
1513.757530061414
 31
0.0
  0
LINE
  5
1FE0
330
2
100
AcDbEntity
  8
本体
  6
Continuous
100
AcDbLine
 10
1379.237522626156
 20
1470.257530061414
 30
0.0
 11
1409.237522626156
 21
1476.257530061414
 31
0.0
  0
LINE
  5
1FE1
330
2
100
AcDbEntity
  8
本体
  6
Continuous
100
AcDbLine
 10
1409.237522626156
 20
1470.257530061414
 30
0.0
 11
1409.237522626156
 21
1426.257530061414
 31
0.0
  0
LINE
  5
1FE2
330
2
100
AcDbEntity
  8
本体
  6
Continuous
100
AcDbLine
 10
1414.237522626156
 20
1470.257530061414
 30
0.0
 11
1414.237522626156
 21
1426.257530061414
 31
0.0
  0
LINE
  5
1FE3
330
2
100
AcDbEntity
  8
エンボス
  6
Continuous
100
AcDbLine
 10
1414.237522626156
 20
1433.757530061414
 30
0.0
 11
1409.237522626156
 21
1435.757530061414
 31
0.0
  0
LINE
  5
1FE4
330
2
100
AcDbEntity
  8
エンボス
  6
Continuous
100
AcDbLine
 10
1409.237522626156
 20
1466.757530061414
 30
0.0
 11
1414.237522626156
 21
1468.757530061414
 31
0.0
  0
LINE
  5
1FE5
330
2
100
AcDbEntity
  8
エンボス
  6
Continuous
100
AcDbLine
 10
1409.237522626156
 20
1454.757530061414
 30
0.0
 11
1414.237522626156
 21
1452.757530061414
 31
0.0
  0
LINE
  5
1FE6
330
2
100
AcDbEntity
  8
エンボス
  6
Continuous
100
AcDbLine
 10
1409.237522626156
 20
1438.757530061414
 30
0.0
 11
1414.237522626156
 21
1440.757530061414
 31
0.0
  0
LINE
  5
1FE7
330
2
100
AcDbEntity
  8
エンボス
  6
Continuous
100
AcDbLine
 10
1414.237522626156
 20
1449.757530061414
 30
0.0
 11
1409.237522626156
 21
1447.757530061414
 31
0.0
  0
LINE
  5
1FE8
330
2
100
AcDbEntity
  8
エンボス
  6
Continuous
100
AcDbLine
 10
1414.237522626156
 20
1461.757530061414
 30
0.0
 11
1409.237522626156
 21
1463.757530061414
 31
0.0
  0
LINE
  5
1FE9
330
2
100
AcDbEntity
  8
本体
  6
Continuous
100
AcDbLine
 10
1379.237522626156
 20
1420.257530061414
 30
0.0
 11
1409.237522626156
 21
1426.257530061414
 31
0.0
  0
LINE
  5
1FEA
330
2
100
AcDbEntity
  8
本体
  6
Continuous
100
AcDbLine
 10
1409.237522626156
 20
1420.257530061414
 30
0.0
 11
1409.237522626156
 21
1376.257530061414
 31
0.0
  0
LINE
  5
1FEB
330
2
100
AcDbEntity
  8
本体
  6
Continuous
100
AcDbLine
 10
1414.237522626156
 20
1420.257530061414
 30
0.0
 11
1414.237522626156
 21
1376.257530061414
 31
0.0
  0
LINE
  5
1FEC
330
2
100
AcDbEntity
  8
エンボス
  6
Continuous
100
AcDbLine
 10
1414.237522626156
 20
1383.757530061414
 30
0.0
 11
1409.237522626156
 21
1385.757530061414
 31
0.0
  0
LINE
  5
1FED
330
2
100
AcDbEntity
  8
エンボス
  6
Continuous
100
AcDbLine
 10
1409.237522626156
 20
1416.757530061414
 30
0.0
 11
1414.237522626156
 21
1418.757530061414
 31
0.0
  0
LINE
  5
1FEE
330
2
100
AcDbEntity
  8
エンボス
  6
Continuous
100
AcDbLine
 10
1409.237522626156
 20
1404.757530061414
 30
0.0
 11
1414.237522626156
 21
1402.757530061414
 31
0.0
  0
LINE
  5
1FEF
330
2
100
AcDbEntity
  8
エンボス
  6
Continuous
100
AcDbLine
 10
1409.237522626156
 20
1388.757530061414
 30
0.0
 11
1414.237522626156
 21
1390.757530061414
 31
0.0
  0
LINE
  5
1FF0
330
2
100
AcDbEntity
  8
エンボス
  6
Continuous
100
AcDbLine
 10
1414.237522626156
 20
1399.757530061414
 30
0.0
 11
1409.237522626156
 21
1397.757530061414
 31
0.0
  0
LINE
  5
1FF1
330
2
100
AcDbEntity
  8
エンボス
  6
Continuous
100
AcDbLine
 10
1414.237522626156
 20
1411.757530061414
 30
0.0
 11
1409.237522626156
 21
1413.757530061414
 31
0.0
  0
LINE
  5
1FF2
330
2
100
AcDbEntity
  8
本体
  6
Continuous
100
AcDbLine
 10
1379.237522626156
 20
1370.257530061414
 30
0.0
 11
1409.237522626156
 21
1376.257530061414
 31
0.0
  0
LINE
  5
1FF3
330
2
100
AcDbEntity
  8
本体
  6
Continuous
100
AcDbLine
 10
1409.237522626156
 20
1370.257530061414
 30
0.0
 11
1409.237522626156
 21
1326.257530061414
 31
0.0
  0
LINE
  5
1FF4
330
2
100
AcDbEntity
  8
本体
  6
Continuous
100
AcDbLine
 10
1414.237522626156
 20
1370.257530061414
 30
0.0
 11
1414.237522626156
 21
1326.257530061414
 31
0.0
  0
LINE
  5
1FF5
330
2
100
AcDbEntity
  8
エンボス
  6
Continuous
100
AcDbLine
 10
1414.237522626156
 20
1333.757530061414
 30
0.0
 11
1409.237522626156
 21
1335.757530061414
 31
0.0
  0
LINE
  5
1FF6
330
2
100
AcDbEntity
  8
エンボス
  6
Continuous
100
AcDbLine
 10
1409.237522626156
 20
1366.757530061414
 30
0.0
 11
1414.237522626156
 21
1368.757530061414
 31
0.0
  0
LINE
  5
1FF7
330
2
100
AcDbEntity
  8
エンボス
  6
Continuous
100
AcDbLine
 10
1409.237522626156
 20
1354.757530061414
 30
0.0
 11
1414.237522626156
 21
1352.757530061414
 31
0.0
  0
LINE
  5
1FF8
330
2
100
AcDbEntity
  8
エンボス
  6
Continuous
100
AcDbLine
 10
1409.237522626156
 20
1338.757530061414
 30
0.0
 11
1414.237522626156
 21
1340.757530061414
 31
0.0
  0
LINE
  5
1FF9
330
2
100
AcDbEntity
  8
エンボス
  6
Continuous
100
AcDbLine
 10
1414.237522626156
 20
1349.757530061414
 30
0.0
 11
1409.237522626156
 21
1347.757530061414
 31
0.0
  0
LINE
  5
1FFA
330
2
100
AcDbEntity
  8
エンボス
  6
Continuous
100
AcDbLine
 10
1414.237522626156
 20
1361.757530061414
 30
0.0
 11
1409.237522626156
 21
1363.757530061414
 31
0.0
  0
LINE
  5
1FFB
330
2
100
AcDbEntity
  8
本体
  6
Continuous
100
AcDbLine
 10
1379.237522626156
 20
1320.257530061414
 30
0.0
 11
1409.237522626156
 21
1326.257530061414
 31
0.0
  0
LINE
  5
1FFC
330
2
100
AcDbEntity
  8
本体
  6
Continuous
100
AcDbLine
 10
1409.237522626156
 20
1320.257530061414
 30
0.0
 11
1409.237522626156
 21
1276.257530061414
 31
0.0
  0
LINE
  5
1FFD
330
2
100
AcDbEntity
  8
本体
  6
Continuous
100
AcDbLine
 10
1414.237522626156
 20
1320.257530061414
 30
0.0
 11
1414.237522626156
 21
1276.257530061414
 31
0.0
  0
LINE
  5
1FFE
330
2
100
AcDbEntity
  8
エンボス
  6
Continuous
100
AcDbLine
 10
1414.237522626156
 20
1283.757530061414
 30
0.0
 11
1409.237522626156
 21
1285.757530061414
 31
0.0
  0
LINE
  5
1FFF
330
2
100
AcDbEntity
  8
エンボス
  6
Continuous
100
AcDbLine
 10
1409.237522626156
 20
1316.757530061414
 30
0.0
 11
1414.237522626156
 21
1318.757530061414
 31
0.0
  0
LINE
  5
2000
330
2
100
AcDbEntity
  8
エンボス
  6
Continuous
100
AcDbLine
 10
1409.237522626156
 20
1304.757530061414
 30
0.0
 11
1414.237522626156
 21
1302.757530061414
 31
0.0
  0
LINE
  5
2001
330
2
100
AcDbEntity
  8
エンボス
  6
Continuous
100
AcDbLine
 10
1409.237522626156
 20
1288.757530061414
 30
0.0
 11
1414.237522626156
 21
1290.757530061414
 31
0.0
  0
LINE
  5
2002
330
2
100
AcDbEntity
  8
エンボス
  6
Continuous
100
AcDbLine
 10
1414.237522626156
 20
1299.757530061414
 30
0.0
 11
1409.237522626156
 21
1297.757530061414
 31
0.0
  0
LINE
  5
2003
330
2
100
AcDbEntity
  8
エンボス
  6
Continuous
100
AcDbLine
 10
1414.237522626156
 20
1311.757530061414
 30
0.0
 11
1409.237522626156
 21
1313.757530061414
 31
0.0
  0
LINE
  5
2004
330
2
100
AcDbEntity
  8
本体
  6
Continuous
100
AcDbLine
 10
1379.237522626156
 20
1270.257530061414
 30
0.0
 11
1409.237522626156
 21
1276.257530061414
 31
0.0
  0
LINE
  5
2005
330
2
100
AcDbEntity
  8
エンボス
  6
Continuous
100
AcDbLine
 10
1414.237522626156
 20
1233.757530061414
 30
0.0
 11
1409.237522626156
 21
1235.757530061414
 31
0.0
  0
LINE
  5
2006
330
2
100
AcDbEntity
  8
エンボス
  6
Continuous
100
AcDbLine
 10
1409.237522626156
 20
1266.757530061414
 30
0.0
 11
1414.237522626156
 21
1268.757530061414
 31
0.0
  0
LINE
  5
2007
330
2
100
AcDbEntity
  8
エンボス
  6
Continuous
100
AcDbLine
 10
1409.237522626156
 20
1254.757530061414
 30
0.0
 11
1414.237522626156
 21
1252.757530061414
 31
0.0
  0
LINE
  5
2008
330
2
100
AcDbEntity
  8
エンボス
  6
Continuous
100
AcDbLine
 10
1409.237522626156
 20
1238.757530061414
 30
0.0
 11
1414.237522626156
 21
1240.757530061414
 31
0.0
  0
LINE
  5
2009
330
2
100
AcDbEntity
  8
エンボス
  6
Continuous
100
AcDbLine
 10
1414.237522626156
 20
1249.757530061414
 30
0.0
 11
1409.237522626156
 21
1247.757530061414
 31
0.0
  0
LINE
  5
200A
330
2
100
AcDbEntity
  8
エンボス
  6
Continuous
100
AcDbLine
 10
1414.237522626156
 20
1261.757530061414
 30
0.0
 11
1409.237522626156
 21
1263.757530061414
 31
0.0
  0
LINE
  5
200B
330
2
100
AcDbEntity
  8
エンボス
  6
Continuous
100
AcDbLine
 10
1409.237522626156
 20
1554.757530061414
 30
0.0
 11
1414.237522626156
 21
1552.757530061414
 31
0.0
  0
LINE
  5
200C
330
2
100
AcDbEntity
  8
エンボス
  6
Continuous
100
AcDbLine
 10
1409.237522626156
 20
1538.757530061414
 30
0.0
 11
1414.237522626156
 21
1540.757530061414
 31
0.0
  0
LINE
  5
200D
330
2
100
AcDbEntity
  8
エンボス
  6
Continuous
100
AcDbLine
 10
1414.237522626156
 20
1533.757530061414
 30
0.0
 11
1409.237522626156
 21
1535.757530061414
 31
0.0
  0
LINE
  5
200E
330
2
100
AcDbEntity
  8
エンボス
  6
Continuous
100
AcDbLine
 10
1414.237522626156
 20
1549.757530061414
 30
0.0
 11
1409.237522626156
 21
1547.757530061414
 31
0.0
  0
LINE
  5
200F
330
2
100
AcDbEntity
  8
エンボス
  6
Continuous
100
AcDbLine
 10
1414.237522626156
 20
1561.757530061414
 30
0.0
 11
1409.237522626156
 21
1563.757530061414
 31
0.0
  0
LINE
  5
2010
330
2
100
AcDbEntity
  8
本体
  6
Continuous
100
AcDbLine
 10
424.2375226261565
 20
1566.257530061414
 30
0.0
 11
424.2375226261565
 21
1526.257530061414
 31
0.0
  0
LINE
  5
2011
330
2
100
AcDbEntity
  8
本体
  6
Continuous
100
AcDbLine
 10
419.2375226261565
 20
1566.257530061414
 30
0.0
 11
419.2375226261565
 21
1526.257530061414
 31
0.0
  0
LINE
  5
2012
330
2
100
AcDbEntity
  8
本体
  6
Continuous
100
AcDbLine
 10
419.2375226261565
 20
1230.257530061414
 30
0.0
 11
419.2375226261565
 21
1270.257530061414
 31
0.0
  0
LINE
  5
2013
330
2
100
AcDbEntity
  8
本体
  6
Continuous
100
AcDbLine
 10
424.2375226261565
 20
1230.257530061414
 30
0.0
 11
424.2375226261565
 21
1270.257530061414
 31
0.0
  0
LINE
  5
2014
330
2
100
AcDbEntity
  8
本体
  6
Continuous
100
AcDbLine
 10
424.2375226261565
 20
1520.257530061414
 30
0.0
 11
424.2375226261565
 21
1476.257530061414
 31
0.0
  0
LINE
  5
2015
330
2
100
AcDbEntity
  8
本体
  6
Continuous
100
AcDbLine
 10
419.2375226261565
 20
1520.257530061414
 30
0.0
 11
419.2375226261565
 21
1476.257530061414
 31
0.0
  0
LINE
  5
2016
330
2
100
AcDbEntity
  8
エンボス
  6
Continuous
100
AcDbLine
 10
419.2375226261565
 20
1504.757530061414
 30
0.0
 11
424.2375226261565
 21
1502.757530061414
 31
0.0
  0
LINE
  5
2017
330
2
100
AcDbEntity
  8
エンボス
  6
Continuous
100
AcDbLine
 10
419.2375226261565
 20
1488.757530061414
 30
0.0
 11
424.2375226261565
 21
1490.757530061414
 31
0.0
  0
LINE
  5
2018
330
2
100
AcDbEntity
  8
エンボス
  6
Continuous
100
AcDbLine
 10
424.2375226261565
 20
1483.757530061414
 30
0.0
 11
419.2375226261565
 21
1485.757530061414
 31
0.0
  0
LINE
  5
2019
330
2
100
AcDbEntity
  8
エンボス
  6
Continuous
100
AcDbLine
 10
424.2375226261565
 20
1499.757530061414
 30
0.0
 11
419.2375226261565
 21
1497.757530061414
 31
0.0
  0
LINE
  5
201A
330
2
100
AcDbEntity
  8
エンボス
  6
Continuous
100
AcDbLine
 10
419.2375226261565
 20
1516.757530061414
 30
0.0
 11
424.2375226261565
 21
1518.757530061414
 31
0.0
  0
LINE
  5
201B
330
2
100
AcDbEntity
  8
エンボス
  6
Continuous
100
AcDbLine
 10
424.2375226261565
 20
1511.757530061414
 30
0.0
 11
419.2375226261565
 21
1513.757530061414
 31
0.0
  0
LINE
  5
201C
330
2
100
AcDbEntity
  8
本体
  6
Continuous
100
AcDbLine
 10
419.2375226261565
 20
1470.257530061414
 30
0.0
 11
419.2375226261565
 21
1426.257530061414
 31
0.0
  0
LINE
  5
201D
330
2
100
AcDbEntity
  8
本体
  6
Continuous
100
AcDbLine
 10
424.2375226261565
 20
1470.257530061414
 30
0.0
 11
424.2375226261565
 21
1426.257530061414
 31
0.0
  0
LINE
  5
201E
330
2
100
AcDbEntity
  8
エンボス
  6
Continuous
100
AcDbLine
 10
424.2375226261565
 20
1433.757530061414
 30
0.0
 11
419.2375226261565
 21
1435.757530061414
 31
0.0
  0
LINE
  5
201F
330
2
100
AcDbEntity
  8
エンボス
  6
Continuous
100
AcDbLine
 10
419.2375226261565
 20
1466.757530061414
 30
0.0
 11
424.2375226261565
 21
1468.757530061414
 31
0.0
  0
LINE
  5
2020
330
2
100
AcDbEntity
  8
エンボス
  6
Continuous
100
AcDbLine
 10
419.2375226261565
 20
1454.757530061414
 30
0.0
 11
424.2375226261565
 21
1452.757530061414
 31
0.0
  0
LINE
  5
2021
330
2
100
AcDbEntity
  8
エンボス
  6
Continuous
100
AcDbLine
 10
419.2375226261565
 20
1438.757530061414
 30
0.0
 11
424.2375226261565
 21
1440.757530061414
 31
0.0
  0
LINE
  5
2022
330
2
100
AcDbEntity
  8
エンボス
  6
Continuous
100
AcDbLine
 10
424.2375226261565
 20
1449.757530061414
 30
0.0
 11
419.2375226261565
 21
1447.757530061414
 31
0.0
  0
LINE
  5
2023
330
2
100
AcDbEntity
  8
エンボス
  6
Continuous
100
AcDbLine
 10
424.2375226261565
 20
1461.757530061414
 30
0.0
 11
419.2375226261565
 21
1463.757530061414
 31
0.0
  0
LINE
  5
2024
330
2
100
AcDbEntity
  8
本体
  6
Continuous
100
AcDbLine
 10
419.2375226261565
 20
1420.257530061414
 30
0.0
 11
419.2375226261565
 21
1376.257530061414
 31
0.0
  0
LINE
  5
2025
330
2
100
AcDbEntity
  8
本体
  6
Continuous
100
AcDbLine
 10
424.2375226261565
 20
1420.257530061414
 30
0.0
 11
424.2375226261565
 21
1376.257530061414
 31
0.0
  0
LINE
  5
2026
330
2
100
AcDbEntity
  8
エンボス
  6
Continuous
100
AcDbLine
 10
424.2375226261565
 20
1383.757530061414
 30
0.0
 11
419.2375226261565
 21
1385.757530061414
 31
0.0
  0
LINE
  5
2027
330
2
100
AcDbEntity
  8
エンボス
  6
Continuous
100
AcDbLine
 10
419.2375226261565
 20
1416.757530061414
 30
0.0
 11
424.2375226261565
 21
1418.757530061414
 31
0.0
  0
LINE
  5
2028
330
2
100
AcDbEntity
  8
エンボス
  6
Continuous
100
AcDbLine
 10
419.2375226261565
 20
1404.757530061414
 30
0.0
 11
424.2375226261565
 21
1402.757530061414
 31
0.0
  0
LINE
  5
2029
330
2
100
AcDbEntity
  8
エンボス
  6
Continuous
100
AcDbLine
 10
419.2375226261565
 20
1388.757530061414
 30
0.0
 11
424.2375226261565
 21
1390.757530061414
 31
0.0
  0
LINE
  5
202A
330
2
100
AcDbEntity
  8
エンボス
  6
Continuous
100
AcDbLine
 10
424.2375226261565
 20
1399.757530061414
 30
0.0
 11
419.2375226261565
 21
1397.757530061414
 31
0.0
  0
LINE
  5
202B
330
2
100
AcDbEntity
  8
エンボス
  6
Continuous
100
AcDbLine
 10
424.2375226261565
 20
1411.757530061414
 30
0.0
 11
419.2375226261565
 21
1413.757530061414
 31
0.0
  0
LINE
  5
202C
330
2
100
AcDbEntity
  8
本体
  6
Continuous
100
AcDbLine
 10
419.2375226261565
 20
1370.257530061414
 30
0.0
 11
419.2375226261565
 21
1326.257530061414
 31
0.0
  0
LINE
  5
202D
330
2
100
AcDbEntity
  8
本体
  6
Continuous
100
AcDbLine
 10
424.2375226261565
 20
1370.257530061414
 30
0.0
 11
424.2375226261565
 21
1326.257530061414
 31
0.0
  0
LINE
  5
202E
330
2
100
AcDbEntity
  8
エンボス
  6
Continuous
100
AcDbLine
 10
424.2375226261565
 20
1333.757530061414
 30
0.0
 11
419.2375226261565
 21
1335.757530061414
 31
0.0
  0
LINE
  5
202F
330
2
100
AcDbEntity
  8
エンボス
  6
Continuous
100
AcDbLine
 10
419.2375226261565
 20
1366.757530061414
 30
0.0
 11
424.2375226261565
 21
1368.757530061414
 31
0.0
  0
LINE
  5
2030
330
2
100
AcDbEntity
  8
エンボス
  6
Continuous
100
AcDbLine
 10
419.2375226261565
 20
1354.757530061414
 30
0.0
 11
424.2375226261565
 21
1352.757530061414
 31
0.0
  0
LINE
  5
2031
330
2
100
AcDbEntity
  8
エンボス
  6
Continuous
100
AcDbLine
 10
419.2375226261565
 20
1338.757530061414
 30
0.0
 11
424.2375226261565
 21
1340.757530061414
 31
0.0
  0
LINE
  5
2032
330
2
100
AcDbEntity
  8
エンボス
  6
Continuous
100
AcDbLine
 10
424.2375226261565
 20
1349.757530061414
 30
0.0
 11
419.2375226261565
 21
1347.757530061414
 31
0.0
  0
LINE
  5
2033
330
2
100
AcDbEntity
  8
エンボス
  6
Continuous
100
AcDbLine
 10
424.2375226261565
 20
1361.757530061414
 30
0.0
 11
419.2375226261565
 21
1363.757530061414
 31
0.0
  0
LINE
  5
2034
330
2
100
AcDbEntity
  8
本体
  6
Continuous
100
AcDbLine
 10
419.2375226261565
 20
1320.257530061414
 30
0.0
 11
419.2375226261565
 21
1276.257530061414
 31
0.0
  0
LINE
  5
2035
330
2
100
AcDbEntity
  8
本体
  6
Continuous
100
AcDbLine
 10
424.2375226261565
 20
1320.257530061414
 30
0.0
 11
424.2375226261565
 21
1276.257530061414
 31
0.0
  0
LINE
  5
2036
330
2
100
AcDbEntity
  8
エンボス
  6
Continuous
100
AcDbLine
 10
424.2375226261565
 20
1283.757530061414
 30
0.0
 11
419.2375226261565
 21
1285.757530061414
 31
0.0
  0
LINE
  5
2037
330
2
100
AcDbEntity
  8
エンボス
  6
Continuous
100
AcDbLine
 10
419.2375226261565
 20
1316.757530061414
 30
0.0
 11
424.2375226261565
 21
1318.757530061414
 31
0.0
  0
LINE
  5
2038
330
2
100
AcDbEntity
  8
エンボス
  6
Continuous
100
AcDbLine
 10
419.2375226261565
 20
1304.757530061414
 30
0.0
 11
424.2375226261565
 21
1302.757530061414
 31
0.0
  0
LINE
  5
2039
330
2
100
AcDbEntity
  8
エンボス
  6
Continuous
100
AcDbLine
 10
419.2375226261565
 20
1288.757530061414
 30
0.0
 11
424.2375226261565
 21
1290.757530061414
 31
0.0
  0
LINE
  5
203A
330
2
100
AcDbEntity
  8
エンボス
  6
Continuous
100
AcDbLine
 10
424.2375226261565
 20
1299.757530061414
 30
0.0
 11
419.2375226261565
 21
1297.757530061414
 31
0.0
  0
LINE
  5
203B
330
2
100
AcDbEntity
  8
エンボス
  6
Continuous
100
AcDbLine
 10
424.2375226261565
 20
1311.757530061414
 30
0.0
 11
419.2375226261565
 21
1313.757530061414
 31
0.0
  0
LINE
  5
203C
330
2
100
AcDbEntity
  8
エンボス
  6
Continuous
100
AcDbLine
 10
424.2375226261565
 20
1233.757530061414
 30
0.0
 11
419.2375226261565
 21
1235.757530061414
 31
0.0
  0
LINE
  5
203D
330
2
100
AcDbEntity
  8
エンボス
  6
Continuous
100
AcDbLine
 10
419.2375226261565
 20
1266.757530061414
 30
0.0
 11
424.2375226261565
 21
1268.757530061414
 31
0.0
  0
LINE
  5
203E
330
2
100
AcDbEntity
  8
エンボス
  6
Continuous
100
AcDbLine
 10
419.2375226261565
 20
1254.757530061414
 30
0.0
 11
424.2375226261565
 21
1252.757530061414
 31
0.0
  0
LINE
  5
203F
330
2
100
AcDbEntity
  8
エンボス
  6
Continuous
100
AcDbLine
 10
419.2375226261565
 20
1238.757530061414
 30
0.0
 11
424.2375226261565
 21
1240.757530061414
 31
0.0
  0
LINE
  5
2040
330
2
100
AcDbEntity
  8
エンボス
  6
Continuous
100
AcDbLine
 10
424.2375226261565
 20
1249.757530061414
 30
0.0
 11
419.2375226261565
 21
1247.757530061414
 31
0.0
  0
LINE
  5
2041
330
2
100
AcDbEntity
  8
エンボス
  6
Continuous
100
AcDbLine
 10
424.2375226261565
 20
1261.757530061414
 30
0.0
 11
419.2375226261565
 21
1263.757530061414
 31
0.0
  0
LINE
  5
2042
330
2
100
AcDbEntity
  8
エンボス
  6
Continuous
100
AcDbLine
 10
419.2375226261565
 20
1554.757530061414
 30
0.0
 11
424.2375226261565
 21
1552.757530061414
 31
0.0
  0
LINE
  5
2043
330
2
100
AcDbEntity
  8
エンボス
  6
Continuous
100
AcDbLine
 10
419.2375226261565
 20
1538.757530061414
 30
0.0
 11
424.2375226261565
 21
1540.757530061414
 31
0.0
  0
LINE
  5
2044
330
2
100
AcDbEntity
  8
エンボス
  6
Continuous
100
AcDbLine
 10
424.2375226261565
 20
1533.757530061414
 30
0.0
 11
419.2375226261565
 21
1535.757530061414
 31
0.0
  0
LINE
  5
2045
330
2
100
AcDbEntity
  8
エンボス
  6
Continuous
100
AcDbLine
 10
424.2375226261565
 20
1549.757530061414
 30
0.0
 11
419.2375226261565
 21
1547.757530061414
 31
0.0
  0
LINE
  5
2046
330
2
100
AcDbEntity
  8
エンボス
  6
Continuous
100
AcDbLine
 10
424.2375226261565
 20
1561.757530061414
 30
0.0
 11
419.2375226261565
 21
1563.757530061414
 31
0.0
  0
INSERT
  5
204E
102
{ACAD_REACTORS
330
2093
102
}
330
2
100
AcDbEntity
  8
本体
100
AcDbBlockReference
  2
*U20
 10
436.7375226261565
 20
1398.257530061414
 30
0.0
  0
LEADER
  5
20BB
330
2
100
AcDbEntity
  8
寸法線
  6
Continuous
100
AcDbLeader
  3
ISO-25
 73
     0
 74
     0
 75
     1
 40
30.0
 41
210.7614213197969
 76
     3
 10
1414.317062994744
 20
1445.192380741779
 30
0.0
 10
1470.027741113399
 20
1518.403058860434
 30
0.0
 10
1485.027741113399
 20
1518.403058860434
 30
0.0
340
20BC
1001
ACAD
1000
DSTYLE
1002
{
1070
     5
1000
OPEN30
1070
    77
1070
     1
1070
   147
1040
0.5
1070
   342
1005
DE
1002
}
  0
MTEXT
  5
20BC
102
{ACAD_REACTORS
330
20BB
102
}
330
2
100
AcDbEntity
  8
寸法線
  6
Continuous
100
AcDbMText
 10
1490.027741113399
 20
1523.403058860434
 30
0.0
 40
30.0
 41
0.0
 71
     7
 72
     1
  1
GIB5\U+00D73\U+00D732
 73
     1
 44
1.0
1001
ACAD
1000
MTEXTBEGIN
1070
    73
1070
     1
1070
    44
1040
1.0
1070
    74
1070
     0
1000
MTEXTEND
  0
LEADER
  5
20BD
330
2
100
AcDbEntity
  8
寸法線
  6
Continuous
100
AcDbLeader
  3
ISO-25
 73
     0
 74
     0
 75
     1
 40
30.0
 41
35.78680203045685
 76
     3
 10
1414.317062994744
 20
1322.325236758529
 30
0.0
 10
1470.027741113399
 20
1395.535914877184
 30
0.0
 10
1485.027741113399
 20
1395.535914877184
 30
0.0
340
20BE
1001
ACAD
1000
DSTYLE
1002
{
1070
     5
1000
OPEN30
1070
    77
1070
     1
1070
   147
1040
0.5
1070
   342
1005
DE
1002
}
  0
MTEXT
  5
20BE
102
{ACAD_REACTORS
330
20BD
102
}
330
2
100
AcDbEntity
  8
寸法線
  6
Continuous
100
AcDbMText
 10
1490.027741113399
 20
1400.535914877184
 30
0.0
 40
30.0
 41
0.0
 71
     7
 72
     1
  1
\A1;TB
 73
     1
 44
1.0
1001
ACAD
1000
MTEXTBEGIN
1070
    73
1070
     1
1070
    44
1040
1.0
1070
    74
1070
     0
1000
MTEXTEND
  0
ENDSEC
  0
SECTION
  2
OBJECTS
  0
DICTIONARY
  5
7
330
0
100
AcDbDictionary
281
     1
  3
ACAD_ASSOCNETWORK
350
1F93
  3
ACAD_CIP_PREVIOUS_PRODUCT_INFO
350
1D5C
  3
ACAD_COLOR
350
1D3A
  3
ACAD_DETAILVIEWSTYLE
350
1D53
  3
ACAD_GROUP
350
CD2
  3
ACAD_LAYOUT
350
CB8
  3
ACAD_MATERIAL
350
1D08
  3
ACAD_MLEADERSTYLE
350
1D4F
  3
ACAD_MLINESTYLE
350
CD3
  3
ACAD_PLOTSETTINGS
350
CD4
  3
ACAD_PLOTSTYLENAME
350
6
  3
ACAD_SCALELIST
350
1D3D
  3
ACAD_SECTIONVIEWSTYLE
350
1D51
  3
ACAD_TABLESTYLE
350
1D3B
  3
ACAD_VISUALSTYLE
350
1D21
  3
ACDB_RECOMPOSE_DATA
350
21BB
  3
AcDbVariableDictionary
350
1C80
  3
DWGPROPS
350
21BC
  0
DICTIONARY
  5
1D7C
330
CCD
100
AcDbDictionary
280
     1
281
     1
  0
DICTIONARY
  5
1F4F
330
CC5
100
AcDbDictionary
280
     1
281
     1
  3
ACAD_LAYERSTATES
360
1F50
  0
DICTIONARY
  5
1D5D
330
64
100
AcDbDictionary
280
     1
281
     1
  3
ADSK_XREC_LAYER_RECONCILED
360
1D5E
  0
DICTIONARY
  5
1D5F
330
6A
100
AcDbDictionary
280
     1
281
     1
  3
ADSK_XREC_LAYER_RECONCILED
360
1D60
  0
DICTIONARY
  5
1D61
330
4
100
AcDbDictionary
280
     1
281
     1
  3
ADSK_XREC_LAYER_RECONCILED
360
1D62
  0
DICTIONARY
  5
1D65
330
67
100
AcDbDictionary
280
     1
281
     1
  3
ADSK_XREC_LAYER_RECONCILED
360
1D66
  0
DICTIONARY
  5
1D67
330
11
100
AcDbDictionary
280
     1
281
     1
  3
ADSK_XREC_LAYER_RECONCILED
360
1D68
  0
DICTIONARY
  5
1D6B
330
1C28
100
AcDbDictionary
280
     1
281
     1
  3
ADSK_XREC_LAYER_RECONCILED
360
1D6C
  0
DICTIONARY
  5
1D6D
330
1C3B
100
AcDbDictionary
280
     1
281
     1
  3
ADSK_XREC_LAYER_RECONCILED
360
1D6E
  0
DICTIONARY
  5
1D6F
330
1C78
100
AcDbDictionary
280
     1
281
     1
  3
ADSK_XREC_LAYER_RECONCILED
360
1D70
  0
DICTIONARY
  5
CB3
330
2
100
AcDbDictionary
280
     1
281
     1
  3
ACAD_ASSOCNETWORK
360
1F91
  3
ACAD_LAYOUTSELFREF
360
1BE8
  0
DICTIONARY
  5
CBA
330
CB9
100
AcDbDictionary
280
     1
281
     1
  3
ACAD_LAYOUTSELFREF
360
1BF5
  0
DICTIONARY
  5
CC0
330
CBF
100
AcDbDictionary
280
     1
281
     1
  3
ACAD_LAYOUTSELFREF
360
1BF6
  0
DICTIONARY
  5
1DCE
330
1DCA
100
AcDbDictionary
280
     1
281
     1
  0
DICTIONARY
  5
210C
330
1F64
100
AcDbDictionary
280
     1
281
     1
  3
AcDbBlockTableRecordData
360
21FD
  0
DICTIONARY
  5
210F
330
204B
100
AcDbDictionary
280
     1
281
     1
  3
AcDbBlockTableRecordData
360
21FF
  0
DICTIONARY
  5
1F93
102
{ACAD_REACTORS
330
7
102
}
330
7
100
AcDbDictionary
281
     1
  3
ACAD_ASSOCNETWORK
350
1F94
  0
XRECORD
  5
1D5C
102
{ACAD_REACTORS
330
7
102
}
330
7
100
AcDbXrecord
280
     1
300
ACDLT
300
2014
300
ACDLT_F_S
  0
DICTIONARY
  5
1D3A
102
{ACAD_REACTORS
330
7
102
}
330
7
100
AcDbDictionary
281
     1
  0
DICTIONARY
  5
1D53
102
{ACAD_REACTORS
330
7
102
}
330
7
100
AcDbDictionary
281
     1
  3
Metric50
350
1D54
  0
DICTIONARY
  5
CD2
102
{ACAD_REACTORS
330
7
102
}
330
7
100
AcDbDictionary
281
     1
  0
DICTIONARY
  5
CB8
102
{ACAD_REACTORS
330
7
102
}
330
7
100
AcDbDictionary
281
     1
  3
Layout1
350
CBE
  3
Layout2
350
CC4
  3
Model
350
CB7
  0
DICTIONARY
  5
1D08
102
{ACAD_REACTORS
330
7
102
}
330
7
100
AcDbDictionary
281
     1
  3
ByBlock
350
1D11
  3
ByLayer
350
1D09
  3
Global
350
1D19
  0
DICTIONARY
  5
1D4F
102
{ACAD_REACTORS
330
7
102
}
330
7
100
AcDbDictionary
281
     1
  3
Standard
350
1D50
  0
DICTIONARY
  5
CD3
102
{ACAD_REACTORS
330
7
102
}
330
7
100
AcDbDictionary
281
     1
  3
Standard
350
CD5
  0
DICTIONARY
  5
CD4
102
{ACAD_REACTORS
330
7
102
}
330
7
100
AcDbDictionary
281
     1
  0
ACDBDICTIONARYWDFLT
  5
6
102
{ACAD_REACTORS
330
7
102
}
330
7
100
AcDbDictionary
281
     1
  3
Normal
350
5
100
AcDbDictionaryWithDefault
340
5
  0
DICTIONARY
  5
1D3D
102
{ACAD_REACTORS
330
7
102
}
330
7
100
AcDbDictionary
281
     1
  3
A0
350
1D3E
  3
A1
350
1D3F
  3
A2
350
1D40
  3
A3
350
1D41
  3
A4
350
1D42
  3
A5
350
1D43
  3
A6
350
1D44
  3
A7
350
1D45
  3
A8
350
1D46
  3
A9
350
1D47
  3
B0
350
1D48
  3
B1
350
1D49
  3
B2
350
1D4A
  3
B3
350
1D4B
  3
B4
350
1D4C
  3
B5
350
1D4D
  3
B6
350
1D4E
  0
DICTIONARY
  5
1D51
102
{ACAD_REACTORS
330
7
102
}
330
7
100
AcDbDictionary
281
     1
  3
Metric50
350
1D52
  0
DICTIONARY
  5
1D3B
102
{ACAD_REACTORS
330
7
102
}
330
7
100
AcDbDictionary
281
     1
  3
Standard
350
1D3C
  0
DICTIONARY
  5
1D21
102
{ACAD_REACTORS
330
7
102
}
330
7
100
AcDbDictionary
281
     1
  3
2dWireframe
350
1D27
  3
Basic
350
1D26
  3
Brighten
350
1D2D
  3
ColorChange
350
1D31
  3
Conceptual
350
1D2A
  3
Dim
350
1D2C
  3
EdgeColorOff
350
1D39
  3
Facepattern
350
1D30
  3
Flat
350
1D22
  3
FlatWithEdges
350
1D23
  3
Gouraud
350
1D24
  3
GouraudWithEdges
350
1D25
  3
Hidden
350
1D29
  3
JitterOff
350
1D37
  3
Linepattern
350
1D2F
  3
OverhangOff
350
1D38
  3
Realistic
350
1D2B
  3
Shaded
350
1D36
  3
Shaded with edges
350
1D35
  3
Shades of Gray
350
1D32
  3
Sketchy
350
1D33
  3
Thicken
350
1D2E
  3
Wireframe
350
1D28
  3
X-Ray
350
1D34
  0
XRECORD
  5
21BB
102
{ACAD_REACTORS
330
7
102
}
330
7
100
AcDbXrecord
280
     1
 90
        1
330
1D3C
  0
DICTIONARY
  5
1C80
102
{ACAD_REACTORS
330
7
102
}
330
7
100
AcDbDictionary
281
     1
  3
CANNOSCALE
350
1DBD
  3
CMLEADERSTYLE
350
1DBA
  3
CTABLESTYLE
350
1DB9
  3
CVIEWDETAILSTYLE
350
1DBB
  3
CVIEWSECTIONSTYLE
350
1DBC
  3
DIMASSOC
350
1DBF
  3
INDEXCTL
350
1DBE
  3
SORTENTS
350
1C81
  3
XCLIPFRAME
350
21B9
  0
XRECORD
  5
21BC
102
{ACAD_REACTORS
330
7
102
}
330
7
100
AcDbXrecord
280
     1
  1
DWGPROPS COOKIE
  2

  3

  4

  6

  7

  8
takara
  9

300
=
301
=
302
=
303
=
304
=
305
=
306
=
307
=
308
=
309
=
 40
0.0675946759259259
 41
2453510.558637211
 42
2457563.48820941
  1

 90
        0
  0
DICTIONARY
  5
1F50
102
{ACAD_REACTORS
330
1F4F
102
}
330
1F4F
100
AcDbDictionary
281
     1
  3
_LAYISO_STATE
350
1F51
1001
AcLayerTools
1000
CB7
1000
0
  0
XRECORD
  5
1D5E
102
{ACAD_REACTORS
330
1D5D
102
}
330
1D5D
100
AcDbXrecord
280
     1
290
     1
  0
XRECORD
  5
1D60
102
{ACAD_REACTORS
330
1D5F
102
}
330
1D5F
100
AcDbXrecord
280
     1
290
     1
  0
XRECORD
  5
1D62
102
{ACAD_REACTORS
330
1D61
102
}
330
1D61
100
AcDbXrecord
280
     1
290
     1
  0
XRECORD
  5
1D66
102
{ACAD_REACTORS
330
1D65
102
}
330
1D65
100
AcDbXrecord
280
     1
290
     1
  0
XRECORD
  5
1D68
102
{ACAD_REACTORS
330
1D67
102
}
330
1D67
100
AcDbXrecord
280
     1
290
     1
  0
XRECORD
  5
1D6C
102
{ACAD_REACTORS
330
1D6B
102
}
330
1D6B
100
AcDbXrecord
280
     1
290
     1
  0
XRECORD
  5
1D6E
102
{ACAD_REACTORS
330
1D6D
102
}
330
1D6D
100
AcDbXrecord
280
     1
290
     1
  0
XRECORD
  5
1D70
102
{ACAD_REACTORS
330
1D6F
102
}
330
1D6F
100
AcDbXrecord
280
     1
290
     1
  0
DICTIONARY
  5
1F91
102
{ACAD_REACTORS
330
CB3
102
}
330
CB3
100
AcDbDictionary
281
     1
  3
ACAD_ASSOCNETWORK
350
1F92
  0
XRECORD
  5
1BE8
102
{ACAD_REACTORS
330
CB3
102
}
330
CB3
100
AcDbXrecord
280
     1
340
2
  0
XRECORD
  5
1BF5
102
{ACAD_REACTORS
330
CBA
102
}
330
CBA
100
AcDbXrecord
280
     1
340
CB9
  0
XRECORD
  5
1BF6
102
{ACAD_REACTORS
330
CC0
102
}
330
CC0
100
AcDbXrecord
280
     1
340
CBF
  0
DICTIONARY
  5
21FD
102
{ACAD_REACTORS
330
210C
102
}
330
210C
100
AcDbDictionary
280
     1
281
     1
  3
Edit
360
21FE
  0
DICTIONARY
  5
21FF
102
{ACAD_REACTORS
330
210F
102
}
330
210F
100
AcDbDictionary
280
     1
281
     1
  3
Edit
360
2200
  0
ACDBASSOCNETWORK
  5
1F94
102
{ACAD_REACTORS
330
1F93
102
}
330
1F93
100
AcDbAssocAction
 90
        1
 90
        1
330
0
360
0
 90
        0
 90
        0
 90
        0
100
AcDbAssocNetwork
 90
        0
 90
        1
 90
        1
330
1F92
 90
        1
330
1F92
  0
ACDBDETAILVIEWSTYLE
  5
1D54
102
{ACAD_XDICTIONARY
360
21FB
102
}
102
{ACAD_REACTORS
330
1D53
102
}
330
1D53
100
AcDbModelDocViewStyle
 70
     0
  3
Metric50
290
     0
100
AcDbDetailViewStyle
 70
     0
 71
     0
 90
        3
 71
     1
340
9
 40
5.0
340
0
 40
5.0
300

 40
0.0
280
     1
 71
     2
340
8
 90
       25
 71
     3
340
9
 40
5.0
 90
        0
 40
15.0
 90
        1
300
%<\AcVar ViewDetailId>% (%<\AcVar ViewScale \f "%sn">%)
 71
     4
340
8
 90
       25
340
8
 90
       25
280
     0
  0
LAYOUT
  5
CBE
102
{ACAD_XDICTIONARY
360
21BF
102
}
102
{ACAD_REACTORS
330
CB8
102
}
330
CB8
100
AcDbPlotSettings
  1

  2
None
  4

  6

 40
0.0
 41
0.0
 42
0.0
 43
0.0
 44
0.0
 45
0.0
 46
0.0
 47
0.0
 48
0.0
 49
0.0
140
0.0
141
0.0
142
1.0
143
1.0
 70
   688
 72
     0
 73
     0
 74
     5
  7
monochrome.ctb
 75
    16
147
1.0
148
0.0
149
0.0
100
AcDbLayout
  1
Layout1
 70
     1
 71
     1
 10
0.0
 20
0.0
 11
12.0
 21
9.0
 12
0.0
 22
0.0
 32
0.0
 14
0.0
 24
0.0
 34
0.0
 15
0.0
 25
0.0
 35
0.0
146
0.0
 13
0.0
 23
0.0
 33
0.0
 16
1.0
 26
0.0
 36
0.0
 17
0.0
 27
1.0
 37
0.0
 76
     0
330
CB9
  0
LAYOUT
  5
CC4
102
{ACAD_XDICTIONARY
360
21C1
102
}
102
{ACAD_REACTORS
330
CB8
102
}
330
CB8
100
AcDbPlotSettings
  1

  2
None
  4

  6

 40
0.0
 41
0.0
 42
0.0
 43
0.0
 44
0.0
 45
0.0
 46
0.0
 47
0.0
 48
0.0
 49
0.0
140
0.0
141
0.0
142
1.0
143
1.0
 70
   688
 72
     0
 73
     0
 74
     5
  7
monochrome.ctb
 75
    16
147
1.0
148
0.0
149
0.0
100
AcDbLayout
  1
Layout2
 70
     1
 71
     2
 10
0.0
 20
0.0
 11
12.0
 21
9.0
 12
0.0
 22
0.0
 32
0.0
 14
0.0
 24
0.0
 34
0.0
 15
0.0
 25
0.0
 35
0.0
146
0.0
 13
0.0
 23
0.0
 33
0.0
 16
1.0
 26
0.0
 36
0.0
 17
0.0
 27
1.0
 37
0.0
 76
     0
330
CBF
  0
LAYOUT
  5
CB7
102
{ACAD_XDICTIONARY
360
21BD
102
}
102
{ACAD_REACTORS
330
CB8
102
}
330
CB8
100
AcDbPlotSettings
  1

  2
EPSON LP-9400
  4
A4
  6

 40
5.873749732971191
 41
5.873747825622558
 42
5.873748779296875
 43
5.873748779296875
 44
209.9733276367187
 45
297.0106506347656
 46
2.339999999999999
 47
0.0
 48
0.0
 49
0.0
140
0.0
141
0.0
142
1.0
143
9.816891609963194
 70
 11956
 72
     1
 73
     1
 74
     1
  7
monochrome.ctb
 75
     0
147
0.1018652379725877
148
1264.94917075748
149
959.6633564695521
100
AcDbLayout
  1
Model
 70
     1
 71
     0
 10
0.0
 20
0.0
 11
12.0
 21
9.0
 12
0.0
 22
0.0
 32
0.0
 14
0.0
 24
0.0
 34
0.0
 15
0.0
 25
0.0
 35
0.0
146
0.0
 13
0.0
 23
0.0
 33
0.0
 16
1.0
 26
0.0
 36
0.0
 17
0.0
 27
1.0
 37
0.0
 76
     0
330
2
331
1D06
  0
MATERIAL
  5
1D11
102
{ACAD_XDICTIONARY
360
1D12
102
}
102
{ACAD_REACTORS
330
1D08
102
}
330
1D08
100
AcDbMaterial
  1
ByBlock
 72
     0
 43
0.0008202099737533
 43
0.0
 43
0.0
 43
0.0
 43
0.0
 43
0.0008202099737533
 43
0.0
 43
0.0
 43
0.0
 43
0.0
 43
1.0
 43
0.0
 43
0.0
 43
0.0
 43
0.0
 43
1.0
 77
     0
 47
0.0008202099737533
 47
0.0
 47
0.0
 47
0.0
 47
0.0
 47
0.0008202099737533
 47
0.0
 47
0.0
 47
0.0
 47
0.0
 47
1.0
 47
0.0
 47
0.0
 47
0.0
 47
0.0
 47
1.0
171
     0
 49
0.0008202099737533
 49
0.0
 49
0.0
 49
0.0
 49
0.0
 49
0.0008202099737533
 49
0.0
 49
0.0
 49
0.0
 49
0.0
 49
1.0
 49
0.0
 49
0.0
 49
0.0
 49
0.0
 49
1.0
175
     0
142
0.0008202099737533
142
0.0
142
0.0
142
0.0
142
0.0
142
0.0008202099737533
142
0.0
142
0.0
142
0.0
142
0.0
142
1.0
142
0.0
142
0.0
142
0.0
142
0.0
142
1.0
179
     0
144
0.0008202099737533
144
0.0
144
0.0
144
0.0
144
0.0
144
0.0008202099737533
144
0.0
144
0.0
144
0.0
144
0.0
144
1.0
144
0.0
144
0.0
144
0.0
144
0.0
144
1.0
147
0.0008202099737533
147
0.0
147
0.0
147
0.0
147
0.0
147
0.0008202099737533
147
0.0
147
0.0
147
0.0
147
0.0
147
1.0
147
0.0
147
0.0
147
0.0
147
0.0
147
1.0
  0
MATERIAL
  5
1D09
102
{ACAD_XDICTIONARY
360
1D0A
102
}
102
{ACAD_REACTORS
330
1D08
102
}
330
1D08
100
AcDbMaterial
  1
ByLayer
 72
     0
 43
0.0008202099737533
 43
0.0
 43
0.0
 43
0.0
 43
0.0
 43
0.0008202099737533
 43
0.0
 43
0.0
 43
0.0
 43
0.0
 43
1.0
 43
0.0
 43
0.0
 43
0.0
 43
0.0
 43
1.0
 77
     0
 47
0.0008202099737533
 47
0.0
 47
0.0
 47
0.0
 47
0.0
 47
0.0008202099737533
 47
0.0
 47
0.0
 47
0.0
 47
0.0
 47
1.0
 47
0.0
 47
0.0
 47
0.0
 47
0.0
 47
1.0
171
     0
 49
0.0008202099737533
 49
0.0
 49
0.0
 49
0.0
 49
0.0
 49
0.0008202099737533
 49
0.0
 49
0.0
 49
0.0
 49
0.0
 49
1.0
 49
0.0
 49
0.0
 49
0.0
 49
0.0
 49
1.0
175
     0
142
0.0008202099737533
142
0.0
142
0.0
142
0.0
142
0.0
142
0.0008202099737533
142
0.0
142
0.0
142
0.0
142
0.0
142
1.0
142
0.0
142
0.0
142
0.0
142
0.0
142
1.0
179
     0
144
0.0008202099737533
144
0.0
144
0.0
144
0.0
144
0.0
144
0.0008202099737533
144
0.0
144
0.0
144
0.0
144
0.0
144
1.0
144
0.0
144
0.0
144
0.0
144
0.0
144
1.0
147
0.0008202099737533
147
0.0
147
0.0
147
0.0
147
0.0
147
0.0008202099737533
147
0.0
147
0.0
147
0.0
147
0.0
147
1.0
147
0.0
147
0.0
147
0.0
147
0.0
147
1.0
  0
MATERIAL
  5
1D19
102
{ACAD_XDICTIONARY
360
1D1A
102
}
102
{ACAD_REACTORS
330
1D08
102
}
330
1D08
100
AcDbMaterial
  1
Global
 72
     0
 43
0.0008202099737533
 43
0.0
 43
0.0
 43
0.0
 43
0.0
 43
0.0008202099737533
 43
0.0
 43
0.0
 43
0.0
 43
0.0
 43
1.0
 43
0.0
 43
0.0
 43
0.0
 43
0.0
 43
1.0
 77
     0
 47
0.0008202099737533
 47
0.0
 47
0.0
 47
0.0
 47
0.0
 47
0.0008202099737533
 47
0.0
 47
0.0
 47
0.0
 47
0.0
 47
1.0
 47
0.0
 47
0.0
 47
0.0
 47
0.0
 47
1.0
171
     0
 49
0.0008202099737533
 49
0.0
 49
0.0
 49
0.0
 49
0.0
 49
0.0008202099737533
 49
0.0
 49
0.0
 49
0.0
 49
0.0
 49
1.0
 49
0.0
 49
0.0
 49
0.0
 49
0.0
 49
1.0
175
     0
142
0.0008202099737533
142
0.0
142
0.0
142
0.0
142
0.0
142
0.0008202099737533
142
0.0
142
0.0
142
0.0
142
0.0
142
1.0
142
0.0
142
0.0
142
0.0
142
0.0
142
1.0
179
     0
144
0.0008202099737533
144
0.0
144
0.0
144
0.0
144
0.0
144
0.0008202099737533
144
0.0
144
0.0
144
0.0
144
0.0
144
1.0
144
0.0
144
0.0
144
0.0
144
0.0
144
1.0
147
0.0008202099737533
147
0.0
147
0.0
147
0.0
147
0.0
147
0.0008202099737533
147
0.0
147
0.0
147
0.0
147
0.0
147
1.0
147
0.0
147
0.0
147
0.0
147
0.0
147
1.0
  0
MLEADERSTYLE
  5
1D50
102
{ACAD_XDICTIONARY
360
21F7
102
}
102
{ACAD_REACTORS
330
1D4F
102
}
330
1D4F
100
AcDbMLeaderStyle
170
     2
171
     1
172
     0
 90
        2
 40
0.0
 41
0.0
173
     1
 91
-1056964608
340
CC9
 92
       -2
290
     1
 42
2.0
291
     1
 43
0.36
  3
Standard
 44
4.0
300

342
9
174
     1
178
     6
175
     1
176
     0
 93
-1056964608
 45
4.0
292
     0
297
     0
 46
4.0
 94
-1056964608
 47
1.0
 49
1.0
140
1.0
293
     1
141
0.0
294
     1
177
     0
142
1.0
295
     0
296
     0
143
0.125
1001
ACAD_MLEADERVER
1070
     2
  0
MLINESTYLE
  5
CD5
102
{ACAD_REACTORS
330
CD3
102
}
330
CD3
100
AcDbMlineStyle
  2
STANDARD
 70
     0
  3

 62
   256
 51
90.0
 52
90.0
 71
     2
 49
0.5
 62
   256
  6
BYLAYER
 49
-0.5
 62
   256
  6
BYLAYER
  0
ACDBPLACEHOLDER
  5
5
102
{ACAD_REACTORS
330
6
102
}
330
6
  0
SCALE
  5
1D3E
102
{ACAD_REACTORS
330
1D3D
102
}
330
1D3D
100
AcDbScale
 70
     0
300
1:1
140
1.0
141
1.0
290
     1
  0
SCALE
  5
1D3F
102
{ACAD_REACTORS
330
1D3D
102
}
330
1D3D
100
AcDbScale
 70
     0
300
1:2
140
1.0
141
2.0
290
     0
  0
SCALE
  5
1D40
102
{ACAD_REACTORS
330
1D3D
102
}
330
1D3D
100
AcDbScale
 70
     0
300
1:4
140
1.0
141
4.0
290
     0
  0
SCALE
  5
1D41
102
{ACAD_REACTORS
330
1D3D
102
}
330
1D3D
100
AcDbScale
 70
     0
300
1:5
140
1.0
141
5.0
290
     0
  0
SCALE
  5
1D42
102
{ACAD_REACTORS
330
1D3D
102
}
330
1D3D
100
AcDbScale
 70
     0
300
1:8
140
1.0
141
8.0
290
     0
  0
SCALE
  5
1D43
102
{ACAD_REACTORS
330
1D3D
102
}
330
1D3D
100
AcDbScale
 70
     0
300
1:10
140
1.0
141
10.0
290
     0
  0
SCALE
  5
1D44
102
{ACAD_REACTORS
330
1D3D
102
}
330
1D3D
100
AcDbScale
 70
     0
300
1:16
140
1.0
141
16.0
290
     0
  0
SCALE
  5
1D45
102
{ACAD_REACTORS
330
1D3D
102
}
330
1D3D
100
AcDbScale
 70
     0
300
1:20
140
1.0
141
20.0
290
     0
  0
SCALE
  5
1D46
102
{ACAD_REACTORS
330
1D3D
102
}
330
1D3D
100
AcDbScale
 70
     0
300
1:30
140
1.0
141
30.0
290
     0
  0
SCALE
  5
1D47
102
{ACAD_REACTORS
330
1D3D
102
}
330
1D3D
100
AcDbScale
 70
     0
300
1:40
140
1.0
141
40.0
290
     0
  0
SCALE
  5
1D48
102
{ACAD_REACTORS
330
1D3D
102
}
330
1D3D
100
AcDbScale
 70
     0
300
1:50
140
1.0
141
50.0
290
     0
  0
SCALE
  5
1D49
102
{ACAD_REACTORS
330
1D3D
102
}
330
1D3D
100
AcDbScale
 70
     0
300
1:100
140
1.0
141
100.0
290
     0
  0
SCALE
  5
1D4A
102
{ACAD_REACTORS
330
1D3D
102
}
330
1D3D
100
AcDbScale
 70
     0
300
2:1
140
2.0
141
1.0
290
     0
  0
SCALE
  5
1D4B
102
{ACAD_REACTORS
330
1D3D
102
}
330
1D3D
100
AcDbScale
 70
     0
300
4:1
140
4.0
141
1.0
290
     0
  0
SCALE
  5
1D4C
102
{ACAD_REACTORS
330
1D3D
102
}
330
1D3D
100
AcDbScale
 70
     0
300
8:1
140
8.0
141
1.0
290
     0
  0
SCALE
  5
1D4D
102
{ACAD_REACTORS
330
1D3D
102
}
330
1D3D
100
AcDbScale
 70
     0
300
10:1
140
10.0
141
1.0
290
     0
  0
SCALE
  5
1D4E
102
{ACAD_REACTORS
330
1D3D
102
}
330
1D3D
100
AcDbScale
 70
     0
300
100:1
140
100.0
141
1.0
290
     0
  0
ACDBSECTIONVIEWSTYLE
  5
1D52
102
{ACAD_XDICTIONARY
360
21F9
102
}
102
{ACAD_REACTORS
330
1D51
102
}
330
1D51
100
AcDbModelDocViewStyle
 70
     0
  3
Metric50
290
     0
100
AcDbSectionViewStyle
 70
     0
 71
     0
 90
      102
 71
     1
340
9
 40
5.0
340
0
340
0
 40
5.0
300
I, O, Q, S, X, Z
 40
10.0
 90
        0
 40
2.5
 90
        0
 71
     2
340
8
 90
       25
340
8
 90
       50
 40
5.0
 40
2.5
 40
5.0
 71
     3
340
9
 40
5.0
 90
        0
 40
15.0
 90
        1
300
%<\AcVar ViewSectionStartId>%-%<\AcVar ViewSectionEndId>% (%<\AcVar ViewScale \f "%sn">%)
 71
     4
300
ANSI31
 40
1.0
 90
        0
290
     0
290
     0
 90
        6
 40
0.0
 40
1.570796326794896
 40
0.2617993877991494
 40
1.308996938995747
 40
-0.2617993877991494
 40
1.832595714594046
  0
TABLESTYLE
  5
1D3C
102
{ACAD_XDICTIONARY
360
1D72
102
}
102
{ACAD_REACTORS
330
1D3B
102
}
330
1D3B
100
AcDbTableStyle
  3
Standard
 70
     0
 71
     0
 40
1.5
 41
1.5
280
     0
281
     0
  7
Standard
140
4.5
170
     2
 62
     0
 63
     7
283
     0
274
    -2
284
     1
 64
     0
275
    -2
285
     1
 65
     0
276
    -2
286
     1
 66
     0
277
    -2
287
     1
 67
     0
278
    -2
288
     1
 68
     0
279
    -2
289
     1
 69
     0
  7
Standard
140
6.0
170
     5
 62
     0
 63
     7
283
     0
274
    -2
284
     1
 64
     0
275
    -2
285
     1
 65
     0
276
    -2
286
     1
 66
     0
277
    -2
287
     1
 67
     0
278
    -2
288
     1
 68
     0
279
    -2
289
     1
 69
     0
  7
Standard
140
4.5
170
     5
 62
     0
 63
     7
283
     0
274
    -2
284
     1
 64
     0
275
    -2
285
     1
 65
     0
276
    -2
286
     1
 66
     0
277
    -2
287
     1
 67
     0
278
    -2
288
     1
 68
     0
279
    -2
289
     1
 69
     0
  0
VISUALSTYLE
  5
1D27
102
{ACAD_XDICTIONARY
360
21D0
102
}
102
{ACAD_REACTORS
330
1D21
102
}
330
1D21
100
AcDbVisualStyle
  2
2dWireframe
 70
     4
 71
     0
 72
     2
 73
     0
 90
        0
 40
-0.6
 41
-30.0
 62
     5
 63
     7
 74
     1
 91
        4
 64
     7
 65
   257
 75
     1
175
     1
 42
1.0
 92
        0
 66
   257
 43
1.0
 76
     1
 77
     6
 78
     2
 67
     7
 79
     5
170
     0
171
     0
290
     0
174
     0
 93
        1
 44
0.0
173
     0
291
     0
 45
0.0
1001
ACAD
1000
AcDbSavedByObjectVersion
1070
     0
  0
VISUALSTYLE
  5
1D26
102
{ACAD_XDICTIONARY
360
21CE
102
}
102
{ACAD_REACTORS
330
1D21
102
}
330
1D21
100
AcDbVisualStyle
  2
Basic
 70
     7
 71
     1
 72
     0
 73
     1
 90
        0
 40
-0.6
 41
-30.0
 62
     5
 63
     7
 74
     0
 91
        4
 64
     7
 65
   257
 75
     1
175
     1
 42
1.0
 92
        8
 66
     7
 43
1.0
 76
     1
 77
     6
 78
     2
 67
     7
 79
     5
170
     0
171
     0
290
     0
174
     0
 93
        1
 44
0.0
173
     0
291
     1
 45
0.0
1001
ACAD
1000
AcDbSavedByObjectVersion
1070
     0
  0
VISUALSTYLE
  5
1D2D
102
{ACAD_XDICTIONARY
360
21DC
102
}
102
{ACAD_REACTORS
330
1D21
102
}
330
1D21
100
AcDbVisualStyle
  2
Brighten
 70
    12
 71
     2
 72
     2
 73
     0
 90
        0
 40
-0.6
 41
-30.0
 62
     5
 63
     7
 74
     1
 91
        4
 64
     7
 65
   257
 75
     1
175
     1
 42
1.0
 92
        8
 66
     7
 43
1.0
 76
     1
 77
     6
 78
     2
 67
     7
 79
     5
170
     0
171
     0
290
     0
174
     0
 93
        1
 44
50.0
173
     0
291
     1
 45
0.0
1001
ACAD
1000
AcDbSavedByObjectVersion
1070
     0
  0
VISUALSTYLE
  5
1D31
102
{ACAD_XDICTIONARY
360
21E4
102
}
102
{ACAD_REACTORS
330
1D21
102
}
330
1D21
100
AcDbVisualStyle
  2
ColorChange
 70
    16
 71
     2
 72
     2
 73
     3
 90
        0
 40
-0.6
 41
-30.0
 62
     5
 63
     8
 74
     1
 91
        4
 64
     7
 65
   257
 75
     1
175
     1
 42
1.0
 92
        8
 66
     8
 43
1.0
 76
     1
 77
     6
 78
     2
 67
     7
 79
     5
170
     0
171
     0
290
     0
174
     0
 93
        1
 44
0.0
173
     0
291
     1
 45
0.0
1001
ACAD
1000
AcDbSavedByObjectVersion
1070
     0
  0
VISUALSTYLE
  5
1D2A
102
{ACAD_XDICTIONARY
360
21D6
102
}
102
{ACAD_REACTORS
330
1D21
102
}
330
1D21
100
AcDbVisualStyle
  2
Conceptual
 70
     9
 71
     3
 72
     2
 73
     0
 90
        0
 40
-0.6
 41
-30.0
 62
     5
 63
     7
 74
     2
 91
        2
 64
     7
 65
   257
 75
     1
175
     1
 42
179.0
 92
        8
 66
     7
 43
1.0
 76
     1
 77
     6
 78
     2
 67
     7
 79
     3
170
     0
171
     0
290
     0
174
     0
 93
        1
 44
0.0
173
     0
291
     0
 45
0.0
1001
ACAD
1000
AcDbSavedByObjectVersion
1070
     0
  0
VISUALSTYLE
  5
1D2C
102
{ACAD_XDICTIONARY
360
21DA
102
}
102
{ACAD_REACTORS
330
1D21
102
}
330
1D21
100
AcDbVisualStyle
  2
Dim
 70
    11
 71
     2
 72
     2
 73
     0
 90
        0
 40
-0.6
 41
-30.0
 62
     5
 63
     7
 74
     1
 91
        4
 64
     7
 65
   257
 75
     1
175
     1
 42
1.0
 92
        8
 66
     7
 43
1.0
 76
     1
 77
     6
 78
     2
 67
     7
 79
     5
170
     0
171
     0
290
     0
174
     0
 93
        1
 44
-50.0
173
     0
291
     1
 45
0.0
1001
ACAD
1000
AcDbSavedByObjectVersion
1070
     0
  0
VISUALSTYLE
  5
1D39
102
{ACAD_XDICTIONARY
360
21F4
102
}
102
{ACAD_REACTORS
330
1D21
102
}
330
1D21
100
AcDbVisualStyle
  2
EdgeColorOff
 70
    22
 71
     2
 72
     2
 73
     0
 90
        0
 40
-0.6
 41
-30.0
 62
     5
 63
     7
 74
     1
 91
        4
 64
     7
 65
   257
 75
     1
175
     1
 42
1.0
 92
        8
 66
     7
 43
1.0
 76
     1
 77
     6
 78
     2
 67
     7
 79
     5
170
     0
171
     0
290
     0
174
     0
 93
        1
 44
0.0
173
     0
291
     1
 45
0.0
1001
ACAD
1000
AcDbSavedByObjectVersion
1070
     0
  0
VISUALSTYLE
  5
1D30
102
{ACAD_XDICTIONARY
360
21E2
102
}
102
{ACAD_REACTORS
330
1D21
102
}
330
1D21
100
AcDbVisualStyle
  2
Facepattern
 70
    15
 71
     2
 72
     2
 73
     0
 90
        0
 40
-0.6
 41
-30.0
 62
     5
 63
     7
 74
     1
 91
        4
 64
     7
 65
   257
 75
     1
175
     1
 42
1.0
 92
        8
 66
     7
 43
1.0
 76
     1
 77
     6
 78
     2
 67
     7
 79
     5
170
     0
171
     0
290
     0
174
     0
 93
        1
 44
0.0
173
     0
291
     1
 45
0.0
1001
ACAD
1000
AcDbSavedByObjectVersion
1070
     0
  0
VISUALSTYLE
  5
1D22
102
{ACAD_XDICTIONARY
360
21C6
102
}
102
{ACAD_REACTORS
330
1D21
102
}
330
1D21
100
AcDbVisualStyle
  2
Flat
 70
     0
 71
     2
 72
     1
 73
     1
 90
        2
 40
-0.6
 41
30.0
 62
     5
 63
     7
 74
     0
 91
        0
 64
     7
 65
   257
 75
     1
175
     1
 42
1.0
 92
        8
 66
     7
 43
1.0
 76
     1
 77
     6
 78
     2
 67
     7
 79
     5
170
     0
171
     0
290
     0
174
     0
 93
       13
 44
0.0
173
     0
291
     1
 45
0.0
1001
ACAD
1000
AcDbSavedByObjectVersion
1070
     0
  0
VISUALSTYLE
  5
1D23
102
{ACAD_XDICTIONARY
360
21C8
102
}
102
{ACAD_REACTORS
330
1D21
102
}
330
1D21
100
AcDbVisualStyle
  2
FlatWithEdges
 70
     1
 71
     2
 72
     1
 73
     1
 90
        2
 40
-0.6
 41
30.0
 62
     5
 63
     7
 74
     1
 91
        0
 64
     7
 65
   257
 75
     1
175
     1
 42
1.0
 92
        0
 66
   257
 43
1.0
 76
     1
 77
     6
 78
     2
 67
     7
 79
     5
170
     0
171
     0
290
     0
174
     0
 93
       13
 44
0.0
173
     0
291
     1
 45
0.0
1001
ACAD
1000
AcDbSavedByObjectVersion
1070
     0
  0
VISUALSTYLE
  5
1D24
102
{ACAD_XDICTIONARY
360
21CA
102
}
102
{ACAD_REACTORS
330
1D21
102
}
330
1D21
100
AcDbVisualStyle
  2
Gouraud
 70
     2
 71
     2
 72
     2
 73
     1
 90
        2
 40
-0.6
 41
30.0
 62
     5
 63
     7
 74
     0
 91
        0
 64
     7
 65
   257
 75
     1
175
     1
 42
1.0
 92
        0
 66
     7
 43
1.0
 76
     1
 77
     6
 78
     2
 67
     7
 79
     5
170
     0
171
     0
290
     0
174
     0
 93
       13
 44
0.0
173
     0
291
     1
 45
0.0
1001
ACAD
1000
AcDbSavedByObjectVersion
1070
     0
  0
VISUALSTYLE
  5
1D25
102
{ACAD_XDICTIONARY
360
21CC
102
}
102
{ACAD_REACTORS
330
1D21
102
}
330
1D21
100
AcDbVisualStyle
  2
GouraudWithEdges
 70
     3
 71
     2
 72
     2
 73
     1
 90
        2
 40
-0.6
 41
30.0
 62
     5
 63
     7
 74
     1
 91
        0
 64
     7
 65
   257
 75
     1
175
     1
 42
1.0
 92
        0
 66
   257
 43
1.0
 76
     1
 77
     6
 78
     2
 67
     7
 79
     5
170
     0
171
     0
290
     0
174
     0
 93
       13
 44
0.0
173
     0
291
     1
 45
0.0
1001
ACAD
1000
AcDbSavedByObjectVersion
1070
     0
  0
VISUALSTYLE
  5
1D29
102
{ACAD_XDICTIONARY
360
21D4
102
}
102
{ACAD_REACTORS
330
1D21
102
}
330
1D21
100
AcDbVisualStyle
  2
Hidden
 70
     6
 71
     1
 72
     2
 73
     2
 90
        0
 40
-0.6
 41
-30.0
 62
     5
 63
     7
 74
     2
 91
        2
 64
     7
 65
   257
 75
     2
175
     1
 42
40.0
 92
        0
 66
   257
 43
1.0
 76
     1
 77
     6
 78
     2
 67
     7
 79
     3
170
     0
171
     0
290
     0
174
     0
 93
        1
 44
0.0
173
     0
291
     0
 45
0.0
1001
ACAD
1000
AcDbSavedByObjectVersion
1070
     0
  0
VISUALSTYLE
  5
1D37
102
{ACAD_XDICTIONARY
360
21F0
102
}
102
{ACAD_REACTORS
330
1D21
102
}
330
1D21
100
AcDbVisualStyle
  2
JitterOff
 70
    20
 71
     2
 72
     2
 73
     0
 90
        0
 40
-0.6
 41
-30.0
 62
     5
 63
     7
 74
     1
 91
        4
 64
     7
 65
   257
 75
     1
175
     1
 42
1.0
 92
       10
 66
     7
 43
1.0
 76
     1
 77
     6
 78
     2
 67
     7
 79
     5
170
     0
171
     0
290
     0
174
     0
 93
        1
 44
0.0
173
     0
291
     1
 45
0.0
1001
ACAD
1000
AcDbSavedByObjectVersion
1070
     0
  0
VISUALSTYLE
  5
1D2F
102
{ACAD_XDICTIONARY
360
21E0
102
}
102
{ACAD_REACTORS
330
1D21
102
}
330
1D21
100
AcDbVisualStyle
  2
Linepattern
 70
    14
 71
     2
 72
     2
 73
     0
 90
        0
 40
-0.6
 41
-30.0
 62
     5
 63
     7
 74
     1
 91
        4
 64
     7
 65
   257
 75
     7
175
     7
 42
1.0
 92
        8
 66
     7
 43
1.0
 76
     1
 77
     6
 78
     2
 67
     7
 79
     5
170
     0
171
     0
290
     0
174
     0
 93
        1
 44
0.0
173
     0
291
     1
 45
0.0
1001
ACAD
1000
AcDbSavedByObjectVersion
1070
     0
  0
VISUALSTYLE
  5
1D38
102
{ACAD_XDICTIONARY
360
21F2
102
}
102
{ACAD_REACTORS
330
1D21
102
}
330
1D21
100
AcDbVisualStyle
  2
OverhangOff
 70
    21
 71
     2
 72
     2
 73
     0
 90
        0
 40
-0.6
 41
-30.0
 62
     5
 63
     7
 74
     1
 91
        4
 64
     7
 65
   257
 75
     1
175
     1
 42
1.0
 92
        9
 66
     7
 43
1.0
 76
     1
 77
     6
 78
     2
 67
     7
 79
     5
170
     0
171
     0
290
     0
174
     0
 93
        1
 44
0.0
173
     0
291
     1
 45
0.0
1001
ACAD
1000
AcDbSavedByObjectVersion
1070
     0
  0
VISUALSTYLE
  5
1D2B
102
{ACAD_XDICTIONARY
360
21D8
102
}
102
{ACAD_REACTORS
330
1D21
102
}
330
1D21
100
AcDbVisualStyle
  2
Realistic
 70
     8
 71
     2
 72
     2
 73
     0
 90
        2
 40
-0.6
 41
30.0
 62
     5
 63
     7
 74
     0
 91
        0
 64
     7
 65
   257
 75
     1
175
     1
 42
1.0
 92
        8
 66
   257
 43
1.0
 76
     1
 77
     6
 78
     2
 67
     7
 79
     3
170
     0
171
     0
290
     0
174
     0
 93
       13
 44
0.0
173
     0
291
     0
 45
0.0
1001
ACAD
1000
AcDbSavedByObjectVersion
1070
     0
  0
VISUALSTYLE
  5
1D36
102
{ACAD_XDICTIONARY
360
21EE
102
}
102
{ACAD_REACTORS
330
1D21
102
}
330
1D21
100
AcDbVisualStyle
  2
Shaded
 70
    27
 71
     2
 72
     2
 73
     1
 90
        2
 40
-0.6
 41
30.0
 62
     5
 63
     7
 74
     0
 91
        4
 64
     7
 65
   257
 75
     1
175
     1
 42
1.0
 92
        8
 66
   257
 43
1.0
 76
     1
 77
     6
 78
     2
 67
     8
 79
     3
170
     0
171
     0
290
     0
174
     0
 93
        5
 44
0.0
173
     0
291
     0
 45
0.0
1001
ACAD
1000
AcDbSavedByObjectVersion
1070
     0
  0
VISUALSTYLE
  5
1D35
102
{ACAD_XDICTIONARY
360
21EC
102
}
102
{ACAD_REACTORS
330
1D21
102
}
330
1D21
100
AcDbVisualStyle
  2
Shaded with edges
 70
    26
 71
     2
 72
     2
 73
     1
 90
        2
 40
-0.6
 41
30.0
 62
     5
 63
     7
 74
     1
 91
       10
 64
     7
 65
   257
 75
     2
175
     1
 42
1.0
 92
        8
 66
   257
 43
1.0
 76
     1
 77
     6
 78
     2
 67
     7
 79
     3
170
     0
171
     0
290
     0
174
     0
 93
        5
 44
0.0
173
     0
291
     0
 45
0.0
1001
ACAD
1000
AcDbSavedByObjectVersion
1070
     0
  0
VISUALSTYLE
  5
1D32
102
{ACAD_XDICTIONARY
360
21E6
102
}
102
{ACAD_REACTORS
330
1D21
102
}
330
1D21
100
AcDbVisualStyle
  2
Shades of Gray
 70
    23
 71
     2
 72
     2
 73
     3
 90
        0
 40
-0.6
 41
-30.0
 62
     5
 63
     7
 74
     2
 91
        2
 64
     7
 65
     7
 75
     1
175
     1
 42
40.0
 92
        8
 66
     7
 43
1.0
 76
     1
 77
     6
 78
     2
 67
     7
 79
     3
170
     0
171
     0
290
     0
174
     0
 93
        1
 44
0.0
173
     0
291
     0
 45
0.0
1001
ACAD
1000
AcDbSavedByObjectVersion
1070
     0
  0
VISUALSTYLE
  5
1D33
102
{ACAD_XDICTIONARY
360
21E8
102
}
102
{ACAD_REACTORS
330
1D21
102
}
330
1D21
100
AcDbVisualStyle
  2
Sketchy
 70
    24
 71
     1
 72
     2
 73
     2
 90
        0
 40
-0.6
 41
-30.0
 62
     5
 63
     7
 74
     2
 91
        2
 64
     7
 65
     7
 75
     1
175
     1
 42
40.0
 92
       11
 66
     7
 43
1.0
 76
     1
 77
     6
 78
     2
 67
     7
 79
     6
170
     0
171
     0
290
     0
174
     0
 93
        1
 44
0.0
173
     0
291
     0
 45
0.0
1001
ACAD
1000
AcDbSavedByObjectVersion
1070
     0
  0
VISUALSTYLE
  5
1D2E
102
{ACAD_XDICTIONARY
360
21DE
102
}
102
{ACAD_REACTORS
330
1D21
102
}
330
1D21
100
AcDbVisualStyle
  2
Thicken
 70
    13
 71
     2
 72
     2
 73
     0
 90
        0
 40
-0.6
 41
-30.0
 62
     5
 63
     7
 74
     1
 91
        4
 64
     7
 65
   257
 75
     1
175
     1
 42
1.0
 92
       12
 66
     7
 43
1.0
 76
     1
 77
     6
 78
     2
 67
     7
 79
     5
170
     0
171
     0
290
     0
174
     0
 93
        1
 44
0.0
173
     0
291
     1
 45
0.0
1001
ACAD
1000
AcDbSavedByObjectVersion
1070
     0
  0
VISUALSTYLE
  5
1D28
102
{ACAD_XDICTIONARY
360
21D2
102
}
102
{ACAD_REACTORS
330
1D21
102
}
330
1D21
100
AcDbVisualStyle
  2
Wireframe
 70
     5
 71
     0
 72
     2
 73
     0
 90
        0
 40
-0.6
 41
-30.0
 62
     5
 63
     7
 74
     1
 91
        4
 64
     7
 65
   257
 75
     1
175
     1
 42
1.0
 92
        0
 66
   257
 43
1.0
 76
     1
 77
     6
 78
     2
 67
     7
 79
     3
170
     0
171
     0
290
     0
174
     0
 93
        1
 44
0.0
173
     0
291
     0
 45
0.0
1001
ACAD
1000
AcDbSavedByObjectVersion
1070
     0
  0
VISUALSTYLE
  5
1D34
102
{ACAD_XDICTIONARY
360
21EA
102
}
102
{ACAD_REACTORS
330
1D21
102
}
330
1D21
100
AcDbVisualStyle
  2
X-Ray
 70
    25
 71
     2
 72
     2
 73
     1
 90
        1
 40
0.5
 41
-30.0
 62
     5
 63
     7
 74
     1
 91
        0
 64
     7
 65
   257
 75
     1
175
     1
 42
1.0
 92
        8
 66
     7
 43
1.0
 76
     1
 77
     6
 78
     2
 67
     7
 79
     3
170
     0
171
     0
290
     0
174
     0
 93
       13
 44
0.0
173
     0
291
     0
 45
0.0
1001
ACAD
1000
AcDbSavedByObjectVersion
1070
     0
  0
DICTIONARYVAR
  5
1DBD
102
{ACAD_REACTORS
330
1C80
102
}
330
1C80
100
DictionaryVariables
280
     0
  1
1:1
  0
DICTIONARYVAR
  5
1DBA
102
{ACAD_REACTORS
330
1C80
102
}
330
1C80
100
DictionaryVariables
280
     0
  1
STANDARD
  0
DICTIONARYVAR
  5
1DB9
102
{ACAD_REACTORS
330
1C80
102
}
330
1C80
100
DictionaryVariables
280
     0
  1
STANDARD
  0
DICTIONARYVAR
  5
1DBB
102
{ACAD_REACTORS
330
1C80
102
}
330
1C80
100
DictionaryVariables
280
     0
  1
Metric50
  0
DICTIONARYVAR
  5
1DBC
102
{ACAD_REACTORS
330
1C80
102
}
330
1C80
100
DictionaryVariables
280
     0
  1
Metric50
  0
DICTIONARYVAR
  5
1DBF
102
{ACAD_REACTORS
330
1C80
102
}
330
1C80
100
DictionaryVariables
280
     0
  1
1
  0
DICTIONARYVAR
  5
1DBE
102
{ACAD_REACTORS
330
1C80
102
}
330
1C80
100
DictionaryVariables
280
     0
  1
0
  0
DICTIONARYVAR
  5
1C81
102
{ACAD_REACTORS
330
1C80
102
}
330
1C80
100
DictionaryVariables
280
     0
  1
96
  0
DICTIONARYVAR
  5
21B9
102
{ACAD_REACTORS
330
1C80
102
}
330
1C80
100
DictionaryVariables
280
     0
  1
2
  0
XRECORD
  5
1F51
102
{ACAD_XDICTIONARY
360
1F52
102
}
102
{ACAD_REACTORS
330
1F50
102
}
330
1F50
100
AcDbXrecord
280
     1
 91
      535
301

290
     0
302
外枠
330
1C78
 90
        8
 62
     1
370
     5
331
21B
  1
色_1
440
        0
330
1C3B
 90
        8
 62
    51
370
    13
331
8
  1
色_51
440
        0
330
1C28
 90
        8
 62
   112
370
    13
331
8
  1
色_112
440
        0
330
0
 90
        8
 62
     3
370
     9
331
8
  1
色_3
440
        0
330
F3
 90
        0
 62
     7
370
    -3
331
8
  1
色_7
440
        0
330
11
 90
        8
 62
     7
370
    -3
331
8
  1
色_7
440
        0
330
67
 90
        8
 62
     4
370
     5
331
8
  1
色_4
440
        0
330
0
 90
        8
 62
    31
370
     9
331
8
  1
色_31
440
        0
330
4
 90
        8
 62
     2
370
     9
331
8
  1
色_2
440
        0
330
6A
 90
        8
 62
     7
370
    13
331
8
  1
色_7
440
        0
330
64
 90
        8
 62
     7
370
    -3
331
8
  1
色_7
440
        0
  0
ACDBASSOCNETWORK
  5
1F92
102
{ACAD_REACTORS
330
1F91
102
}
330
1F91
100
AcDbAssocAction
 90
        1
 90
        1
330
1F94
360
0
 90
        1
 90
        0
 90
        0
100
AcDbAssocNetwork
 90
        0
 90
        2
 90
        2
360
1F95
360
208D
 90
        2
330
1F95
330
208D
  0
XRECORD
  5
21FE
102
{ACAD_REACTORS
330
21FD
102
}
330
21FD
100
AcDbXrecord
280
     1
1070
     0
1070
     1
1070
     1
  0
XRECORD
  5
2200
102
{ACAD_REACTORS
330
21FF
102
}
330
21FF
100
AcDbXrecord
280
     1
1070
     0
1070
     1
1070
     1
  0
DICTIONARY
  5
21FB
330
1D54
100
AcDbDictionary
280
     1
281
     1
  3
ACAD_XREC_ROUNDTRIP
360
21FC
  0
DICTIONARY
  5
21BF
330
CBE
100
AcDbDictionary
280
     1
281
     1
  3
ACAD_XREC_ROUNDTRIP
360
21C0
  0
DICTIONARY
  5
21C1
330
CC4
100
AcDbDictionary
280
     1
281
     1
  3
ACAD_XREC_ROUNDTRIP
360
21C2
  0
DICTIONARY
  5
21BD
330
CB7
100
AcDbDictionary
280
     1
281
     1
  3
ACAD_XREC_ROUNDTRIP
360
21BE
  0
DICTIONARY
  5
1D12
330
1D11
100
AcDbDictionary
280
     1
281
     1
  3
ACAD_XREC_ROUNDTRIP
360
21C4
  3
BUMPTILE
360
1D14
  3
DIFFUSETILE
360
1D13
  3
OPACITYTILE
360
1D17
  3
REFLECTIONTILE
360
1D16
  3
REFRACTIONTILE
360
1D18
  3
SPECULARTILE
360
1D15
  0
DICTIONARY
  5
1D0A
330
1D09
100
AcDbDictionary
280
     1
281
     1
  3
ACAD_XREC_ROUNDTRIP
360
21C3
  3
BUMPTILE
360
1D0C
  3
DIFFUSETILE
360
1D0B
  3
OPACITYTILE
360
1D0F
  3
REFLECTIONTILE
360
1D0E
  3
REFRACTIONTILE
360
1D10
  3
SPECULARTILE
360
1D0D
  0
DICTIONARY
  5
1D1A
330
1D19
100
AcDbDictionary
280
     1
281
     1
  3
ACAD_XREC_ROUNDTRIP
360
21C5
  3
BUMPTILE
360
1D1C
  3
DIFFUSETILE
360
1D1B
  3
OPACITYTILE
360
1D1F
  3
REFLECTIONTILE
360
1D1E
  3
REFRACTIONTILE
360
1D20
  3
SPECULARTILE
360
1D1D
  0
DICTIONARY
  5
21F7
330
1D50
100
AcDbDictionary
280
     1
281
     1
  3
ACAD_XREC_ROUNDTRIP
360
21F8
  0
DICTIONARY
  5
21F9
330
1D52
100
AcDbDictionary
280
     1
281
     1
  3
ACAD_XREC_ROUNDTRIP
360
21FA
  0
DICTIONARY
  5
1D72
330
1D3C
100
AcDbDictionary
280
     1
281
     1
  3
ACAD_ROUNDTRIP_2008_TABLESTYLE_CELLSTYLEMAP
360
21BA
  3
ACAD_XREC_ROUNDTRIP
360
21F6
  0
DICTIONARY
  5
21D0
330
1D27
100
AcDbDictionary
280
     1
281
     1
  3
ACAD_XREC_ROUNDTRIP
360
21D1
  0
DICTIONARY
  5
21CE
330
1D26
100
AcDbDictionary
280
     1
281
     1
  3
ACAD_XREC_ROUNDTRIP
360
21CF
  0
DICTIONARY
  5
21DC
330
1D2D
100
AcDbDictionary
280
     1
281
     1
  3
ACAD_XREC_ROUNDTRIP
360
21DD
  0
DICTIONARY
  5
21E4
330
1D31
100
AcDbDictionary
280
     1
281
     1
  3
ACAD_XREC_ROUNDTRIP
360
21E5
  0
DICTIONARY
  5
21D6
330
1D2A
100
AcDbDictionary
280
     1
281
     1
  3
ACAD_XREC_ROUNDTRIP
360
21D7
  0
DICTIONARY
  5
21DA
330
1D2C
100
AcDbDictionary
280
     1
281
     1
  3
ACAD_XREC_ROUNDTRIP
360
21DB
  0
DICTIONARY
  5
21F4
330
1D39
100
AcDbDictionary
280
     1
281
     1
  3
ACAD_XREC_ROUNDTRIP
360
21F5
  0
DICTIONARY
  5
21E2
330
1D30
100
AcDbDictionary
280
     1
281
     1
  3
ACAD_XREC_ROUNDTRIP
360
21E3
  0
DICTIONARY
  5
21C6
330
1D22
100
AcDbDictionary
280
     1
281
     1
  3
ACAD_XREC_ROUNDTRIP
360
21C7
  0
DICTIONARY
  5
21C8
330
1D23
100
AcDbDictionary
280
     1
281
     1
  3
ACAD_XREC_ROUNDTRIP
360
21C9
  0
DICTIONARY
  5
21CA
330
1D24
100
AcDbDictionary
280
     1
281
     1
  3
ACAD_XREC_ROUNDTRIP
360
21CB
  0
DICTIONARY
  5
21CC
330
1D25
100
AcDbDictionary
280
     1
281
     1
  3
ACAD_XREC_ROUNDTRIP
360
21CD
  0
DICTIONARY
  5
21D4
330
1D29
100
AcDbDictionary
280
     1
281
     1
  3
ACAD_XREC_ROUNDTRIP
360
21D5
  0
DICTIONARY
  5
21F0
330
1D37
100
AcDbDictionary
280
     1
281
     1
  3
ACAD_XREC_ROUNDTRIP
360
21F1
  0
DICTIONARY
  5
21E0
330
1D2F
100
AcDbDictionary
280
     1
281
     1
  3
ACAD_XREC_ROUNDTRIP
360
21E1
  0
DICTIONARY
  5
21F2
330
1D38
100
AcDbDictionary
280
     1
281
     1
  3
ACAD_XREC_ROUNDTRIP
360
21F3
  0
DICTIONARY
  5
21D8
330
1D2B
100
AcDbDictionary
280
     1
281
     1
  3
ACAD_XREC_ROUNDTRIP
360
21D9
  0
DICTIONARY
  5
21EE
330
1D36
100
AcDbDictionary
280
     1
281
     1
  3
ACAD_XREC_ROUNDTRIP
360
21EF
  0
DICTIONARY
  5
21EC
330
1D35
100
AcDbDictionary
280
     1
281
     1
  3
ACAD_XREC_ROUNDTRIP
360
21ED
  0
DICTIONARY
  5
21E6
330
1D32
100
AcDbDictionary
280
     1
281
     1
  3
ACAD_XREC_ROUNDTRIP
360
21E7
  0
DICTIONARY
  5
21E8
330
1D33
100
AcDbDictionary
280
     1
281
     1
  3
ACAD_XREC_ROUNDTRIP
360
21E9
  0
DICTIONARY
  5
21DE
330
1D2E
100
AcDbDictionary
280
     1
281
     1
  3
ACAD_XREC_ROUNDTRIP
360
21DF
  0
DICTIONARY
  5
21D2
330
1D28
100
AcDbDictionary
280
     1
281
     1
  3
ACAD_XREC_ROUNDTRIP
360
21D3
  0
DICTIONARY
  5
21EA
330
1D34
100
AcDbDictionary
280
     1
281
     1
  3
ACAD_XREC_ROUNDTRIP
360
21EB
  0
DICTIONARY
  5
1F52
330
1F51
100
AcDbDictionary
280
     1
281
     1
  3
AcadLayerStateAnnoScale
360
1F53
  0
ACDBASSOCACTION
  5
1F95
330
1F92
100
AcDbAssocAction
 90
        1
 90
        1
330
1F92
360
1F96
 90
        1
 90
        3
 90
        3
360
1F99
360
1F9A
360
1F9B
  0
ACDBASSOCACTION
  5
208D
330
1F92
100
AcDbAssocAction
 90
        1
 90
        1
330
1F92
360
208E
 90
        2
 90
        3
 90
        3
360
2091
360
2092
360
2093
  0
XRECORD
  5
21FC
102
{ACAD_REACTORS
330
21FB
102
}
330
21FB
100
AcDbXrecord
280
     1
102
DISPLAYNAME
  1
Metric50
102
FLAGS
 90
        0
  0
XRECORD
  5
21C0
102
{ACAD_REACTORS
330
21BF
102
}
330
21BF
100
AcDbXrecord
280
     1
102
SHADEPLOT
 70
     0
102
SHADEPLOTRESLEVEL
 70
     2
102
SHADEPLOTCUSTOMDPI
 70
   300
  0
XRECORD
  5
21C2
102
{ACAD_REACTORS
330
21C1
102
}
330
21C1
100
AcDbXrecord
280
     1
102
SHADEPLOT
 70
     0
102
SHADEPLOTRESLEVEL
 70
     2
102
SHADEPLOTCUSTOMDPI
 70
   300
  0
XRECORD
  5
21BE
102
{ACAD_REACTORS
330
21BD
102
}
330
21BD
100
AcDbXrecord
280
     1
102
SHADEPLOT
 70
     0
102
SHADEPLOTRESLEVEL
 70
     2
102
SHADEPLOTCUSTOMDPI
 70
   300
  0
XRECORD
  5
21C4
102
{ACAD_REACTORS
330
1D12
102
}
330
1D12
100
AcDbXrecord
280
     1
102
MATERIAL
148
0.0
149
0.0
149
0.0
 93
        0
 94
      127
282
     0
 72
     0
 77
     0
171
     0
175
     0
179
     0
273
     0
  0
XRECORD
  5
1D14
102
{ACAD_REACTORS
330
1D12
102
}
330
1D12
100
AcDbXrecord
280
     1
270
     1
271
     1
  0
XRECORD
  5
1D13
102
{ACAD_REACTORS
330
1D12
102
}
330
1D12
100
AcDbXrecord
280
     1
270
     1
271
     1
  0
XRECORD
  5
1D17
102
{ACAD_REACTORS
330
1D12
102
}
330
1D12
100
AcDbXrecord
280
     1
270
     1
271
     1
  0
XRECORD
  5
1D16
102
{ACAD_REACTORS
330
1D12
102
}
330
1D12
100
AcDbXrecord
280
     1
270
     1
271
     1
  0
XRECORD
  5
1D18
102
{ACAD_REACTORS
330
1D12
102
}
330
1D12
100
AcDbXrecord
280
     1
270
     1
271
     1
  0
XRECORD
  5
1D15
102
{ACAD_REACTORS
330
1D12
102
}
330
1D12
100
AcDbXrecord
280
     1
270
     1
271
     1
  0
XRECORD
  5
21C3
102
{ACAD_REACTORS
330
1D0A
102
}
330
1D0A
100
AcDbXrecord
280
     1
102
MATERIAL
148
0.0
149
0.0
149
0.0
 93
        0
 94
      127
282
     0
 72
     0
 77
     0
171
     0
175
     0
179
     0
273
     0
  0
XRECORD
  5
1D0C
102
{ACAD_REACTORS
330
1D0A
102
}
330
1D0A
100
AcDbXrecord
280
     1
270
     1
271
     1
  0
XRECORD
  5
1D0B
102
{ACAD_REACTORS
330
1D0A
102
}
330
1D0A
100
AcDbXrecord
280
     1
270
     1
271
     1
  0
XRECORD
  5
1D0F
102
{ACAD_REACTORS
330
1D0A
102
}
330
1D0A
100
AcDbXrecord
280
     1
270
     1
271
     1
  0
XRECORD
  5
1D0E
102
{ACAD_REACTORS
330
1D0A
102
}
330
1D0A
100
AcDbXrecord
280
     1
270
     1
271
     1
  0
XRECORD
  5
1D10
102
{ACAD_REACTORS
330
1D0A
102
}
330
1D0A
100
AcDbXrecord
280
     1
270
     1
271
     1
  0
XRECORD
  5
1D0D
102
{ACAD_REACTORS
330
1D0A
102
}
330
1D0A
100
AcDbXrecord
280
     1
270
     1
271
     1
  0
XRECORD
  5
21C5
102
{ACAD_REACTORS
330
1D1A
102
}
330
1D1A
100
AcDbXrecord
280
     1
102
MATERIAL
148
0.0
149
0.0
149
0.0
 93
        0
 94
      127
282
     0
 72
     0
 77
     0
171
     0
175
     0
179
     0
273
     0
  0
XRECORD
  5
1D1C
102
{ACAD_REACTORS
330
1D1A
102
}
330
1D1A
100
AcDbXrecord
280
     1
270
     1
271
     1
  0
XRECORD
  5
1D1B
102
{ACAD_REACTORS
330
1D1A
102
}
330
1D1A
100
AcDbXrecord
280
     1
270
     1
271
     1
  0
XRECORD
  5
1D1F
102
{ACAD_REACTORS
330
1D1A
102
}
330
1D1A
100
AcDbXrecord
280
     1
270
     1
271
     1
  0
XRECORD
  5
1D1E
102
{ACAD_REACTORS
330
1D1A
102
}
330
1D1A
100
AcDbXrecord
280
     1
270
     1
271
     1
  0
XRECORD
  5
1D20
102
{ACAD_REACTORS
330
1D1A
102
}
330
1D1A
100
AcDbXrecord
280
     1
270
     1
271
     1
  0
XRECORD
  5
1D1D
102
{ACAD_REACTORS
330
1D1A
102
}
330
1D1A
100
AcDbXrecord
280
     1
270
     1
271
     1
  0
XRECORD
  5
21F8
102
{ACAD_REACTORS
330
21F7
102
}
330
21F7
100
AcDbXrecord
280
     1
102
ACAD_ROUNDTRIP_2012_MLEADER_STYLE
298
     1
  0
XRECORD
  5
21FA
102
{ACAD_REACTORS
330
21F9
102
}
330
21F9
100
AcDbXrecord
280
     1
102
DISPLAYNAME
  1
Metric50
102
FLAGS
 90
        0
  0
CELLSTYLEMAP
  5
21BA
102
{ACAD_REACTORS
330
1D72
102
}
330
1D72
100
AcDbCellStyleMap
 90
        3
300
CELLSTYLE
  1
TABLEFORMAT_BEGIN
 90
        5
170
     1
 91
        0
 92
    32768
 62
   257
 93
        1
300
CONTENTFORMAT
  1
CONTENTFORMAT_BEGIN
 90
        0
 91
        0
 92
      512
 93
        0
300

 40
0.0
140
1.0
 94
        5
 62
     0
340
9
144
6.0
309
CONTENTFORMAT_END
171
     1
301
MARGIN
  1
CELLMARGIN_BEGIN
 40
1.5
 40
1.5
 40
1.5
 40
1.5
 40
4.5
 40
4.5
309
CELLMARGIN_END
 94
        6
 95
        1
302
GRIDFORMAT
  1
GRIDFORMAT_BEGIN
 90
        0
 91
        1
 62
     0
 92
       -2
340
0
 93
        0
 40
1.125
309
GRIDFORMAT_END
 95
        2
302
GRIDFORMAT
  1
GRIDFORMAT_BEGIN
 90
        0
 91
        1
 62
     0
 92
       -2
340
0
 93
        0
 40
1.125
309
GRIDFORMAT_END
 95
        4
302
GRIDFORMAT
  1
GRIDFORMAT_BEGIN
 90
        0
 91
        1
 62
     0
 92
       -2
340
0
 93
        0
 40
1.125
309
GRIDFORMAT_END
 95
        8
302
GRIDFORMAT
  1
GRIDFORMAT_BEGIN
 90
        0
 91
        1
 62
     0
 92
       -2
340
0
 93
        0
 40
1.125
309
GRIDFORMAT_END
 95
       16
302
GRIDFORMAT
  1
GRIDFORMAT_BEGIN
 90
        0
 91
        1
 62
     0
 92
       -2
340
0
 93
        0
 40
1.125
309
GRIDFORMAT_END
 95
       32
302
GRIDFORMAT
  1
GRIDFORMAT_BEGIN
 90
        0
 91
        1
 62
     0
 92
       -2
340
0
 93
        0
 40
1.125
309
GRIDFORMAT_END
309
TABLEFORMAT_END
  1
CELLSTYLE_BEGIN
 90
        1
 91
        1
300
_TITLE
309
CELLSTYLE_END
300
CELLSTYLE
  1
TABLEFORMAT_BEGIN
 90
        5
170
     1
 91
        0
 92
        0
 62
   257
 93
        1
300
CONTENTFORMAT
  1
CONTENTFORMAT_BEGIN
 90
        0
 91
        0
 92
      512
 93
        0
300

 40
0.0
140
1.0
 94
        5
 62
     0
340
9
144
4.5
309
CONTENTFORMAT_END
171
     1
301
MARGIN
  1
CELLMARGIN_BEGIN
 40
1.5
 40
1.5
 40
1.5
 40
1.5
 40
4.5
 40
4.5
309
CELLMARGIN_END
 94
        6
 95
        1
302
GRIDFORMAT
  1
GRIDFORMAT_BEGIN
 90
        0
 91
        1
 62
     0
 92
       -2
340
0
 93
        0
 40
1.125
309
GRIDFORMAT_END
 95
        2
302
GRIDFORMAT
  1
GRIDFORMAT_BEGIN
 90
        0
 91
        1
 62
     0
 92
       -2
340
0
 93
        0
 40
1.125
309
GRIDFORMAT_END
 95
        4
302
GRIDFORMAT
  1
GRIDFORMAT_BEGIN
 90
        0
 91
        1
 62
     0
 92
       -2
340
0
 93
        0
 40
1.125
309
GRIDFORMAT_END
 95
        8
302
GRIDFORMAT
  1
GRIDFORMAT_BEGIN
 90
        0
 91
        1
 62
     0
 92
       -2
340
0
 93
        0
 40
1.125
309
GRIDFORMAT_END
 95
       16
302
GRIDFORMAT
  1
GRIDFORMAT_BEGIN
 90
        0
 91
        1
 62
     0
 92
       -2
340
0
 93
        0
 40
1.125
309
GRIDFORMAT_END
 95
       32
302
GRIDFORMAT
  1
GRIDFORMAT_BEGIN
 90
        0
 91
        1
 62
     0
 92
       -2
340
0
 93
        0
 40
1.125
309
GRIDFORMAT_END
309
TABLEFORMAT_END
  1
CELLSTYLE_BEGIN
 90
        2
 91
        1
300
_HEADER
309
CELLSTYLE_END
300
CELLSTYLE
  1
TABLEFORMAT_BEGIN
 90
        5
170
     1
 91
        0
 92
        0
 62
   257
 93
        1
300
CONTENTFORMAT
  1
CONTENTFORMAT_BEGIN
 90
        0
 91
        0
 92
      512
 93
        0
300

 40
0.0
140
1.0
 94
        2
 62
     0
340
9
144
4.5
309
CONTENTFORMAT_END
171
     1
301
MARGIN
  1
CELLMARGIN_BEGIN
 40
1.5
 40
1.5
 40
1.5
 40
1.5
 40
4.5
 40
4.5
309
CELLMARGIN_END
 94
        6
 95
        1
302
GRIDFORMAT
  1
GRIDFORMAT_BEGIN
 90
        0
 91
        1
 62
     0
 92
       -2
340
0
 93
        0
 40
1.125
309
GRIDFORMAT_END
 95
        2
302
GRIDFORMAT
  1
GRIDFORMAT_BEGIN
 90
        0
 91
        1
 62
     0
 92
       -2
340
0
 93
        0
 40
1.125
309
GRIDFORMAT_END
 95
        4
302
GRIDFORMAT
  1
GRIDFORMAT_BEGIN
 90
        0
 91
        1
 62
     0
 92
       -2
340
0
 93
        0
 40
1.125
309
GRIDFORMAT_END
 95
        8
302
GRIDFORMAT
  1
GRIDFORMAT_BEGIN
 90
        0
 91
        1
 62
     0
 92
       -2
340
0
 93
        0
 40
1.125
309
GRIDFORMAT_END
 95
       16
302
GRIDFORMAT
  1
GRIDFORMAT_BEGIN
 90
        0
 91
        1
 62
     0
 92
       -2
340
0
 93
        0
 40
1.125
309
GRIDFORMAT_END
 95
       32
302
GRIDFORMAT
  1
GRIDFORMAT_BEGIN
 90
        0
 91
        1
 62
     0
 92
       -2
340
0
 93
        0
 40
1.125
309
GRIDFORMAT_END
309
TABLEFORMAT_END
  1
CELLSTYLE_BEGIN
 90
        3
 91
        2
300
_DATA
309
CELLSTYLE_END
  0
XRECORD
  5
21F6
102
{ACAD_REACTORS
330
1D72
102
}
330
1D72
100
AcDbXrecord
280
     1
102
ACAD_ROUNDTRIP_PRE2007_TABLESTYLE
 90
      512
 91
        0
  1

 92
      512
 93
        0
  2

 94
      512
 95
        0
  3

  0
XRECORD
  5
21D1
102
{ACAD_REACTORS
330
21D0
102
}
330
21D0
100
AcDbXrecord
280
     1
102
RTVSPost2010Prop28
280
     1
102
RTVSPost2010PropOp28
 70
     1
102
RTVSPost2010Prop29
280
     1
102
RTVSPost2010PropOp29
 70
     1
102
RTVSPost2010Prop30
280
     0
102
RTVSPost2010PropOp30
 70
     1
102
RTVSPost2010Prop31
280
     0
102
RTVSPost2010PropOp31
 70
     1
102
RTVSPost2010Prop32
280
     0
102
RTVSPost2010PropOp32
 70
     1
102
RTVSPost2010Prop33
280
     0
102
RTVSPost2010PropOp33
 70
     1
102
RTVSPost2010Prop34
280
     0
102
RTVSPost2010PropOp34
 70
     1
102
RTVSPost2010Prop35
280
     0
102
RTVSPost2010PropOp35
 70
     1
102
RTVSPost2010Prop36
280
     0
102
RTVSPost2010PropOp36
 70
     1
102
RTVSPost2010Prop37
 90
       50
102
RTVSPost2010PropOp37
 70
     1
102
RTVSPost2010Prop38
140
0.0
102
RTVSPost2010PropOp38
 70
     1
102
RTVSPost2010Prop39
140
1.0
102
RTVSPost2010PropOp39
 70
     1
102
RTVSPost2010Prop40
 90
        0
102
RTVSPost2010PropOp40
 70
     1
102
RTVSPost2010Prop41ColorIndex
 90
       18
102
RTVSPost2010Prop41ColorRGB
 90
        0
102
RTVSPost2010PropOp41
 70
     1
102
RTVSPost2010Prop42
 90
       50
102
RTVSPost2010PropOp42
 70
     1
102
RTVSPost2010Prop43
 90
        3
102
RTVSPost2010PropOp43
 70
     1
102
RTVSPost2010Prop44ColorIndex
 90
        5
102
RTVSPost2010Prop44ColorRGB
 90
      255
102
RTVSPost2010PropOp44
 70
     1
102
RTVSPost2010Prop45
280
     0
102
RTVSPost2010PropOp45
 70
     1
102
RTVSPost2010Prop46
 90
       50
102
RTVSPost2010PropOp46
 70
     1
102
RTVSPost2010Prop47
 90
       50
102
RTVSPost2010PropOp47
 70
     1
102
RTVSPost2010Prop48
 90
       50
102
RTVSPost2010PropOp48
 70
     1
102
RTVSPost2010Prop49
280
     0
102
RTVSPost2010PropOp49
 70
     1
102
RTVSPost2010Prop50
 90
       50
102
RTVSPost2010PropOp50
 70
     1
102
RTVSPost2010Prop51ColorIndex
 90
      256
102
RTVSPost2010Prop51ColorRGB
 90
-16777216
102
RTVSPost2010PropOp51
 70
     0
102
RTVSPost2010Prop52
140
1.0
102
RTVSPost2010PropOp52
 70
     0
102
RTVSPost2010Prop53
 90
        2
102
RTVSPost2010PropOp53
 70
     1
102
RTVSPost2010Prop54
  1
strokes_ogs.tif
102
RTVSPost2010PropOp54
 70
     1
102
RTVSPost2010Prop55
280
     0
102
RTVSPost2010PropOp55
 70
     1
102
RTVSPost2010Prop56
140
1.0
102
RTVSPost2010PropOp56
 70
     1
102
RTVSPost2010Prop57
140
1.0
102
RTVSPost2010PropOp57
 70
     1
102
RTVSPropertyOp0
 70
     1
102
RTVSPropertyOp1
 70
     1
102
RTVSPropertyOp2
 70
     1
102
RTVSPropertyOp3
 70
     1
102
RTVSPropertyOp4
 70
     1
102
RTVSPropertyOp5
 70
     1
102
RTVSPropertyOp6
 70
     1
102
RTVSPropertyOp7
 70
     1
102
RTVSPropertyOp8
 70
     1
102
RTVSPropertyOp9
 70
     1
102
RTVSPropertyOp10
 70
     1
102
RTVSPropertyOp11
 70
     1
102
RTVSPropertyOp12
 70
     1
102
RTVSPropertyOp13
 70
     1
102
RTVSPropertyOp14
 70
     1
102
RTVSPropertyOp15
 70
     1
102
RTVSPropertyOp16
 70
     1
102
RTVSPropertyOp17
 70
     1
102
RTVSPropertyOp18
 70
     1
102
RTVSPropertyOp19
 70
     1
102
RTVSPropertyOp20
 70
     1
102
RTVSPropertyOp21
 70
     1
102
RTVSPropertyOp22
 70
     1
102
RTVSPropertyOp23
 70
     1
102
RTVSPropertyOp24
 70
     1
102
RTVSPropertyOp25
 70
     1
102
RTVSPropertyOp26
 70
     1
102
RTVSPropertyOp27
 70
     1
102
RTVSPropertyOp28
 70
     1
102
RTVSPropertyOp29
 70
     1
102
RTVSPropertyOp30
 70
     1
102
RTVSPropertyOp31
 70
     1
102
RTVSPropertyOp32
 70
     1
102
RTVSPropertyOp33
 70
     1
102
RTVSPropertyOp34
 70
     1
102
RTVSPropertyOp35
 70
     1
102
RTVSPropertyOp36
 70
     1
102
RTVSPropertyOp37
 70
     1
102
RTVSPropertyOp38
 70
     1
102
RTVSPropertyOp39
 70
     1
102
RTVSPropertyOp40
 70
     1
102
RTVSPropertyOp41
 70
     1
102
RTVSPropertyOp42
 70
     1
102
RTVSPropertyOp43
 70
     1
102
RTVSPropertyOp44
 70
     1
102
RTVSPropertyOp45
 70
     1
102
RTVSPropertyOp46
 70
     1
102
RTVSPropertyOp47
 70
     1
102
RTVSPropertyOp48
 70
     1
102
RTVSPropertyOp49
 70
     1
102
RTVSPropertyOp50
 70
     1
102
RTVSPropertyOp51
 70
     0
102
RTVSPropertyOp52
 70
     0
102
RTVSPropertyOp53
 70
     1
102
RTVSPropertyOp54
 70
     1
102
RTVSPropertyOp55
 70
     1
102
RTVSPropertyOp56
 70
     1
102
RTVSPropertyOp57
 70
     1
102
RTVSPropertyOp58
 70
     1
102
RTVSPropertyOp59
 70
     1
102
RTVSPropertyOp60
 70
     1
102
RTVSPropertyOp61
 70
     1
102
RTVSPropertyOp62
 70
     1
  0
XRECORD
  5
21CF
102
{ACAD_REACTORS
330
21CE
102
}
330
21CE
100
AcDbXrecord
280
     1
102
RTVSPost2010Prop28
280
     0
102
RTVSPost2010PropOp28
 70
     1
102
RTVSPost2010Prop29
280
     1
102
RTVSPost2010PropOp29
 70
     1
102
RTVSPost2010Prop30
280
     1
102
RTVSPost2010PropOp30
 70
     1
102
RTVSPost2010Prop31
280
     0
102
RTVSPost2010PropOp31
 70
     1
102
RTVSPost2010Prop32
280
     0
102
RTVSPost2010PropOp32
 70
     1
102
RTVSPost2010Prop33
280
     0
102
RTVSPost2010PropOp33
 70
     1
102
RTVSPost2010Prop34
280
     0
102
RTVSPost2010PropOp34
 70
     1
102
RTVSPost2010Prop35
280
     0
102
RTVSPost2010PropOp35
 70
     1
102
RTVSPost2010Prop36
280
     0
102
RTVSPost2010PropOp36
 70
     1
102
RTVSPost2010Prop37
 90
       50
102
RTVSPost2010PropOp37
 70
     1
102
RTVSPost2010Prop38
140
0.0
102
RTVSPost2010PropOp38
 70
     1
102
RTVSPost2010Prop39
140
1.0
102
RTVSPost2010PropOp39
 70
     1
102
RTVSPost2010Prop40
 90
        0
102
RTVSPost2010PropOp40
 70
     1
102
RTVSPost2010Prop41ColorIndex
 90
       18
102
RTVSPost2010Prop41ColorRGB
 90
        0
102
RTVSPost2010PropOp41
 70
     1
102
RTVSPost2010Prop42
 90
       50
102
RTVSPost2010PropOp42
 70
     1
102
RTVSPost2010Prop43
 90
        3
102
RTVSPost2010PropOp43
 70
     1
102
RTVSPost2010Prop44ColorIndex
 90
        5
102
RTVSPost2010Prop44ColorRGB
 90
      255
102
RTVSPost2010PropOp44
 70
     1
102
RTVSPost2010Prop45
280
     0
102
RTVSPost2010PropOp45
 70
     1
102
RTVSPost2010Prop46
 90
       50
102
RTVSPost2010PropOp46
 70
     1
102
RTVSPost2010Prop47
 90
       50
102
RTVSPost2010PropOp47
 70
     1
102
RTVSPost2010Prop48
 90
       50
102
RTVSPost2010PropOp48
 70
     1
102
RTVSPost2010Prop49
280
     0
102
RTVSPost2010PropOp49
 70
     1
102
RTVSPost2010Prop50
 90
       50
102
RTVSPost2010PropOp50
 70
     1
102
RTVSPost2010Prop51ColorIndex
 90
      256
102
RTVSPost2010Prop51ColorRGB
 90
-16777216
102
RTVSPost2010PropOp51
 70
     0
102
RTVSPost2010Prop52
140
1.0
102
RTVSPost2010PropOp52
 70
     0
102
RTVSPost2010Prop53
 90
        2
102
RTVSPost2010PropOp53
 70
     1
102
RTVSPost2010Prop54
  1
strokes_ogs.tif
102
RTVSPost2010PropOp54
 70
     1
102
RTVSPost2010Prop55
280
     0
102
RTVSPost2010PropOp55
 70
     1
102
RTVSPost2010Prop56
140
1.0
102
RTVSPost2010PropOp56
 70
     1
102
RTVSPost2010Prop57
140
1.0
102
RTVSPost2010PropOp57
 70
     1
102
RTVSPropertyOp0
 70
     1
102
RTVSPropertyOp1
 70
     1
102
RTVSPropertyOp2
 70
     1
102
RTVSPropertyOp3
 70
     1
102
RTVSPropertyOp4
 70
     1
102
RTVSPropertyOp5
 70
     1
102
RTVSPropertyOp6
 70
     1
102
RTVSPropertyOp7
 70
     1
102
RTVSPropertyOp8
 70
     1
102
RTVSPropertyOp9
 70
     1
102
RTVSPropertyOp10
 70
     1
102
RTVSPropertyOp11
 70
     1
102
RTVSPropertyOp12
 70
     1
102
RTVSPropertyOp13
 70
     1
102
RTVSPropertyOp14
 70
     1
102
RTVSPropertyOp15
 70
     1
102
RTVSPropertyOp16
 70
     1
102
RTVSPropertyOp17
 70
     1
102
RTVSPropertyOp18
 70
     1
102
RTVSPropertyOp19
 70
     1
102
RTVSPropertyOp20
 70
     1
102
RTVSPropertyOp21
 70
     1
102
RTVSPropertyOp22
 70
     1
102
RTVSPropertyOp23
 70
     1
102
RTVSPropertyOp24
 70
     1
102
RTVSPropertyOp25
 70
     1
102
RTVSPropertyOp26
 70
     1
102
RTVSPropertyOp27
 70
     1
102
RTVSPropertyOp28
 70
     1
102
RTVSPropertyOp29
 70
     1
102
RTVSPropertyOp30
 70
     1
102
RTVSPropertyOp31
 70
     1
102
RTVSPropertyOp32
 70
     1
102
RTVSPropertyOp33
 70
     1
102
RTVSPropertyOp34
 70
     1
102
RTVSPropertyOp35
 70
     1
102
RTVSPropertyOp36
 70
     1
102
RTVSPropertyOp37
 70
     1
102
RTVSPropertyOp38
 70
     1
102
RTVSPropertyOp39
 70
     1
102
RTVSPropertyOp40
 70
     1
102
RTVSPropertyOp41
 70
     1
102
RTVSPropertyOp42
 70
     1
102
RTVSPropertyOp43
 70
     1
102
RTVSPropertyOp44
 70
     1
102
RTVSPropertyOp45
 70
     1
102
RTVSPropertyOp46
 70
     1
102
RTVSPropertyOp47
 70
     1
102
RTVSPropertyOp48
 70
     1
102
RTVSPropertyOp49
 70
     1
102
RTVSPropertyOp50
 70
     1
102
RTVSPropertyOp51
 70
     0
102
RTVSPropertyOp52
 70
     0
102
RTVSPropertyOp53
 70
     1
102
RTVSPropertyOp54
 70
     1
102
RTVSPropertyOp55
 70
     1
102
RTVSPropertyOp56
 70
     1
102
RTVSPropertyOp57
 70
     1
102
RTVSPropertyOp58
 70
     1
102
RTVSPropertyOp59
 70
     1
102
RTVSPropertyOp60
 70
     1
102
RTVSPropertyOp61
 70
     1
102
RTVSPropertyOp62
 70
     1
  0
XRECORD
  5
21DD
102
{ACAD_REACTORS
330
21DC
102
}
330
21DC
100
AcDbXrecord
280
     1
102
RTVSPost2010Prop28
280
     0
102
RTVSPost2010PropOp28
 70
     1
102
RTVSPost2010Prop29
280
     1
102
RTVSPost2010PropOp29
 70
     1
102
RTVSPost2010Prop30
280
     1
102
RTVSPost2010PropOp30
 70
     1
102
RTVSPost2010Prop31
280
     0
102
RTVSPost2010PropOp31
 70
     1
102
RTVSPost2010Prop32
280
     0
102
RTVSPost2010PropOp32
 70
     1
102
RTVSPost2010Prop33
280
     0
102
RTVSPost2010PropOp33
 70
     1
102
RTVSPost2010Prop34
280
     0
102
RTVSPost2010PropOp34
 70
     1
102
RTVSPost2010Prop35
280
     0
102
RTVSPost2010PropOp35
 70
     1
102
RTVSPost2010Prop36
280
     0
102
RTVSPost2010PropOp36
 70
     1
102
RTVSPost2010Prop37
 90
       50
102
RTVSPost2010PropOp37
 70
     1
102
RTVSPost2010Prop38
140
0.0
102
RTVSPost2010PropOp38
 70
     1
102
RTVSPost2010Prop39
140
1.0
102
RTVSPost2010PropOp39
 70
     1
102
RTVSPost2010Prop40
 90
        0
102
RTVSPost2010PropOp40
 70
     1
102
RTVSPost2010Prop41ColorIndex
 90
       18
102
RTVSPost2010Prop41ColorRGB
 90
        0
102
RTVSPost2010PropOp41
 70
     1
102
RTVSPost2010Prop42
 90
       50
102
RTVSPost2010PropOp42
 70
     1
102
RTVSPost2010Prop43
 90
        3
102
RTVSPost2010PropOp43
 70
     1
102
RTVSPost2010Prop44ColorIndex
 90
        5
102
RTVSPost2010Prop44ColorRGB
 90
      255
102
RTVSPost2010PropOp44
 70
     1
102
RTVSPost2010Prop45
280
     0
102
RTVSPost2010PropOp45
 70
     1
102
RTVSPost2010Prop46
 90
       50
102
RTVSPost2010PropOp46
 70
     1
102
RTVSPost2010Prop47
 90
       50
102
RTVSPost2010PropOp47
 70
     1
102
RTVSPost2010Prop48
 90
       50
102
RTVSPost2010PropOp48
 70
     1
102
RTVSPost2010Prop49
280
     0
102
RTVSPost2010PropOp49
 70
     1
102
RTVSPost2010Prop50
 90
       50
102
RTVSPost2010PropOp50
 70
     1
102
RTVSPost2010Prop51ColorIndex
 90
      256
102
RTVSPost2010Prop51ColorRGB
 90
-16777216
102
RTVSPost2010PropOp51
 70
     0
102
RTVSPost2010Prop52
140
1.0
102
RTVSPost2010PropOp52
 70
     0
102
RTVSPost2010Prop53
 90
        2
102
RTVSPost2010PropOp53
 70
     1
102
RTVSPost2010Prop54
  1
strokes_ogs.tif
102
RTVSPost2010PropOp54
 70
     1
102
RTVSPost2010Prop55
280
     0
102
RTVSPost2010PropOp55
 70
     1
102
RTVSPost2010Prop56
140
1.0
102
RTVSPost2010PropOp56
 70
     1
102
RTVSPost2010Prop57
140
1.0
102
RTVSPost2010PropOp57
 70
     1
102
RTVSPropertyOp0
 70
     1
102
RTVSPropertyOp1
 70
     1
102
RTVSPropertyOp2
 70
     1
102
RTVSPropertyOp3
 70
     1
102
RTVSPropertyOp4
 70
     1
102
RTVSPropertyOp5
 70
     1
102
RTVSPropertyOp6
 70
     1
102
RTVSPropertyOp7
 70
     1
102
RTVSPropertyOp8
 70
     1
102
RTVSPropertyOp9
 70
     1
102
RTVSPropertyOp10
 70
     1
102
RTVSPropertyOp11
 70
     1
102
RTVSPropertyOp12
 70
     1
102
RTVSPropertyOp13
 70
     1
102
RTVSPropertyOp14
 70
     1
102
RTVSPropertyOp15
 70
     1
102
RTVSPropertyOp16
 70
     1
102
RTVSPropertyOp17
 70
     1
102
RTVSPropertyOp18
 70
     1
102
RTVSPropertyOp19
 70
     1
102
RTVSPropertyOp20
 70
     1
102
RTVSPropertyOp21
 70
     1
102
RTVSPropertyOp22
 70
     1
102
RTVSPropertyOp23
 70
     1
102
RTVSPropertyOp24
 70
     1
102
RTVSPropertyOp25
 70
     1
102
RTVSPropertyOp26
 70
     1
102
RTVSPropertyOp27
 70
     1
102
RTVSPropertyOp28
 70
     1
102
RTVSPropertyOp29
 70
     1
102
RTVSPropertyOp30
 70
     1
102
RTVSPropertyOp31
 70
     1
102
RTVSPropertyOp32
 70
     1
102
RTVSPropertyOp33
 70
     1
102
RTVSPropertyOp34
 70
     1
102
RTVSPropertyOp35
 70
     1
102
RTVSPropertyOp36
 70
     1
102
RTVSPropertyOp37
 70
     1
102
RTVSPropertyOp38
 70
     1
102
RTVSPropertyOp39
 70
     1
102
RTVSPropertyOp40
 70
     1
102
RTVSPropertyOp41
 70
     1
102
RTVSPropertyOp42
 70
     1
102
RTVSPropertyOp43
 70
     1
102
RTVSPropertyOp44
 70
     1
102
RTVSPropertyOp45
 70
     1
102
RTVSPropertyOp46
 70
     1
102
RTVSPropertyOp47
 70
     1
102
RTVSPropertyOp48
 70
     1
102
RTVSPropertyOp49
 70
     1
102
RTVSPropertyOp50
 70
     1
102
RTVSPropertyOp51
 70
     0
102
RTVSPropertyOp52
 70
     0
102
RTVSPropertyOp53
 70
     1
102
RTVSPropertyOp54
 70
     1
102
RTVSPropertyOp55
 70
     1
102
RTVSPropertyOp56
 70
     1
102
RTVSPropertyOp57
 70
     1
102
RTVSPropertyOp58
 70
     1
102
RTVSPropertyOp59
 70
     1
102
RTVSPropertyOp60
 70
     1
102
RTVSPropertyOp61
 70
     1
102
RTVSPropertyOp62
 70
     1
  0
XRECORD
  5
21E5
102
{ACAD_REACTORS
330
21E4
102
}
330
21E4
100
AcDbXrecord
280
     1
102
RTVSPost2010Prop28
280
     0
102
RTVSPost2010PropOp28
 70
     1
102
RTVSPost2010Prop29
280
     1
102
RTVSPost2010PropOp29
 70
     1
102
RTVSPost2010Prop30
280
     1
102
RTVSPost2010PropOp30
 70
     1
102
RTVSPost2010Prop31
280
     0
102
RTVSPost2010PropOp31
 70
     1
102
RTVSPost2010Prop32
280
     0
102
RTVSPost2010PropOp32
 70
     1
102
RTVSPost2010Prop33
280
     0
102
RTVSPost2010PropOp33
 70
     1
102
RTVSPost2010Prop34
280
     0
102
RTVSPost2010PropOp34
 70
     1
102
RTVSPost2010Prop35
280
     0
102
RTVSPost2010PropOp35
 70
     1
102
RTVSPost2010Prop36
280
     0
102
RTVSPost2010PropOp36
 70
     1
102
RTVSPost2010Prop37
 90
       50
102
RTVSPost2010PropOp37
 70
     1
102
RTVSPost2010Prop38
140
0.0
102
RTVSPost2010PropOp38
 70
     1
102
RTVSPost2010Prop39
140
1.0
102
RTVSPost2010PropOp39
 70
     1
102
RTVSPost2010Prop40
 90
        0
102
RTVSPost2010PropOp40
 70
     1
102
RTVSPost2010Prop41ColorIndex
 90
       18
102
RTVSPost2010Prop41ColorRGB
 90
        0
102
RTVSPost2010PropOp41
 70
     1
102
RTVSPost2010Prop42
 90
       50
102
RTVSPost2010PropOp42
 70
     1
102
RTVSPost2010Prop43
 90
        3
102
RTVSPost2010PropOp43
 70
     1
102
RTVSPost2010Prop44ColorIndex
 90
        5
102
RTVSPost2010Prop44ColorRGB
 90
      255
102
RTVSPost2010PropOp44
 70
     1
102
RTVSPost2010Prop45
280
     0
102
RTVSPost2010PropOp45
 70
     1
102
RTVSPost2010Prop46
 90
       50
102
RTVSPost2010PropOp46
 70
     1
102
RTVSPost2010Prop47
 90
       50
102
RTVSPost2010PropOp47
 70
     1
102
RTVSPost2010Prop48
 90
       50
102
RTVSPost2010PropOp48
 70
     1
102
RTVSPost2010Prop49
280
     0
102
RTVSPost2010PropOp49
 70
     1
102
RTVSPost2010Prop50
 90
       50
102
RTVSPost2010PropOp50
 70
     1
102
RTVSPost2010Prop51ColorIndex
 90
      256
102
RTVSPost2010Prop51ColorRGB
 90
-16777216
102
RTVSPost2010PropOp51
 70
     0
102
RTVSPost2010Prop52
140
1.0
102
RTVSPost2010PropOp52
 70
     0
102
RTVSPost2010Prop53
 90
        2
102
RTVSPost2010PropOp53
 70
     1
102
RTVSPost2010Prop54
  1
strokes_ogs.tif
102
RTVSPost2010PropOp54
 70
     1
102
RTVSPost2010Prop55
280
     0
102
RTVSPost2010PropOp55
 70
     1
102
RTVSPost2010Prop56
140
1.0
102
RTVSPost2010PropOp56
 70
     1
102
RTVSPost2010Prop57
140
1.0
102
RTVSPost2010PropOp57
 70
     1
102
RTVSPropertyOp0
 70
     1
102
RTVSPropertyOp1
 70
     1
102
RTVSPropertyOp2
 70
     1
102
RTVSPropertyOp3
 70
     1
102
RTVSPropertyOp4
 70
     1
102
RTVSPropertyOp5
 70
     1
102
RTVSPropertyOp6
 70
     1
102
RTVSPropertyOp7
 70
     1
102
RTVSPropertyOp8
 70
     1
102
RTVSPropertyOp9
 70
     1
102
RTVSPropertyOp10
 70
     1
102
RTVSPropertyOp11
 70
     1
102
RTVSPropertyOp12
 70
     1
102
RTVSPropertyOp13
 70
     1
102
RTVSPropertyOp14
 70
     1
102
RTVSPropertyOp15
 70
     1
102
RTVSPropertyOp16
 70
     1
102
RTVSPropertyOp17
 70
     1
102
RTVSPropertyOp18
 70
     1
102
RTVSPropertyOp19
 70
     1
102
RTVSPropertyOp20
 70
     1
102
RTVSPropertyOp21
 70
     1
102
RTVSPropertyOp22
 70
     1
102
RTVSPropertyOp23
 70
     1
102
RTVSPropertyOp24
 70
     1
102
RTVSPropertyOp25
 70
     1
102
RTVSPropertyOp26
 70
     1
102
RTVSPropertyOp27
 70
     1
102
RTVSPropertyOp28
 70
     1
102
RTVSPropertyOp29
 70
     1
102
RTVSPropertyOp30
 70
     1
102
RTVSPropertyOp31
 70
     1
102
RTVSPropertyOp32
 70
     1
102
RTVSPropertyOp33
 70
     1
102
RTVSPropertyOp34
 70
     1
102
RTVSPropertyOp35
 70
     1
102
RTVSPropertyOp36
 70
     1
102
RTVSPropertyOp37
 70
     1
102
RTVSPropertyOp38
 70
     1
102
RTVSPropertyOp39
 70
     1
102
RTVSPropertyOp40
 70
     1
102
RTVSPropertyOp41
 70
     1
102
RTVSPropertyOp42
 70
     1
102
RTVSPropertyOp43
 70
     1
102
RTVSPropertyOp44
 70
     1
102
RTVSPropertyOp45
 70
     1
102
RTVSPropertyOp46
 70
     1
102
RTVSPropertyOp47
 70
     1
102
RTVSPropertyOp48
 70
     1
102
RTVSPropertyOp49
 70
     1
102
RTVSPropertyOp50
 70
     1
102
RTVSPropertyOp51
 70
     0
102
RTVSPropertyOp52
 70
     0
102
RTVSPropertyOp53
 70
     1
102
RTVSPropertyOp54
 70
     1
102
RTVSPropertyOp55
 70
     1
102
RTVSPropertyOp56
 70
     1
102
RTVSPropertyOp57
 70
     1
102
RTVSPropertyOp58
 70
     1
102
RTVSPropertyOp59
 70
     1
102
RTVSPropertyOp60
 70
     1
102
RTVSPropertyOp61
 70
     1
102
RTVSPropertyOp62
 70
     1
  0
XRECORD
  5
21D7
102
{ACAD_REACTORS
330
21D6
102
}
330
21D6
100
AcDbXrecord
280
     1
102
RTVSPost2010Prop28
280
     0
102
RTVSPost2010PropOp28
 70
     1
102
RTVSPost2010Prop29
280
     1
102
RTVSPost2010PropOp29
 70
     1
102
RTVSPost2010Prop30
280
     1
102
RTVSPost2010PropOp30
 70
     1
102
RTVSPost2010Prop31
280
     0
102
RTVSPost2010PropOp31
 70
     1
102
RTVSPost2010Prop32
280
     0
102
RTVSPost2010PropOp32
 70
     1
102
RTVSPost2010Prop33
280
     0
102
RTVSPost2010PropOp33
 70
     1
102
RTVSPost2010Prop34
280
     0
102
RTVSPost2010PropOp34
 70
     1
102
RTVSPost2010Prop35
280
     0
102
RTVSPost2010PropOp35
 70
     1
102
RTVSPost2010Prop36
280
     0
102
RTVSPost2010PropOp36
 70
     1
102
RTVSPost2010Prop37
 90
       50
102
RTVSPost2010PropOp37
 70
     1
102
RTVSPost2010Prop38
140
0.0
102
RTVSPost2010PropOp38
 70
     1
102
RTVSPost2010Prop39
140
1.0
102
RTVSPost2010PropOp39
 70
     1
102
RTVSPost2010Prop40
 90
        0
102
RTVSPost2010PropOp40
 70
     1
102
RTVSPost2010Prop41ColorIndex
 90
       18
102
RTVSPost2010Prop41ColorRGB
 90
        0
102
RTVSPost2010PropOp41
 70
     1
102
RTVSPost2010Prop42
 90
       50
102
RTVSPost2010PropOp42
 70
     1
102
RTVSPost2010Prop43
 90
        3
102
RTVSPost2010PropOp43
 70
     1
102
RTVSPost2010Prop44ColorIndex
 90
        5
102
RTVSPost2010Prop44ColorRGB
 90
      255
102
RTVSPost2010PropOp44
 70
     1
102
RTVSPost2010Prop45
280
     0
102
RTVSPost2010PropOp45
 70
     1
102
RTVSPost2010Prop46
 90
       50
102
RTVSPost2010PropOp46
 70
     1
102
RTVSPost2010Prop47
 90
       50
102
RTVSPost2010PropOp47
 70
     1
102
RTVSPost2010Prop48
 90
       50
102
RTVSPost2010PropOp48
 70
     1
102
RTVSPost2010Prop49
280
     0
102
RTVSPost2010PropOp49
 70
     1
102
RTVSPost2010Prop50
 90
       50
102
RTVSPost2010PropOp50
 70
     1
102
RTVSPost2010Prop51ColorIndex
 90
      256
102
RTVSPost2010Prop51ColorRGB
 90
-16777216
102
RTVSPost2010PropOp51
 70
     0
102
RTVSPost2010Prop52
140
1.0
102
RTVSPost2010PropOp52
 70
     0
102
RTVSPost2010Prop53
 90
        2
102
RTVSPost2010PropOp53
 70
     1
102
RTVSPost2010Prop54
  1
strokes_ogs.tif
102
RTVSPost2010PropOp54
 70
     1
102
RTVSPost2010Prop55
280
     0
102
RTVSPost2010PropOp55
 70
     1
102
RTVSPost2010Prop56
140
1.0
102
RTVSPost2010PropOp56
 70
     1
102
RTVSPost2010Prop57
140
1.0
102
RTVSPost2010PropOp57
 70
     1
102
RTVSPropertyOp0
 70
     1
102
RTVSPropertyOp1
 70
     1
102
RTVSPropertyOp2
 70
     1
102
RTVSPropertyOp3
 70
     1
102
RTVSPropertyOp4
 70
     1
102
RTVSPropertyOp5
 70
     1
102
RTVSPropertyOp6
 70
     1
102
RTVSPropertyOp7
 70
     1
102
RTVSPropertyOp8
 70
     1
102
RTVSPropertyOp9
 70
     1
102
RTVSPropertyOp10
 70
     1
102
RTVSPropertyOp11
 70
     1
102
RTVSPropertyOp12
 70
     1
102
RTVSPropertyOp13
 70
     1
102
RTVSPropertyOp14
 70
     1
102
RTVSPropertyOp15
 70
     1
102
RTVSPropertyOp16
 70
     1
102
RTVSPropertyOp17
 70
     1
102
RTVSPropertyOp18
 70
     1
102
RTVSPropertyOp19
 70
     1
102
RTVSPropertyOp20
 70
     1
102
RTVSPropertyOp21
 70
     1
102
RTVSPropertyOp22
 70
     1
102
RTVSPropertyOp23
 70
     1
102
RTVSPropertyOp24
 70
     1
102
RTVSPropertyOp25
 70
     1
102
RTVSPropertyOp26
 70
     1
102
RTVSPropertyOp27
 70
     1
102
RTVSPropertyOp28
 70
     1
102
RTVSPropertyOp29
 70
     1
102
RTVSPropertyOp30
 70
     1
102
RTVSPropertyOp31
 70
     1
102
RTVSPropertyOp32
 70
     1
102
RTVSPropertyOp33
 70
     1
102
RTVSPropertyOp34
 70
     1
102
RTVSPropertyOp35
 70
     1
102
RTVSPropertyOp36
 70
     1
102
RTVSPropertyOp37
 70
     1
102
RTVSPropertyOp38
 70
     1
102
RTVSPropertyOp39
 70
     1
102
RTVSPropertyOp40
 70
     1
102
RTVSPropertyOp41
 70
     1
102
RTVSPropertyOp42
 70
     1
102
RTVSPropertyOp43
 70
     1
102
RTVSPropertyOp44
 70
     1
102
RTVSPropertyOp45
 70
     1
102
RTVSPropertyOp46
 70
     1
102
RTVSPropertyOp47
 70
     1
102
RTVSPropertyOp48
 70
     1
102
RTVSPropertyOp49
 70
     1
102
RTVSPropertyOp50
 70
     1
102
RTVSPropertyOp51
 70
     0
102
RTVSPropertyOp52
 70
     0
102
RTVSPropertyOp53
 70
     1
102
RTVSPropertyOp54
 70
     1
102
RTVSPropertyOp55
 70
     1
102
RTVSPropertyOp56
 70
     1
102
RTVSPropertyOp57
 70
     1
102
RTVSPropertyOp58
 70
     1
102
RTVSPropertyOp59
 70
     1
102
RTVSPropertyOp60
 70
     1
102
RTVSPropertyOp61
 70
     1
102
RTVSPropertyOp62
 70
     1
  0
XRECORD
  5
21DB
102
{ACAD_REACTORS
330
21DA
102
}
330
21DA
100
AcDbXrecord
280
     1
102
RTVSPost2010Prop28
280
     0
102
RTVSPost2010PropOp28
 70
     1
102
RTVSPost2010Prop29
280
     1
102
RTVSPost2010PropOp29
 70
     1
102
RTVSPost2010Prop30
280
     1
102
RTVSPost2010PropOp30
 70
     1
102
RTVSPost2010Prop31
280
     0
102
RTVSPost2010PropOp31
 70
     1
102
RTVSPost2010Prop32
280
     0
102
RTVSPost2010PropOp32
 70
     1
102
RTVSPost2010Prop33
280
     0
102
RTVSPost2010PropOp33
 70
     1
102
RTVSPost2010Prop34
280
     0
102
RTVSPost2010PropOp34
 70
     1
102
RTVSPost2010Prop35
280
     0
102
RTVSPost2010PropOp35
 70
     1
102
RTVSPost2010Prop36
280
     0
102
RTVSPost2010PropOp36
 70
     1
102
RTVSPost2010Prop37
 90
       50
102
RTVSPost2010PropOp37
 70
     1
102
RTVSPost2010Prop38
140
0.0
102
RTVSPost2010PropOp38
 70
     1
102
RTVSPost2010Prop39
140
1.0
102
RTVSPost2010PropOp39
 70
     1
102
RTVSPost2010Prop40
 90
        0
102
RTVSPost2010PropOp40
 70
     1
102
RTVSPost2010Prop41ColorIndex
 90
       18
102
RTVSPost2010Prop41ColorRGB
 90
        0
102
RTVSPost2010PropOp41
 70
     1
102
RTVSPost2010Prop42
 90
       50
102
RTVSPost2010PropOp42
 70
     1
102
RTVSPost2010Prop43
 90
        3
102
RTVSPost2010PropOp43
 70
     1
102
RTVSPost2010Prop44ColorIndex
 90
        5
102
RTVSPost2010Prop44ColorRGB
 90
      255
102
RTVSPost2010PropOp44
 70
     1
102
RTVSPost2010Prop45
280
     0
102
RTVSPost2010PropOp45
 70
     1
102
RTVSPost2010Prop46
 90
       50
102
RTVSPost2010PropOp46
 70
     1
102
RTVSPost2010Prop47
 90
       50
102
RTVSPost2010PropOp47
 70
     1
102
RTVSPost2010Prop48
 90
       50
102
RTVSPost2010PropOp48
 70
     1
102
RTVSPost2010Prop49
280
     0
102
RTVSPost2010PropOp49
 70
     1
102
RTVSPost2010Prop50
 90
       50
102
RTVSPost2010PropOp50
 70
     1
102
RTVSPost2010Prop51ColorIndex
 90
      256
102
RTVSPost2010Prop51ColorRGB
 90
-16777216
102
RTVSPost2010PropOp51
 70
     0
102
RTVSPost2010Prop52
140
1.0
102
RTVSPost2010PropOp52
 70
     0
102
RTVSPost2010Prop53
 90
        2
102
RTVSPost2010PropOp53
 70
     1
102
RTVSPost2010Prop54
  1
strokes_ogs.tif
102
RTVSPost2010PropOp54
 70
     1
102
RTVSPost2010Prop55
280
     0
102
RTVSPost2010PropOp55
 70
     1
102
RTVSPost2010Prop56
140
1.0
102
RTVSPost2010PropOp56
 70
     1
102
RTVSPost2010Prop57
140
1.0
102
RTVSPost2010PropOp57
 70
     1
102
RTVSPropertyOp0
 70
     1
102
RTVSPropertyOp1
 70
     1
102
RTVSPropertyOp2
 70
     1
102
RTVSPropertyOp3
 70
     1
102
RTVSPropertyOp4
 70
     1
102
RTVSPropertyOp5
 70
     1
102
RTVSPropertyOp6
 70
     1
102
RTVSPropertyOp7
 70
     1
102
RTVSPropertyOp8
 70
     1
102
RTVSPropertyOp9
 70
     1
102
RTVSPropertyOp10
 70
     1
102
RTVSPropertyOp11
 70
     1
102
RTVSPropertyOp12
 70
     1
102
RTVSPropertyOp13
 70
     1
102
RTVSPropertyOp14
 70
     1
102
RTVSPropertyOp15
 70
     1
102
RTVSPropertyOp16
 70
     1
102
RTVSPropertyOp17
 70
     1
102
RTVSPropertyOp18
 70
     1
102
RTVSPropertyOp19
 70
     1
102
RTVSPropertyOp20
 70
     1
102
RTVSPropertyOp21
 70
     1
102
RTVSPropertyOp22
 70
     1
102
RTVSPropertyOp23
 70
     1
102
RTVSPropertyOp24
 70
     1
102
RTVSPropertyOp25
 70
     1
102
RTVSPropertyOp26
 70
     1
102
RTVSPropertyOp27
 70
     1
102
RTVSPropertyOp28
 70
     1
102
RTVSPropertyOp29
 70
     1
102
RTVSPropertyOp30
 70
     1
102
RTVSPropertyOp31
 70
     1
102
RTVSPropertyOp32
 70
     1
102
RTVSPropertyOp33
 70
     1
102
RTVSPropertyOp34
 70
     1
102
RTVSPropertyOp35
 70
     1
102
RTVSPropertyOp36
 70
     1
102
RTVSPropertyOp37
 70
     1
102
RTVSPropertyOp38
 70
     1
102
RTVSPropertyOp39
 70
     1
102
RTVSPropertyOp40
 70
     1
102
RTVSPropertyOp41
 70
     1
102
RTVSPropertyOp42
 70
     1
102
RTVSPropertyOp43
 70
     1
102
RTVSPropertyOp44
 70
     1
102
RTVSPropertyOp45
 70
     1
102
RTVSPropertyOp46
 70
     1
102
RTVSPropertyOp47
 70
     1
102
RTVSPropertyOp48
 70
     1
102
RTVSPropertyOp49
 70
     1
102
RTVSPropertyOp50
 70
     1
102
RTVSPropertyOp51
 70
     0
102
RTVSPropertyOp52
 70
     0
102
RTVSPropertyOp53
 70
     1
102
RTVSPropertyOp54
 70
     1
102
RTVSPropertyOp55
 70
     1
102
RTVSPropertyOp56
 70
     1
102
RTVSPropertyOp57
 70
     1
102
RTVSPropertyOp58
 70
     1
102
RTVSPropertyOp59
 70
     1
102
RTVSPropertyOp60
 70
     1
102
RTVSPropertyOp61
 70
     1
102
RTVSPropertyOp62
 70
     1
  0
XRECORD
  5
21F5
102
{ACAD_REACTORS
330
21F4
102
}
330
21F4
100
AcDbXrecord
280
     1
102
RTVSPost2010Prop28
280
     0
102
RTVSPost2010PropOp28
 70
     0
102
RTVSPost2010Prop29
280
     1
102
RTVSPost2010PropOp29
 70
     0
102
RTVSPost2010Prop30
280
     1
102
RTVSPost2010PropOp30
 70
     0
102
RTVSPost2010Prop31
280
     0
102
RTVSPost2010PropOp31
 70
     0
102
RTVSPost2010Prop32
280
     0
102
RTVSPost2010PropOp32
 70
     0
102
RTVSPost2010Prop33
280
     0
102
RTVSPost2010PropOp33
 70
     0
102
RTVSPost2010Prop34
280
     0
102
RTVSPost2010PropOp34
 70
     0
102
RTVSPost2010Prop35
280
     0
102
RTVSPost2010PropOp35
 70
     0
102
RTVSPost2010Prop36
280
     0
102
RTVSPost2010PropOp36
 70
     0
102
RTVSPost2010Prop37
 90
       50
102
RTVSPost2010PropOp37
 70
     0
102
RTVSPost2010Prop38
140
0.0
102
RTVSPost2010PropOp38
 70
     0
102
RTVSPost2010Prop39
140
1.0
102
RTVSPost2010PropOp39
 70
     0
102
RTVSPost2010Prop40
 90
        0
102
RTVSPost2010PropOp40
 70
     0
102
RTVSPost2010Prop41ColorIndex
 90
       18
102
RTVSPost2010Prop41ColorRGB
 90
        0
102
RTVSPost2010PropOp41
 70
     0
102
RTVSPost2010Prop42
 90
       50
102
RTVSPost2010PropOp42
 70
     0
102
RTVSPost2010Prop43
 90
        3
102
RTVSPost2010PropOp43
 70
     0
102
RTVSPost2010Prop44ColorIndex
 90
        5
102
RTVSPost2010Prop44ColorRGB
 90
      255
102
RTVSPost2010PropOp44
 70
     0
102
RTVSPost2010Prop45
280
     0
102
RTVSPost2010PropOp45
 70
     0
102
RTVSPost2010Prop46
 90
       50
102
RTVSPost2010PropOp46
 70
     0
102
RTVSPost2010Prop47
 90
       50
102
RTVSPost2010PropOp47
 70
     0
102
RTVSPost2010Prop48
 90
       50
102
RTVSPost2010PropOp48
 70
     0
102
RTVSPost2010Prop49
280
     0
102
RTVSPost2010PropOp49
 70
     0
102
RTVSPost2010Prop50
 90
       50
102
RTVSPost2010PropOp50
 70
     0
102
RTVSPost2010Prop51ColorIndex
 90
      256
102
RTVSPost2010Prop51ColorRGB
 90
-16777216
102
RTVSPost2010PropOp51
 70
     0
102
RTVSPost2010Prop52
140
1.0
102
RTVSPost2010PropOp52
 70
     0
102
RTVSPost2010Prop53
 90
        2
102
RTVSPost2010PropOp53
 70
     0
102
RTVSPost2010Prop54
  1
strokes_ogs.tif
102
RTVSPost2010PropOp54
 70
     0
102
RTVSPost2010Prop55
280
     0
102
RTVSPost2010PropOp55
 70
     0
102
RTVSPost2010Prop56
140
1.0
102
RTVSPost2010PropOp56
 70
     0
102
RTVSPost2010Prop57
140
1.0
102
RTVSPost2010PropOp57
 70
     0
102
RTVSPropertyOp0
 70
     0
102
RTVSPropertyOp1
 70
     0
102
RTVSPropertyOp2
 70
     0
102
RTVSPropertyOp3
 70
     0
102
RTVSPropertyOp4
 70
     0
102
RTVSPropertyOp5
 70
     0
102
RTVSPropertyOp6
 70
     0
102
RTVSPropertyOp7
 70
     0
102
RTVSPropertyOp8
 70
     0
102
RTVSPropertyOp9
 70
     0
102
RTVSPropertyOp10
 70
     0
102
RTVSPropertyOp11
 70
     0
102
RTVSPropertyOp12
 70
     0
102
RTVSPropertyOp13
 70
     0
102
RTVSPropertyOp14
 70
     2
102
RTVSPropertyOp15
 70
     0
102
RTVSPropertyOp16
 70
     0
102
RTVSPropertyOp17
 70
     0
102
RTVSPropertyOp18
 70
     0
102
RTVSPropertyOp19
 70
     0
102
RTVSPropertyOp20
 70
     0
102
RTVSPropertyOp21
 70
     0
102
RTVSPropertyOp22
 70
     0
102
RTVSPropertyOp23
 70
     0
102
RTVSPropertyOp24
 70
     0
102
RTVSPropertyOp25
 70
     0
102
RTVSPropertyOp26
 70
     0
102
RTVSPropertyOp27
 70
     0
102
RTVSPropertyOp28
 70
     0
102
RTVSPropertyOp29
 70
     0
102
RTVSPropertyOp30
 70
     0
102
RTVSPropertyOp31
 70
     0
102
RTVSPropertyOp32
 70
     0
102
RTVSPropertyOp33
 70
     0
102
RTVSPropertyOp34
 70
     0
102
RTVSPropertyOp35
 70
     0
102
RTVSPropertyOp36
 70
     0
102
RTVSPropertyOp37
 70
     0
102
RTVSPropertyOp38
 70
     0
102
RTVSPropertyOp39
 70
     0
102
RTVSPropertyOp40
 70
     0
102
RTVSPropertyOp41
 70
     0
102
RTVSPropertyOp42
 70
     0
102
RTVSPropertyOp43
 70
     0
102
RTVSPropertyOp44
 70
     0
102
RTVSPropertyOp45
 70
     0
102
RTVSPropertyOp46
 70
     0
102
RTVSPropertyOp47
 70
     0
102
RTVSPropertyOp48
 70
     0
102
RTVSPropertyOp49
 70
     0
102
RTVSPropertyOp50
 70
     0
102
RTVSPropertyOp51
 70
     0
102
RTVSPropertyOp52
 70
     0
102
RTVSPropertyOp53
 70
     0
102
RTVSPropertyOp54
 70
     0
102
RTVSPropertyOp55
 70
     0
102
RTVSPropertyOp56
 70
     0
102
RTVSPropertyOp57
 70
     0
102
RTVSPropertyOp58
 70
     0
102
RTVSPropertyOp59
 70
     0
102
RTVSPropertyOp60
 70
     0
102
RTVSPropertyOp61
 70
     0
102
RTVSPropertyOp62
 70
     0
  0
XRECORD
  5
21E3
102
{ACAD_REACTORS
330
21E2
102
}
330
21E2
100
AcDbXrecord
280
     1
102
RTVSPost2010Prop28
280
     0
102
RTVSPost2010PropOp28
 70
     1
102
RTVSPost2010Prop29
280
     1
102
RTVSPost2010PropOp29
 70
     1
102
RTVSPost2010Prop30
280
     1
102
RTVSPost2010PropOp30
 70
     1
102
RTVSPost2010Prop31
280
     0
102
RTVSPost2010PropOp31
 70
     1
102
RTVSPost2010Prop32
280
     0
102
RTVSPost2010PropOp32
 70
     1
102
RTVSPost2010Prop33
280
     0
102
RTVSPost2010PropOp33
 70
     1
102
RTVSPost2010Prop34
280
     0
102
RTVSPost2010PropOp34
 70
     1
102
RTVSPost2010Prop35
280
     0
102
RTVSPost2010PropOp35
 70
     1
102
RTVSPost2010Prop36
280
     0
102
RTVSPost2010PropOp36
 70
     1
102
RTVSPost2010Prop37
 90
       50
102
RTVSPost2010PropOp37
 70
     1
102
RTVSPost2010Prop38
140
0.0
102
RTVSPost2010PropOp38
 70
     1
102
RTVSPost2010Prop39
140
1.0
102
RTVSPost2010PropOp39
 70
     1
102
RTVSPost2010Prop40
 90
        0
102
RTVSPost2010PropOp40
 70
     1
102
RTVSPost2010Prop41ColorIndex
 90
       18
102
RTVSPost2010Prop41ColorRGB
 90
        0
102
RTVSPost2010PropOp41
 70
     1
102
RTVSPost2010Prop42
 90
       50
102
RTVSPost2010PropOp42
 70
     1
102
RTVSPost2010Prop43
 90
        3
102
RTVSPost2010PropOp43
 70
     1
102
RTVSPost2010Prop44ColorIndex
 90
        5
102
RTVSPost2010Prop44ColorRGB
 90
      255
102
RTVSPost2010PropOp44
 70
     1
102
RTVSPost2010Prop45
280
     0
102
RTVSPost2010PropOp45
 70
     1
102
RTVSPost2010Prop46
 90
       50
102
RTVSPost2010PropOp46
 70
     1
102
RTVSPost2010Prop47
 90
       50
102
RTVSPost2010PropOp47
 70
     1
102
RTVSPost2010Prop48
 90
       50
102
RTVSPost2010PropOp48
 70
     1
102
RTVSPost2010Prop49
280
     0
102
RTVSPost2010PropOp49
 70
     1
102
RTVSPost2010Prop50
 90
       50
102
RTVSPost2010PropOp50
 70
     1
102
RTVSPost2010Prop51ColorIndex
 90
      256
102
RTVSPost2010Prop51ColorRGB
 90
-16777216
102
RTVSPost2010PropOp51
 70
     0
102
RTVSPost2010Prop52
140
1.0
102
RTVSPost2010PropOp52
 70
     0
102
RTVSPost2010Prop53
 90
        2
102
RTVSPost2010PropOp53
 70
     1
102
RTVSPost2010Prop54
  1
strokes_ogs.tif
102
RTVSPost2010PropOp54
 70
     1
102
RTVSPost2010Prop55
280
     0
102
RTVSPost2010PropOp55
 70
     1
102
RTVSPost2010Prop56
140
1.0
102
RTVSPost2010PropOp56
 70
     1
102
RTVSPost2010Prop57
140
1.0
102
RTVSPost2010PropOp57
 70
     1
102
RTVSPropertyOp0
 70
     1
102
RTVSPropertyOp1
 70
     1
102
RTVSPropertyOp2
 70
     1
102
RTVSPropertyOp3
 70
     1
102
RTVSPropertyOp4
 70
     1
102
RTVSPropertyOp5
 70
     1
102
RTVSPropertyOp6
 70
     1
102
RTVSPropertyOp7
 70
     1
102
RTVSPropertyOp8
 70
     1
102
RTVSPropertyOp9
 70
     1
102
RTVSPropertyOp10
 70
     1
102
RTVSPropertyOp11
 70
     1
102
RTVSPropertyOp12
 70
     1
102
RTVSPropertyOp13
 70
     1
102
RTVSPropertyOp14
 70
     1
102
RTVSPropertyOp15
 70
     1
102
RTVSPropertyOp16
 70
     1
102
RTVSPropertyOp17
 70
     1
102
RTVSPropertyOp18
 70
     1
102
RTVSPropertyOp19
 70
     1
102
RTVSPropertyOp20
 70
     1
102
RTVSPropertyOp21
 70
     1
102
RTVSPropertyOp22
 70
     1
102
RTVSPropertyOp23
 70
     1
102
RTVSPropertyOp24
 70
     1
102
RTVSPropertyOp25
 70
     1
102
RTVSPropertyOp26
 70
     1
102
RTVSPropertyOp27
 70
     1
102
RTVSPropertyOp28
 70
     1
102
RTVSPropertyOp29
 70
     1
102
RTVSPropertyOp30
 70
     1
102
RTVSPropertyOp31
 70
     1
102
RTVSPropertyOp32
 70
     1
102
RTVSPropertyOp33
 70
     1
102
RTVSPropertyOp34
 70
     1
102
RTVSPropertyOp35
 70
     1
102
RTVSPropertyOp36
 70
     1
102
RTVSPropertyOp37
 70
     1
102
RTVSPropertyOp38
 70
     1
102
RTVSPropertyOp39
 70
     1
102
RTVSPropertyOp40
 70
     1
102
RTVSPropertyOp41
 70
     1
102
RTVSPropertyOp42
 70
     1
102
RTVSPropertyOp43
 70
     1
102
RTVSPropertyOp44
 70
     1
102
RTVSPropertyOp45
 70
     1
102
RTVSPropertyOp46
 70
     1
102
RTVSPropertyOp47
 70
     1
102
RTVSPropertyOp48
 70
     1
102
RTVSPropertyOp49
 70
     1
102
RTVSPropertyOp50
 70
     1
102
RTVSPropertyOp51
 70
     0
102
RTVSPropertyOp52
 70
     0
102
RTVSPropertyOp53
 70
     1
102
RTVSPropertyOp54
 70
     1
102
RTVSPropertyOp55
 70
     1
102
RTVSPropertyOp56
 70
     1
102
RTVSPropertyOp57
 70
     1
102
RTVSPropertyOp58
 70
     1
102
RTVSPropertyOp59
 70
     1
102
RTVSPropertyOp60
 70
     1
102
RTVSPropertyOp61
 70
     1
102
RTVSPropertyOp62
 70
     1
  0
XRECORD
  5
21C7
102
{ACAD_REACTORS
330
21C6
102
}
330
21C6
100
AcDbXrecord
280
     1
102
RTVSPost2010Prop28
280
     0
102
RTVSPost2010PropOp28
 70
     1
102
RTVSPost2010Prop29
280
     1
102
RTVSPost2010PropOp29
 70
     1
102
RTVSPost2010Prop30
280
     1
102
RTVSPost2010PropOp30
 70
     1
102
RTVSPost2010Prop31
280
     0
102
RTVSPost2010PropOp31
 70
     1
102
RTVSPost2010Prop32
280
     0
102
RTVSPost2010PropOp32
 70
     1
102
RTVSPost2010Prop33
280
     0
102
RTVSPost2010PropOp33
 70
     1
102
RTVSPost2010Prop34
280
     0
102
RTVSPost2010PropOp34
 70
     1
102
RTVSPost2010Prop35
280
     0
102
RTVSPost2010PropOp35
 70
     1
102
RTVSPost2010Prop36
280
     0
102
RTVSPost2010PropOp36
 70
     1
102
RTVSPost2010Prop37
 90
       50
102
RTVSPost2010PropOp37
 70
     1
102
RTVSPost2010Prop38
140
0.0
102
RTVSPost2010PropOp38
 70
     1
102
RTVSPost2010Prop39
140
1.0
102
RTVSPost2010PropOp39
 70
     1
102
RTVSPost2010Prop40
 90
        0
102
RTVSPost2010PropOp40
 70
     1
102
RTVSPost2010Prop41ColorIndex
 90
       18
102
RTVSPost2010Prop41ColorRGB
 90
        0
102
RTVSPost2010PropOp41
 70
     1
102
RTVSPost2010Prop42
 90
       50
102
RTVSPost2010PropOp42
 70
     1
102
RTVSPost2010Prop43
 90
        3
102
RTVSPost2010PropOp43
 70
     1
102
RTVSPost2010Prop44ColorIndex
 90
        5
102
RTVSPost2010Prop44ColorRGB
 90
      255
102
RTVSPost2010PropOp44
 70
     1
102
RTVSPost2010Prop45
280
     0
102
RTVSPost2010PropOp45
 70
     1
102
RTVSPost2010Prop46
 90
       50
102
RTVSPost2010PropOp46
 70
     1
102
RTVSPost2010Prop47
 90
       50
102
RTVSPost2010PropOp47
 70
     1
102
RTVSPost2010Prop48
 90
       50
102
RTVSPost2010PropOp48
 70
     1
102
RTVSPost2010Prop49
280
     0
102
RTVSPost2010PropOp49
 70
     1
102
RTVSPost2010Prop50
 90
       50
102
RTVSPost2010PropOp50
 70
     1
102
RTVSPost2010Prop51ColorIndex
 90
      256
102
RTVSPost2010Prop51ColorRGB
 90
-16777216
102
RTVSPost2010PropOp51
 70
     0
102
RTVSPost2010Prop52
140
1.0
102
RTVSPost2010PropOp52
 70
     0
102
RTVSPost2010Prop53
 90
        2
102
RTVSPost2010PropOp53
 70
     1
102
RTVSPost2010Prop54
  1
strokes_ogs.tif
102
RTVSPost2010PropOp54
 70
     1
102
RTVSPost2010Prop55
280
     0
102
RTVSPost2010PropOp55
 70
     1
102
RTVSPost2010Prop56
140
1.0
102
RTVSPost2010PropOp56
 70
     1
102
RTVSPost2010Prop57
140
1.0
102
RTVSPost2010PropOp57
 70
     1
102
RTVSPropertyOp0
 70
     1
102
RTVSPropertyOp1
 70
     1
102
RTVSPropertyOp2
 70
     1
102
RTVSPropertyOp3
 70
     1
102
RTVSPropertyOp4
 70
     1
102
RTVSPropertyOp5
 70
     1
102
RTVSPropertyOp6
 70
     1
102
RTVSPropertyOp7
 70
     1
102
RTVSPropertyOp8
 70
     1
102
RTVSPropertyOp9
 70
     1
102
RTVSPropertyOp10
 70
     1
102
RTVSPropertyOp11
 70
     1
102
RTVSPropertyOp12
 70
     1
102
RTVSPropertyOp13
 70
     1
102
RTVSPropertyOp14
 70
     1
102
RTVSPropertyOp15
 70
     1
102
RTVSPropertyOp16
 70
     1
102
RTVSPropertyOp17
 70
     1
102
RTVSPropertyOp18
 70
     1
102
RTVSPropertyOp19
 70
     1
102
RTVSPropertyOp20
 70
     1
102
RTVSPropertyOp21
 70
     1
102
RTVSPropertyOp22
 70
     1
102
RTVSPropertyOp23
 70
     1
102
RTVSPropertyOp24
 70
     1
102
RTVSPropertyOp25
 70
     1
102
RTVSPropertyOp26
 70
     1
102
RTVSPropertyOp27
 70
     1
102
RTVSPropertyOp28
 70
     1
102
RTVSPropertyOp29
 70
     1
102
RTVSPropertyOp30
 70
     1
102
RTVSPropertyOp31
 70
     1
102
RTVSPropertyOp32
 70
     1
102
RTVSPropertyOp33
 70
     1
102
RTVSPropertyOp34
 70
     1
102
RTVSPropertyOp35
 70
     1
102
RTVSPropertyOp36
 70
     1
102
RTVSPropertyOp37
 70
     1
102
RTVSPropertyOp38
 70
     1
102
RTVSPropertyOp39
 70
     1
102
RTVSPropertyOp40
 70
     1
102
RTVSPropertyOp41
 70
     1
102
RTVSPropertyOp42
 70
     1
102
RTVSPropertyOp43
 70
     1
102
RTVSPropertyOp44
 70
     1
102
RTVSPropertyOp45
 70
     1
102
RTVSPropertyOp46
 70
     1
102
RTVSPropertyOp47
 70
     1
102
RTVSPropertyOp48
 70
     1
102
RTVSPropertyOp49
 70
     1
102
RTVSPropertyOp50
 70
     1
102
RTVSPropertyOp51
 70
     0
102
RTVSPropertyOp52
 70
     0
102
RTVSPropertyOp53
 70
     1
102
RTVSPropertyOp54
 70
     1
102
RTVSPropertyOp55
 70
     1
102
RTVSPropertyOp56
 70
     1
102
RTVSPropertyOp57
 70
     1
102
RTVSPropertyOp58
 70
     1
102
RTVSPropertyOp59
 70
     1
102
RTVSPropertyOp60
 70
     1
102
RTVSPropertyOp61
 70
     1
102
RTVSPropertyOp62
 70
     1
  0
XRECORD
  5
21C9
102
{ACAD_REACTORS
330
21C8
102
}
330
21C8
100
AcDbXrecord
280
     1
102
RTVSPost2010Prop28
280
     0
102
RTVSPost2010PropOp28
 70
     1
102
RTVSPost2010Prop29
280
     1
102
RTVSPost2010PropOp29
 70
     1
102
RTVSPost2010Prop30
280
     1
102
RTVSPost2010PropOp30
 70
     1
102
RTVSPost2010Prop31
280
     0
102
RTVSPost2010PropOp31
 70
     1
102
RTVSPost2010Prop32
280
     0
102
RTVSPost2010PropOp32
 70
     1
102
RTVSPost2010Prop33
280
     0
102
RTVSPost2010PropOp33
 70
     1
102
RTVSPost2010Prop34
280
     0
102
RTVSPost2010PropOp34
 70
     1
102
RTVSPost2010Prop35
280
     0
102
RTVSPost2010PropOp35
 70
     1
102
RTVSPost2010Prop36
280
     0
102
RTVSPost2010PropOp36
 70
     1
102
RTVSPost2010Prop37
 90
       50
102
RTVSPost2010PropOp37
 70
     1
102
RTVSPost2010Prop38
140
0.0
102
RTVSPost2010PropOp38
 70
     1
102
RTVSPost2010Prop39
140
1.0
102
RTVSPost2010PropOp39
 70
     1
102
RTVSPost2010Prop40
 90
        0
102
RTVSPost2010PropOp40
 70
     1
102
RTVSPost2010Prop41ColorIndex
 90
       18
102
RTVSPost2010Prop41ColorRGB
 90
        0
102
RTVSPost2010PropOp41
 70
     1
102
RTVSPost2010Prop42
 90
       50
102
RTVSPost2010PropOp42
 70
     1
102
RTVSPost2010Prop43
 90
        3
102
RTVSPost2010PropOp43
 70
     1
102
RTVSPost2010Prop44ColorIndex
 90
        5
102
RTVSPost2010Prop44ColorRGB
 90
      255
102
RTVSPost2010PropOp44
 70
     1
102
RTVSPost2010Prop45
280
     0
102
RTVSPost2010PropOp45
 70
     1
102
RTVSPost2010Prop46
 90
       50
102
RTVSPost2010PropOp46
 70
     1
102
RTVSPost2010Prop47
 90
       50
102
RTVSPost2010PropOp47
 70
     1
102
RTVSPost2010Prop48
 90
       50
102
RTVSPost2010PropOp48
 70
     1
102
RTVSPost2010Prop49
280
     0
102
RTVSPost2010PropOp49
 70
     1
102
RTVSPost2010Prop50
 90
       50
102
RTVSPost2010PropOp50
 70
     1
102
RTVSPost2010Prop51ColorIndex
 90
      256
102
RTVSPost2010Prop51ColorRGB
 90
-16777216
102
RTVSPost2010PropOp51
 70
     0
102
RTVSPost2010Prop52
140
1.0
102
RTVSPost2010PropOp52
 70
     0
102
RTVSPost2010Prop53
 90
        2
102
RTVSPost2010PropOp53
 70
     1
102
RTVSPost2010Prop54
  1
strokes_ogs.tif
102
RTVSPost2010PropOp54
 70
     1
102
RTVSPost2010Prop55
280
     0
102
RTVSPost2010PropOp55
 70
     1
102
RTVSPost2010Prop56
140
1.0
102
RTVSPost2010PropOp56
 70
     1
102
RTVSPost2010Prop57
140
1.0
102
RTVSPost2010PropOp57
 70
     1
102
RTVSPropertyOp0
 70
     1
102
RTVSPropertyOp1
 70
     1
102
RTVSPropertyOp2
 70
     1
102
RTVSPropertyOp3
 70
     1
102
RTVSPropertyOp4
 70
     1
102
RTVSPropertyOp5
 70
     1
102
RTVSPropertyOp6
 70
     1
102
RTVSPropertyOp7
 70
     1
102
RTVSPropertyOp8
 70
     1
102
RTVSPropertyOp9
 70
     1
102
RTVSPropertyOp10
 70
     1
102
RTVSPropertyOp11
 70
     1
102
RTVSPropertyOp12
 70
     1
102
RTVSPropertyOp13
 70
     1
102
RTVSPropertyOp14
 70
     1
102
RTVSPropertyOp15
 70
     1
102
RTVSPropertyOp16
 70
     1
102
RTVSPropertyOp17
 70
     1
102
RTVSPropertyOp18
 70
     1
102
RTVSPropertyOp19
 70
     1
102
RTVSPropertyOp20
 70
     1
102
RTVSPropertyOp21
 70
     1
102
RTVSPropertyOp22
 70
     1
102
RTVSPropertyOp23
 70
     1
102
RTVSPropertyOp24
 70
     1
102
RTVSPropertyOp25
 70
     1
102
RTVSPropertyOp26
 70
     1
102
RTVSPropertyOp27
 70
     1
102
RTVSPropertyOp28
 70
     1
102
RTVSPropertyOp29
 70
     1
102
RTVSPropertyOp30
 70
     1
102
RTVSPropertyOp31
 70
     1
102
RTVSPropertyOp32
 70
     1
102
RTVSPropertyOp33
 70
     1
102
RTVSPropertyOp34
 70
     1
102
RTVSPropertyOp35
 70
     1
102
RTVSPropertyOp36
 70
     1
102
RTVSPropertyOp37
 70
     1
102
RTVSPropertyOp38
 70
     1
102
RTVSPropertyOp39
 70
     1
102
RTVSPropertyOp40
 70
     1
102
RTVSPropertyOp41
 70
     1
102
RTVSPropertyOp42
 70
     1
102
RTVSPropertyOp43
 70
     1
102
RTVSPropertyOp44
 70
     1
102
RTVSPropertyOp45
 70
     1
102
RTVSPropertyOp46
 70
     1
102
RTVSPropertyOp47
 70
     1
102
RTVSPropertyOp48
 70
     1
102
RTVSPropertyOp49
 70
     1
102
RTVSPropertyOp50
 70
     1
102
RTVSPropertyOp51
 70
     0
102
RTVSPropertyOp52
 70
     0
102
RTVSPropertyOp53
 70
     1
102
RTVSPropertyOp54
 70
     1
102
RTVSPropertyOp55
 70
     1
102
RTVSPropertyOp56
 70
     1
102
RTVSPropertyOp57
 70
     1
102
RTVSPropertyOp58
 70
     1
102
RTVSPropertyOp59
 70
     1
102
RTVSPropertyOp60
 70
     1
102
RTVSPropertyOp61
 70
     1
102
RTVSPropertyOp62
 70
     1
  0
XRECORD
  5
21CB
102
{ACAD_REACTORS
330
21CA
102
}
330
21CA
100
AcDbXrecord
280
     1
102
RTVSPost2010Prop28
280
     0
102
RTVSPost2010PropOp28
 70
     1
102
RTVSPost2010Prop29
280
     1
102
RTVSPost2010PropOp29
 70
     1
102
RTVSPost2010Prop30
280
     1
102
RTVSPost2010PropOp30
 70
     1
102
RTVSPost2010Prop31
280
     0
102
RTVSPost2010PropOp31
 70
     1
102
RTVSPost2010Prop32
280
     0
102
RTVSPost2010PropOp32
 70
     1
102
RTVSPost2010Prop33
280
     0
102
RTVSPost2010PropOp33
 70
     1
102
RTVSPost2010Prop34
280
     0
102
RTVSPost2010PropOp34
 70
     1
102
RTVSPost2010Prop35
280
     0
102
RTVSPost2010PropOp35
 70
     1
102
RTVSPost2010Prop36
280
     0
102
RTVSPost2010PropOp36
 70
     1
102
RTVSPost2010Prop37
 90
       50
102
RTVSPost2010PropOp37
 70
     1
102
RTVSPost2010Prop38
140
0.0
102
RTVSPost2010PropOp38
 70
     1
102
RTVSPost2010Prop39
140
1.0
102
RTVSPost2010PropOp39
 70
     1
102
RTVSPost2010Prop40
 90
        0
102
RTVSPost2010PropOp40
 70
     1
102
RTVSPost2010Prop41ColorIndex
 90
       18
102
RTVSPost2010Prop41ColorRGB
 90
        0
102
RTVSPost2010PropOp41
 70
     1
102
RTVSPost2010Prop42
 90
       50
102
RTVSPost2010PropOp42
 70
     1
102
RTVSPost2010Prop43
 90
        3
102
RTVSPost2010PropOp43
 70
     1
102
RTVSPost2010Prop44ColorIndex
 90
        5
102
RTVSPost2010Prop44ColorRGB
 90
      255
102
RTVSPost2010PropOp44
 70
     1
102
RTVSPost2010Prop45
280
     0
102
RTVSPost2010PropOp45
 70
     1
102
RTVSPost2010Prop46
 90
       50
102
RTVSPost2010PropOp46
 70
     1
102
RTVSPost2010Prop47
 90
       50
102
RTVSPost2010PropOp47
 70
     1
102
RTVSPost2010Prop48
 90
       50
102
RTVSPost2010PropOp48
 70
     1
102
RTVSPost2010Prop49
280
     0
102
RTVSPost2010PropOp49
 70
     1
102
RTVSPost2010Prop50
 90
       50
102
RTVSPost2010PropOp50
 70
     1
102
RTVSPost2010Prop51ColorIndex
 90
      256
102
RTVSPost2010Prop51ColorRGB
 90
-16777216
102
RTVSPost2010PropOp51
 70
     0
102
RTVSPost2010Prop52
140
1.0
102
RTVSPost2010PropOp52
 70
     0
102
RTVSPost2010Prop53
 90
        2
102
RTVSPost2010PropOp53
 70
     1
102
RTVSPost2010Prop54
  1
strokes_ogs.tif
102
RTVSPost2010PropOp54
 70
     1
102
RTVSPost2010Prop55
280
     0
102
RTVSPost2010PropOp55
 70
     1
102
RTVSPost2010Prop56
140
1.0
102
RTVSPost2010PropOp56
 70
     1
102
RTVSPost2010Prop57
140
1.0
102
RTVSPost2010PropOp57
 70
     1
102
RTVSPropertyOp0
 70
     1
102
RTVSPropertyOp1
 70
     1
102
RTVSPropertyOp2
 70
     1
102
RTVSPropertyOp3
 70
     1
102
RTVSPropertyOp4
 70
     1
102
RTVSPropertyOp5
 70
     1
102
RTVSPropertyOp6
 70
     1
102
RTVSPropertyOp7
 70
     1
102
RTVSPropertyOp8
 70
     1
102
RTVSPropertyOp9
 70
     1
102
RTVSPropertyOp10
 70
     1
102
RTVSPropertyOp11
 70
     1
102
RTVSPropertyOp12
 70
     1
102
RTVSPropertyOp13
 70
     1
102
RTVSPropertyOp14
 70
     1
102
RTVSPropertyOp15
 70
     1
102
RTVSPropertyOp16
 70
     1
102
RTVSPropertyOp17
 70
     1
102
RTVSPropertyOp18
 70
     1
102
RTVSPropertyOp19
 70
     1
102
RTVSPropertyOp20
 70
     1
102
RTVSPropertyOp21
 70
     1
102
RTVSPropertyOp22
 70
     1
102
RTVSPropertyOp23
 70
     1
102
RTVSPropertyOp24
 70
     1
102
RTVSPropertyOp25
 70
     1
102
RTVSPropertyOp26
 70
     1
102
RTVSPropertyOp27
 70
     1
102
RTVSPropertyOp28
 70
     1
102
RTVSPropertyOp29
 70
     1
102
RTVSPropertyOp30
 70
     1
102
RTVSPropertyOp31
 70
     1
102
RTVSPropertyOp32
 70
     1
102
RTVSPropertyOp33
 70
     1
102
RTVSPropertyOp34
 70
     1
102
RTVSPropertyOp35
 70
     1
102
RTVSPropertyOp36
 70
     1
102
RTVSPropertyOp37
 70
     1
102
RTVSPropertyOp38
 70
     1
102
RTVSPropertyOp39
 70
     1
102
RTVSPropertyOp40
 70
     1
102
RTVSPropertyOp41
 70
     1
102
RTVSPropertyOp42
 70
     1
102
RTVSPropertyOp43
 70
     1
102
RTVSPropertyOp44
 70
     1
102
RTVSPropertyOp45
 70
     1
102
RTVSPropertyOp46
 70
     1
102
RTVSPropertyOp47
 70
     1
102
RTVSPropertyOp48
 70
     1
102
RTVSPropertyOp49
 70
     1
102
RTVSPropertyOp50
 70
     1
102
RTVSPropertyOp51
 70
     0
102
RTVSPropertyOp52
 70
     0
102
RTVSPropertyOp53
 70
     1
102
RTVSPropertyOp54
 70
     1
102
RTVSPropertyOp55
 70
     1
102
RTVSPropertyOp56
 70
     1
102
RTVSPropertyOp57
 70
     1
102
RTVSPropertyOp58
 70
     1
102
RTVSPropertyOp59
 70
     1
102
RTVSPropertyOp60
 70
     1
102
RTVSPropertyOp61
 70
     1
102
RTVSPropertyOp62
 70
     1
  0
XRECORD
  5
21CD
102
{ACAD_REACTORS
330
21CC
102
}
330
21CC
100
AcDbXrecord
280
     1
102
RTVSPost2010Prop28
280
     0
102
RTVSPost2010PropOp28
 70
     1
102
RTVSPost2010Prop29
280
     1
102
RTVSPost2010PropOp29
 70
     1
102
RTVSPost2010Prop30
280
     1
102
RTVSPost2010PropOp30
 70
     1
102
RTVSPost2010Prop31
280
     0
102
RTVSPost2010PropOp31
 70
     1
102
RTVSPost2010Prop32
280
     0
102
RTVSPost2010PropOp32
 70
     1
102
RTVSPost2010Prop33
280
     0
102
RTVSPost2010PropOp33
 70
     1
102
RTVSPost2010Prop34
280
     0
102
RTVSPost2010PropOp34
 70
     1
102
RTVSPost2010Prop35
280
     0
102
RTVSPost2010PropOp35
 70
     1
102
RTVSPost2010Prop36
280
     0
102
RTVSPost2010PropOp36
 70
     1
102
RTVSPost2010Prop37
 90
       50
102
RTVSPost2010PropOp37
 70
     1
102
RTVSPost2010Prop38
140
0.0
102
RTVSPost2010PropOp38
 70
     1
102
RTVSPost2010Prop39
140
1.0
102
RTVSPost2010PropOp39
 70
     1
102
RTVSPost2010Prop40
 90
        0
102
RTVSPost2010PropOp40
 70
     1
102
RTVSPost2010Prop41ColorIndex
 90
       18
102
RTVSPost2010Prop41ColorRGB
 90
        0
102
RTVSPost2010PropOp41
 70
     1
102
RTVSPost2010Prop42
 90
       50
102
RTVSPost2010PropOp42
 70
     1
102
RTVSPost2010Prop43
 90
        3
102
RTVSPost2010PropOp43
 70
     1
102
RTVSPost2010Prop44ColorIndex
 90
        5
102
RTVSPost2010Prop44ColorRGB
 90
      255
102
RTVSPost2010PropOp44
 70
     1
102
RTVSPost2010Prop45
280
     0
102
RTVSPost2010PropOp45
 70
     1
102
RTVSPost2010Prop46
 90
       50
102
RTVSPost2010PropOp46
 70
     1
102
RTVSPost2010Prop47
 90
       50
102
RTVSPost2010PropOp47
 70
     1
102
RTVSPost2010Prop48
 90
       50
102
RTVSPost2010PropOp48
 70
     1
102
RTVSPost2010Prop49
280
     0
102
RTVSPost2010PropOp49
 70
     1
102
RTVSPost2010Prop50
 90
       50
102
RTVSPost2010PropOp50
 70
     1
102
RTVSPost2010Prop51ColorIndex
 90
      256
102
RTVSPost2010Prop51ColorRGB
 90
-16777216
102
RTVSPost2010PropOp51
 70
     0
102
RTVSPost2010Prop52
140
1.0
102
RTVSPost2010PropOp52
 70
     0
102
RTVSPost2010Prop53
 90
        2
102
RTVSPost2010PropOp53
 70
     1
102
RTVSPost2010Prop54
  1
strokes_ogs.tif
102
RTVSPost2010PropOp54
 70
     1
102
RTVSPost2010Prop55
280
     0
102
RTVSPost2010PropOp55
 70
     1
102
RTVSPost2010Prop56
140
1.0
102
RTVSPost2010PropOp56
 70
     1
102
RTVSPost2010Prop57
140
1.0
102
RTVSPost2010PropOp57
 70
     1
102
RTVSPropertyOp0
 70
     1
102
RTVSPropertyOp1
 70
     1
102
RTVSPropertyOp2
 70
     1
102
RTVSPropertyOp3
 70
     1
102
RTVSPropertyOp4
 70
     1
102
RTVSPropertyOp5
 70
     1
102
RTVSPropertyOp6
 70
     1
102
RTVSPropertyOp7
 70
     1
102
RTVSPropertyOp8
 70
     1
102
RTVSPropertyOp9
 70
     1
102
RTVSPropertyOp10
 70
     1
102
RTVSPropertyOp11
 70
     1
102
RTVSPropertyOp12
 70
     1
102
RTVSPropertyOp13
 70
     1
102
RTVSPropertyOp14
 70
     1
102
RTVSPropertyOp15
 70
     1
102
RTVSPropertyOp16
 70
     1
102
RTVSPropertyOp17
 70
     1
102
RTVSPropertyOp18
 70
     1
102
RTVSPropertyOp19
 70
     1
102
RTVSPropertyOp20
 70
     1
102
RTVSPropertyOp21
 70
     1
102
RTVSPropertyOp22
 70
     1
102
RTVSPropertyOp23
 70
     1
102
RTVSPropertyOp24
 70
     1
102
RTVSPropertyOp25
 70
     1
102
RTVSPropertyOp26
 70
     1
102
RTVSPropertyOp27
 70
     1
102
RTVSPropertyOp28
 70
     1
102
RTVSPropertyOp29
 70
     1
102
RTVSPropertyOp30
 70
     1
102
RTVSPropertyOp31
 70
     1
102
RTVSPropertyOp32
 70
     1
102
RTVSPropertyOp33
 70
     1
102
RTVSPropertyOp34
 70
     1
102
RTVSPropertyOp35
 70
     1
102
RTVSPropertyOp36
 70
     1
102
RTVSPropertyOp37
 70
     1
102
RTVSPropertyOp38
 70
     1
102
RTVSPropertyOp39
 70
     1
102
RTVSPropertyOp40
 70
     1
102
RTVSPropertyOp41
 70
     1
102
RTVSPropertyOp42
 70
     1
102
RTVSPropertyOp43
 70
     1
102
RTVSPropertyOp44
 70
     1
102
RTVSPropertyOp45
 70
     1
102
RTVSPropertyOp46
 70
     1
102
RTVSPropertyOp47
 70
     1
102
RTVSPropertyOp48
 70
     1
102
RTVSPropertyOp49
 70
     1
102
RTVSPropertyOp50
 70
     1
102
RTVSPropertyOp51
 70
     0
102
RTVSPropertyOp52
 70
     0
102
RTVSPropertyOp53
 70
     1
102
RTVSPropertyOp54
 70
     1
102
RTVSPropertyOp55
 70
     1
102
RTVSPropertyOp56
 70
     1
102
RTVSPropertyOp57
 70
     1
102
RTVSPropertyOp58
 70
     1
102
RTVSPropertyOp59
 70
     1
102
RTVSPropertyOp60
 70
     1
102
RTVSPropertyOp61
 70
     1
102
RTVSPropertyOp62
 70
     1
  0
XRECORD
  5
21D5
102
{ACAD_REACTORS
330
21D4
102
}
330
21D4
100
AcDbXrecord
280
     1
102
RTVSPost2010Prop28
280
     0
102
RTVSPost2010PropOp28
 70
     1
102
RTVSPost2010Prop29
280
     1
102
RTVSPost2010PropOp29
 70
     1
102
RTVSPost2010Prop30
280
     1
102
RTVSPost2010PropOp30
 70
     1
102
RTVSPost2010Prop31
280
     0
102
RTVSPost2010PropOp31
 70
     1
102
RTVSPost2010Prop32
280
     0
102
RTVSPost2010PropOp32
 70
     1
102
RTVSPost2010Prop33
280
     0
102
RTVSPost2010PropOp33
 70
     1
102
RTVSPost2010Prop34
280
     0
102
RTVSPost2010PropOp34
 70
     1
102
RTVSPost2010Prop35
280
     0
102
RTVSPost2010PropOp35
 70
     1
102
RTVSPost2010Prop36
280
     0
102
RTVSPost2010PropOp36
 70
     1
102
RTVSPost2010Prop37
 90
       50
102
RTVSPost2010PropOp37
 70
     1
102
RTVSPost2010Prop38
140
0.0
102
RTVSPost2010PropOp38
 70
     1
102
RTVSPost2010Prop39
140
1.0
102
RTVSPost2010PropOp39
 70
     1
102
RTVSPost2010Prop40
 90
        0
102
RTVSPost2010PropOp40
 70
     1
102
RTVSPost2010Prop41ColorIndex
 90
       18
102
RTVSPost2010Prop41ColorRGB
 90
        0
102
RTVSPost2010PropOp41
 70
     1
102
RTVSPost2010Prop42
 90
       50
102
RTVSPost2010PropOp42
 70
     1
102
RTVSPost2010Prop43
 90
        3
102
RTVSPost2010PropOp43
 70
     1
102
RTVSPost2010Prop44ColorIndex
 90
        5
102
RTVSPost2010Prop44ColorRGB
 90
      255
102
RTVSPost2010PropOp44
 70
     1
102
RTVSPost2010Prop45
280
     0
102
RTVSPost2010PropOp45
 70
     1
102
RTVSPost2010Prop46
 90
       50
102
RTVSPost2010PropOp46
 70
     1
102
RTVSPost2010Prop47
 90
       50
102
RTVSPost2010PropOp47
 70
     1
102
RTVSPost2010Prop48
 90
       50
102
RTVSPost2010PropOp48
 70
     1
102
RTVSPost2010Prop49
280
     0
102
RTVSPost2010PropOp49
 70
     1
102
RTVSPost2010Prop50
 90
       50
102
RTVSPost2010PropOp50
 70
     1
102
RTVSPost2010Prop51ColorIndex
 90
      256
102
RTVSPost2010Prop51ColorRGB
 90
-16777216
102
RTVSPost2010PropOp51
 70
     0
102
RTVSPost2010Prop52
140
1.0
102
RTVSPost2010PropOp52
 70
     0
102
RTVSPost2010Prop53
 90
        2
102
RTVSPost2010PropOp53
 70
     1
102
RTVSPost2010Prop54
  1
strokes_ogs.tif
102
RTVSPost2010PropOp54
 70
     1
102
RTVSPost2010Prop55
280
     0
102
RTVSPost2010PropOp55
 70
     1
102
RTVSPost2010Prop56
140
1.0
102
RTVSPost2010PropOp56
 70
     1
102
RTVSPost2010Prop57
140
1.0
102
RTVSPost2010PropOp57
 70
     1
102
RTVSPropertyOp0
 70
     1
102
RTVSPropertyOp1
 70
     1
102
RTVSPropertyOp2
 70
     1
102
RTVSPropertyOp3
 70
     1
102
RTVSPropertyOp4
 70
     1
102
RTVSPropertyOp5
 70
     1
102
RTVSPropertyOp6
 70
     1
102
RTVSPropertyOp7
 70
     1
102
RTVSPropertyOp8
 70
     1
102
RTVSPropertyOp9
 70
     1
102
RTVSPropertyOp10
 70
     1
102
RTVSPropertyOp11
 70
     1
102
RTVSPropertyOp12
 70
     1
102
RTVSPropertyOp13
 70
     1
102
RTVSPropertyOp14
 70
     1
102
RTVSPropertyOp15
 70
     1
102
RTVSPropertyOp16
 70
     1
102
RTVSPropertyOp17
 70
     1
102
RTVSPropertyOp18
 70
     1
102
RTVSPropertyOp19
 70
     1
102
RTVSPropertyOp20
 70
     1
102
RTVSPropertyOp21
 70
     1
102
RTVSPropertyOp22
 70
     1
102
RTVSPropertyOp23
 70
     1
102
RTVSPropertyOp24
 70
     1
102
RTVSPropertyOp25
 70
     1
102
RTVSPropertyOp26
 70
     1
102
RTVSPropertyOp27
 70
     1
102
RTVSPropertyOp28
 70
     1
102
RTVSPropertyOp29
 70
     1
102
RTVSPropertyOp30
 70
     1
102
RTVSPropertyOp31
 70
     1
102
RTVSPropertyOp32
 70
     1
102
RTVSPropertyOp33
 70
     1
102
RTVSPropertyOp34
 70
     1
102
RTVSPropertyOp35
 70
     1
102
RTVSPropertyOp36
 70
     1
102
RTVSPropertyOp37
 70
     1
102
RTVSPropertyOp38
 70
     1
102
RTVSPropertyOp39
 70
     1
102
RTVSPropertyOp40
 70
     1
102
RTVSPropertyOp41
 70
     1
102
RTVSPropertyOp42
 70
     1
102
RTVSPropertyOp43
 70
     1
102
RTVSPropertyOp44
 70
     1
102
RTVSPropertyOp45
 70
     1
102
RTVSPropertyOp46
 70
     1
102
RTVSPropertyOp47
 70
     1
102
RTVSPropertyOp48
 70
     1
102
RTVSPropertyOp49
 70
     1
102
RTVSPropertyOp50
 70
     1
102
RTVSPropertyOp51
 70
     0
102
RTVSPropertyOp52
 70
     0
102
RTVSPropertyOp53
 70
     1
102
RTVSPropertyOp54
 70
     1
102
RTVSPropertyOp55
 70
     1
102
RTVSPropertyOp56
 70
     1
102
RTVSPropertyOp57
 70
     1
102
RTVSPropertyOp58
 70
     1
102
RTVSPropertyOp59
 70
     1
102
RTVSPropertyOp60
 70
     1
102
RTVSPropertyOp61
 70
     1
102
RTVSPropertyOp62
 70
     1
  0
XRECORD
  5
21F1
102
{ACAD_REACTORS
330
21F0
102
}
330
21F0
100
AcDbXrecord
280
     1
102
RTVSPost2010Prop28
280
     0
102
RTVSPost2010PropOp28
 70
     0
102
RTVSPost2010Prop29
280
     1
102
RTVSPost2010PropOp29
 70
     0
102
RTVSPost2010Prop30
280
     1
102
RTVSPost2010PropOp30
 70
     0
102
RTVSPost2010Prop31
280
     0
102
RTVSPost2010PropOp31
 70
     0
102
RTVSPost2010Prop32
280
     0
102
RTVSPost2010PropOp32
 70
     0
102
RTVSPost2010Prop33
280
     0
102
RTVSPost2010PropOp33
 70
     0
102
RTVSPost2010Prop34
280
     0
102
RTVSPost2010PropOp34
 70
     0
102
RTVSPost2010Prop35
280
     0
102
RTVSPost2010PropOp35
 70
     0
102
RTVSPost2010Prop36
280
     0
102
RTVSPost2010PropOp36
 70
     0
102
RTVSPost2010Prop37
 90
       50
102
RTVSPost2010PropOp37
 70
     0
102
RTVSPost2010Prop38
140
0.0
102
RTVSPost2010PropOp38
 70
     0
102
RTVSPost2010Prop39
140
1.0
102
RTVSPost2010PropOp39
 70
     0
102
RTVSPost2010Prop40
 90
        0
102
RTVSPost2010PropOp40
 70
     0
102
RTVSPost2010Prop41ColorIndex
 90
       18
102
RTVSPost2010Prop41ColorRGB
 90
        0
102
RTVSPost2010PropOp41
 70
     0
102
RTVSPost2010Prop42
 90
       50
102
RTVSPost2010PropOp42
 70
     0
102
RTVSPost2010Prop43
 90
        3
102
RTVSPost2010PropOp43
 70
     0
102
RTVSPost2010Prop44ColorIndex
 90
        5
102
RTVSPost2010Prop44ColorRGB
 90
      255
102
RTVSPost2010PropOp44
 70
     0
102
RTVSPost2010Prop45
280
     0
102
RTVSPost2010PropOp45
 70
     0
102
RTVSPost2010Prop46
 90
       50
102
RTVSPost2010PropOp46
 70
     0
102
RTVSPost2010Prop47
 90
       50
102
RTVSPost2010PropOp47
 70
     0
102
RTVSPost2010Prop48
 90
       50
102
RTVSPost2010PropOp48
 70
     0
102
RTVSPost2010Prop49
280
     0
102
RTVSPost2010PropOp49
 70
     0
102
RTVSPost2010Prop50
 90
       50
102
RTVSPost2010PropOp50
 70
     0
102
RTVSPost2010Prop51ColorIndex
 90
      256
102
RTVSPost2010Prop51ColorRGB
 90
-16777216
102
RTVSPost2010PropOp51
 70
     0
102
RTVSPost2010Prop52
140
1.0
102
RTVSPost2010PropOp52
 70
     0
102
RTVSPost2010Prop53
 90
        2
102
RTVSPost2010PropOp53
 70
     0
102
RTVSPost2010Prop54
  1
strokes_ogs.tif
102
RTVSPost2010PropOp54
 70
     0
102
RTVSPost2010Prop55
280
     0
102
RTVSPost2010PropOp55
 70
     0
102
RTVSPost2010Prop56
140
1.0
102
RTVSPost2010PropOp56
 70
     0
102
RTVSPost2010Prop57
140
1.0
102
RTVSPost2010PropOp57
 70
     0
102
RTVSPropertyOp0
 70
     0
102
RTVSPropertyOp1
 70
     0
102
RTVSPropertyOp2
 70
     0
102
RTVSPropertyOp3
 70
     0
102
RTVSPropertyOp4
 70
     0
102
RTVSPropertyOp5
 70
     0
102
RTVSPropertyOp6
 70
     0
102
RTVSPropertyOp7
 70
     0
102
RTVSPropertyOp8
 70
     0
102
RTVSPropertyOp9
 70
     0
102
RTVSPropertyOp10
 70
     0
102
RTVSPropertyOp11
 70
     0
102
RTVSPropertyOp12
 70
     0
102
RTVSPropertyOp13
 70
     0
102
RTVSPropertyOp14
 70
     2
102
RTVSPropertyOp15
 70
     0
102
RTVSPropertyOp16
 70
     0
102
RTVSPropertyOp17
 70
     0
102
RTVSPropertyOp18
 70
     0
102
RTVSPropertyOp19
 70
     0
102
RTVSPropertyOp20
 70
     0
102
RTVSPropertyOp21
 70
     0
102
RTVSPropertyOp22
 70
     0
102
RTVSPropertyOp23
 70
     0
102
RTVSPropertyOp24
 70
     0
102
RTVSPropertyOp25
 70
     0
102
RTVSPropertyOp26
 70
     0
102
RTVSPropertyOp27
 70
     0
102
RTVSPropertyOp28
 70
     0
102
RTVSPropertyOp29
 70
     0
102
RTVSPropertyOp30
 70
     0
102
RTVSPropertyOp31
 70
     0
102
RTVSPropertyOp32
 70
     0
102
RTVSPropertyOp33
 70
     0
102
RTVSPropertyOp34
 70
     0
102
RTVSPropertyOp35
 70
     0
102
RTVSPropertyOp36
 70
     0
102
RTVSPropertyOp37
 70
     0
102
RTVSPropertyOp38
 70
     0
102
RTVSPropertyOp39
 70
     0
102
RTVSPropertyOp40
 70
     0
102
RTVSPropertyOp41
 70
     0
102
RTVSPropertyOp42
 70
     0
102
RTVSPropertyOp43
 70
     0
102
RTVSPropertyOp44
 70
     0
102
RTVSPropertyOp45
 70
     0
102
RTVSPropertyOp46
 70
     0
102
RTVSPropertyOp47
 70
     0
102
RTVSPropertyOp48
 70
     0
102
RTVSPropertyOp49
 70
     0
102
RTVSPropertyOp50
 70
     0
102
RTVSPropertyOp51
 70
     0
102
RTVSPropertyOp52
 70
     0
102
RTVSPropertyOp53
 70
     0
102
RTVSPropertyOp54
 70
     0
102
RTVSPropertyOp55
 70
     0
102
RTVSPropertyOp56
 70
     0
102
RTVSPropertyOp57
 70
     0
102
RTVSPropertyOp58
 70
     0
102
RTVSPropertyOp59
 70
     0
102
RTVSPropertyOp60
 70
     0
102
RTVSPropertyOp61
 70
     0
102
RTVSPropertyOp62
 70
     0
  0
XRECORD
  5
21E1
102
{ACAD_REACTORS
330
21E0
102
}
330
21E0
100
AcDbXrecord
280
     1
102
RTVSPost2010Prop28
280
     0
102
RTVSPost2010PropOp28
 70
     1
102
RTVSPost2010Prop29
280
     1
102
RTVSPost2010PropOp29
 70
     1
102
RTVSPost2010Prop30
280
     1
102
RTVSPost2010PropOp30
 70
     1
102
RTVSPost2010Prop31
280
     0
102
RTVSPost2010PropOp31
 70
     1
102
RTVSPost2010Prop32
280
     0
102
RTVSPost2010PropOp32
 70
     1
102
RTVSPost2010Prop33
280
     0
102
RTVSPost2010PropOp33
 70
     1
102
RTVSPost2010Prop34
280
     0
102
RTVSPost2010PropOp34
 70
     1
102
RTVSPost2010Prop35
280
     0
102
RTVSPost2010PropOp35
 70
     1
102
RTVSPost2010Prop36
280
     0
102
RTVSPost2010PropOp36
 70
     1
102
RTVSPost2010Prop37
 90
       50
102
RTVSPost2010PropOp37
 70
     1
102
RTVSPost2010Prop38
140
0.0
102
RTVSPost2010PropOp38
 70
     1
102
RTVSPost2010Prop39
140
1.0
102
RTVSPost2010PropOp39
 70
     1
102
RTVSPost2010Prop40
 90
        0
102
RTVSPost2010PropOp40
 70
     1
102
RTVSPost2010Prop41ColorIndex
 90
       18
102
RTVSPost2010Prop41ColorRGB
 90
        0
102
RTVSPost2010PropOp41
 70
     1
102
RTVSPost2010Prop42
 90
       50
102
RTVSPost2010PropOp42
 70
     1
102
RTVSPost2010Prop43
 90
        3
102
RTVSPost2010PropOp43
 70
     1
102
RTVSPost2010Prop44ColorIndex
 90
        5
102
RTVSPost2010Prop44ColorRGB
 90
      255
102
RTVSPost2010PropOp44
 70
     1
102
RTVSPost2010Prop45
280
     0
102
RTVSPost2010PropOp45
 70
     1
102
RTVSPost2010Prop46
 90
       50
102
RTVSPost2010PropOp46
 70
     1
102
RTVSPost2010Prop47
 90
       50
102
RTVSPost2010PropOp47
 70
     1
102
RTVSPost2010Prop48
 90
       50
102
RTVSPost2010PropOp48
 70
     1
102
RTVSPost2010Prop49
280
     0
102
RTVSPost2010PropOp49
 70
     1
102
RTVSPost2010Prop50
 90
       50
102
RTVSPost2010PropOp50
 70
     1
102
RTVSPost2010Prop51ColorIndex
 90
      256
102
RTVSPost2010Prop51ColorRGB
 90
-16777216
102
RTVSPost2010PropOp51
 70
     0
102
RTVSPost2010Prop52
140
1.0
102
RTVSPost2010PropOp52
 70
     0
102
RTVSPost2010Prop53
 90
        2
102
RTVSPost2010PropOp53
 70
     1
102
RTVSPost2010Prop54
  1
strokes_ogs.tif
102
RTVSPost2010PropOp54
 70
     1
102
RTVSPost2010Prop55
280
     0
102
RTVSPost2010PropOp55
 70
     1
102
RTVSPost2010Prop56
140
1.0
102
RTVSPost2010PropOp56
 70
     1
102
RTVSPost2010Prop57
140
1.0
102
RTVSPost2010PropOp57
 70
     1
102
RTVSPropertyOp0
 70
     1
102
RTVSPropertyOp1
 70
     1
102
RTVSPropertyOp2
 70
     1
102
RTVSPropertyOp3
 70
     1
102
RTVSPropertyOp4
 70
     1
102
RTVSPropertyOp5
 70
     1
102
RTVSPropertyOp6
 70
     1
102
RTVSPropertyOp7
 70
     1
102
RTVSPropertyOp8
 70
     1
102
RTVSPropertyOp9
 70
     1
102
RTVSPropertyOp10
 70
     1
102
RTVSPropertyOp11
 70
     1
102
RTVSPropertyOp12
 70
     1
102
RTVSPropertyOp13
 70
     1
102
RTVSPropertyOp14
 70
     1
102
RTVSPropertyOp15
 70
     1
102
RTVSPropertyOp16
 70
     1
102
RTVSPropertyOp17
 70
     1
102
RTVSPropertyOp18
 70
     1
102
RTVSPropertyOp19
 70
     1
102
RTVSPropertyOp20
 70
     1
102
RTVSPropertyOp21
 70
     1
102
RTVSPropertyOp22
 70
     1
102
RTVSPropertyOp23
 70
     1
102
RTVSPropertyOp24
 70
     1
102
RTVSPropertyOp25
 70
     1
102
RTVSPropertyOp26
 70
     1
102
RTVSPropertyOp27
 70
     1
102
RTVSPropertyOp28
 70
     1
102
RTVSPropertyOp29
 70
     1
102
RTVSPropertyOp30
 70
     1
102
RTVSPropertyOp31
 70
     1
102
RTVSPropertyOp32
 70
     1
102
RTVSPropertyOp33
 70
     1
102
RTVSPropertyOp34
 70
     1
102
RTVSPropertyOp35
 70
     1
102
RTVSPropertyOp36
 70
     1
102
RTVSPropertyOp37
 70
     1
102
RTVSPropertyOp38
 70
     1
102
RTVSPropertyOp39
 70
     1
102
RTVSPropertyOp40
 70
     1
102
RTVSPropertyOp41
 70
     1
102
RTVSPropertyOp42
 70
     1
102
RTVSPropertyOp43
 70
     1
102
RTVSPropertyOp44
 70
     1
102
RTVSPropertyOp45
 70
     1
102
RTVSPropertyOp46
 70
     1
102
RTVSPropertyOp47
 70
     1
102
RTVSPropertyOp48
 70
     1
102
RTVSPropertyOp49
 70
     1
102
RTVSPropertyOp50
 70
     1
102
RTVSPropertyOp51
 70
     0
102
RTVSPropertyOp52
 70
     0
102
RTVSPropertyOp53
 70
     1
102
RTVSPropertyOp54
 70
     1
102
RTVSPropertyOp55
 70
     1
102
RTVSPropertyOp56
 70
     1
102
RTVSPropertyOp57
 70
     1
102
RTVSPropertyOp58
 70
     1
102
RTVSPropertyOp59
 70
     1
102
RTVSPropertyOp60
 70
     1
102
RTVSPropertyOp61
 70
     1
102
RTVSPropertyOp62
 70
     1
  0
XRECORD
  5
21F3
102
{ACAD_REACTORS
330
21F2
102
}
330
21F2
100
AcDbXrecord
280
     1
102
RTVSPost2010Prop28
280
     0
102
RTVSPost2010PropOp28
 70
     0
102
RTVSPost2010Prop29
280
     1
102
RTVSPost2010PropOp29
 70
     0
102
RTVSPost2010Prop30
280
     1
102
RTVSPost2010PropOp30
 70
     0
102
RTVSPost2010Prop31
280
     0
102
RTVSPost2010PropOp31
 70
     0
102
RTVSPost2010Prop32
280
     0
102
RTVSPost2010PropOp32
 70
     0
102
RTVSPost2010Prop33
280
     0
102
RTVSPost2010PropOp33
 70
     0
102
RTVSPost2010Prop34
280
     0
102
RTVSPost2010PropOp34
 70
     0
102
RTVSPost2010Prop35
280
     0
102
RTVSPost2010PropOp35
 70
     0
102
RTVSPost2010Prop36
280
     0
102
RTVSPost2010PropOp36
 70
     0
102
RTVSPost2010Prop37
 90
       50
102
RTVSPost2010PropOp37
 70
     0
102
RTVSPost2010Prop38
140
0.0
102
RTVSPost2010PropOp38
 70
     0
102
RTVSPost2010Prop39
140
1.0
102
RTVSPost2010PropOp39
 70
     0
102
RTVSPost2010Prop40
 90
        0
102
RTVSPost2010PropOp40
 70
     0
102
RTVSPost2010Prop41ColorIndex
 90
       18
102
RTVSPost2010Prop41ColorRGB
 90
        0
102
RTVSPost2010PropOp41
 70
     0
102
RTVSPost2010Prop42
 90
       50
102
RTVSPost2010PropOp42
 70
     0
102
RTVSPost2010Prop43
 90
        3
102
RTVSPost2010PropOp43
 70
     0
102
RTVSPost2010Prop44ColorIndex
 90
        5
102
RTVSPost2010Prop44ColorRGB
 90
      255
102
RTVSPost2010PropOp44
 70
     0
102
RTVSPost2010Prop45
280
     0
102
RTVSPost2010PropOp45
 70
     0
102
RTVSPost2010Prop46
 90
       50
102
RTVSPost2010PropOp46
 70
     0
102
RTVSPost2010Prop47
 90
       50
102
RTVSPost2010PropOp47
 70
     0
102
RTVSPost2010Prop48
 90
       50
102
RTVSPost2010PropOp48
 70
     0
102
RTVSPost2010Prop49
280
     0
102
RTVSPost2010PropOp49
 70
     0
102
RTVSPost2010Prop50
 90
       50
102
RTVSPost2010PropOp50
 70
     0
102
RTVSPost2010Prop51ColorIndex
 90
      256
102
RTVSPost2010Prop51ColorRGB
 90
-16777216
102
RTVSPost2010PropOp51
 70
     0
102
RTVSPost2010Prop52
140
1.0
102
RTVSPost2010PropOp52
 70
     0
102
RTVSPost2010Prop53
 90
        2
102
RTVSPost2010PropOp53
 70
     0
102
RTVSPost2010Prop54
  1
strokes_ogs.tif
102
RTVSPost2010PropOp54
 70
     0
102
RTVSPost2010Prop55
280
     0
102
RTVSPost2010PropOp55
 70
     0
102
RTVSPost2010Prop56
140
1.0
102
RTVSPost2010PropOp56
 70
     0
102
RTVSPost2010Prop57
140
1.0
102
RTVSPost2010PropOp57
 70
     0
102
RTVSPropertyOp0
 70
     0
102
RTVSPropertyOp1
 70
     0
102
RTVSPropertyOp2
 70
     0
102
RTVSPropertyOp3
 70
     0
102
RTVSPropertyOp4
 70
     0
102
RTVSPropertyOp5
 70
     0
102
RTVSPropertyOp6
 70
     0
102
RTVSPropertyOp7
 70
     0
102
RTVSPropertyOp8
 70
     0
102
RTVSPropertyOp9
 70
     0
102
RTVSPropertyOp10
 70
     0
102
RTVSPropertyOp11
 70
     0
102
RTVSPropertyOp12
 70
     0
102
RTVSPropertyOp13
 70
     0
102
RTVSPropertyOp14
 70
     2
102
RTVSPropertyOp15
 70
     0
102
RTVSPropertyOp16
 70
     0
102
RTVSPropertyOp17
 70
     0
102
RTVSPropertyOp18
 70
     0
102
RTVSPropertyOp19
 70
     0
102
RTVSPropertyOp20
 70
     0
102
RTVSPropertyOp21
 70
     0
102
RTVSPropertyOp22
 70
     0
102
RTVSPropertyOp23
 70
     0
102
RTVSPropertyOp24
 70
     0
102
RTVSPropertyOp25
 70
     0
102
RTVSPropertyOp26
 70
     0
102
RTVSPropertyOp27
 70
     0
102
RTVSPropertyOp28
 70
     0
102
RTVSPropertyOp29
 70
     0
102
RTVSPropertyOp30
 70
     0
102
RTVSPropertyOp31
 70
     0
102
RTVSPropertyOp32
 70
     0
102
RTVSPropertyOp33
 70
     0
102
RTVSPropertyOp34
 70
     0
102
RTVSPropertyOp35
 70
     0
102
RTVSPropertyOp36
 70
     0
102
RTVSPropertyOp37
 70
     0
102
RTVSPropertyOp38
 70
     0
102
RTVSPropertyOp39
 70
     0
102
RTVSPropertyOp40
 70
     0
102
RTVSPropertyOp41
 70
     0
102
RTVSPropertyOp42
 70
     0
102
RTVSPropertyOp43
 70
     0
102
RTVSPropertyOp44
 70
     0
102
RTVSPropertyOp45
 70
     0
102
RTVSPropertyOp46
 70
     0
102
RTVSPropertyOp47
 70
     0
102
RTVSPropertyOp48
 70
     0
102
RTVSPropertyOp49
 70
     0
102
RTVSPropertyOp50
 70
     0
102
RTVSPropertyOp51
 70
     0
102
RTVSPropertyOp52
 70
     0
102
RTVSPropertyOp53
 70
     0
102
RTVSPropertyOp54
 70
     0
102
RTVSPropertyOp55
 70
     0
102
RTVSPropertyOp56
 70
     0
102
RTVSPropertyOp57
 70
     0
102
RTVSPropertyOp58
 70
     0
102
RTVSPropertyOp59
 70
     0
102
RTVSPropertyOp60
 70
     0
102
RTVSPropertyOp61
 70
     0
102
RTVSPropertyOp62
 70
     0
  0
XRECORD
  5
21D9
102
{ACAD_REACTORS
330
21D8
102
}
330
21D8
100
AcDbXrecord
280
     1
102
RTVSPost2010Prop28
280
     0
102
RTVSPost2010PropOp28
 70
     1
102
RTVSPost2010Prop29
280
     1
102
RTVSPost2010PropOp29
 70
     1
102
RTVSPost2010Prop30
280
     1
102
RTVSPost2010PropOp30
 70
     1
102
RTVSPost2010Prop31
280
     0
102
RTVSPost2010PropOp31
 70
     1
102
RTVSPost2010Prop32
280
     0
102
RTVSPost2010PropOp32
 70
     1
102
RTVSPost2010Prop33
280
     0
102
RTVSPost2010PropOp33
 70
     1
102
RTVSPost2010Prop34
280
     0
102
RTVSPost2010PropOp34
 70
     1
102
RTVSPost2010Prop35
280
     0
102
RTVSPost2010PropOp35
 70
     1
102
RTVSPost2010Prop36
280
     0
102
RTVSPost2010PropOp36
 70
     1
102
RTVSPost2010Prop37
 90
       50
102
RTVSPost2010PropOp37
 70
     1
102
RTVSPost2010Prop38
140
0.0
102
RTVSPost2010PropOp38
 70
     1
102
RTVSPost2010Prop39
140
1.0
102
RTVSPost2010PropOp39
 70
     1
102
RTVSPost2010Prop40
 90
        0
102
RTVSPost2010PropOp40
 70
     1
102
RTVSPost2010Prop41ColorIndex
 90
       18
102
RTVSPost2010Prop41ColorRGB
 90
        0
102
RTVSPost2010PropOp41
 70
     1
102
RTVSPost2010Prop42
 90
       50
102
RTVSPost2010PropOp42
 70
     1
102
RTVSPost2010Prop43
 90
        3
102
RTVSPost2010PropOp43
 70
     1
102
RTVSPost2010Prop44ColorIndex
 90
        5
102
RTVSPost2010Prop44ColorRGB
 90
      255
102
RTVSPost2010PropOp44
 70
     1
102
RTVSPost2010Prop45
280
     0
102
RTVSPost2010PropOp45
 70
     1
102
RTVSPost2010Prop46
 90
       50
102
RTVSPost2010PropOp46
 70
     1
102
RTVSPost2010Prop47
 90
       50
102
RTVSPost2010PropOp47
 70
     1
102
RTVSPost2010Prop48
 90
       50
102
RTVSPost2010PropOp48
 70
     1
102
RTVSPost2010Prop49
280
     0
102
RTVSPost2010PropOp49
 70
     1
102
RTVSPost2010Prop50
 90
       50
102
RTVSPost2010PropOp50
 70
     1
102
RTVSPost2010Prop51ColorIndex
 90
      256
102
RTVSPost2010Prop51ColorRGB
 90
-16777216
102
RTVSPost2010PropOp51
 70
     0
102
RTVSPost2010Prop52
140
1.0
102
RTVSPost2010PropOp52
 70
     0
102
RTVSPost2010Prop53
 90
        2
102
RTVSPost2010PropOp53
 70
     1
102
RTVSPost2010Prop54
  1
strokes_ogs.tif
102
RTVSPost2010PropOp54
 70
     1
102
RTVSPost2010Prop55
280
     0
102
RTVSPost2010PropOp55
 70
     1
102
RTVSPost2010Prop56
140
1.0
102
RTVSPost2010PropOp56
 70
     1
102
RTVSPost2010Prop57
140
1.0
102
RTVSPost2010PropOp57
 70
     1
102
RTVSPropertyOp0
 70
     1
102
RTVSPropertyOp1
 70
     1
102
RTVSPropertyOp2
 70
     1
102
RTVSPropertyOp3
 70
     1
102
RTVSPropertyOp4
 70
     1
102
RTVSPropertyOp5
 70
     1
102
RTVSPropertyOp6
 70
     1
102
RTVSPropertyOp7
 70
     1
102
RTVSPropertyOp8
 70
     1
102
RTVSPropertyOp9
 70
     1
102
RTVSPropertyOp10
 70
     1
102
RTVSPropertyOp11
 70
     1
102
RTVSPropertyOp12
 70
     1
102
RTVSPropertyOp13
 70
     1
102
RTVSPropertyOp14
 70
     1
102
RTVSPropertyOp15
 70
     1
102
RTVSPropertyOp16
 70
     1
102
RTVSPropertyOp17
 70
     1
102
RTVSPropertyOp18
 70
     1
102
RTVSPropertyOp19
 70
     1
102
RTVSPropertyOp20
 70
     1
102
RTVSPropertyOp21
 70
     1
102
RTVSPropertyOp22
 70
     1
102
RTVSPropertyOp23
 70
     1
102
RTVSPropertyOp24
 70
     1
102
RTVSPropertyOp25
 70
     1
102
RTVSPropertyOp26
 70
     1
102
RTVSPropertyOp27
 70
     1
102
RTVSPropertyOp28
 70
     1
102
RTVSPropertyOp29
 70
     1
102
RTVSPropertyOp30
 70
     1
102
RTVSPropertyOp31
 70
     1
102
RTVSPropertyOp32
 70
     1
102
RTVSPropertyOp33
 70
     1
102
RTVSPropertyOp34
 70
     1
102
RTVSPropertyOp35
 70
     1
102
RTVSPropertyOp36
 70
     1
102
RTVSPropertyOp37
 70
     1
102
RTVSPropertyOp38
 70
     1
102
RTVSPropertyOp39
 70
     1
102
RTVSPropertyOp40
 70
     1
102
RTVSPropertyOp41
 70
     1
102
RTVSPropertyOp42
 70
     1
102
RTVSPropertyOp43
 70
     1
102
RTVSPropertyOp44
 70
     1
102
RTVSPropertyOp45
 70
     1
102
RTVSPropertyOp46
 70
     1
102
RTVSPropertyOp47
 70
     1
102
RTVSPropertyOp48
 70
     1
102
RTVSPropertyOp49
 70
     1
102
RTVSPropertyOp50
 70
     1
102
RTVSPropertyOp51
 70
     0
102
RTVSPropertyOp52
 70
     0
102
RTVSPropertyOp53
 70
     1
102
RTVSPropertyOp54
 70
     1
102
RTVSPropertyOp55
 70
     1
102
RTVSPropertyOp56
 70
     1
102
RTVSPropertyOp57
 70
     1
102
RTVSPropertyOp58
 70
     1
102
RTVSPropertyOp59
 70
     1
102
RTVSPropertyOp60
 70
     1
102
RTVSPropertyOp61
 70
     1
102
RTVSPropertyOp62
 70
     1
  0
XRECORD
  5
21EF
102
{ACAD_REACTORS
330
21EE
102
}
330
21EE
100
AcDbXrecord
280
     1
102
RTVSPost2010Prop28
280
     0
102
RTVSPost2010PropOp28
 70
     1
102
RTVSPost2010Prop29
280
     1
102
RTVSPost2010PropOp29
 70
     1
102
RTVSPost2010Prop30
280
     1
102
RTVSPost2010PropOp30
 70
     1
102
RTVSPost2010Prop31
280
     0
102
RTVSPost2010PropOp31
 70
     1
102
RTVSPost2010Prop32
280
     0
102
RTVSPost2010PropOp32
 70
     1
102
RTVSPost2010Prop33
280
     0
102
RTVSPost2010PropOp33
 70
     1
102
RTVSPost2010Prop34
280
     0
102
RTVSPost2010PropOp34
 70
     1
102
RTVSPost2010Prop35
280
     0
102
RTVSPost2010PropOp35
 70
     1
102
RTVSPost2010Prop36
280
     0
102
RTVSPost2010PropOp36
 70
     1
102
RTVSPost2010Prop37
 90
       50
102
RTVSPost2010PropOp37
 70
     1
102
RTVSPost2010Prop38
140
0.0
102
RTVSPost2010PropOp38
 70
     1
102
RTVSPost2010Prop39
140
1.0
102
RTVSPost2010PropOp39
 70
     1
102
RTVSPost2010Prop40
 90
        0
102
RTVSPost2010PropOp40
 70
     1
102
RTVSPost2010Prop41ColorIndex
 90
       18
102
RTVSPost2010Prop41ColorRGB
 90
        0
102
RTVSPost2010PropOp41
 70
     1
102
RTVSPost2010Prop42
 90
       50
102
RTVSPost2010PropOp42
 70
     1
102
RTVSPost2010Prop43
 90
        3
102
RTVSPost2010PropOp43
 70
     1
102
RTVSPost2010Prop44ColorIndex
 90
        5
102
RTVSPost2010Prop44ColorRGB
 90
      255
102
RTVSPost2010PropOp44
 70
     1
102
RTVSPost2010Prop45
280
     0
102
RTVSPost2010PropOp45
 70
     1
102
RTVSPost2010Prop46
 90
       50
102
RTVSPost2010PropOp46
 70
     1
102
RTVSPost2010Prop47
 90
       50
102
RTVSPost2010PropOp47
 70
     1
102
RTVSPost2010Prop48
 90
       50
102
RTVSPost2010PropOp48
 70
     1
102
RTVSPost2010Prop49
280
     0
102
RTVSPost2010PropOp49
 70
     1
102
RTVSPost2010Prop50
 90
       50
102
RTVSPost2010PropOp50
 70
     1
102
RTVSPost2010Prop51ColorIndex
 90
      256
102
RTVSPost2010Prop51ColorRGB
 90
-16777216
102
RTVSPost2010PropOp51
 70
     0
102
RTVSPost2010Prop52
140
1.0
102
RTVSPost2010PropOp52
 70
     0
102
RTVSPost2010Prop53
 90
        2
102
RTVSPost2010PropOp53
 70
     1
102
RTVSPost2010Prop54
  1
strokes_ogs.tif
102
RTVSPost2010PropOp54
 70
     1
102
RTVSPost2010Prop55
280
     0
102
RTVSPost2010PropOp55
 70
     1
102
RTVSPost2010Prop56
140
1.0
102
RTVSPost2010PropOp56
 70
     1
102
RTVSPost2010Prop57
140
1.0
102
RTVSPost2010PropOp57
 70
     1
102
RTVSPropertyOp0
 70
     1
102
RTVSPropertyOp1
 70
     1
102
RTVSPropertyOp2
 70
     1
102
RTVSPropertyOp3
 70
     1
102
RTVSPropertyOp4
 70
     1
102
RTVSPropertyOp5
 70
     1
102
RTVSPropertyOp6
 70
     1
102
RTVSPropertyOp7
 70
     1
102
RTVSPropertyOp8
 70
     1
102
RTVSPropertyOp9
 70
     1
102
RTVSPropertyOp10
 70
     1
102
RTVSPropertyOp11
 70
     1
102
RTVSPropertyOp12
 70
     1
102
RTVSPropertyOp13
 70
     1
102
RTVSPropertyOp14
 70
     1
102
RTVSPropertyOp15
 70
     1
102
RTVSPropertyOp16
 70
     1
102
RTVSPropertyOp17
 70
     1
102
RTVSPropertyOp18
 70
     1
102
RTVSPropertyOp19
 70
     1
102
RTVSPropertyOp20
 70
     1
102
RTVSPropertyOp21
 70
     1
102
RTVSPropertyOp22
 70
     1
102
RTVSPropertyOp23
 70
     1
102
RTVSPropertyOp24
 70
     1
102
RTVSPropertyOp25
 70
     1
102
RTVSPropertyOp26
 70
     1
102
RTVSPropertyOp27
 70
     1
102
RTVSPropertyOp28
 70
     1
102
RTVSPropertyOp29
 70
     1
102
RTVSPropertyOp30
 70
     1
102
RTVSPropertyOp31
 70
     1
102
RTVSPropertyOp32
 70
     1
102
RTVSPropertyOp33
 70
     1
102
RTVSPropertyOp34
 70
     1
102
RTVSPropertyOp35
 70
     1
102
RTVSPropertyOp36
 70
     1
102
RTVSPropertyOp37
 70
     1
102
RTVSPropertyOp38
 70
     1
102
RTVSPropertyOp39
 70
     1
102
RTVSPropertyOp40
 70
     1
102
RTVSPropertyOp41
 70
     1
102
RTVSPropertyOp42
 70
     1
102
RTVSPropertyOp43
 70
     1
102
RTVSPropertyOp44
 70
     1
102
RTVSPropertyOp45
 70
     1
102
RTVSPropertyOp46
 70
     1
102
RTVSPropertyOp47
 70
     1
102
RTVSPropertyOp48
 70
     1
102
RTVSPropertyOp49
 70
     1
102
RTVSPropertyOp50
 70
     1
102
RTVSPropertyOp51
 70
     0
102
RTVSPropertyOp52
 70
     0
102
RTVSPropertyOp53
 70
     1
102
RTVSPropertyOp54
 70
     1
102
RTVSPropertyOp55
 70
     1
102
RTVSPropertyOp56
 70
     1
102
RTVSPropertyOp57
 70
     1
102
RTVSPropertyOp58
 70
     1
102
RTVSPropertyOp59
 70
     1
102
RTVSPropertyOp60
 70
     1
102
RTVSPropertyOp61
 70
     1
102
RTVSPropertyOp62
 70
     1
  0
XRECORD
  5
21ED
102
{ACAD_REACTORS
330
21EC
102
}
330
21EC
100
AcDbXrecord
280
     1
102
RTVSPost2010Prop28
280
     0
102
RTVSPost2010PropOp28
 70
     1
102
RTVSPost2010Prop29
280
     1
102
RTVSPost2010PropOp29
 70
     1
102
RTVSPost2010Prop30
280
     1
102
RTVSPost2010PropOp30
 70
     1
102
RTVSPost2010Prop31
280
     0
102
RTVSPost2010PropOp31
 70
     1
102
RTVSPost2010Prop32
280
     0
102
RTVSPost2010PropOp32
 70
     1
102
RTVSPost2010Prop33
280
     0
102
RTVSPost2010PropOp33
 70
     1
102
RTVSPost2010Prop34
280
     0
102
RTVSPost2010PropOp34
 70
     1
102
RTVSPost2010Prop35
280
     0
102
RTVSPost2010PropOp35
 70
     1
102
RTVSPost2010Prop36
280
     0
102
RTVSPost2010PropOp36
 70
     1
102
RTVSPost2010Prop37
 90
       50
102
RTVSPost2010PropOp37
 70
     1
102
RTVSPost2010Prop38
140
0.0
102
RTVSPost2010PropOp38
 70
     1
102
RTVSPost2010Prop39
140
1.0
102
RTVSPost2010PropOp39
 70
     1
102
RTVSPost2010Prop40
 90
        0
102
RTVSPost2010PropOp40
 70
     1
102
RTVSPost2010Prop41ColorIndex
 90
       18
102
RTVSPost2010Prop41ColorRGB
 90
        0
102
RTVSPost2010PropOp41
 70
     1
102
RTVSPost2010Prop42
 90
       50
102
RTVSPost2010PropOp42
 70
     1
102
RTVSPost2010Prop43
 90
        3
102
RTVSPost2010PropOp43
 70
     1
102
RTVSPost2010Prop44ColorIndex
 90
        5
102
RTVSPost2010Prop44ColorRGB
 90
      255
102
RTVSPost2010PropOp44
 70
     1
102
RTVSPost2010Prop45
280
     0
102
RTVSPost2010PropOp45
 70
     1
102
RTVSPost2010Prop46
 90
       50
102
RTVSPost2010PropOp46
 70
     1
102
RTVSPost2010Prop47
 90
       50
102
RTVSPost2010PropOp47
 70
     1
102
RTVSPost2010Prop48
 90
       50
102
RTVSPost2010PropOp48
 70
     1
102
RTVSPost2010Prop49
280
     0
102
RTVSPost2010PropOp49
 70
     1
102
RTVSPost2010Prop50
 90
       50
102
RTVSPost2010PropOp50
 70
     1
102
RTVSPost2010Prop51ColorIndex
 90
      256
102
RTVSPost2010Prop51ColorRGB
 90
-16777216
102
RTVSPost2010PropOp51
 70
     0
102
RTVSPost2010Prop52
140
1.0
102
RTVSPost2010PropOp52
 70
     0
102
RTVSPost2010Prop53
 90
        2
102
RTVSPost2010PropOp53
 70
     1
102
RTVSPost2010Prop54
  1
strokes_ogs.tif
102
RTVSPost2010PropOp54
 70
     1
102
RTVSPost2010Prop55
280
     0
102
RTVSPost2010PropOp55
 70
     1
102
RTVSPost2010Prop56
140
1.0
102
RTVSPost2010PropOp56
 70
     1
102
RTVSPost2010Prop57
140
1.0
102
RTVSPost2010PropOp57
 70
     1
102
RTVSPropertyOp0
 70
     1
102
RTVSPropertyOp1
 70
     1
102
RTVSPropertyOp2
 70
     1
102
RTVSPropertyOp3
 70
     1
102
RTVSPropertyOp4
 70
     1
102
RTVSPropertyOp5
 70
     1
102
RTVSPropertyOp6
 70
     1
102
RTVSPropertyOp7
 70
     1
102
RTVSPropertyOp8
 70
     1
102
RTVSPropertyOp9
 70
     1
102
RTVSPropertyOp10
 70
     1
102
RTVSPropertyOp11
 70
     1
102
RTVSPropertyOp12
 70
     1
102
RTVSPropertyOp13
 70
     1
102
RTVSPropertyOp14
 70
     1
102
RTVSPropertyOp15
 70
     1
102
RTVSPropertyOp16
 70
     1
102
RTVSPropertyOp17
 70
     1
102
RTVSPropertyOp18
 70
     1
102
RTVSPropertyOp19
 70
     1
102
RTVSPropertyOp20
 70
     1
102
RTVSPropertyOp21
 70
     1
102
RTVSPropertyOp22
 70
     1
102
RTVSPropertyOp23
 70
     1
102
RTVSPropertyOp24
 70
     1
102
RTVSPropertyOp25
 70
     1
102
RTVSPropertyOp26
 70
     1
102
RTVSPropertyOp27
 70
     1
102
RTVSPropertyOp28
 70
     1
102
RTVSPropertyOp29
 70
     1
102
RTVSPropertyOp30
 70
     1
102
RTVSPropertyOp31
 70
     1
102
RTVSPropertyOp32
 70
     1
102
RTVSPropertyOp33
 70
     1
102
RTVSPropertyOp34
 70
     1
102
RTVSPropertyOp35
 70
     1
102
RTVSPropertyOp36
 70
     1
102
RTVSPropertyOp37
 70
     1
102
RTVSPropertyOp38
 70
     1
102
RTVSPropertyOp39
 70
     1
102
RTVSPropertyOp40
 70
     1
102
RTVSPropertyOp41
 70
     1
102
RTVSPropertyOp42
 70
     1
102
RTVSPropertyOp43
 70
     1
102
RTVSPropertyOp44
 70
     1
102
RTVSPropertyOp45
 70
     1
102
RTVSPropertyOp46
 70
     1
102
RTVSPropertyOp47
 70
     1
102
RTVSPropertyOp48
 70
     1
102
RTVSPropertyOp49
 70
     1
102
RTVSPropertyOp50
 70
     1
102
RTVSPropertyOp51
 70
     0
102
RTVSPropertyOp52
 70
     0
102
RTVSPropertyOp53
 70
     1
102
RTVSPropertyOp54
 70
     1
102
RTVSPropertyOp55
 70
     1
102
RTVSPropertyOp56
 70
     1
102
RTVSPropertyOp57
 70
     1
102
RTVSPropertyOp58
 70
     1
102
RTVSPropertyOp59
 70
     1
102
RTVSPropertyOp60
 70
     1
102
RTVSPropertyOp61
 70
     1
102
RTVSPropertyOp62
 70
     1
  0
XRECORD
  5
21E7
102
{ACAD_REACTORS
330
21E6
102
}
330
21E6
100
AcDbXrecord
280
     1
102
RTVSPost2010Prop28
280
     0
102
RTVSPost2010PropOp28
 70
     1
102
RTVSPost2010Prop29
280
     1
102
RTVSPost2010PropOp29
 70
     1
102
RTVSPost2010Prop30
280
     1
102
RTVSPost2010PropOp30
 70
     1
102
RTVSPost2010Prop31
280
     0
102
RTVSPost2010PropOp31
 70
     1
102
RTVSPost2010Prop32
280
     0
102
RTVSPost2010PropOp32
 70
     1
102
RTVSPost2010Prop33
280
     0
102
RTVSPost2010PropOp33
 70
     1
102
RTVSPost2010Prop34
280
     0
102
RTVSPost2010PropOp34
 70
     1
102
RTVSPost2010Prop35
280
     0
102
RTVSPost2010PropOp35
 70
     1
102
RTVSPost2010Prop36
280
     0
102
RTVSPost2010PropOp36
 70
     1
102
RTVSPost2010Prop37
 90
       50
102
RTVSPost2010PropOp37
 70
     1
102
RTVSPost2010Prop38
140
0.0
102
RTVSPost2010PropOp38
 70
     1
102
RTVSPost2010Prop39
140
1.0
102
RTVSPost2010PropOp39
 70
     1
102
RTVSPost2010Prop40
 90
        0
102
RTVSPost2010PropOp40
 70
     1
102
RTVSPost2010Prop41ColorIndex
 90
       18
102
RTVSPost2010Prop41ColorRGB
 90
        0
102
RTVSPost2010PropOp41
 70
     1
102
RTVSPost2010Prop42
 90
       50
102
RTVSPost2010PropOp42
 70
     1
102
RTVSPost2010Prop43
 90
        3
102
RTVSPost2010PropOp43
 70
     1
102
RTVSPost2010Prop44ColorIndex
 90
        5
102
RTVSPost2010Prop44ColorRGB
 90
      255
102
RTVSPost2010PropOp44
 70
     1
102
RTVSPost2010Prop45
280
     0
102
RTVSPost2010PropOp45
 70
     1
102
RTVSPost2010Prop46
 90
       50
102
RTVSPost2010PropOp46
 70
     1
102
RTVSPost2010Prop47
 90
       50
102
RTVSPost2010PropOp47
 70
     1
102
RTVSPost2010Prop48
 90
       50
102
RTVSPost2010PropOp48
 70
     1
102
RTVSPost2010Prop49
280
     0
102
RTVSPost2010PropOp49
 70
     1
102
RTVSPost2010Prop50
 90
       50
102
RTVSPost2010PropOp50
 70
     1
102
RTVSPost2010Prop51ColorIndex
 90
      256
102
RTVSPost2010Prop51ColorRGB
 90
-16777216
102
RTVSPost2010PropOp51
 70
     0
102
RTVSPost2010Prop52
140
1.0
102
RTVSPost2010PropOp52
 70
     0
102
RTVSPost2010Prop53
 90
        2
102
RTVSPost2010PropOp53
 70
     1
102
RTVSPost2010Prop54
  1
strokes_ogs.tif
102
RTVSPost2010PropOp54
 70
     1
102
RTVSPost2010Prop55
280
     0
102
RTVSPost2010PropOp55
 70
     1
102
RTVSPost2010Prop56
140
1.0
102
RTVSPost2010PropOp56
 70
     1
102
RTVSPost2010Prop57
140
1.0
102
RTVSPost2010PropOp57
 70
     1
102
RTVSPropertyOp0
 70
     1
102
RTVSPropertyOp1
 70
     1
102
RTVSPropertyOp2
 70
     1
102
RTVSPropertyOp3
 70
     1
102
RTVSPropertyOp4
 70
     1
102
RTVSPropertyOp5
 70
     1
102
RTVSPropertyOp6
 70
     1
102
RTVSPropertyOp7
 70
     1
102
RTVSPropertyOp8
 70
     1
102
RTVSPropertyOp9
 70
     1
102
RTVSPropertyOp10
 70
     1
102
RTVSPropertyOp11
 70
     1
102
RTVSPropertyOp12
 70
     1
102
RTVSPropertyOp13
 70
     1
102
RTVSPropertyOp14
 70
     1
102
RTVSPropertyOp15
 70
     1
102
RTVSPropertyOp16
 70
     1
102
RTVSPropertyOp17
 70
     1
102
RTVSPropertyOp18
 70
     1
102
RTVSPropertyOp19
 70
     1
102
RTVSPropertyOp20
 70
     1
102
RTVSPropertyOp21
 70
     1
102
RTVSPropertyOp22
 70
     1
102
RTVSPropertyOp23
 70
     1
102
RTVSPropertyOp24
 70
     1
102
RTVSPropertyOp25
 70
     1
102
RTVSPropertyOp26
 70
     1
102
RTVSPropertyOp27
 70
     1
102
RTVSPropertyOp28
 70
     1
102
RTVSPropertyOp29
 70
     1
102
RTVSPropertyOp30
 70
     1
102
RTVSPropertyOp31
 70
     1
102
RTVSPropertyOp32
 70
     1
102
RTVSPropertyOp33
 70
     1
102
RTVSPropertyOp34
 70
     1
102
RTVSPropertyOp35
 70
     1
102
RTVSPropertyOp36
 70
     1
102
RTVSPropertyOp37
 70
     1
102
RTVSPropertyOp38
 70
     1
102
RTVSPropertyOp39
 70
     1
102
RTVSPropertyOp40
 70
     1
102
RTVSPropertyOp41
 70
     1
102
RTVSPropertyOp42
 70
     1
102
RTVSPropertyOp43
 70
     1
102
RTVSPropertyOp44
 70
     1
102
RTVSPropertyOp45
 70
     1
102
RTVSPropertyOp46
 70
     1
102
RTVSPropertyOp47
 70
     1
102
RTVSPropertyOp48
 70
     1
102
RTVSPropertyOp49
 70
     1
102
RTVSPropertyOp50
 70
     1
102
RTVSPropertyOp51
 70
     0
102
RTVSPropertyOp52
 70
     0
102
RTVSPropertyOp53
 70
     1
102
RTVSPropertyOp54
 70
     1
102
RTVSPropertyOp55
 70
     1
102
RTVSPropertyOp56
 70
     1
102
RTVSPropertyOp57
 70
     1
102
RTVSPropertyOp58
 70
     1
102
RTVSPropertyOp59
 70
     1
102
RTVSPropertyOp60
 70
     1
102
RTVSPropertyOp61
 70
     1
102
RTVSPropertyOp62
 70
     1
  0
XRECORD
  5
21E9
102
{ACAD_REACTORS
330
21E8
102
}
330
21E8
100
AcDbXrecord
280
     1
102
RTVSPost2010Prop28
280
     0
102
RTVSPost2010PropOp28
 70
     1
102
RTVSPost2010Prop29
280
     1
102
RTVSPost2010PropOp29
 70
     1
102
RTVSPost2010Prop30
280
     1
102
RTVSPost2010PropOp30
 70
     1
102
RTVSPost2010Prop31
280
     0
102
RTVSPost2010PropOp31
 70
     1
102
RTVSPost2010Prop32
280
     0
102
RTVSPost2010PropOp32
 70
     1
102
RTVSPost2010Prop33
280
     0
102
RTVSPost2010PropOp33
 70
     1
102
RTVSPost2010Prop34
280
     0
102
RTVSPost2010PropOp34
 70
     1
102
RTVSPost2010Prop35
280
     0
102
RTVSPost2010PropOp35
 70
     1
102
RTVSPost2010Prop36
280
     0
102
RTVSPost2010PropOp36
 70
     1
102
RTVSPost2010Prop37
 90
       50
102
RTVSPost2010PropOp37
 70
     1
102
RTVSPost2010Prop38
140
0.0
102
RTVSPost2010PropOp38
 70
     1
102
RTVSPost2010Prop39
140
1.0
102
RTVSPost2010PropOp39
 70
     1
102
RTVSPost2010Prop40
 90
        0
102
RTVSPost2010PropOp40
 70
     1
102
RTVSPost2010Prop41ColorIndex
 90
       18
102
RTVSPost2010Prop41ColorRGB
 90
        0
102
RTVSPost2010PropOp41
 70
     1
102
RTVSPost2010Prop42
 90
       50
102
RTVSPost2010PropOp42
 70
     1
102
RTVSPost2010Prop43
 90
        3
102
RTVSPost2010PropOp43
 70
     1
102
RTVSPost2010Prop44ColorIndex
 90
        5
102
RTVSPost2010Prop44ColorRGB
 90
      255
102
RTVSPost2010PropOp44
 70
     1
102
RTVSPost2010Prop45
280
     0
102
RTVSPost2010PropOp45
 70
     1
102
RTVSPost2010Prop46
 90
       50
102
RTVSPost2010PropOp46
 70
     1
102
RTVSPost2010Prop47
 90
       50
102
RTVSPost2010PropOp47
 70
     1
102
RTVSPost2010Prop48
 90
       50
102
RTVSPost2010PropOp48
 70
     1
102
RTVSPost2010Prop49
280
     0
102
RTVSPost2010PropOp49
 70
     1
102
RTVSPost2010Prop50
 90
       50
102
RTVSPost2010PropOp50
 70
     1
102
RTVSPost2010Prop51ColorIndex
 90
      256
102
RTVSPost2010Prop51ColorRGB
 90
-16777216
102
RTVSPost2010PropOp51
 70
     0
102
RTVSPost2010Prop52
140
1.0
102
RTVSPost2010PropOp52
 70
     0
102
RTVSPost2010Prop53
 90
        2
102
RTVSPost2010PropOp53
 70
     1
102
RTVSPost2010Prop54
  1
strokes_ogs.tif
102
RTVSPost2010PropOp54
 70
     1
102
RTVSPost2010Prop55
280
     0
102
RTVSPost2010PropOp55
 70
     1
102
RTVSPost2010Prop56
140
1.0
102
RTVSPost2010PropOp56
 70
     1
102
RTVSPost2010Prop57
140
1.0
102
RTVSPost2010PropOp57
 70
     1
102
RTVSPropertyOp0
 70
     1
102
RTVSPropertyOp1
 70
     1
102
RTVSPropertyOp2
 70
     1
102
RTVSPropertyOp3
 70
     1
102
RTVSPropertyOp4
 70
     1
102
RTVSPropertyOp5
 70
     1
102
RTVSPropertyOp6
 70
     1
102
RTVSPropertyOp7
 70
     1
102
RTVSPropertyOp8
 70
     1
102
RTVSPropertyOp9
 70
     1
102
RTVSPropertyOp10
 70
     1
102
RTVSPropertyOp11
 70
     1
102
RTVSPropertyOp12
 70
     1
102
RTVSPropertyOp13
 70
     1
102
RTVSPropertyOp14
 70
     1
102
RTVSPropertyOp15
 70
     1
102
RTVSPropertyOp16
 70
     1
102
RTVSPropertyOp17
 70
     1
102
RTVSPropertyOp18
 70
     1
102
RTVSPropertyOp19
 70
     1
102
RTVSPropertyOp20
 70
     1
102
RTVSPropertyOp21
 70
     1
102
RTVSPropertyOp22
 70
     1
102
RTVSPropertyOp23
 70
     1
102
RTVSPropertyOp24
 70
     1
102
RTVSPropertyOp25
 70
     1
102
RTVSPropertyOp26
 70
     1
102
RTVSPropertyOp27
 70
     1
102
RTVSPropertyOp28
 70
     1
102
RTVSPropertyOp29
 70
     1
102
RTVSPropertyOp30
 70
     1
102
RTVSPropertyOp31
 70
     1
102
RTVSPropertyOp32
 70
     1
102
RTVSPropertyOp33
 70
     1
102
RTVSPropertyOp34
 70
     1
102
RTVSPropertyOp35
 70
     1
102
RTVSPropertyOp36
 70
     1
102
RTVSPropertyOp37
 70
     1
102
RTVSPropertyOp38
 70
     1
102
RTVSPropertyOp39
 70
     1
102
RTVSPropertyOp40
 70
     1
102
RTVSPropertyOp41
 70
     1
102
RTVSPropertyOp42
 70
     1
102
RTVSPropertyOp43
 70
     1
102
RTVSPropertyOp44
 70
     1
102
RTVSPropertyOp45
 70
     1
102
RTVSPropertyOp46
 70
     1
102
RTVSPropertyOp47
 70
     1
102
RTVSPropertyOp48
 70
     1
102
RTVSPropertyOp49
 70
     1
102
RTVSPropertyOp50
 70
     1
102
RTVSPropertyOp51
 70
     0
102
RTVSPropertyOp52
 70
     0
102
RTVSPropertyOp53
 70
     1
102
RTVSPropertyOp54
 70
     1
102
RTVSPropertyOp55
 70
     1
102
RTVSPropertyOp56
 70
     1
102
RTVSPropertyOp57
 70
     1
102
RTVSPropertyOp58
 70
     1
102
RTVSPropertyOp59
 70
     1
102
RTVSPropertyOp60
 70
     1
102
RTVSPropertyOp61
 70
     1
102
RTVSPropertyOp62
 70
     1
  0
XRECORD
  5
21DF
102
{ACAD_REACTORS
330
21DE
102
}
330
21DE
100
AcDbXrecord
280
     1
102
RTVSPost2010Prop28
280
     0
102
RTVSPost2010PropOp28
 70
     1
102
RTVSPost2010Prop29
280
     1
102
RTVSPost2010PropOp29
 70
     1
102
RTVSPost2010Prop30
280
     1
102
RTVSPost2010PropOp30
 70
     1
102
RTVSPost2010Prop31
280
     0
102
RTVSPost2010PropOp31
 70
     1
102
RTVSPost2010Prop32
280
     0
102
RTVSPost2010PropOp32
 70
     1
102
RTVSPost2010Prop33
280
     0
102
RTVSPost2010PropOp33
 70
     1
102
RTVSPost2010Prop34
280
     0
102
RTVSPost2010PropOp34
 70
     1
102
RTVSPost2010Prop35
280
     0
102
RTVSPost2010PropOp35
 70
     1
102
RTVSPost2010Prop36
280
     0
102
RTVSPost2010PropOp36
 70
     1
102
RTVSPost2010Prop37
 90
       50
102
RTVSPost2010PropOp37
 70
     1
102
RTVSPost2010Prop38
140
0.0
102
RTVSPost2010PropOp38
 70
     1
102
RTVSPost2010Prop39
140
1.0
102
RTVSPost2010PropOp39
 70
     1
102
RTVSPost2010Prop40
 90
        0
102
RTVSPost2010PropOp40
 70
     1
102
RTVSPost2010Prop41ColorIndex
 90
       18
102
RTVSPost2010Prop41ColorRGB
 90
        0
102
RTVSPost2010PropOp41
 70
     1
102
RTVSPost2010Prop42
 90
       50
102
RTVSPost2010PropOp42
 70
     1
102
RTVSPost2010Prop43
 90
        3
102
RTVSPost2010PropOp43
 70
     1
102
RTVSPost2010Prop44ColorIndex
 90
        5
102
RTVSPost2010Prop44ColorRGB
 90
      255
102
RTVSPost2010PropOp44
 70
     1
102
RTVSPost2010Prop45
280
     0
102
RTVSPost2010PropOp45
 70
     1
102
RTVSPost2010Prop46
 90
       50
102
RTVSPost2010PropOp46
 70
     1
102
RTVSPost2010Prop47
 90
       50
102
RTVSPost2010PropOp47
 70
     1
102
RTVSPost2010Prop48
 90
       50
102
RTVSPost2010PropOp48
 70
     1
102
RTVSPost2010Prop49
280
     0
102
RTVSPost2010PropOp49
 70
     1
102
RTVSPost2010Prop50
 90
       50
102
RTVSPost2010PropOp50
 70
     1
102
RTVSPost2010Prop51ColorIndex
 90
      256
102
RTVSPost2010Prop51ColorRGB
 90
-16777216
102
RTVSPost2010PropOp51
 70
     0
102
RTVSPost2010Prop52
140
1.0
102
RTVSPost2010PropOp52
 70
     0
102
RTVSPost2010Prop53
 90
        2
102
RTVSPost2010PropOp53
 70
     1
102
RTVSPost2010Prop54
  1
strokes_ogs.tif
102
RTVSPost2010PropOp54
 70
     1
102
RTVSPost2010Prop55
280
     0
102
RTVSPost2010PropOp55
 70
     1
102
RTVSPost2010Prop56
140
1.0
102
RTVSPost2010PropOp56
 70
     1
102
RTVSPost2010Prop57
140
1.0
102
RTVSPost2010PropOp57
 70
     1
102
RTVSPropertyOp0
 70
     1
102
RTVSPropertyOp1
 70
     1
102
RTVSPropertyOp2
 70
     1
102
RTVSPropertyOp3
 70
     1
102
RTVSPropertyOp4
 70
     1
102
RTVSPropertyOp5
 70
     1
102
RTVSPropertyOp6
 70
     1
102
RTVSPropertyOp7
 70
     1
102
RTVSPropertyOp8
 70
     1
102
RTVSPropertyOp9
 70
     1
102
RTVSPropertyOp10
 70
     1
102
RTVSPropertyOp11
 70
     1
102
RTVSPropertyOp12
 70
     1
102
RTVSPropertyOp13
 70
     1
102
RTVSPropertyOp14
 70
     1
102
RTVSPropertyOp15
 70
     1
102
RTVSPropertyOp16
 70
     1
102
RTVSPropertyOp17
 70
     1
102
RTVSPropertyOp18
 70
     1
102
RTVSPropertyOp19
 70
     1
102
RTVSPropertyOp20
 70
     1
102
RTVSPropertyOp21
 70
     1
102
RTVSPropertyOp22
 70
     1
102
RTVSPropertyOp23
 70
     1
102
RTVSPropertyOp24
 70
     1
102
RTVSPropertyOp25
 70
     1
102
RTVSPropertyOp26
 70
     1
102
RTVSPropertyOp27
 70
     1
102
RTVSPropertyOp28
 70
     1
102
RTVSPropertyOp29
 70
     1
102
RTVSPropertyOp30
 70
     1
102
RTVSPropertyOp31
 70
     1
102
RTVSPropertyOp32
 70
     1
102
RTVSPropertyOp33
 70
     1
102
RTVSPropertyOp34
 70
     1
102
RTVSPropertyOp35
 70
     1
102
RTVSPropertyOp36
 70
     1
102
RTVSPropertyOp37
 70
     1
102
RTVSPropertyOp38
 70
     1
102
RTVSPropertyOp39
 70
     1
102
RTVSPropertyOp40
 70
     1
102
RTVSPropertyOp41
 70
     1
102
RTVSPropertyOp42
 70
     1
102
RTVSPropertyOp43
 70
     1
102
RTVSPropertyOp44
 70
     1
102
RTVSPropertyOp45
 70
     1
102
RTVSPropertyOp46
 70
     1
102
RTVSPropertyOp47
 70
     1
102
RTVSPropertyOp48
 70
     1
102
RTVSPropertyOp49
 70
     1
102
RTVSPropertyOp50
 70
     1
102
RTVSPropertyOp51
 70
     0
102
RTVSPropertyOp52
 70
     0
102
RTVSPropertyOp53
 70
     1
102
RTVSPropertyOp54
 70
     1
102
RTVSPropertyOp55
 70
     1
102
RTVSPropertyOp56
 70
     1
102
RTVSPropertyOp57
 70
     1
102
RTVSPropertyOp58
 70
     1
102
RTVSPropertyOp59
 70
     1
102
RTVSPropertyOp60
 70
     1
102
RTVSPropertyOp61
 70
     1
102
RTVSPropertyOp62
 70
     1
  0
XRECORD
  5
21D3
102
{ACAD_REACTORS
330
21D2
102
}
330
21D2
100
AcDbXrecord
280
     1
102
RTVSPost2010Prop28
280
     0
102
RTVSPost2010PropOp28
 70
     1
102
RTVSPost2010Prop29
280
     1
102
RTVSPost2010PropOp29
 70
     1
102
RTVSPost2010Prop30
280
     1
102
RTVSPost2010PropOp30
 70
     1
102
RTVSPost2010Prop31
280
     0
102
RTVSPost2010PropOp31
 70
     1
102
RTVSPost2010Prop32
280
     0
102
RTVSPost2010PropOp32
 70
     1
102
RTVSPost2010Prop33
280
     0
102
RTVSPost2010PropOp33
 70
     1
102
RTVSPost2010Prop34
280
     0
102
RTVSPost2010PropOp34
 70
     1
102
RTVSPost2010Prop35
280
     0
102
RTVSPost2010PropOp35
 70
     1
102
RTVSPost2010Prop36
280
     0
102
RTVSPost2010PropOp36
 70
     1
102
RTVSPost2010Prop37
 90
       50
102
RTVSPost2010PropOp37
 70
     1
102
RTVSPost2010Prop38
140
0.0
102
RTVSPost2010PropOp38
 70
     1
102
RTVSPost2010Prop39
140
1.0
102
RTVSPost2010PropOp39
 70
     1
102
RTVSPost2010Prop40
 90
        0
102
RTVSPost2010PropOp40
 70
     1
102
RTVSPost2010Prop41ColorIndex
 90
       18
102
RTVSPost2010Prop41ColorRGB
 90
        0
102
RTVSPost2010PropOp41
 70
     1
102
RTVSPost2010Prop42
 90
       50
102
RTVSPost2010PropOp42
 70
     1
102
RTVSPost2010Prop43
 90
        3
102
RTVSPost2010PropOp43
 70
     1
102
RTVSPost2010Prop44ColorIndex
 90
        5
102
RTVSPost2010Prop44ColorRGB
 90
      255
102
RTVSPost2010PropOp44
 70
     1
102
RTVSPost2010Prop45
280
     0
102
RTVSPost2010PropOp45
 70
     1
102
RTVSPost2010Prop46
 90
       50
102
RTVSPost2010PropOp46
 70
     1
102
RTVSPost2010Prop47
 90
       50
102
RTVSPost2010PropOp47
 70
     1
102
RTVSPost2010Prop48
 90
       50
102
RTVSPost2010PropOp48
 70
     1
102
RTVSPost2010Prop49
280
     0
102
RTVSPost2010PropOp49
 70
     1
102
RTVSPost2010Prop50
 90
       50
102
RTVSPost2010PropOp50
 70
     1
102
RTVSPost2010Prop51ColorIndex
 90
      256
102
RTVSPost2010Prop51ColorRGB
 90
-16777216
102
RTVSPost2010PropOp51
 70
     0
102
RTVSPost2010Prop52
140
1.0
102
RTVSPost2010PropOp52
 70
     0
102
RTVSPost2010Prop53
 90
        2
102
RTVSPost2010PropOp53
 70
     1
102
RTVSPost2010Prop54
  1
strokes_ogs.tif
102
RTVSPost2010PropOp54
 70
     1
102
RTVSPost2010Prop55
280
     0
102
RTVSPost2010PropOp55
 70
     1
102
RTVSPost2010Prop56
140
1.0
102
RTVSPost2010PropOp56
 70
     1
102
RTVSPost2010Prop57
140
1.0
102
RTVSPost2010PropOp57
 70
     1
102
RTVSPropertyOp0
 70
     1
102
RTVSPropertyOp1
 70
     1
102
RTVSPropertyOp2
 70
     1
102
RTVSPropertyOp3
 70
     1
102
RTVSPropertyOp4
 70
     1
102
RTVSPropertyOp5
 70
     1
102
RTVSPropertyOp6
 70
     1
102
RTVSPropertyOp7
 70
     1
102
RTVSPropertyOp8
 70
     1
102
RTVSPropertyOp9
 70
     1
102
RTVSPropertyOp10
 70
     1
102
RTVSPropertyOp11
 70
     1
102
RTVSPropertyOp12
 70
     1
102
RTVSPropertyOp13
 70
     1
102
RTVSPropertyOp14
 70
     1
102
RTVSPropertyOp15
 70
     1
102
RTVSPropertyOp16
 70
     1
102
RTVSPropertyOp17
 70
     1
102
RTVSPropertyOp18
 70
     1
102
RTVSPropertyOp19
 70
     1
102
RTVSPropertyOp20
 70
     1
102
RTVSPropertyOp21
 70
     1
102
RTVSPropertyOp22
 70
     1
102
RTVSPropertyOp23
 70
     1
102
RTVSPropertyOp24
 70
     1
102
RTVSPropertyOp25
 70
     1
102
RTVSPropertyOp26
 70
     1
102
RTVSPropertyOp27
 70
     1
102
RTVSPropertyOp28
 70
     1
102
RTVSPropertyOp29
 70
     1
102
RTVSPropertyOp30
 70
     1
102
RTVSPropertyOp31
 70
     1
102
RTVSPropertyOp32
 70
     1
102
RTVSPropertyOp33
 70
     1
102
RTVSPropertyOp34
 70
     1
102
RTVSPropertyOp35
 70
     1
102
RTVSPropertyOp36
 70
     1
102
RTVSPropertyOp37
 70
     1
102
RTVSPropertyOp38
 70
     1
102
RTVSPropertyOp39
 70
     1
102
RTVSPropertyOp40
 70
     1
102
RTVSPropertyOp41
 70
     1
102
RTVSPropertyOp42
 70
     1
102
RTVSPropertyOp43
 70
     1
102
RTVSPropertyOp44
 70
     1
102
RTVSPropertyOp45
 70
     1
102
RTVSPropertyOp46
 70
     1
102
RTVSPropertyOp47
 70
     1
102
RTVSPropertyOp48
 70
     1
102
RTVSPropertyOp49
 70
     1
102
RTVSPropertyOp50
 70
     1
102
RTVSPropertyOp51
 70
     0
102
RTVSPropertyOp52
 70
     0
102
RTVSPropertyOp53
 70
     1
102
RTVSPropertyOp54
 70
     1
102
RTVSPropertyOp55
 70
     1
102
RTVSPropertyOp56
 70
     1
102
RTVSPropertyOp57
 70
     1
102
RTVSPropertyOp58
 70
     1
102
RTVSPropertyOp59
 70
     1
102
RTVSPropertyOp60
 70
     1
102
RTVSPropertyOp61
 70
     1
102
RTVSPropertyOp62
 70
     1
  0
XRECORD
  5
21EB
102
{ACAD_REACTORS
330
21EA
102
}
330
21EA
100
AcDbXrecord
280
     1
102
RTVSPost2010Prop28
280
     0
102
RTVSPost2010PropOp28
 70
     1
102
RTVSPost2010Prop29
280
     1
102
RTVSPost2010PropOp29
 70
     1
102
RTVSPost2010Prop30
280
     1
102
RTVSPost2010PropOp30
 70
     1
102
RTVSPost2010Prop31
280
     0
102
RTVSPost2010PropOp31
 70
     1
102
RTVSPost2010Prop32
280
     0
102
RTVSPost2010PropOp32
 70
     1
102
RTVSPost2010Prop33
280
     0
102
RTVSPost2010PropOp33
 70
     1
102
RTVSPost2010Prop34
280
     0
102
RTVSPost2010PropOp34
 70
     1
102
RTVSPost2010Prop35
280
     0
102
RTVSPost2010PropOp35
 70
     1
102
RTVSPost2010Prop36
280
     0
102
RTVSPost2010PropOp36
 70
     1
102
RTVSPost2010Prop37
 90
       50
102
RTVSPost2010PropOp37
 70
     1
102
RTVSPost2010Prop38
140
0.0
102
RTVSPost2010PropOp38
 70
     1
102
RTVSPost2010Prop39
140
1.0
102
RTVSPost2010PropOp39
 70
     1
102
RTVSPost2010Prop40
 90
        0
102
RTVSPost2010PropOp40
 70
     1
102
RTVSPost2010Prop41ColorIndex
 90
       18
102
RTVSPost2010Prop41ColorRGB
 90
        0
102
RTVSPost2010PropOp41
 70
     1
102
RTVSPost2010Prop42
 90
       50
102
RTVSPost2010PropOp42
 70
     1
102
RTVSPost2010Prop43
 90
        3
102
RTVSPost2010PropOp43
 70
     1
102
RTVSPost2010Prop44ColorIndex
 90
        5
102
RTVSPost2010Prop44ColorRGB
 90
      255
102
RTVSPost2010PropOp44
 70
     1
102
RTVSPost2010Prop45
280
     0
102
RTVSPost2010PropOp45
 70
     1
102
RTVSPost2010Prop46
 90
       50
102
RTVSPost2010PropOp46
 70
     1
102
RTVSPost2010Prop47
 90
       50
102
RTVSPost2010PropOp47
 70
     1
102
RTVSPost2010Prop48
 90
       50
102
RTVSPost2010PropOp48
 70
     1
102
RTVSPost2010Prop49
280
     0
102
RTVSPost2010PropOp49
 70
     1
102
RTVSPost2010Prop50
 90
       50
102
RTVSPost2010PropOp50
 70
     1
102
RTVSPost2010Prop51ColorIndex
 90
      256
102
RTVSPost2010Prop51ColorRGB
 90
-16777216
102
RTVSPost2010PropOp51
 70
     0
102
RTVSPost2010Prop52
140
1.0
102
RTVSPost2010PropOp52
 70
     0
102
RTVSPost2010Prop53
 90
        2
102
RTVSPost2010PropOp53
 70
     1
102
RTVSPost2010Prop54
  1
strokes_ogs.tif
102
RTVSPost2010PropOp54
 70
     1
102
RTVSPost2010Prop55
280
     0
102
RTVSPost2010PropOp55
 70
     1
102
RTVSPost2010Prop56
140
1.0
102
RTVSPost2010PropOp56
 70
     1
102
RTVSPost2010Prop57
140
1.0
102
RTVSPost2010PropOp57
 70
     1
102
RTVSPropertyOp0
 70
     1
102
RTVSPropertyOp1
 70
     1
102
RTVSPropertyOp2
 70
     1
102
RTVSPropertyOp3
 70
     1
102
RTVSPropertyOp4
 70
     1
102
RTVSPropertyOp5
 70
     1
102
RTVSPropertyOp6
 70
     1
102
RTVSPropertyOp7
 70
     1
102
RTVSPropertyOp8
 70
     1
102
RTVSPropertyOp9
 70
     1
102
RTVSPropertyOp10
 70
     1
102
RTVSPropertyOp11
 70
     1
102
RTVSPropertyOp12
 70
     1
102
RTVSPropertyOp13
 70
     1
102
RTVSPropertyOp14
 70
     1
102
RTVSPropertyOp15
 70
     1
102
RTVSPropertyOp16
 70
     1
102
RTVSPropertyOp17
 70
     1
102
RTVSPropertyOp18
 70
     1
102
RTVSPropertyOp19
 70
     1
102
RTVSPropertyOp20
 70
     1
102
RTVSPropertyOp21
 70
     1
102
RTVSPropertyOp22
 70
     1
102
RTVSPropertyOp23
 70
     1
102
RTVSPropertyOp24
 70
     1
102
RTVSPropertyOp25
 70
     1
102
RTVSPropertyOp26
 70
     1
102
RTVSPropertyOp27
 70
     1
102
RTVSPropertyOp28
 70
     1
102
RTVSPropertyOp29
 70
     1
102
RTVSPropertyOp30
 70
     1
102
RTVSPropertyOp31
 70
     1
102
RTVSPropertyOp32
 70
     1
102
RTVSPropertyOp33
 70
     1
102
RTVSPropertyOp34
 70
     1
102
RTVSPropertyOp35
 70
     1
102
RTVSPropertyOp36
 70
     1
102
RTVSPropertyOp37
 70
     1
102
RTVSPropertyOp38
 70
     1
102
RTVSPropertyOp39
 70
     1
102
RTVSPropertyOp40
 70
     1
102
RTVSPropertyOp41
 70
     1
102
RTVSPropertyOp42
 70
     1
102
RTVSPropertyOp43
 70
     1
102
RTVSPropertyOp44
 70
     1
102
RTVSPropertyOp45
 70
     1
102
RTVSPropertyOp46
 70
     1
102
RTVSPropertyOp47
 70
     1
102
RTVSPropertyOp48
 70
     1
102
RTVSPropertyOp49
 70
     1
102
RTVSPropertyOp50
 70
     1
102
RTVSPropertyOp51
 70
     0
102
RTVSPropertyOp52
 70
     0
102
RTVSPropertyOp53
 70
     1
102
RTVSPropertyOp54
 70
     1
102
RTVSPropertyOp55
 70
     1
102
RTVSPropertyOp56
 70
     1
102
RTVSPropertyOp57
 70
     1
102
RTVSPropertyOp58
 70
     1
102
RTVSPropertyOp59
 70
     1
102
RTVSPropertyOp60
 70
     1
102
RTVSPropertyOp61
 70
     1
102
RTVSPropertyOp62
 70
     1
  0
XRECORD
  5
1F53
102
{ACAD_REACTORS
330
1F52
102
}
330
1F52
100
AcDbXrecord
280
     1
330
1D3E
  0
ACDBASSOCARRAYACTIONBODY
  5
1F96
330
1F95
100
AcDbAssocActionBody
 90
        1
100
AcDbAssocParamBasedActionBody
 90
        0
 90
        0
 90
        3
360
1F97
360
1F98
360
1F9C
 90
        0
 90
        9
 90
        0
  1
AlignItems
 90
        0
 90
        1
 90
        0
330
0
330
0
 90
        0
  1
AxesAngle
 90
        2
 90
        1
 40
1.570796326794896
330
0
330
0
 90
        0
  1
ItemSpacing
 90
        1
 90
        1
 40
30.0
330
0
330
0
 90
        0
  1
Items
 90
        0
 90
        1
 90
       31
330
0
330
0
 90
        0
  1
LevelSpacing
 90
        1
 90
        1
 40
1.0
330
0
330
0
 90
        0
  1
Levels
 90
        0
 90
        1
 90
        1
330
0
330
0
 90
        0
  1
RowElevation
 90
        1
 90
        1
 40
0.0
330
0
330
0
 90
        0
  1
RowSpacing
 90
        1
 90
        1
 40
48.0
330
0
330
0
 90
        0
  1
Rows
 90
        0
 90
        1
 90
        1
330
0
330
0
100
AcDbAssocArrayActionBody
 90
        1
  1
AcDbAssocArrayRectangularParameters
 90
        0
 90
       31
  1
AcDbAssocArrayItem
100
AcDbAssocArrayItem
 90
        0
 90
        0
 90
        0
 90
        0
 90
        8
 11
0.0
 21
0.0
 31
0.0
330
1F9E
100
AcDbAssocArrayItem
 90
        0
 90
        1
 90
        0
 90
        0
 90
        8
 11
30.0
 21
0.0
 31
0.0
330
1F9F
100
AcDbAssocArrayItem
 90
        0
 90
        2
 90
        0
 90
        0
 90
        8
 11
60.0
 21
0.0
 31
0.0
330
1FA0
100
AcDbAssocArrayItem
 90
        0
 90
        3
 90
        0
 90
        0
 90
        8
 11
90.0
 21
0.0
 31
0.0
330
1FA1
100
AcDbAssocArrayItem
 90
        0
 90
        4
 90
        0
 90
        0
 90
        8
 11
120.0
 21
0.0
 31
0.0
330
1FA2
100
AcDbAssocArrayItem
 90
        0
 90
        5
 90
        0
 90
        0
 90
        8
 11
150.0
 21
0.0
 31
0.0
330
1FA3
100
AcDbAssocArrayItem
 90
        0
 90
        6
 90
        0
 90
        0
 90
        8
 11
180.0
 21
0.0
 31
0.0
330
1FA4
100
AcDbAssocArrayItem
 90
        0
 90
        7
 90
        0
 90
        0
 90
        8
 11
210.0
 21
0.0
 31
0.0
330
1FA5
100
AcDbAssocArrayItem
 90
        0
 90
        8
 90
        0
 90
        0
 90
        8
 11
240.0
 21
0.0
 31
0.0
330
1FA6
100
AcDbAssocArrayItem
 90
        0
 90
        9
 90
        0
 90
        0
 90
        8
 11
270.0
 21
0.0
 31
0.0
330
1FA7
100
AcDbAssocArrayItem
 90
        0
 90
       10
 90
        0
 90
        0
 90
        8
 11
300.0
 21
0.0
 31
0.0
330
1FA8
100
AcDbAssocArrayItem
 90
        0
 90
       11
 90
        0
 90
        0
 90
        8
 11
330.0
 21
0.0
 31
0.0
330
1FA9
100
AcDbAssocArrayItem
 90
        0
 90
       12
 90
        0
 90
        0
 90
        8
 11
360.0
 21
0.0
 31
0.0
330
1FAA
100
AcDbAssocArrayItem
 90
        0
 90
       13
 90
        0
 90
        0
 90
        8
 11
390.0
 21
0.0
 31
0.0
330
1FAB
100
AcDbAssocArrayItem
 90
        0
 90
       14
 90
        0
 90
        0
 90
        8
 11
420.0
 21
0.0
 31
0.0
330
1FAC
100
AcDbAssocArrayItem
 90
        0
 90
       15
 90
        0
 90
        0
 90
        8
 11
450.0
 21
0.0
 31
0.0
330
1FAD
100
AcDbAssocArrayItem
 90
        0
 90
       16
 90
        0
 90
        0
 90
        8
 11
480.0
 21
0.0
 31
0.0
330
1FAE
100
AcDbAssocArrayItem
 90
        0
 90
       17
 90
        0
 90
        0
 90
        8
 11
510.0
 21
0.0
 31
0.0
330
1FAF
100
AcDbAssocArrayItem
 90
        0
 90
       18
 90
        0
 90
        0
 90
        8
 11
540.0
 21
0.0
 31
0.0
330
1FB0
100
AcDbAssocArrayItem
 90
        0
 90
       19
 90
        0
 90
        0
 90
        8
 11
570.0
 21
0.0
 31
0.0
330
1FB1
100
AcDbAssocArrayItem
 90
        0
 90
       20
 90
        0
 90
        0
 90
        8
 11
600.0
 21
0.0
 31
0.0
330
1FB2
100
AcDbAssocArrayItem
 90
        0
 90
       21
 90
        0
 90
        0
 90
        8
 11
630.0
 21
0.0
 31
0.0
330
1FB3
100
AcDbAssocArrayItem
 90
        0
 90
       22
 90
        0
 90
        0
 90
        8
 11
660.0
 21
0.0
 31
0.0
330
1FB4
100
AcDbAssocArrayItem
 90
        0
 90
       23
 90
        0
 90
        0
 90
        8
 11
690.0
 21
0.0
 31
0.0
330
1FB5
100
AcDbAssocArrayItem
 90
        0
 90
       24
 90
        0
 90
        0
 90
        8
 11
720.0
 21
0.0
 31
0.0
330
1FB6
100
AcDbAssocArrayItem
 90
        0
 90
       25
 90
        0
 90
        0
 90
        8
 11
750.0
 21
0.0
 31
0.0
330
1FB7
100
AcDbAssocArrayItem
 90
        0
 90
       26
 90
        0
 90
        0
 90
        8
 11
780.0
 21
0.0
 31
0.0
330
1FB8
100
AcDbAssocArrayItem
 90
        0
 90
       27
 90
        0
 90
        0
 90
        8
 11
810.0
 21
0.0
 31
0.0
330
1FB9
100
AcDbAssocArrayItem
 90
        0
 90
       28
 90
        0
 90
        0
 90
        8
 11
840.0
 21
0.0
 31
0.0
330
1FBA
100
AcDbAssocArrayItem
 90
        0
 90
       29
 90
        0
 90
        0
 90
        8
 11
870.0
 21
0.0
 31
0.0
330
1FBB
100
AcDbAssocArrayItem
 90
        0
 90
       30
 90
        0
 90
        0
 90
        8
 11
900.0
 21
0.0
 31
0.0
330
2118
 40
1.0
 40
0.0
 40
0.0
 40
469.2375226261565
 40
0.0
 40
1.0
 40
0.0
 40
635.8669913043781
 40
0.0
 40
0.0
 40
1.0
 40
0.0
 40
0.0
 40
0.0
 40
0.0
 40
1.0
  0
ACDBASSOCDEPENDENCY
  5
1F99
330
1F95
100
AcDbAssocDependency
 90
        2
 90
        1
290
     0
290
     1
290
     1
290
     1
 90
        0
330
1F64
290
     0
330
0
330
0
360
0
 90
        1
  0
ACDBASSOCDEPENDENCY
  5
1F9A
330
1F95
100
AcDbAssocDependency
 90
        2
 90
        1
290
     1
290
     0
290
     1
290
     1
 90
        0
330
1F61
290
     0
330
0
330
0
360
0
 90
        2
  0
ACDBASSOCDEPENDENCY
  5
1F9B
330
1F95
100
AcDbAssocDependency
 90
        2
 90
        0
290
     1
290
     1
290
     1
290
     1
 90
-2147483648
330
1F67
290
     0
330
0
330
0
360
0
 90
        3
  0
ACDBASSOCARRAYACTIONBODY
  5
208E
330
208D
100
AcDbAssocActionBody
 90
        1
100
AcDbAssocParamBasedActionBody
 90
        0
 90
        0
 90
        3
360
208F
360
2090
360
2094
 90
        0
 90
        9
 90
        0
  1
AlignItems
 90
        0
 90
        1
 90
        0
330
0
330
0
 90
        0
  1
AxesAngle
 90
        2
 90
        1
 40
1.570796326794896
330
0
330
0
 90
        0
  1
ItemSpacing
 90
        1
 90
        1
 40
30.0
330
0
330
0
 90
        0
  1
Items
 90
        0
 90
        1
 90
       32
330
0
330
0
 90
        0
  1
LevelSpacing
 90
        1
 90
        1
 40
1.0
330
0
330
0
 90
        0
  1
Levels
 90
        0
 90
        1
 90
        1
330
0
330
0
 90
        0
  1
RowElevation
 90
        1
 90
        1
 40
0.0
330
0
330
0
 90
        0
  1
RowSpacing
 90
        1
 90
        1
 40
504.0
330
0
330
0
 90
        0
  1
Rows
 90
        0
 90
        1
 90
        1
330
0
330
0
100
AcDbAssocArrayActionBody
 90
        1
  1
AcDbAssocArrayRectangularParameters
 90
        0
 90
       32
  1
AcDbAssocArrayItem
100
AcDbAssocArrayItem
 90
        0
 90
        0
 90
        0
 90
        0
 90
        8
 11
0.0
 21
0.0
 31
0.0
330
2096
100
AcDbAssocArrayItem
 90
        0
 90
        1
 90
        0
 90
        0
 90
        8
 11
30.0
 21
0.0
 31
0.0
330
2097
100
AcDbAssocArrayItem
 90
        0
 90
        2
 90
        0
 90
        0
 90
        8
 11
60.0
 21
0.0
 31
0.0
330
2098
100
AcDbAssocArrayItem
 90
        0
 90
        3
 90
        0
 90
        0
 90
        8
 11
90.0
 21
0.0
 31
0.0
330
2099
100
AcDbAssocArrayItem
 90
        0
 90
        4
 90
        0
 90
        0
 90
        8
 11
120.0
 21
0.0
 31
0.0
330
209A
100
AcDbAssocArrayItem
 90
        0
 90
        5
 90
        0
 90
        0
 90
        8
 11
150.0
 21
0.0
 31
0.0
330
209B
100
AcDbAssocArrayItem
 90
        0
 90
        6
 90
        0
 90
        0
 90
        8
 11
180.0
 21
0.0
 31
0.0
330
209C
100
AcDbAssocArrayItem
 90
        0
 90
        7
 90
        0
 90
        0
 90
        8
 11
210.0
 21
0.0
 31
0.0
330
209D
100
AcDbAssocArrayItem
 90
        0
 90
        8
 90
        0
 90
        0
 90
        8
 11
240.0
 21
0.0
 31
0.0
330
209E
100
AcDbAssocArrayItem
 90
        0
 90
        9
 90
        0
 90
        0
 90
        8
 11
270.0
 21
0.0
 31
0.0
330
209F
100
AcDbAssocArrayItem
 90
        0
 90
       10
 90
        0
 90
        0
 90
        8
 11
300.0
 21
0.0
 31
0.0
330
20A0
100
AcDbAssocArrayItem
 90
        0
 90
       11
 90
        0
 90
        0
 90
        8
 11
330.0
 21
0.0
 31
0.0
330
20A1
100
AcDbAssocArrayItem
 90
        0
 90
       12
 90
        0
 90
        0
 90
        8
 11
360.0
 21
0.0
 31
0.0
330
20A2
100
AcDbAssocArrayItem
 90
        0
 90
       13
 90
        0
 90
        0
 90
        8
 11
390.0
 21
0.0
 31
0.0
330
20A3
100
AcDbAssocArrayItem
 90
        0
 90
       14
 90
        0
 90
        0
 90
        8
 11
420.0
 21
0.0
 31
0.0
330
20A4
100
AcDbAssocArrayItem
 90
        0
 90
       15
 90
        0
 90
        0
 90
        8
 11
450.0
 21
0.0
 31
0.0
330
20A5
100
AcDbAssocArrayItem
 90
        0
 90
       16
 90
        0
 90
        0
 90
        8
 11
480.0
 21
0.0
 31
0.0
330
20A6
100
AcDbAssocArrayItem
 90
        0
 90
       17
 90
        0
 90
        0
 90
        8
 11
510.0
 21
0.0
 31
0.0
330
20A7
100
AcDbAssocArrayItem
 90
        0
 90
       18
 90
        0
 90
        0
 90
        8
 11
540.0
 21
0.0
 31
0.0
330
20A8
100
AcDbAssocArrayItem
 90
        0
 90
       19
 90
        0
 90
        0
 90
        8
 11
570.0
 21
0.0
 31
0.0
330
20A9
100
AcDbAssocArrayItem
 90
        0
 90
       20
 90
        0
 90
        0
 90
        8
 11
600.0
 21
0.0
 31
0.0
330
20AA
100
AcDbAssocArrayItem
 90
        0
 90
       21
 90
        0
 90
        0
 90
        8
 11
630.0
 21
0.0
 31
0.0
330
20AB
100
AcDbAssocArrayItem
 90
        0
 90
       22
 90
        0
 90
        0
 90
        8
 11
660.0
 21
0.0
 31
0.0
330
20AC
100
AcDbAssocArrayItem
 90
        0
 90
       23
 90
        0
 90
        0
 90
        8
 11
690.0
 21
0.0
 31
0.0
330
20AD
100
AcDbAssocArrayItem
 90
        0
 90
       24
 90
        0
 90
        0
 90
        8
 11
720.0
 21
0.0
 31
0.0
330
20AE
100
AcDbAssocArrayItem
 90
        0
 90
       25
 90
        0
 90
        0
 90
        8
 11
750.0
 21
0.0
 31
0.0
330
20AF
100
AcDbAssocArrayItem
 90
        0
 90
       26
 90
        0
 90
        0
 90
        8
 11
780.0
 21
0.0
 31
0.0
330
20B0
100
AcDbAssocArrayItem
 90
        0
 90
       27
 90
        0
 90
        0
 90
        8
 11
810.0
 21
0.0
 31
0.0
330
20B1
100
AcDbAssocArrayItem
 90
        0
 90
       28
 90
        0
 90
        0
 90
        8
 11
840.0
 21
0.0
 31
0.0
330
20B2
100
AcDbAssocArrayItem
 90
        0
 90
       29
 90
        0
 90
        0
 90
        8
 11
870.0
 21
0.0
 31
0.0
330
20B3
100
AcDbAssocArrayItem
 90
        0
 90
       30
 90
        0
 90
        0
 90
        8
 11
900.0
 21
0.0
 31
0.0
330
20B4
100
AcDbAssocArrayItem
 90
        0
 90
       31
 90
        0
 90
        0
 90
        8
 11
930.0
 21
0.0
 31
0.0
330
20B5
 40
1.0
 40
0.0
 40
0.0
 40
436.7375226261565
 40
0.0
 40
1.0
 40
0.0
 40
1398.257530061414
 40
0.0
 40
0.0
 40
1.0
 40
0.0
 40
0.0
 40
0.0
 40
0.0
 40
1.0
  0
ACDBASSOCDEPENDENCY
  5
2091
330
208D
100
AcDbAssocDependency
 90
        2
 90
        1
290
     0
290
     1
290
     1
290
     1
 90
        0
330
204B
290
     0
330
0
330
0
360
0
 90
        1
  0
ACDBASSOCDEPENDENCY
  5
2092
330
208D
100
AcDbAssocDependency
 90
        2
 90
        1
290
     1
290
     0
290
     1
290
     1
 90
        0
330
2048
290
     0
330
0
330
0
360
0
 90
        2
  0
ACDBASSOCDEPENDENCY
  5
2093
330
208D
100
AcDbAssocDependency
 90
        2
 90
        0
290
     1
290
     1
290
     1
290
     1
 90
-2147483648
330
204E
290
     0
330
0
330
0
360
0
 90
        3
  0
ACDBASSOCVERTEXACTIONPARAM
  5
1F97
330
1F96
100
AcDbAssocActionParam
 90
        0
  1
BaseNormal
100
AcDbAssocSingleDependencyActionParam
 90
        0
330
0
100
AcDbAssocVertexActionParam
 90
        0
 10
0.0
 20
0.0
 30
1.0
  0
ACDBASSOCVERTEXACTIONPARAM
  5
1F98
330
1F96
100
AcDbAssocActionParam
 90
        0
  1
Origin
100
AcDbAssocSingleDependencyActionParam
 90
        0
330
0
100
AcDbAssocVertexActionParam
 90
        0
 10
0.0
 20
0.0
 30
0.0
  0
ACDBASSOCVERTEXACTIONPARAM
  5
1F9C
330
1F96
100
AcDbAssocActionParam
 90
        0
  1
basePoint
100
AcDbAssocSingleDependencyActionParam
 90
        0
330
0
100
AcDbAssocVertexActionParam
 90
        0
 10
0.0
 20
0.0
 30
0.0
  0
ACDBASSOCVERTEXACTIONPARAM
  5
208F
330
208E
100
AcDbAssocActionParam
 90
        0
  1
BaseNormal
100
AcDbAssocSingleDependencyActionParam
 90
        0
330
0
100
AcDbAssocVertexActionParam
 90
        0
 10
0.0
 20
0.0
 30
1.0
  0
ACDBASSOCVERTEXACTIONPARAM
  5
2090
330
208E
100
AcDbAssocActionParam
 90
        0
  1
Origin
100
AcDbAssocSingleDependencyActionParam
 90
        0
330
0
100
AcDbAssocVertexActionParam
 90
        0
 10
0.0
 20
0.0
 30
0.0
  0
ACDBASSOCVERTEXACTIONPARAM
  5
2094
330
208E
100
AcDbAssocActionParam
 90
        0
  1
basePoint
100
AcDbAssocSingleDependencyActionParam
 90
        0
330
0
100
AcDbAssocVertexActionParam
 90
        0
 10
0.0
 20
0.0
 30
0.0
  0
ENDSEC
  0
EOF
