  0
SECTION
  2
HEADER
  9
$ACADVER
  1
AC1015
  9
$ACADMAINTVER
 70
    20
  9
$DWGCODEPAGE
  3
ANSI_932
  9
$INSBASE
 10
0.0
 20
0.0
 30
0.0
  9
$EXTMIN
 10
-0.0851226300492272
 20
-0.0602147999970839
 30
-0.0015258207003583
  9
$EXTMAX
 10
2789.596296642794
 20
1973.329336484388
 30
0.0000000349246037
  9
$LIMMIN
 10
0.0
 20
0.0
  9
$LIMMAX
 10
297.0
 20
209.0
  9
$ORTHOMODE
 70
     1
  9
$REGENMODE
 70
     1
  9
$FILLMODE
 70
     1
  9
$QTEXTMODE
 70
     0
  9
$MIRRTEXT
 70
     1
  9
$LTSCALE
 40
1.0
  9
$ATTMODE
 70
     1
  9
$TEXTSIZE
 40
2.5
  9
$TRACEWID
 40
1.0
  9
$TEXTSTYLE
  7
Standard
  9
$CLAYER
  8
本体
  9
$CELTYPE
  6
ByLayer
  9
$CECOLOR
 62
   256
  9
$CELTSCALE
 40
3.0
  9
$DISPSILH
 70
     0
  9
$DIMSCALE
 40
10.0
  9
$DIMASZ
 40
1.5
  9
$DIMEXO
 40
2.0
  9
$DIMDLI
 40
3.75
  9
$DIMRND
 40
0.0
  9
$DIMDLE
 40
0.0
  9
$DIMEXE
 40
1.5
  9
$DIMTP
 40
0.0
  9
$DIMTM
 40
0.0
  9
$DIMTXT
 40
3.0
  9
$DIMCEN
 40
2.5
  9
$DIMTSZ
 40
0.0
  9
$DIMTOL
 70
     0
  9
$DIMLIM
 70
     0
  9
$DIMTIH
 70
     0
  9
$DIMTOH
 70
     0
  9
$DIMSE1
 70
     0
  9
$DIMSE2
 70
     0
  9
$DIMTAD
 70
     1
  9
$DIMZIN
 70
     8
  9
$DIMBLK
  1
Open30
  9
$DIMASO
 70
     1
  9
$DIMSHO
 70
     1
  9
$DIMPOST
  1

  9
$DIMAPOST
  1

  9
$DIMALT
 70
     0
  9
$DIMALTD
 70
     3
  9
$DIMALTF
 40
0.03937007874016
  9
$DIMLFAC
 40
1.0
  9
$DIMTOFL
 70
     1
  9
$DIMTVP
 40
0.0
  9
$DIMTIX
 70
     0
  9
$DIMSOXD
 70
     0
  9
$DIMSAH
 70
     0
  9
$DIMBLK1
  1

  9
$DIMBLK2
  1

  9
$DIMSTYLE
  2
ISO-25
  9
$DIMCLRD
 70
     0
  9
$DIMCLRE
 70
     0
  9
$DIMCLRT
 70
     0
  9
$DIMTFAC
 40
1.0
  9
$DIMGAP
 40
0.5
  9
$DIMJUST
 70
     0
  9
$DIMSD1
 70
     0
  9
$DIMSD2
 70
     0
  9
$DIMTOLJ
 70
     0
  9
$DIMTZIN
 70
     8
  9
$DIMALTZ
 70
     0
  9
$DIMALTTZ
 70
     0
  9
$DIMUPT
 70
     0
  9
$DIMDEC
 70
     2
  9
$DIMTDEC
 70
     2
  9
$DIMALTU
 70
     2
  9
$DIMALTTD
 70
     3
  9
$DIMTXSTY
  7
Standard
  9
$DIMAUNIT
 70
     0
  9
$DIMADEC
 70
     0
  9
$DIMALTRND
 40
0.0
  9
$DIMAZIN
 70
     0
  9
$DIMDSEP
 70
    46
  9
$DIMATFIT
 70
     0
  9
$DIMFRAC
 70
     0
  9
$DIMLDRBLK
  1
Open30
  9
$DIMLUNIT
 70
     2
  9
$DIMLWD
 70
    -2
  9
$DIMLWE
 70
    -2
  9
$DIMTMOVE
 70
     0
  9
$LUNITS
 70
     2
  9
$LUPREC
 70
     4
  9
$SKETCHINC
 40
1.0
  9
$FILLETRAD
 40
9.9
  9
$AUNITS
 70
     0
  9
$AUPREC
 70
     0
  9
$MENU
  1
.
  9
$ELEVATION
 40
0.0
  9
$PELEVATION
 40
0.0
  9
$THICKNESS
 40
0.0
  9
$LIMCHECK
 70
     0
  9
$CHAMFERA
 40
10.0
  9
$CHAMFERB
 40
10.0
  9
$CHAMFERC
 40
20.0
  9
$CHAMFERD
 40
0.0
  9
$SKPOLY
 70
     0
  9
$TDCREATE
 40
2453510.558637211
  9
$TDUCREATE
 40
2453510.183637211
  9
$TDUPDATE
 40
2457700.634833183
  9
$TDUUPDATE
 40
2457700.259833183
  9
$TDINDWG
 40
0.0795417477
  9
$TDUSRTIMER
 40
0.0795417477
  9
$USRTIMER
 70
     1
  9
$ANGBASE
 50
0.0
  9
$ANGDIR
 70
     0
  9
$PDMODE
 70
     0
  9
$PDSIZE
 40
0.0
  9
$PLINEWID
 40
0.0
  9
$SPLFRAME
 70
     0
  9
$SPLINETYPE
 70
     6
  9
$SPLINESEGS
 70
     8
  9
$HANDSEED
  5
2D4E
  9
$SURFTAB1
 70
     6
  9
$SURFTAB2
 70
     6
  9
$SURFTYPE
 70
     6
  9
$SURFU
 70
     6
  9
$SURFV
 70
     6
  9
$UCSBASE
  2

  9
$UCSNAME
  2

  9
$UCSORG
 10
0.0
 20
0.0
 30
0.0
  9
$UCSXDIR
 10
1.0
 20
0.0
 30
0.0
  9
$UCSYDIR
 10
0.0
 20
1.0
 30
0.0
  9
$UCSORTHOREF
  2

  9
$UCSORTHOVIEW
 70
     0
  9
$UCSORGTOP
 10
0.0
 20
0.0
 30
0.0
  9
$UCSORGBOTTOM
 10
0.0
 20
0.0
 30
0.0
  9
$UCSORGLEFT
 10
0.0
 20
0.0
 30
0.0
  9
$UCSORGRIGHT
 10
0.0
 20
0.0
 30
0.0
  9
$UCSORGFRONT
 10
0.0
 20
0.0
 30
0.0
  9
$UCSORGBACK
 10
0.0
 20
0.0
 30
0.0
  9
$PUCSBASE
  2

  9
$PUCSNAME
  2

  9
$PUCSORG
 10
0.0
 20
0.0
 30
0.0
  9
$PUCSXDIR
 10
1.0
 20
0.0
 30
0.0
  9
$PUCSYDIR
 10
0.0
 20
1.0
 30
0.0
  9
$PUCSORTHOREF
  2

  9
$PUCSORTHOVIEW
 70
     0
  9
$PUCSORGTOP
 10
0.0
 20
0.0
 30
0.0
  9
$PUCSORGBOTTOM
 10
0.0
 20
0.0
 30
0.0
  9
$PUCSORGLEFT
 10
0.0
 20
0.0
 30
0.0
  9
$PUCSORGRIGHT
 10
0.0
 20
0.0
 30
0.0
  9
$PUCSORGFRONT
 10
0.0
 20
0.0
 30
0.0
  9
$PUCSORGBACK
 10
0.0
 20
0.0
 30
0.0
  9
$USERI1
 70
     0
  9
$USERI2
 70
     0
  9
$USERI3
 70
     0
  9
$USERI4
 70
     0
  9
$USERI5
 70
     0
  9
$USERR1
 40
0.0
  9
$USERR2
 40
0.0
  9
$USERR3
 40
0.0
  9
$USERR4
 40
0.0
  9
$USERR5
 40
0.0
  9
$WORLDVIEW
 70
     1
  9
$SHADEDGE
 70
     3
  9
$SHADEDIF
 70
    70
  9
$TILEMODE
 70
     1
  9
$MAXACTVP
 70
    48
  9
$PINSBASE
 10
0.0
 20
0.0
 30
0.0
  9
$PLIMCHECK
 70
     0
  9
$PEXTMIN
 10
0.0
 20
0.0
 30
0.0
  9
$PEXTMAX
 10
0.0
 20
0.0
 30
0.0
  9
$PLIMMIN
 10
0.0
 20
0.0
  9
$PLIMMAX
 10
12.0
 20
9.0
  9
$UNITMODE
 70
     0
  9
$VISRETAIN
 70
     1
  9
$PLINEGEN
 70
     0
  9
$PSLTSCALE
 70
     1
  9
$TREEDEPTH
 70
  3020
  9
$CMLSTYLE
  2
Standard
  9
$CMLJUST
 70
     0
  9
$CMLSCALE
 40
20.0
  9
$PROXYGRAPHICS
 70
     1
  9
$MEASUREMENT
 70
     1
  9
$CELWEIGHT
370
    -1
  9
$ENDCAPS
280
     0
  9
$JOINSTYLE
280
     0
  9
$LWDISPLAY
290
     0
  9
$INSUNITS
 70
     4
  9
$HYPERLINKBASE
  1

  9
$STYLESHEET
  1
monochrome.ctb
  9
$XEDIT
290
     1
  9
$CEPSNTYPE
380
     0
  9
$PSTYLEMODE
290
     1
  9
$FINGERPRINTGUID
  2

  9
$VERSIONGUID
  2
{6A819B89-19BE-4D2A-99D4-65B4B76B41F1}
  9
$EXTNAMES
290
     1
  9
$PSVPSCALE
 40
0.0
  9
$OLESTARTUP
290
     0
  0
ENDSEC
  0
SECTION
  2
CLASSES
  0
CLASS
  1
ACDBDICTIONARYWDFLT
  2
AcDbDictionaryWithDefault
  3
ObjectDBX Classes
 90
        0
280
     0
281
     0
  0
CLASS
  1
ACDBPLACEHOLDER
  2
AcDbPlaceHolder
  3
ObjectDBX Classes
 90
        0
280
     0
281
     0
  0
CLASS
  1
LAYOUT
  2
AcDbLayout
  3
ObjectDBX Classes
 90
        0
280
     0
281
     0
  0
CLASS
  1
DICTIONARYVAR
  2
AcDbDictionaryVar
  3
ObjectDBX Classes
 90
        0
280
     0
281
     0
  0
CLASS
  1
MATERIAL
  2
AcDbMaterial
  3
ObjectDBX Classes
 90
     1153
280
     0
281
     0
  0
CLASS
  1
VISUALSTYLE
  2
AcDbVisualStyle
  3
ObjectDBX Classes
 90
     4095
280
     0
281
     0
  0
CLASS
  1
TABLESTYLE
  2
AcDbTableStyle
  3
ObjectDBX Classes
 90
     4095
280
     0
281
     0
  0
CLASS
  1
SCALE
  2
AcDbScale
  3
ObjectDBX Classes
 90
     1153
280
     0
281
     0
  0
CLASS
  1
MLEADERSTYLE
  2
AcDbMLeaderStyle
  3
ACDB_MLEADERSTYLE_CLASS
 90
     4095
280
     0
281
     0
  0
CLASS
  1
ACDBSECTIONVIEWSTYLE
  2
AcDbSectionViewStyle
  3
ObjectDBX Classes
 90
     1025
280
     0
281
     0
  0
CLASS
  1
ACDBDETAILVIEWSTYLE
  2
AcDbDetailViewStyle
  3
ObjectDBX Classes
 90
     1025
280
     0
281
     0
  0
CLASS
  1
CELLSTYLEMAP
  2
AcDbCellStyleMap
  3
ObjectDBX Classes
 90
     1152
280
     0
281
     0
  0
CLASS
  1
ACARRAYJIGENTITY
  2
AcArrayJigEntity
  3
ACAD_ARRAY
 90
    32897
280
     0
281
     1
  0
CLASS
  1
ACDBASSOCNETWORK
  2
AcDbAssocNetwork
  3
ObjectDBX Classes
 90
     1025
280
     0
281
     0
  0
CLASS
  1
ACDBASSOCACTION
  2
AcDbAssocAction
  3
ObjectDBX Classes
 90
     1025
280
     0
281
     0
  0
CLASS
  1
ACDBASSOCARRAYACTIONBODY
  2
AcDbAssocArrayActionBody
  3
ObjectDBX Classes
 90
     1025
280
     0
281
     0
  0
CLASS
  1
ACDBASSOCVERTEXACTIONPARAM
  2
AcDbAssocVertexActionParam
  3
ObjectDBX Classes
 90
     1025
280
     0
281
     0
  0
CLASS
  1
ACDBASSOCDEPENDENCY
  2
AcDbAssocDependency
  3
ObjectDBX Classes
 90
     1025
280
     0
281
     0
  0
CLASS
  1
ACDBASSOCARRAYRECTANGULARPARAMETERS
  2
AcDbAssocArrayRectangularParameters
  3
ObjectDBX Classes
 90
    33793
280
     0
281
     0
  0
CLASS
  1
EXACXREFPANELOBJECT
  2
ExAcXREFPanelObject
  3
EXAC_ESW
 90
     1025
280
     0
281
     0
  0
CLASS
  1
NPOCOLLECTION
  2
AcDbImpNonPersistentObjectsCollection
  3
ObjectDBX Classes
 90
     1153
280
     0
281
     0
  0
CLASS
  1
ACDBASSOCENTITYCLONEACTIONBODY
  2
AcDbAssocEntityCloneActionBody
  3
ObjectDBX Classes
 90
     1025
280
     0
281
     0
  0
CLASS
  1
SOLID_BACKGROUND
  2
AcDbSolidBackground
  3
SCENEOE
 90
     4095
280
     0
281
     0
  0
ENDSEC
  0
SECTION
  2
TABLES
  0
TABLE
  2
VPORT
  5
21E1
102
{ACAD_XDICTIONARY
360
2615
102
}
330
0
100
AcDbSymbolTable
 70
     1
  0
VPORT
  5
259D
330
21E1
100
AcDbSymbolTableRecord
100
AcDbViewportTableRecord
  2
*Active
 70
     0
 10
0.0
 20
0.0
 11
1.0
 21
1.0
 12
994.2621913815983
 22
-195.2633029970893
 13
0.0
 23
0.0
 14
10.0
 24
10.0
 15
10.0
 25
10.0
 16
0.0
 26
0.0
 36
68.32821062363911
 17
400.4933956247744
 27
1181.897863839284
 37
0.0
 40
1993.457919602531
 41
3.149405772495755
 42
50.0
 43
0.0
 44
0.0
 50
0.0
 51
0.0
 71
     0
 72
   100
 73
     1
 74
     3
 75
     0
 76
     0
 77
     0
 78
     0
281
     0
 65
     1
110
0.0
120
0.0
130
0.0
111
1.0
121
0.0
131
0.0
112
0.0
122
1.0
132
0.0
 79
     0
146
0.0
1001
ACAD_NAV_VCDISPLAY
1070
     3
  0
ENDTAB
  0
TABLE
  2
LTYPE
  5
21DC
330
0
100
AcDbSymbolTable
 70
     3
  0
LTYPE
  5
21DD
330
21DC
100
AcDbSymbolTableRecord
100
AcDbLinetypeTableRecord
  2
ByBlock
 70
     0
  3

 72
    65
 73
     0
 40
0.0
  0
LTYPE
  5
21DE
330
21DC
100
AcDbSymbolTableRecord
100
AcDbLinetypeTableRecord
  2
ByLayer
 70
     0
  3

 72
    65
 73
     0
 40
0.0
  0
LTYPE
  5
8
330
21DC
100
AcDbSymbolTableRecord
100
AcDbLinetypeTableRecord
  2
Continuous
 70
     0
  3
Solid line
 72
    65
 73
     0
 40
0.0
  0
LTYPE
  5
CE
330
21DC
100
AcDbSymbolTableRecord
100
AcDbLinetypeTableRecord
  2
HIDDEN
 70
     0
  3
Hidden __ __ __ __ __ __ __ __ __ __ __ __ __ _
 72
    65
 73
     2
 40
9.524999999999998
 49
6.349999999999999
 74
     0
 49
-3.174999999999999
 74
     0
  0
LTYPE
  5
464
330
21DC
100
AcDbSymbolTableRecord
100
AcDbLinetypeTableRecord
  2
CENTER
 70
     0
  3
------ - ------ - ----
 72
    65
 73
     4
 40
10.0
 49
6.25
 74
     0
 49
-1.25
 74
     0
 49
1.25
 74
     0
 49
-1.25
 74
     0
  0
ENDTAB
  0
TABLE
  2
LAYER
  5
21D9
102
{ACAD_XDICTIONARY
360
2718
102
}
330
0
100
AcDbSymbolTable
 70
    10
  0
LAYER
  5
76
102
{ACAD_XDICTIONARY
360
25F4
102
}
330
21D9
100
AcDbSymbolTableRecord
100
AcDbLayerTableRecord
  2
0
 70
     0
 62
     7
  6
Continuous
370
    -3
390
5
  0
LAYER
  5
80
102
{ACAD_XDICTIONARY
360
25F6
102
}
330
21D9
100
AcDbSymbolTableRecord
100
AcDbLayerTableRecord
  2
本体
 70
     0
 62
     7
  6
Continuous
370
    13
390
5
  0
LAYER
  5
4
102
{ACAD_XDICTIONARY
360
25F8
102
}
330
21D9
100
AcDbSymbolTableRecord
100
AcDbLayerTableRecord
  2
寸法線
 70
     0
 62
     2
  6
Continuous
370
     9
390
5
  0
LAYER
  5
728
102
{ACAD_XDICTIONARY
360
25FC
102
}
330
21D9
100
AcDbSymbolTableRecord
100
AcDbLayerTableRecord
  2
エンボス
 70
     0
 62
     4
  6
Continuous
370
     5
390
5
  0
LAYER
  5
11
102
{ACAD_XDICTIONARY
360
25FE
102
}
330
21D9
100
AcDbSymbolTableRecord
100
AcDbLayerTableRecord
  2
外枠
 70
     0
 62
     7
  6
Continuous
370
    -3
390
5
  0
LAYER
  5
A9
330
21D9
100
AcDbSymbolTableRecord
100
AcDbLayerTableRecord
  2
Defpoints
 70
     0
 62
     7
  6
Continuous
290
     0
370
    -3
390
5
  0
LAYER
  5
2578
102
{ACAD_XDICTIONARY
360
2604
102
}
330
21D9
100
AcDbSymbolTableRecord
100
AcDbLayerTableRecord
  2
嵩上断面
 70
     0
 62
   112
  6
Continuous
370
    13
390
5
  0
LAYER
  5
257D
102
{ACAD_XDICTIONARY
360
2606
102
}
330
21D9
100
AcDbSymbolTableRecord
100
AcDbLayerTableRecord
  2
嵩上平面
 70
     0
 62
   112
  6
HIDDEN
370
    13
390
5
  0
LAYER
  5
2582
102
{ACAD_XDICTIONARY
360
2608
102
}
330
21D9
100
AcDbSymbolTableRecord
100
AcDbLayerTableRecord
  2
中心線
 70
     0
 62
     1
  6
CENTER
370
     5
390
5
  0
LAYER
  5
2BEF
330
21D9
100
AcDbSymbolTableRecord
100
AcDbLayerTableRecord
  2
ADSK_ASSOC_ENTITY_BACKUPS
 70
     5
 62
    -7
  6
Continuous
370
    -3
390
5
  0
ENDTAB
  0
TABLE
  2
STYLE
  5
21DA
330
0
100
AcDbSymbolTable
 70
     1
  0
STYLE
  5
9
330
21DA
100
AcDbSymbolTableRecord
100
AcDbTextStyleTableRecord
  2
Standard
 70
     0
 40
0.0
 41
1.0
 50
0.0
 71
     0
 42
2.5
  3

  4

1001
ACAD
1000
MS Gothic
1071
    32817
  0
ENDTAB
  0
TABLE
  2
VIEW
  5
21DF
330
0
100
AcDbSymbolTable
 70
     0
  0
ENDTAB
  0
TABLE
  2
UCS
  5
21E0
330
0
100
AcDbSymbolTable
 70
     0
  0
ENDTAB
  0
TABLE
  2
APPID
  5
21E3
330
0
100
AcDbSymbolTable
 70
     5
  0
APPID
  5
A
330
21E3
100
AcDbSymbolTableRecord
100
AcDbRegAppTableRecord
  2
ACAD
 70
     0
  0
APPID
  5
260A
330
21E3
100
AcDbSymbolTableRecord
100
AcDbRegAppTableRecord
  2
ACAD_NAV_VCDISPLAY
 70
     0
  0
APPID
  5
264B
330
21E3
100
AcDbSymbolTableRecord
100
AcDbRegAppTableRecord
  2
ACAD_MLEADERVER
 70
     0
  0
APPID
  5
2664
330
21E3
100
AcDbSymbolTableRecord
100
AcDbRegAppTableRecord
  2
ACAD_EXEMPT_FROM_CAD_STANDARDS
 70
     0
  0
APPID
  5
271D
330
21E3
100
AcDbSymbolTableRecord
100
AcDbRegAppTableRecord
  2
AcLayerTools
 70
     0
  0
ENDTAB
  0
TABLE
  2
DIMSTYLE
  5
21E4
330
0
100
AcDbSymbolTable
 70
     2
100
AcDbDimStyleTable
 71
     1
340
9D
  0
DIMSTYLE
105
9D
102
{ACAD_REACTORS
330
A0
330
AE
330
BB
330
D0
330
103
330
112
330
1BD
330
1CA
330
21BA
102
}
330
21E4
100
AcDbSymbolTableRecord
100
AcDbDimStyleTableRecord
  2
ISO-25
 70
     0
 40
10.0
 41
1.5
 42
2.0
 43
3.75
 44
1.5
 73
     0
 74
     0
 77
     1
 78
     8
140
3.0
141
2.5
143
0.03937007874016
147
0.5
171
     3
172
     1
271
     2
272
     2
274
     3
283
     0
284
     8
289
     0
340
9
341
96
342
96
  0
DIMSTYLE
105
2559
330
21E4
100
AcDbSymbolTableRecord
100
AcDbDimStyleTableRecord
  2
Standard
 70
     0
340
9
  0
ENDTAB
  0
TABLE
  2
BLOCK_RECORD
  5
1
330
0
100
AcDbSymbolTable
 70
    21
  0
BLOCK_RECORD
  5
2
102
{ACAD_XDICTIONARY
360
21C7
102
}
330
1
100
AcDbSymbolTableRecord
100
AcDbBlockTableRecord
  2
*Model_Space
340
21CB
  0
BLOCK_RECORD
  5
21CD
102
{ACAD_XDICTIONARY
360
21CE
102
}
330
1
100
AcDbSymbolTableRecord
100
AcDbBlockTableRecord
  2
*Paper_Space
340
21D2
  0
BLOCK_RECORD
  5
21D3
102
{ACAD_XDICTIONARY
360
21D4
102
}
330
1
100
AcDbSymbolTableRecord
100
AcDbBlockTableRecord
  2
*Paper_Space0
340
21D8
  0
BLOCK_RECORD
  5
96
330
1
100
AcDbSymbolTableRecord
100
AcDbBlockTableRecord
  2
_Open30
340
0
102
{BLKREFS
331
2A51
331
2A52
331
2A5A
331
2A5B
331
21BF
331
21C0
331
2241
331
2242
331
A5
331
A6
331
B3
331
B4
331
D5
331
D6
331
10A
331
10B
331
117
331
118
331
1C2
331
1C3
331
1D1
331
1D2
102
}
  0
BLOCK_RECORD
  5
461
330
1
100
AcDbSymbolTableRecord
100
AcDbBlockTableRecord
  2
TB5
340
0
102
{BLKREFS
331
460
331
469
331
46A
331
647
102
}
1001
ACAD
1000
DesignCenter Data
1002
{
1070
     1
1070
     4
1002
}
  0
BLOCK_RECORD
  5
A1
330
1
100
AcDbSymbolTableRecord
100
AcDbBlockTableRecord
  2
*D3
340
0
  0
BLOCK_RECORD
  5
AF
330
1
100
AcDbSymbolTableRecord
100
AcDbBlockTableRecord
  2
*D4
340
0
  0
BLOCK_RECORD
  5
BC
330
1
100
AcDbSymbolTableRecord
100
AcDbBlockTableRecord
  2
*D5
340
0
  0
BLOCK_RECORD
  5
D1
330
1
100
AcDbSymbolTableRecord
100
AcDbBlockTableRecord
  2
*D6
340
0
  0
BLOCK_RECORD
  5
104
330
1
100
AcDbSymbolTableRecord
100
AcDbBlockTableRecord
  2
*D7
340
0
  0
BLOCK_RECORD
  5
113
330
1
100
AcDbSymbolTableRecord
100
AcDbBlockTableRecord
  2
*D8
340
0
  0
BLOCK_RECORD
  5
1BE
330
1
100
AcDbSymbolTableRecord
100
AcDbBlockTableRecord
  2
*D9
340
0
  0
BLOCK_RECORD
  5
1CB
330
1
100
AcDbSymbolTableRecord
100
AcDbBlockTableRecord
  2
*D10
340
0
  0
BLOCK_RECORD
  5
21BB
330
1
100
AcDbSymbolTableRecord
100
AcDbBlockTableRecord
  2
*D11
340
0
  0
BLOCK_RECORD
  5
255A
330
1
100
AcDbSymbolTableRecord
100
AcDbBlockTableRecord
  2
P-H60
340
0
102
{BLKREFS
331
2568
331
256A
102
}
  0
BLOCK_RECORD
  5
2665
102
{ACAD_XDICTIONARY
360
2669
102
}
330
1
100
AcDbSymbolTableRecord
100
AcDbBlockTableRecord
  2
鎌下
340
0
102
{BLKREFS
331
266C
102
}
1001
ACAD
1000
DesignCenter Data
1002
{
1070
     1
1070
     4
1002
}
  0
BLOCK_RECORD
  5
2708
102
{ACAD_XDICTIONARY
360
2713
102
}
330
1
100
AcDbSymbolTableRecord
100
AcDbBlockTableRecord
  2
GFB新
340
0
102
{BLKREFS
331
2716
102
}
1001
ACAD
1000
DesignCenter Data
1002
{
1070
     1
1070
     4
1002
}
  0
BLOCK_RECORD
  5
2797
102
{ACAD_REACTORS
330
27B0
102
}
330
1
100
AcDbSymbolTableRecord
100
AcDbBlockTableRecord
  2
*U15
340
0
102
{BLKREFS
331
27B4
331
27B5
331
27B6
331
27B7
331
27B8
331
27B9
331
27BA
331
27BB
331
27BC
331
27BD
331
27BE
331
27BF
331
27C0
331
27C1
331
27C2
331
27C3
331
27C4
331
27C5
331
27C6
331
27C7
331
27C8
331
27C9
331
27CA
331
27CB
331
27CC
331
27CD
331
27CE
331
27CF
331
27D0
331
27D1
331
27D2
331
27D3
331
27D4
331
27D5
331
27D6
331
27D7
331
27D8
331
27D9
331
27DA
331
27DB
331
27DC
331
27DD
331
27DE
331
27DF
331
27E0
331
27E1
331
27E2
331
27E3
331
27E4
331
27E5
331
27E6
331
27E7
331
27E8
331
27E9
331
27EA
331
27EB
331
27EC
331
27ED
331
27EE
331
27EF
331
27F0
331
27F1
331
27F2
331
27F3
331
27F4
331
27F5
331
27F6
331
27F7
331
27F8
331
27F9
331
27FA
331
27FB
331
27FC
331
27FD
331
27FE
331
27FF
331
2800
102
}
  0
BLOCK_RECORD
  5
279A
102
{ACAD_XDICTIONARY
360
29DB
102
}
102
{ACAD_REACTORS
330
27AF
102
}
330
1
100
AcDbSymbolTableRecord
100
AcDbBlockTableRecord
  2
*U16
340
0
102
{BLKREFS
331
279D
102
}
  0
BLOCK_RECORD
  5
28CF
102
{ACAD_REACTORS
330
293F
102
}
330
1
100
AcDbSymbolTableRecord
100
AcDbBlockTableRecord
  2
*U17
340
0
102
{BLKREFS
331
2CBC
331
2943
331
2944
331
2946
331
2947
331
2948
331
2949
331
294A
331
294B
331
294C
331
294D
331
294E
331
294F
331
2950
331
2951
331
2952
331
2953
331
2954
331
2955
331
2956
331
2957
331
2958
331
2959
331
295A
331
295B
331
295C
331
295D
331
295E
331
295F
331
2960
331
2961
331
2962
331
2963
331
2964
331
2965
331
2966
331
2967
331
2968
331
2969
331
296A
331
296B
331
296C
331
296D
331
296E
331
296F
331
2970
331
2971
331
2972
331
2973
331
2974
331
2975
331
2976
331
2977
331
2978
331
2979
331
297A
331
297B
331
297C
331
297D
331
297E
331
297F
331
2980
331
2981
331
2982
331
2983
331
2984
331
2985
331
2986
331
2987
331
2988
331
2989
331
298A
331
298B
331
298C
331
298D
331
298E
331
298F
331
2990
102
}
  0
BLOCK_RECORD
  5
28D2
102
{ACAD_XDICTIONARY
360
29DE
102
}
102
{ACAD_REACTORS
330
293E
102
}
330
1
100
AcDbSymbolTableRecord
100
AcDbBlockTableRecord
  2
*U18
340
0
102
{BLKREFS
331
28D5
102
}
  0
BLOCK_RECORD
  5
29F3
330
1
100
AcDbSymbolTableRecord
100
AcDbBlockTableRecord
  2
*D19
340
0
  0
BLOCK_RECORD
  5
2A02
330
1
100
AcDbSymbolTableRecord
100
AcDbBlockTableRecord
  2
*D20
340
0
  0
ENDTAB
  0
ENDSEC
  0
SECTION
  2
BLOCKS
  0
BLOCK
  5
21C9
330
2
100
AcDbEntity
  8
0
100
AcDbBlockBegin
  2
*Model_Space
 70
     0
 10
0.0
 20
0.0
 30
0.0
  3
*Model_Space
  1

  0
ENDBLK
  5
21CA
330
2
100
AcDbEntity
  8
0
100
AcDbBlockEnd
  0
BLOCK
  5
21D0
330
21CD
100
AcDbEntity
 67
     1
  8
0
100
AcDbBlockBegin
  2
*Paper_Space
 70
     0
 10
0.0
 20
0.0
 30
0.0
  3
*Paper_Space
  1

  0
ENDBLK
  5
21D1
330
21CD
100
AcDbEntity
 67
     1
  8
0
100
AcDbBlockEnd
  0
BLOCK
  5
21D6
330
21D3
100
AcDbEntity
 67
     1
  8
0
100
AcDbBlockBegin
  2
*Paper_Space0
 70
     0
 10
0.0
 20
0.0
 30
0.0
  3
*Paper_Space0
  1

  0
ENDBLK
  5
21D7
330
21D3
100
AcDbEntity
 67
     1
  8
0
100
AcDbBlockEnd
  0
BLOCK
  5
9A
330
96
100
AcDbEntity
  8
0
100
AcDbBlockBegin
  2
_Open30
 70
     0
 10
0.0
 20
0.0
 30
0.0
  3
_Open30
  1

  0
LINE
  5
97
330
96
100
AcDbEntity
  8
0
  6
ByBlock
 62
     0
370
    -2
100
AcDbLine
 10
-1.0
 20
0.26794919
 30
0.0
 11
0.0
 21
0.0
 31
0.0
  0
LINE
  5
98
330
96
100
AcDbEntity
  8
0
  6
ByBlock
 62
     0
370
    -2
100
AcDbLine
 10
0.0
 20
0.0
 30
0.0
 11
-1.0
 21
-0.26794919
 31
0.0
  0
LINE
  5
99
330
96
100
AcDbEntity
  8
0
  6
ByBlock
 62
     0
370
    -2
100
AcDbLine
 10
0.0
 20
0.0
 30
0.0
 11
-1.0
 21
0.0
 31
0.0
  0
ENDBLK
  5
9B
330
96
100
AcDbEntity
  8
0
100
AcDbBlockEnd
  0
BLOCK
  5
467
330
461
100
AcDbEntity
  8
0
100
AcDbBlockBegin
  2
TB5
 70
     0
 10
0.0
 20
0.0
 30
0.0
  3
TB5
  1

  0
MTEXT
  5
462
330
461
100
AcDbEntity
  8
寸法線
  6
Continuous
100
AcDbMText
 10
917.3216494432054
 20
235.349302881973
 30
0.0
 40
20.0
 41
17.2146
 71
     7
 72
     1
  1

 73
     1
 44
1.0
1001
ACAD
1000
MTEXTBEGIN
1070
    73
1070
     1
1070
    44
1040
1.0
1070
    74
1070
     0
1000
MTEXTEND
  0
LINE
  5
463
330
461
100
AcDbEntity
  8
本体
  6
CENTER
 62
     1
 48
0.3
100
AcDbLine
 10
7.499999997999999
 20
0.0
 30
0.0
 11
-2.499999997999999
 21
0.0
 31
0.0
  0
LINE
  5
465
330
461
100
AcDbEntity
  8
本体
  6
CENTER
 62
     1
 48
0.3
100
AcDbLine
 10
2.5
 20
4.999999997999999
 30
0.0
 11
2.5
 21
-4.999999997999999
 31
0.0
  0
CIRCLE
  5
466
330
461
100
AcDbEntity
  8
本体
  6
Continuous
 62
     0
100
AcDbCircle
 10
2.5
 20
0.0
 30
0.0
 40
2.5
  0
ENDBLK
  5
468
330
461
100
AcDbEntity
  8
0
100
AcDbBlockEnd
  0
BLOCK
  5
AC
330
A1
100
AcDbEntity
  8
0
 48
3.0
100
AcDbBlockBegin
  2
*D3
 70
     1
 10
0.0
 20
0.0
 30
0.0
  3
*D3
  1

  0
LINE
  5
A2
330
A1
100
AcDbEntity
  8
寸法線
  6
Continuous
 62
     0
 48
3.0
370
    -2
100
AcDbLine
 10
1806.694690178666
 20
1527.472907576634
 30
0.0
 11
1711.751020130032
 21
1527.472907576634
 31
0.0
  0
LINE
  5
A3
330
A1
100
AcDbEntity
  8
寸法線
  6
Continuous
 62
     0
 48
3.0
370
    -2
100
AcDbLine
 10
1806.694690178666
 20
1427.472907576634
 30
0.0
 11
1711.751020130032
 21
1427.472907576634
 31
0.0
  0
LINE
  5
A4
330
A1
100
AcDbEntity
  8
寸法線
  6
Continuous
 62
     0
 48
3.0
370
    -2
100
AcDbLine
 10
1726.751020130032
 20
1512.472907576634
 30
0.0
 11
1726.751020130032
 21
1442.472907576634
 31
0.0
  0
INSERT
  5
A5
330
A1
100
AcDbEntity
  8
寸法線
  6
Continuous
 62
     0
 48
3.0
370
    -2
100
AcDbBlockReference
  2
_Open30
 10
1726.751020130032
 20
1527.472907576634
 30
0.0
 41
15.0
 42
15.0
 43
15.0
 50
90.0
  0
INSERT
  5
A6
330
A1
100
AcDbEntity
  8
寸法線
  6
Continuous
 62
     0
 48
3.0
370
    -2
100
AcDbBlockReference
  2
_Open30
 10
1726.751020130032
 20
1427.472907576634
 30
0.0
 41
15.0
 42
15.0
 43
15.0
 50
270.0
  0
MTEXT
  5
A7
330
A1
100
AcDbEntity
  8
寸法線
  6
Continuous
 62
     0
 48
3.0
100
AcDbMText
 10
1706.751020130032
 20
1477.472907576634
 30
0.0
 40
30.0
 41
0.0
 71
     5
 72
     1
  1
100
 11
0.0000000000000001
 21
1.0
 31
0.0
 73
     1
 44
1.0
1001
ACAD
1000
MTEXTBEGIN
1070
    73
1070
     1
1070
    44
1040
1.0
1070
    74
1070
     0
1000
MTEXTEND
  0
POINT
  5
A8
330
A1
100
AcDbEntity
  8
Defpoints
  6
Continuous
 62
     0
 48
3.0
100
AcDbPoint
 10
1826.694690178666
 20
1527.472907576634
 30
0.0
  0
POINT
  5
AA
330
A1
100
AcDbEntity
  8
Defpoints
  6
Continuous
 62
     0
 48
3.0
100
AcDbPoint
 10
1826.694690178666
 20
1427.472907576634
 30
0.0
  0
POINT
  5
AB
330
A1
100
AcDbEntity
  8
Defpoints
  6
Continuous
 62
     0
 48
3.0
100
AcDbPoint
 10
1726.751020130032
 20
1427.472907576634
 30
0.0
  0
ENDBLK
  5
AD
330
A1
100
AcDbEntity
  8
0
 48
3.0
100
AcDbBlockEnd
  0
BLOCK
  5
B9
330
AF
100
AcDbEntity
  8
0
 48
3.0
100
AcDbBlockBegin
  2
*D4
 70
     1
 10
0.0
 20
0.0
 30
0.0
  3
*D4
  1

  0
LINE
  5
B0
330
AF
100
AcDbEntity
  8
寸法線
  6
Continuous
 62
     0
 48
3.0
370
    -2
100
AcDbLine
 10
1806.694690178666
 20
1574.972907576634
 30
0.0
 11
1611.707268246686
 21
1574.972907576634
 31
0.0
  0
LINE
  5
B1
330
AF
100
AcDbEntity
  8
寸法線
  6
Continuous
 62
     0
 48
3.0
370
    -2
100
AcDbLine
 10
1806.694690178666
 20
1179.972907576634
 30
0.0
 11
1611.707268246686
 21
1179.972907576634
 31
0.0
  0
LINE
  5
B2
330
AF
100
AcDbEntity
  8
寸法線
  6
Continuous
 62
     0
 48
3.0
370
    -2
100
AcDbLine
 10
1626.707268246686
 20
1559.972907576634
 30
0.0
 11
1626.707268246686
 21
1194.972907576634
 31
0.0
  0
INSERT
  5
B3
330
AF
100
AcDbEntity
  8
寸法線
  6
Continuous
 62
     0
 48
3.0
370
    -2
100
AcDbBlockReference
  2
_Open30
 10
1626.707268246686
 20
1574.972907576634
 30
0.0
 41
15.0
 42
15.0
 43
15.0
 50
90.0
  0
INSERT
  5
B4
330
AF
100
AcDbEntity
  8
寸法線
  6
Continuous
 62
     0
 48
3.0
370
    -2
100
AcDbBlockReference
  2
_Open30
 10
1626.707268246686
 20
1179.972907576634
 30
0.0
 41
15.0
 42
15.0
 43
15.0
 50
270.0
  0
MTEXT
  5
B5
330
AF
100
AcDbEntity
  8
寸法線
  6
Continuous
 62
     0
 48
3.0
100
AcDbMText
 10
1606.707268246686
 20
1377.472907576634
 30
0.0
 40
30.0
 41
0.0
 71
     5
 72
     1
  1
395
 11
0.0000000000000001
 21
1.0
 31
0.0
 73
     1
 44
1.0
1001
ACAD
1000
MTEXTBEGIN
1070
    73
1070
     1
1070
    44
1040
1.0
1070
    74
1070
     0
1000
MTEXTEND
  0
POINT
  5
B6
330
AF
100
AcDbEntity
  8
Defpoints
  6
Continuous
 62
     0
 48
3.0
100
AcDbPoint
 10
1826.694690178666
 20
1574.972907576634
 30
0.0
  0
POINT
  5
B7
330
AF
100
AcDbEntity
  8
Defpoints
  6
Continuous
 62
     0
 48
3.0
100
AcDbPoint
 10
1826.694690178666
 20
1179.972907576634
 30
0.0
  0
POINT
  5
B8
330
AF
100
AcDbEntity
  8
Defpoints
  6
Continuous
 62
     0
 48
3.0
100
AcDbPoint
 10
1626.707268246686
 20
1179.972907576634
 30
0.0
  0
ENDBLK
  5
BA
330
AF
100
AcDbEntity
  8
0
 48
3.0
100
AcDbBlockEnd
  0
BLOCK
  5
C6
330
BC
100
AcDbEntity
  8
0
 48
3.0
100
AcDbBlockBegin
  2
*D5
 70
     1
 10
0.0
 20
0.0
 30
0.0
  3
*D5
  1

  0
LINE
  5
223E
330
BC
100
AcDbEntity
  8
寸法線
  6
Continuous
 62
     0
 48
3.0
370
    -2
100
AcDbLine
 10
1945.694687178666
 20
1564.972908576634
 30
0.0
 11
2046.575608686543
 21
1564.972908576634
 31
0.0
  0
LINE
  5
223F
330
BC
100
AcDbEntity
  8
寸法線
  6
Continuous
 62
     0
 48
3.0
370
    -2
100
AcDbLine
 10
1945.694687178666
 20
1189.972906576634
 30
0.0
 11
2046.575608686542
 21
1189.972906576634
 31
0.0
  0
LINE
  5
2240
330
BC
100
AcDbEntity
  8
寸法線
  6
Continuous
 62
     0
 48
3.0
370
    -2
100
AcDbLine
 10
2031.575608686543
 20
1549.972908576634
 30
0.0
 11
2031.575608686543
 21
1204.972906576634
 31
0.0
  0
INSERT
  5
2241
330
BC
100
AcDbEntity
  8
寸法線
  6
Continuous
 62
     0
 48
3.0
370
    -2
100
AcDbBlockReference
  2
_Open30
 10
2031.575608686543
 20
1564.972908576634
 30
0.0
 41
15.0
 42
15.0
 43
15.0
 50
90.0
  0
INSERT
  5
2242
330
BC
100
AcDbEntity
  8
寸法線
  6
Continuous
 62
     0
 48
3.0
370
    -2
100
AcDbBlockReference
  2
_Open30
 10
2031.575608686543
 20
1189.972906576634
 30
0.0
 41
15.0
 42
15.0
 43
15.0
 50
270.0
  0
MTEXT
  5
2243
330
BC
100
AcDbEntity
  8
寸法線
  6
Continuous
 62
     0
 48
3.0
100
AcDbMText
 10
2011.575608686542
 20
1377.472907576634
 30
0.0
 40
30.0
 41
0.0
 71
     5
 72
     1
  1
375
 11
0.0000000000000001
 21
1.0
 31
0.0
 73
     1
 44
1.0
1001
ACAD
1000
MTEXTBEGIN
1070
    73
1070
     1
1070
    44
1040
1.0
1070
    74
1070
     0
1000
MTEXTEND
  0
POINT
  5
2244
330
BC
100
AcDbEntity
  8
Defpoints
  6
Continuous
 62
     0
 48
3.0
100
AcDbPoint
 10
1925.694687178666
 20
1564.972908576634
 30
0.0
  0
POINT
  5
2245
330
BC
100
AcDbEntity
  8
Defpoints
  6
Continuous
 62
     0
 48
3.0
100
AcDbPoint
 10
1925.694687178666
 20
1189.972906576634
 30
0.0
  0
POINT
  5
2246
330
BC
100
AcDbEntity
  8
Defpoints
  6
Continuous
 62
     0
 48
3.0
100
AcDbPoint
 10
2031.575608686543
 20
1189.972906576634
 30
0.0
  0
ENDBLK
  5
C7
330
BC
100
AcDbEntity
  8
0
 48
3.0
100
AcDbBlockEnd
  0
BLOCK
  5
DB
330
D1
100
AcDbEntity
  8
0
 48
3.0
100
AcDbBlockBegin
  2
*D6
 70
     1
 10
0.0
 20
0.0
 30
0.0
  3
*D6
  1

  0
LINE
  5
D2
330
D1
100
AcDbEntity
  8
寸法線
  6
Continuous
 62
     0
 48
3.0
370
    -2
100
AcDbLine
 10
361.3842196783326
 20
569.0823688195982
 30
0.0
 11
361.3842196783326
 21
424.2024478118387
 31
0.0
  0
LINE
  5
D3
330
D1
100
AcDbEntity
  8
寸法線
  6
Continuous
 62
     0
 48
3.0
370
    -2
100
AcDbLine
 10
1336.384219678332
 20
569.0823688195982
 30
0.0
 11
1336.384219678332
 21
424.2024478118387
 31
0.0
  0
LINE
  5
D4
330
D1
100
AcDbEntity
  8
寸法線
  6
Continuous
 62
     0
 48
3.0
370
    -2
100
AcDbLine
 10
376.3842196783325
 20
439.2024478118387
 30
0.0
 11
1321.384219678332
 21
439.2024478118387
 31
0.0
  0
INSERT
  5
D5
330
D1
100
AcDbEntity
  8
寸法線
  6
Continuous
 62
     0
 48
3.0
370
    -2
100
AcDbBlockReference
  2
_Open30
 10
361.3842196783326
 20
439.2024478118387
 30
0.0
 41
15.0
 42
15.0
 43
15.0
 50
180.0
  0
INSERT
  5
D6
330
D1
100
AcDbEntity
  8
寸法線
  6
Continuous
 62
     0
 48
3.0
370
    -2
100
AcDbBlockReference
  2
_Open30
 10
1336.384219678332
 20
439.2024478118387
 30
0.0
 41
15.0
 42
15.0
 43
15.0
  0
MTEXT
  5
D7
330
D1
100
AcDbEntity
  8
寸法線
  6
Continuous
 62
     0
 48
3.0
100
AcDbMText
 10
848.8842196783325
 20
459.2024478118387
 30
0.0
 40
30.0
 41
0.0
 71
     5
 72
     1
  1
975
 73
     1
 44
1.0
1001
ACAD
1000
MTEXTBEGIN
1070
    73
1070
     1
1070
    44
1040
1.0
1070
    74
1070
     0
1000
MTEXTEND
  0
POINT
  5
D8
330
D1
100
AcDbEntity
  8
Defpoints
  6
Continuous
 62
     0
 48
3.0
100
AcDbPoint
 10
361.3842196783326
 20
589.0823688195983
 30
0.0
  0
POINT
  5
D9
330
D1
100
AcDbEntity
  8
Defpoints
  6
Continuous
 62
     0
 48
3.0
100
AcDbPoint
 10
1336.384219678332
 20
589.0823688195983
 30
0.0
  0
POINT
  5
DA
330
D1
100
AcDbEntity
  8
Defpoints
  6
Continuous
 62
     0
 48
3.0
100
AcDbPoint
 10
1336.384219678332
 20
439.2024478118387
 30
0.0
  0
ENDBLK
  5
DC
330
D1
100
AcDbEntity
  8
0
 48
3.0
100
AcDbBlockEnd
  0
BLOCK
  5
110
330
104
100
AcDbEntity
  8
0
 48
3.0
100
AcDbBlockBegin
  2
*D7
 70
     1
 10
0.0
 20
0.0
 30
0.0
  3
*D7
  1

  0
LINE
  5
105
330
104
100
AcDbEntity
  8
寸法線
  6
Continuous
 62
     0
 48
3.0
370
    -2
100
AcDbLine
 10
1358.884219678332
 20
649.0823688195982
 30
0.0
 11
1458.148843602096
 21
649.0823688195982
 31
0.0
  0
LINE
  5
106
330
104
100
AcDbEntity
  8
寸法線
  6
Continuous
 62
     0
 48
3.0
370
    -2
100
AcDbLine
 10
1363.884219678332
 20
681.0823688195982
 30
0.0
 11
1458.148843602096
 21
681.0823688195982
 31
0.0
  0
LINE
  5
107
330
104
100
AcDbEntity
  8
寸法線
  6
Continuous
 62
     0
 48
3.0
370
    -2
100
AcDbLine
 10
1443.148843602096
 20
634.0823688195983
 30
0.0
 11
1443.148843602096
 21
619.0823688195982
 31
0.0
  0
LINE
  5
108
330
104
100
AcDbEntity
  8
寸法線
  6
Continuous
 62
     0
 48
3.0
370
    -2
100
AcDbLine
 10
1443.148843602096
 20
696.0823688195983
 30
0.0
 11
1443.148843602096
 21
756.2600337942175
 31
0.0
  0
LINE
  5
109
330
104
100
AcDbEntity
  8
寸法線
  6
Continuous
 62
     0
 48
3.0
370
    -2
100
AcDbLine
 10
1443.148843602096
 20
649.0823688195982
 30
0.0
 11
1443.148843602096
 21
681.0823688195982
 31
0.0
  0
INSERT
  5
10A
330
104
100
AcDbEntity
  8
寸法線
  6
Continuous
 62
     0
 48
3.0
370
    -2
100
AcDbBlockReference
  2
_Open30
 10
1443.148843602096
 20
649.0823688195982
 30
0.0
 41
15.0
 42
15.0
 43
15.0
 50
90.0
  0
INSERT
  5
10B
330
104
100
AcDbEntity
  8
寸法線
  6
Continuous
 62
     0
 48
3.0
370
    -2
100
AcDbBlockReference
  2
_Open30
 10
1443.148843602096
 20
681.0823688195982
 30
0.0
 41
15.0
 42
15.0
 43
15.0
 50
270.0
  0
MTEXT
  5
10C
330
104
100
AcDbEntity
  8
寸法線
  6
Continuous
 62
     0
 48
3.0
100
AcDbMText
 10
1423.148843602096
 20
733.6712013069082
 30
0.0
 40
30.0
 41
0.0
 71
     5
 72
     1
  1
32
 11
0.0000000000000001
 21
1.0
 31
0.0
 73
     1
 44
1.0
1001
ACAD
1000
MTEXTBEGIN
1070
    73
1070
     1
1070
    44
1040
1.0
1070
    74
1070
     0
1000
MTEXTEND
  0
POINT
  5
10D
330
104
100
AcDbEntity
  8
Defpoints
  6
Continuous
 62
     0
 48
3.0
100
AcDbPoint
 10
1338.884219678332
 20
649.0823688195982
 30
0.0
  0
POINT
  5
10E
330
104
100
AcDbEntity
  8
Defpoints
  6
Continuous
 62
     0
 48
3.0
100
AcDbPoint
 10
1343.884219678332
 20
681.0823688195982
 30
0.0
  0
POINT
  5
10F
330
104
100
AcDbEntity
  8
Defpoints
  6
Continuous
 62
     0
 48
3.0
100
AcDbPoint
 10
1443.148843602096
 20
681.0823688195982
 30
0.0
  0
ENDBLK
  5
111
330
104
100
AcDbEntity
  8
0
 48
3.0
100
AcDbBlockEnd
  0
BLOCK
  5
11D
330
113
100
AcDbEntity
  8
0
 48
3.0
100
AcDbBlockBegin
  2
*D8
 70
     1
 10
0.0
 20
0.0
 30
0.0
  3
*D8
  1

  0
LINE
  5
114
330
113
100
AcDbEntity
  8
寸法線
  6
Continuous
 62
     0
 48
3.0
370
    -2
100
AcDbLine
 10
1363.884219678332
 20
681.0823688195982
 30
0.0
 11
1557.111080505596
 21
681.0823688195982
 31
0.0
  0
LINE
  5
115
330
113
100
AcDbEntity
  8
寸法線
  6
Continuous
 62
     0
 48
3.0
370
    -2
100
AcDbLine
 10
1356.384219678332
 20
589.0823688195983
 30
0.0
 11
1557.111080505596
 21
589.0823688195983
 31
0.0
  0
LINE
  5
116
330
113
100
AcDbEntity
  8
寸法線
  6
Continuous
 62
     0
 48
3.0
370
    -2
100
AcDbLine
 10
1542.111080505596
 20
666.0823688195982
 30
0.0
 11
1542.111080505596
 21
604.0823688195983
 31
0.0
  0
INSERT
  5
117
330
113
100
AcDbEntity
  8
寸法線
  6
Continuous
 62
     0
 48
3.0
370
    -2
100
AcDbBlockReference
  2
_Open30
 10
1542.111080505596
 20
681.0823688195982
 30
0.0
 41
15.0
 42
15.0
 43
15.0
 50
90.0
  0
INSERT
  5
118
330
113
100
AcDbEntity
  8
寸法線
  6
Continuous
 62
     0
 48
3.0
370
    -2
100
AcDbBlockReference
  2
_Open30
 10
1542.111080505596
 20
589.0823688195983
 30
0.0
 41
15.0
 42
15.0
 43
15.0
 50
270.0
  0
MTEXT
  5
119
330
113
100
AcDbEntity
  8
寸法線
  6
Continuous
 62
     0
 48
3.0
100
AcDbMText
 10
1522.111080505595
 20
635.0823688195985
 30
0.0
 40
30.0
 41
0.0
 71
     5
 72
     1
  1
92
 11
0.0000000000000001
 21
1.0
 31
0.0
 73
     1
 44
1.0
1001
ACAD
1000
MTEXTBEGIN
1070
    73
1070
     1
1070
    44
1040
1.0
1070
    74
1070
     0
1000
MTEXTEND
  0
POINT
  5
11A
330
113
100
AcDbEntity
  8
Defpoints
  6
Continuous
 62
     0
 48
3.0
100
AcDbPoint
 10
1343.884219678332
 20
681.0823688195982
 30
0.0
  0
POINT
  5
11B
330
113
100
AcDbEntity
  8
Defpoints
  6
Continuous
 62
     0
 48
3.0
100
AcDbPoint
 10
1336.384219678332
 20
589.0823688195983
 30
0.0
  0
POINT
  5
11C
330
113
100
AcDbEntity
  8
Defpoints
  6
Continuous
 62
     0
 48
3.0
100
AcDbPoint
 10
1542.111080505596
 20
589.0823688195983
 30
0.0
  0
ENDBLK
  5
11E
330
113
100
AcDbEntity
  8
0
 48
3.0
100
AcDbBlockEnd
  0
BLOCK
  5
1C8
330
1BE
100
AcDbEntity
  8
0
 48
3.0
100
AcDbBlockBegin
  2
*D9
 70
     1
 10
0.0
 20
0.0
 30
0.0
  3
*D9
  1

  0
LINE
  5
1BF
330
1BE
100
AcDbEntity
  8
寸法線
  6
Continuous
 62
     0
 48
3.0
370
    -2
100
AcDbLine
 10
1346.384219678331
 20
700.4903731400942
 30
0.0
 11
1346.384219678331
 21
892.8872197702927
 31
0.0
  0
LINE
  5
1C0
330
1BE
100
AcDbEntity
  8
寸法線
  6
Continuous
 62
     0
 48
3.0
370
    -2
100
AcDbLine
 10
351.3842196783325
 20
700.4903731400942
 30
0.0
 11
351.3842196783325
 21
892.8872197702927
 31
0.0
  0
LINE
  5
1C1
330
1BE
100
AcDbEntity
  8
寸法線
  6
Continuous
 62
     0
 48
3.0
370
    -2
100
AcDbLine
 10
1331.384219678331
 20
877.8872197702927
 30
0.0
 11
366.3842196783325
 21
877.8872197702927
 31
0.0
  0
INSERT
  5
1C2
330
1BE
100
AcDbEntity
  8
寸法線
  6
Continuous
 62
     0
 48
3.0
370
    -2
100
AcDbBlockReference
  2
_Open30
 10
1346.384219678331
 20
877.8872197702927
 30
0.0
 41
15.0
 42
15.0
 43
15.0
  0
INSERT
  5
1C3
330
1BE
100
AcDbEntity
  8
寸法線
  6
Continuous
 62
     0
 48
3.0
370
    -2
100
AcDbBlockReference
  2
_Open30
 10
351.3842196783325
 20
877.8872197702927
 30
0.0
 41
15.0
 42
15.0
 43
15.0
 50
180.0
  0
MTEXT
  5
1C4
330
1BE
100
AcDbEntity
  8
寸法線
  6
Continuous
 62
     0
 48
3.0
100
AcDbMText
 10
848.884219678332
 20
897.8872197702926
 30
0.0
 40
30.0
 41
0.0
 71
     5
 72
     1
  1
995
 73
     1
 44
1.0
1001
ACAD
1000
MTEXTBEGIN
1070
    73
1070
     1
1070
    44
1040
1.0
1070
    74
1070
     0
1000
MTEXTEND
  0
POINT
  5
1C5
330
1BE
100
AcDbEntity
  8
Defpoints
  6
Continuous
 62
     0
 48
3.0
100
AcDbPoint
 10
1346.384219678331
 20
680.4903731400941
 30
0.0
  0
POINT
  5
1C6
330
1BE
100
AcDbEntity
  8
Defpoints
  6
Continuous
 62
     0
 48
3.0
100
AcDbPoint
 10
351.3842196783325
 20
680.4903731400941
 30
0.0
  0
POINT
  5
1C7
330
1BE
100
AcDbEntity
  8
Defpoints
  6
Continuous
 62
     0
 48
3.0
100
AcDbPoint
 10
351.3842196783325
 20
877.8872197702927
 30
0.0
  0
ENDBLK
  5
1C9
330
1BE
100
AcDbEntity
  8
0
 48
3.0
100
AcDbBlockEnd
  0
BLOCK
  5
1D7
330
1CB
100
AcDbEntity
  8
0
 48
3.0
100
AcDbBlockBegin
  2
*D10
 70
     1
 10
0.0
 20
0.0
 30
0.0
  3
*D10
  1

  0
LINE
  5
1CC
330
1CB
100
AcDbEntity
  8
寸法線
  6
Continuous
 62
     0
 48
3.0
370
    -2
100
AcDbLine
 10
1106.301939678332
 20
701.0823688195983
 30
0.0
 11
1106.301939678332
 21
766.793046938253
 31
0.0
  0
LINE
  5
1CD
330
1CB
100
AcDbEntity
  8
寸法線
  6
Continuous
 62
     0
 48
3.0
370
    -2
100
AcDbLine
 10
1118.858901678332
 20
701.0823688195983
 30
0.0
 11
1118.858901678332
 21
766.793046938253
 31
0.0
  0
LINE
  5
1CE
330
1CB
100
AcDbEntity
  8
寸法線
  6
Continuous
 62
     0
 48
3.0
370
    -2
100
AcDbLine
 10
1091.301939678332
 20
751.793046938253
 30
0.0
 11
1076.301939678332
 21
751.793046938253
 31
0.0
  0
LINE
  5
1CF
330
1CB
100
AcDbEntity
  8
寸法線
  6
Continuous
 62
     0
 48
3.0
370
    -2
100
AcDbLine
 10
1133.858901678332
 20
751.793046938253
 30
0.0
 11
1230.737074267165
 21
751.793046938253
 31
0.0
  0
LINE
  5
1D0
330
1CB
100
AcDbEntity
  8
寸法線
  6
Continuous
 62
     0
 48
3.0
370
    -2
100
AcDbLine
 10
1106.301939678332
 20
751.793046938253
 30
0.0
 11
1118.858901678332
 21
751.793046938253
 31
0.0
  0
INSERT
  5
1D1
330
1CB
100
AcDbEntity
  8
寸法線
  6
Continuous
 62
     0
 48
3.0
370
    -2
100
AcDbBlockReference
  2
_Open30
 10
1106.301939678332
 20
751.793046938253
 30
0.0
 41
15.0
 42
15.0
 43
15.0
  0
INSERT
  5
1D2
330
1CB
100
AcDbEntity
  8
寸法線
  6
Continuous
 62
     0
 48
3.0
370
    -2
100
AcDbBlockReference
  2
_Open30
 10
1118.858901678332
 20
751.793046938253
 30
0.0
 41
15.0
 42
15.0
 43
15.0
 50
180.0
  0
MTEXT
  5
1D3
330
1CB
100
AcDbEntity
  8
寸法線
  6
Continuous
 62
     0
 48
3.0
100
AcDbMText
 10
1189.797987972749
 20
771.7930469382531
 30
0.0
 40
30.0
 41
0.0
 71
     5
 72
     1
  1
12.5
 73
     1
 44
1.0
1001
ACAD
1000
MTEXTBEGIN
1070
    73
1070
     1
1070
    44
1040
1.0
1070
    74
1070
     0
1000
MTEXTEND
  0
POINT
  5
1D4
330
1CB
100
AcDbEntity
  8
Defpoints
  6
Continuous
 62
     0
 48
3.0
100
AcDbPoint
 10
1106.301939678332
 20
681.0823688195982
 30
0.0
  0
POINT
  5
1D5
330
1CB
100
AcDbEntity
  8
Defpoints
  6
Continuous
 62
     0
 48
3.0
100
AcDbPoint
 10
1118.858901678332
 20
681.0823688195982
 30
0.0
  0
POINT
  5
1D6
330
1CB
100
AcDbEntity
  8
Defpoints
  6
Continuous
 62
     0
 48
3.0
100
AcDbPoint
 10
1118.858901678332
 20
751.793046938253
 30
0.0
  0
ENDBLK
  5
1D8
330
1CB
100
AcDbEntity
  8
0
 48
3.0
100
AcDbBlockEnd
  0
BLOCK
  5
21C5
330
21BB
100
AcDbEntity
  8
0
 48
3.0
100
AcDbBlockBegin
  2
*D11
 70
     1
 10
0.0
 20
0.0
 30
0.0
  3
*D11
  1

  0
LINE
  5
21BC
330
21BB
100
AcDbEntity
  8
寸法線
 62
     0
 48
3.0
370
    -2
100
AcDbLine
 10
1356.384219678332
 20
589.0823688195983
 30
0.0
 11
1458.148843602096
 21
589.0823688195983
 31
0.0
  0
LINE
  5
21BD
330
21BB
100
AcDbEntity
  8
寸法線
 62
     0
 48
3.0
370
    -2
100
AcDbLine
 10
1356.384219678332
 20
649.0823688195982
 30
0.0
 11
1458.148843602096
 21
649.0823688195982
 31
0.0
  0
LINE
  5
21BE
330
21BB
100
AcDbEntity
  8
寸法線
 62
     0
 48
3.0
370
    -2
100
AcDbLine
 10
1443.148843602096
 20
604.0823688195983
 30
0.0
 11
1443.148843602096
 21
634.0823688195983
 31
0.0
  0
INSERT
  5
21BF
330
21BB
100
AcDbEntity
  8
寸法線
 62
     0
 48
3.0
370
    -2
100
AcDbBlockReference
  2
_Open30
 10
1443.148843602096
 20
589.0823688195983
 30
0.0
 41
15.0
 42
15.0
 43
15.0
 50
270.0
  0
INSERT
  5
21C0
330
21BB
100
AcDbEntity
  8
寸法線
 62
     0
 48
3.0
370
    -2
100
AcDbBlockReference
  2
_Open30
 10
1443.148843602096
 20
649.0823688195982
 30
0.0
 41
15.0
 42
15.0
 43
15.0
 50
90.0
  0
MTEXT
  5
21C1
330
21BB
100
AcDbEntity
  8
寸法線
 62
     0
 48
3.0
100
AcDbMText
 10
1423.148843602096
 20
619.0823688195985
 30
0.0
 40
30.0
 41
0.0
 71
     5
 72
     1
  1
60
 11
0.0000000000000001
 21
1.0
 31
0.0
 73
     1
 44
1.0
1001
ACAD
1000
MTEXTBEGIN
1070
    73
1070
     1
1070
    44
1040
1.0
1070
    74
1070
     0
1000
MTEXTEND
  0
POINT
  5
21C2
330
21BB
100
AcDbEntity
  8
Defpoints
 62
     0
 48
3.0
100
AcDbPoint
 10
1336.384219678332
 20
589.0823688195983
 30
0.0
  0
POINT
  5
21C3
330
21BB
100
AcDbEntity
  8
Defpoints
 62
     0
 48
3.0
100
AcDbPoint
 10
1336.384219678332
 20
649.0823688195982
 30
0.0
  0
POINT
  5
21C4
330
21BB
100
AcDbEntity
  8
Defpoints
 62
     0
 48
3.0
100
AcDbPoint
 10
1443.148843602096
 20
649.0823688195982
 30
0.0
  0
ENDBLK
  5
21C6
330
21BB
100
AcDbEntity
  8
0
 48
3.0
100
AcDbBlockEnd
  0
BLOCK
  5
2564
330
255A
100
AcDbEntity
  8
0
 48
3.0
100
AcDbBlockBegin
  2
P-H60
 70
     0
 10
0.0
 20
0.0
 30
0.0
  3
P-H60
  1

  0
LINE
  5
255B
330
255A
100
AcDbEntity
  8
0
100
AcDbLine
 10
2.999997
 20
0.000001
 30
0.0
 11
56.999997
 21
0.000001
 31
0.0
  0
LINE
  5
255C
330
255A
100
AcDbEntity
  8
0
100
AcDbLine
 10
-0.000003
 20
-2.999999
 30
0.0
 11
-0.000003
 21
-36.999999
 31
0.0
  0
LINE
  5
255D
330
255A
100
AcDbEntity
  8
0
100
AcDbLine
 10
2.999997
 20
-39.999999
 30
0.0
 11
56.999997
 21
-39.999999
 31
0.0
  0
ARC
  5
255E
330
255A
100
AcDbEntity
  8
0
100
AcDbCircle
 10
2.999997
 20
-36.999999
 30
0.0
 40
3.0
100
AcDbArc
 50
180.0
 51
270.0
  0
ARC
  5
255F
330
255A
100
AcDbEntity
  8
0
100
AcDbCircle
 10
2.999997
 20
-2.999999
 30
0.0
 40
3.0
100
AcDbArc
 50
90.0
 51
180.0
  0
LINE
  5
2560
330
255A
100
AcDbEntity
  8
0
100
AcDbLine
 10
59.999997
 20
-36.999999
 30
0.0
 11
59.999997
 21
-2.999999
 31
0.0
  0
ARC
  5
2561
330
255A
100
AcDbEntity
  8
0
100
AcDbCircle
 10
56.999997
 20
-2.999999
 30
0.0
 40
3.0
100
AcDbArc
 50
0.0
 51
90.0
  0
ARC
  5
2562
330
255A
100
AcDbEntity
  8
0
100
AcDbCircle
 10
56.999997
 20
-36.999999
 30
0.0
 40
3.0
100
AcDbArc
 50
270.0
 51
0.0
  0
LWPOLYLINE
  5
2563
330
255A
100
AcDbEntity
  8
0
  6
Continuous
100
AcDbPolyline
 90
        4
 70
     1
 43
0.0
 10
2.299996999999999
 20
-37.69999900000001
 10
57.699997
 20
-37.69999900000001
 10
57.699997
 20
-2.299998999999999
 10
2.299996999999999
 20
-2.299998999999999
  0
ENDBLK
  5
2565
330
255A
100
AcDbEntity
  8
0
 48
3.0
100
AcDbBlockEnd
  0
BLOCK
  5
266A
330
2665
100
AcDbEntity
  8
0
 48
3.0
100
AcDbBlockBegin
  2
鎌下
 70
     0
 10
0.0
 20
0.0
 30
0.0
  3
鎌下
  1

  0
MTEXT
  5
2666
330
2665
100
AcDbEntity
  8
外枠
  6
Continuous
100
AcDbMText
 10
40.55333581259037
 20
-88.14888116777728
 30
0.0
 40
28.17460800000001
 41
43.8527
 71
     1
 72
     5
  1
{\fHGSeikaishotaiPRO|b0|i0|c128|p65;下}
 73
     1
 44
1.0
1001
ACAD
1000
MTEXTBEGIN
1070
    73
1070
     1
1070
    44
1040
1.0
1070
    74
1070
     0
1000
MTEXTEND
  0
MTEXT
  5
2667
330
2665
100
AcDbEntity
  8
外枠
  6
Continuous
100
AcDbMText
 10
40.55333581259037
 20
-45.61885629864991
 30
0.0
 40
28.17460800000001
 41
43.8527
 71
     1
 72
     5
  1
{\fHGSeikaishotaiPRO|b0|i0|c128|p65;鎌}
 73
     1
 44
1.0
1001
ACAD
1000
MTEXTBEGIN
1070
    73
1070
     1
1070
    44
1040
1.0
1070
    74
1070
     0
1000
MTEXTEND
  0
ELLIPSE
  5
2668
330
2665
100
AcDbEntity
  8
外枠
  6
Continuous
100
AcDbEllipse
 10
61.68068686355036
 20
-84.59863033186412
 30
0.0
 11
0.0
 21
-47.8594442149426
 31
0.0
210
0.0
220
0.0
230
1.0
 40
0.7999999999999857
 41
0.0
 42
6.283185307179586
  0
ENDBLK
  5
266B
330
2665
100
AcDbEntity
  8
0
 48
3.0
100
AcDbBlockEnd
  0
BLOCK
  5
2714
330
2708
100
AcDbEntity
  8
0
 48
3.0
100
AcDbBlockBegin
  2
GFB新
 70
     0
 10
0.0
 20
0.0
 30
0.0
  3
GFB新
  1

  0
LINE
  5
2709
330
2708
100
AcDbEntity
  8
エンボス
370
     0
100
AcDbLine
 10
-207.7431163161555
 20
217.548054223251
 30
0.0
 11
-207.7431163161555
 21
37.54805422325097
 31
0.0
  0
LINE
  5
270A
330
2708
100
AcDbEntity
  8
エンボス
370
     0
100
AcDbLine
 10
-177.5031163161557
 20
217.548054223251
 30
0.0
 11
-177.5031163161557
 21
37.54805422325097
 31
0.0
  0
LWPOLYLINE
  5
270B
330
2708
100
AcDbEntity
  8
エンボス
  6
Continuous
100
AcDbPolyline
 90
        4
 70
     1
 43
0.0
 10
-354.3157130905711
 20
306.2431911820901
 10
-20.00000000000046
 20
306.2431911820901
 10
-20.00000000000046
 20
20.0
 10
-354.3157130905711
 20
20.0
  0
HATCH
  5
270C
330
2708
100
AcDbEntity
  8
エンボス
 48
3.0
100
AcDbHatch
 10
0.0
 20
0.0
 30
0.0
210
0.0
220
0.0
230
1.0
  2
ANSI31
 70
     0
 71
     0
 91
        2
 92
        7
 72
     0
 73
     1
 93
        4
 10
-177.5031163161557
 20
190.178232740995
 10
-207.7431163161555
 20
190.178232740995
 10
-207.7431163161555
 20
150.178232740995
 10
-177.5031163161557
 20
150.178232740995
 97
        0
 92
        7
 72
     0
 73
     1
 93
        4
 10
-177.5031163161552
 20
110.178232740995
 10
-207.7431163161555
 20
110.178232740995
 10
-207.7431163161555
 20
70.17823274099504
 10
-177.5031163161557
 20
70.17823274099504
 97
        0
 75
     0
 76
     1
 52
0.0
 41
1.0
 77
     0
 78
     1
 53
45.0
 43
-2606.130945379155
 44
61.80481481577524
 45
-2.245064030267287
 46
2.245064030267288
 79
     0
 47
0.6338635763914874
 98
        2
 10
-190.2538551621915
 20
172.4840090799864
 10
-186.4493471399023
 20
100.8574248738171
  0
LINE
  5
270D
330
2708
100
AcDbEntity
  8
エンボス
  6
Continuous
100
AcDbLine
 10
-207.7431163161555
 20
190.178232740995
 30
0.0
 11
-177.5031163161552
 21
190.178232740995
 31
0.0
  0
LINE
  5
270E
330
2708
100
AcDbEntity
  8
エンボス
  6
Continuous
100
AcDbLine
 10
-207.7431163161555
 20
150.178232740995
 30
0.0
 11
-177.5031163161552
 21
150.178232740995
 31
0.0
  0
LINE
  5
270F
330
2708
100
AcDbEntity
  8
エンボス
  6
Continuous
100
AcDbLine
 10
-207.7431163161555
 20
110.178232740995
 30
0.0
 11
-177.5031163161552
 21
110.178232740995
 31
0.0
  0
LINE
  5
2710
330
2708
100
AcDbEntity
  8
エンボス
  6
Continuous
100
AcDbLine
 10
-207.7431163161555
 20
70.17823274099504
 30
0.0
 11
-177.5031163161552
 21
70.17823274099504
 31
0.0
  0
TEXT
  5
2711
330
2708
100
AcDbEntity
  8
エンボス
  6
Continuous
100
AcDbText
 10
-314.1412150274577
 20
260.5024615214613
 30
0.0
 40
30.0
  1
GFB形状詳細
100
AcDbText
1001
ACAD
1000
MTEXTBEGIN
1070
    73
1070
     1
1070
    44
1040
1.0
1070
    74
1070
     0
1000
MTEXTEND
1000
MTEXTBEGIN
1070
    73
1070
     1
1070
    44
1040
1.0
1070
    74
1070
     0
1000
MTEXTEND
1000
MTEXTBEGIN
1070
    73
1070
     1
1070
    44
1040
1.0
1070
    74
1070
     0
1000
MTEXTEND
1000
MTEXTBEGIN
1070
    73
1070
     1
1070
    44
1040
1.0
1070
    74
1070
     0
1000
MTEXTEND
  0
MTEXT
  5
2712
330
2708
100
AcDbEntity
  8
エンボス
  6
Continuous
100
AcDbMText
 10
-283.7566471803206
 20
246.2734505767348
 30
0.0
 40
15.0
 41
256.2474
 71
     1
 72
     5
  1
※塗りつぶし部分突起
 73
     1
 44
1.0
1001
ACAD
1000
MTEXTBEGIN
1070
    73
1070
     1
1070
    44
1040
1.0
1070
    74
1070
     0
1000
MTEXTEND
  0
ENDBLK
  5
2715
330
2708
100
AcDbEntity
  8
0
 48
3.0
100
AcDbBlockEnd
  0
BLOCK
  5
2798
330
2797
100
AcDbEntity
  8
0
 48
3.0
100
AcDbBlockBegin
  2
*U15
 70
     1
 10
0.0
 20
0.0
 30
0.0
  3
*U15
  1

  0
LINE
  5
279E
330
2797
100
AcDbEntity
  8
本体
  6
Continuous
100
AcDbLine
 10
-6.278481000000056
 20
10.0
 30
0.0
 11
3.278481000000056
 21
10.0
 31
0.0
  0
LINE
  5
279F
330
2797
100
AcDbEntity
  8
本体
  6
Continuous
100
AcDbLine
 10
-6.278481000000056
 20
16.0
 30
0.0
 11
3.278481000000056
 21
16.0
 31
0.0
  0
LINE
  5
27A0
330
2797
100
AcDbEntity
  8
本体
  6
Continuous
100
AcDbLine
 10
3.278481000000056
 20
16.0
 30
0.0
 11
6.278481000000056
 21
16.0
 31
0.0
  0
LINE
  5
27A1
330
2797
100
AcDbEntity
  8
本体
  6
Continuous
100
AcDbLine
 10
6.278481000000056
 20
16.0
 30
0.0
 11
6.278481000000056
 21
-16.0
 31
0.0
  0
LINE
  5
27A2
330
2797
100
AcDbEntity
  8
本体
  6
Continuous
100
AcDbLine
 10
6.278481000000056
 20
-16.0
 30
0.0
 11
3.278481000000056
 21
-16.0
 31
0.0
  0
LINE
  5
27A3
330
2797
100
AcDbEntity
  8
本体
  6
Continuous
100
AcDbLine
 10
3.278481000000056
 20
-16.0
 30
0.0
 11
3.278481000000056
 21
16.0
 31
0.0
  0
LINE
  5
27A4
330
2797
100
AcDbEntity
  8
本体
  6
Continuous
100
AcDbLine
 10
-6.265822999999954
 20
10.0
 30
0.0
 11
3.291139000000157
 21
16.0
 31
0.0
  0
LINE
  5
27A5
330
2797
100
AcDbEntity
  8
本体
 48
3.0
100
AcDbLine
 10
-6.278481000000056
 20
-16.0
 30
0.0
 11
3.278481000000056
 21
-16.0
 31
0.0
  0
ENDBLK
  5
2799
330
2797
100
AcDbEntity
  8
0
 48
3.0
100
AcDbBlockEnd
  0
BLOCK
  5
279B
330
279A
100
AcDbEntity
  8
0
 48
3.0
100
AcDbBlockBegin
  2
*U16
 70
     1
 10
0.0
 20
0.0
 30
0.0
  3
*U16
  1

  0
INSERT
  5
27B4
330
279A
100
AcDbEntity
  8
本体
  6
ByBlock
 62
     0
370
    -2
380
     1
100
AcDbBlockReference
  2
*U15
 10
0.0
 20
0.0
 30
0.0
  0
INSERT
  5
27B5
330
279A
100
AcDbEntity
  8
本体
  6
ByBlock
 62
     0
370
    -2
380
     1
100
AcDbBlockReference
  2
*U15
 10
12.56
 20
0.0
 30
0.0
  0
INSERT
  5
27B6
330
279A
100
AcDbEntity
  8
本体
  6
ByBlock
 62
     0
370
    -2
380
     1
100
AcDbBlockReference
  2
*U15
 10
25.12
 20
0.0
 30
0.0
  0
INSERT
  5
27B7
330
279A
100
AcDbEntity
  8
本体
  6
ByBlock
 62
     0
370
    -2
380
     1
100
AcDbBlockReference
  2
*U15
 10
37.68
 20
0.0
 30
0.0
  0
INSERT
  5
27B8
330
279A
100
AcDbEntity
  8
本体
  6
ByBlock
 62
     0
370
    -2
380
     1
100
AcDbBlockReference
  2
*U15
 10
50.24
 20
0.0
 30
0.0
  0
INSERT
  5
27B9
330
279A
100
AcDbEntity
  8
本体
  6
ByBlock
 62
     0
370
    -2
380
     1
100
AcDbBlockReference
  2
*U15
 10
62.80000000000001
 20
0.0
 30
0.0
  0
INSERT
  5
27BA
330
279A
100
AcDbEntity
  8
本体
  6
ByBlock
 62
     0
370
    -2
380
     1
100
AcDbBlockReference
  2
*U15
 10
75.36
 20
0.0
 30
0.0
  0
INSERT
  5
27BB
330
279A
100
AcDbEntity
  8
本体
  6
ByBlock
 62
     0
370
    -2
380
     1
100
AcDbBlockReference
  2
*U15
 10
87.91999999999999
 20
0.0
 30
0.0
  0
INSERT
  5
27BC
330
279A
100
AcDbEntity
  8
本体
  6
ByBlock
 62
     0
370
    -2
380
     1
100
AcDbBlockReference
  2
*U15
 10
100.48
 20
0.0
 30
0.0
  0
INSERT
  5
27BD
330
279A
100
AcDbEntity
  8
本体
  6
ByBlock
 62
     0
370
    -2
380
     1
100
AcDbBlockReference
  2
*U15
 10
113.04
 20
0.0
 30
0.0
  0
INSERT
  5
27BE
330
279A
100
AcDbEntity
  8
本体
  6
ByBlock
 62
     0
370
    -2
380
     1
100
AcDbBlockReference
  2
*U15
 10
125.6
 20
0.0
 30
0.0
  0
INSERT
  5
27BF
330
279A
100
AcDbEntity
  8
本体
  6
ByBlock
 62
     0
370
    -2
380
     1
100
AcDbBlockReference
  2
*U15
 10
138.16
 20
0.0
 30
0.0
  0
INSERT
  5
27C0
330
279A
100
AcDbEntity
  8
本体
  6
ByBlock
 62
     0
370
    -2
380
     1
100
AcDbBlockReference
  2
*U15
 10
150.72
 20
0.0
 30
0.0
  0
INSERT
  5
27C1
330
279A
100
AcDbEntity
  8
本体
  6
ByBlock
 62
     0
370
    -2
380
     1
100
AcDbBlockReference
  2
*U15
 10
163.28
 20
0.0
 30
0.0
  0
INSERT
  5
27C2
330
279A
100
AcDbEntity
  8
本体
  6
ByBlock
 62
     0
370
    -2
380
     1
100
AcDbBlockReference
  2
*U15
 10
175.84
 20
0.0
 30
0.0
  0
INSERT
  5
27C3
330
279A
100
AcDbEntity
  8
本体
  6
ByBlock
 62
     0
370
    -2
380
     1
100
AcDbBlockReference
  2
*U15
 10
188.4
 20
0.0
 30
0.0
  0
INSERT
  5
27C4
330
279A
100
AcDbEntity
  8
本体
  6
ByBlock
 62
     0
370
    -2
380
     1
100
AcDbBlockReference
  2
*U15
 10
200.96
 20
0.0
 30
0.0
  0
INSERT
  5
27C5
330
279A
100
AcDbEntity
  8
本体
  6
ByBlock
 62
     0
370
    -2
380
     1
100
AcDbBlockReference
  2
*U15
 10
213.52
 20
0.0
 30
0.0
  0
INSERT
  5
27C6
330
279A
100
AcDbEntity
  8
本体
  6
ByBlock
 62
     0
370
    -2
380
     1
100
AcDbBlockReference
  2
*U15
 10
226.08
 20
0.0
 30
0.0
  0
INSERT
  5
27C7
330
279A
100
AcDbEntity
  8
本体
  6
ByBlock
 62
     0
370
    -2
380
     1
100
AcDbBlockReference
  2
*U15
 10
238.64
 20
0.0
 30
0.0
  0
INSERT
  5
27C8
330
279A
100
AcDbEntity
  8
本体
  6
ByBlock
 62
     0
370
    -2
380
     1
100
AcDbBlockReference
  2
*U15
 10
251.2
 20
0.0
 30
0.0
  0
INSERT
  5
27C9
330
279A
100
AcDbEntity
  8
本体
  6
ByBlock
 62
     0
370
    -2
380
     1
100
AcDbBlockReference
  2
*U15
 10
263.76
 20
0.0
 30
0.0
  0
INSERT
  5
27CA
330
279A
100
AcDbEntity
  8
本体
  6
ByBlock
 62
     0
370
    -2
380
     1
100
AcDbBlockReference
  2
*U15
 10
276.32
 20
0.0
 30
0.0
  0
INSERT
  5
27CB
330
279A
100
AcDbEntity
  8
本体
  6
ByBlock
 62
     0
370
    -2
380
     1
100
AcDbBlockReference
  2
*U15
 10
288.88
 20
0.0
 30
0.0
  0
INSERT
  5
27CC
330
279A
100
AcDbEntity
  8
本体
  6
ByBlock
 62
     0
370
    -2
380
     1
100
AcDbBlockReference
  2
*U15
 10
301.44
 20
0.0
 30
0.0
  0
INSERT
  5
27CD
330
279A
100
AcDbEntity
  8
本体
  6
ByBlock
 62
     0
370
    -2
380
     1
100
AcDbBlockReference
  2
*U15
 10
314.0
 20
0.0
 30
0.0
  0
INSERT
  5
27CE
330
279A
100
AcDbEntity
  8
本体
  6
ByBlock
 62
     0
370
    -2
380
     1
100
AcDbBlockReference
  2
*U15
 10
326.56
 20
0.0
 30
0.0
  0
INSERT
  5
27CF
330
279A
100
AcDbEntity
  8
本体
  6
ByBlock
 62
     0
370
    -2
380
     1
100
AcDbBlockReference
  2
*U15
 10
339.12
 20
0.0
 30
0.0
  0
INSERT
  5
27D0
330
279A
100
AcDbEntity
  8
本体
  6
ByBlock
 62
     0
370
    -2
380
     1
100
AcDbBlockReference
  2
*U15
 10
351.68
 20
0.0
 30
0.0
  0
INSERT
  5
27D1
330
279A
100
AcDbEntity
  8
本体
  6
ByBlock
 62
     0
370
    -2
380
     1
100
AcDbBlockReference
  2
*U15
 10
364.24
 20
0.0
 30
0.0
  0
INSERT
  5
27D2
330
279A
100
AcDbEntity
  8
本体
  6
ByBlock
 62
     0
370
    -2
380
     1
100
AcDbBlockReference
  2
*U15
 10
376.8
 20
0.0
 30
0.0
  0
INSERT
  5
27D3
330
279A
100
AcDbEntity
  8
本体
  6
ByBlock
 62
     0
370
    -2
380
     1
100
AcDbBlockReference
  2
*U15
 10
389.36
 20
0.0
 30
0.0
  0
INSERT
  5
27D4
330
279A
100
AcDbEntity
  8
本体
  6
ByBlock
 62
     0
370
    -2
380
     1
100
AcDbBlockReference
  2
*U15
 10
401.92
 20
0.0
 30
0.0
  0
INSERT
  5
27D5
330
279A
100
AcDbEntity
  8
本体
  6
ByBlock
 62
     0
370
    -2
380
     1
100
AcDbBlockReference
  2
*U15
 10
414.48
 20
0.0
 30
0.0
  0
INSERT
  5
27D6
330
279A
100
AcDbEntity
  8
本体
  6
ByBlock
 62
     0
370
    -2
380
     1
100
AcDbBlockReference
  2
*U15
 10
427.04
 20
0.0
 30
0.0
  0
INSERT
  5
27D7
330
279A
100
AcDbEntity
  8
本体
  6
ByBlock
 62
     0
370
    -2
380
     1
100
AcDbBlockReference
  2
*U15
 10
439.5999999999999
 20
0.0
 30
0.0
  0
INSERT
  5
27D8
330
279A
100
AcDbEntity
  8
本体
  6
ByBlock
 62
     0
370
    -2
380
     1
100
AcDbBlockReference
  2
*U15
 10
452.16
 20
0.0
 30
0.0
  0
INSERT
  5
27D9
330
279A
100
AcDbEntity
  8
本体
  6
ByBlock
 62
     0
370
    -2
380
     1
100
AcDbBlockReference
  2
*U15
 10
464.72
 20
0.0
 30
0.0
  0
INSERT
  5
27DA
330
279A
100
AcDbEntity
  8
本体
  6
ByBlock
 62
     0
370
    -2
380
     1
100
AcDbBlockReference
  2
*U15
 10
477.28
 20
0.0
 30
0.0
  0
INSERT
  5
27DB
330
279A
100
AcDbEntity
  8
本体
  6
ByBlock
 62
     0
370
    -2
380
     1
100
AcDbBlockReference
  2
*U15
 10
489.84
 20
0.0
 30
0.0
  0
INSERT
  5
27DC
330
279A
100
AcDbEntity
  8
本体
  6
ByBlock
 62
     0
370
    -2
380
     1
100
AcDbBlockReference
  2
*U15
 10
502.4
 20
0.0
 30
0.0
  0
INSERT
  5
27DD
330
279A
100
AcDbEntity
  8
本体
  6
ByBlock
 62
     0
370
    -2
380
     1
100
AcDbBlockReference
  2
*U15
 10
514.96
 20
0.0
 30
0.0
  0
INSERT
  5
27DE
330
279A
100
AcDbEntity
  8
本体
  6
ByBlock
 62
     0
370
    -2
380
     1
100
AcDbBlockReference
  2
*U15
 10
527.5199999999999
 20
0.0
 30
0.0
  0
INSERT
  5
27DF
330
279A
100
AcDbEntity
  8
本体
  6
ByBlock
 62
     0
370
    -2
380
     1
100
AcDbBlockReference
  2
*U15
 10
540.08
 20
0.0
 30
0.0
  0
INSERT
  5
27E0
330
279A
100
AcDbEntity
  8
本体
  6
ByBlock
 62
     0
370
    -2
380
     1
100
AcDbBlockReference
  2
*U15
 10
552.6399999999999
 20
0.0
 30
0.0
  0
INSERT
  5
27E1
330
279A
100
AcDbEntity
  8
本体
  6
ByBlock
 62
     0
370
    -2
380
     1
100
AcDbBlockReference
  2
*U15
 10
565.2
 20
0.0
 30
0.0
  0
INSERT
  5
27E2
330
279A
100
AcDbEntity
  8
本体
  6
ByBlock
 62
     0
370
    -2
380
     1
100
AcDbBlockReference
  2
*U15
 10
577.7599999999999
 20
0.0
 30
0.0
  0
INSERT
  5
27E3
330
279A
100
AcDbEntity
  8
本体
  6
ByBlock
 62
     0
370
    -2
380
     1
100
AcDbBlockReference
  2
*U15
 10
590.32
 20
0.0
 30
0.0
  0
INSERT
  5
27E4
330
279A
100
AcDbEntity
  8
本体
  6
ByBlock
 62
     0
370
    -2
380
     1
100
AcDbBlockReference
  2
*U15
 10
602.88
 20
0.0
 30
0.0
  0
INSERT
  5
27E5
330
279A
100
AcDbEntity
  8
本体
  6
ByBlock
 62
     0
370
    -2
380
     1
100
AcDbBlockReference
  2
*U15
 10
615.44
 20
0.0
 30
0.0
  0
INSERT
  5
27E6
330
279A
100
AcDbEntity
  8
本体
  6
ByBlock
 62
     0
370
    -2
380
     1
100
AcDbBlockReference
  2
*U15
 10
628.0
 20
0.0
 30
0.0
  0
INSERT
  5
27E7
330
279A
100
AcDbEntity
  8
本体
  6
ByBlock
 62
     0
370
    -2
380
     1
100
AcDbBlockReference
  2
*U15
 10
640.56
 20
0.0
 30
0.0
  0
INSERT
  5
27E8
330
279A
100
AcDbEntity
  8
本体
  6
ByBlock
 62
     0
370
    -2
380
     1
100
AcDbBlockReference
  2
*U15
 10
653.12
 20
0.0
 30
0.0
  0
INSERT
  5
27E9
330
279A
100
AcDbEntity
  8
本体
  6
ByBlock
 62
     0
370
    -2
380
     1
100
AcDbBlockReference
  2
*U15
 10
665.68
 20
0.0
 30
0.0
  0
INSERT
  5
27EA
330
279A
100
AcDbEntity
  8
本体
  6
ByBlock
 62
     0
370
    -2
380
     1
100
AcDbBlockReference
  2
*U15
 10
678.2399999999999
 20
0.0
 30
0.0
  0
INSERT
  5
27EB
330
279A
100
AcDbEntity
  8
本体
  6
ByBlock
 62
     0
370
    -2
380
     1
100
AcDbBlockReference
  2
*U15
 10
690.8000000000001
 20
0.0
 30
0.0
  0
INSERT
  5
27EC
330
279A
100
AcDbEntity
  8
本体
  6
ByBlock
 62
     0
370
    -2
380
     1
100
AcDbBlockReference
  2
*U15
 10
703.3599999999999
 20
0.0
 30
0.0
  0
INSERT
  5
27ED
330
279A
100
AcDbEntity
  8
本体
  6
ByBlock
 62
     0
370
    -2
380
     1
100
AcDbBlockReference
  2
*U15
 10
715.9200000000001
 20
0.0
 30
0.0
  0
INSERT
  5
27EE
330
279A
100
AcDbEntity
  8
本体
  6
ByBlock
 62
     0
370
    -2
380
     1
100
AcDbBlockReference
  2
*U15
 10
728.48
 20
0.0
 30
0.0
  0
INSERT
  5
27EF
330
279A
100
AcDbEntity
  8
本体
  6
ByBlock
 62
     0
370
    -2
380
     1
100
AcDbBlockReference
  2
*U15
 10
741.04
 20
0.0
 30
0.0
  0
INSERT
  5
27F0
330
279A
100
AcDbEntity
  8
本体
  6
ByBlock
 62
     0
370
    -2
380
     1
100
AcDbBlockReference
  2
*U15
 10
753.6
 20
0.0
 30
0.0
  0
INSERT
  5
27F1
330
279A
100
AcDbEntity
  8
本体
  6
ByBlock
 62
     0
370
    -2
380
     1
100
AcDbBlockReference
  2
*U15
 10
766.16
 20
0.0
 30
0.0
  0
INSERT
  5
27F2
330
279A
100
AcDbEntity
  8
本体
  6
ByBlock
 62
     0
370
    -2
380
     1
100
AcDbBlockReference
  2
*U15
 10
778.72
 20
0.0
 30
0.0
  0
INSERT
  5
27F3
330
279A
100
AcDbEntity
  8
本体
  6
ByBlock
 62
     0
370
    -2
380
     1
100
AcDbBlockReference
  2
*U15
 10
791.28
 20
0.0
 30
0.0
  0
INSERT
  5
27F4
330
279A
100
AcDbEntity
  8
本体
  6
ByBlock
 62
     0
370
    -2
380
     1
100
AcDbBlockReference
  2
*U15
 10
803.8400000000001
 20
0.0
 30
0.0
  0
INSERT
  5
27F5
330
279A
100
AcDbEntity
  8
本体
  6
ByBlock
 62
     0
370
    -2
380
     1
100
AcDbBlockReference
  2
*U15
 10
816.3999999999999
 20
0.0
 30
0.0
  0
INSERT
  5
27F6
330
279A
100
AcDbEntity
  8
本体
  6
ByBlock
 62
     0
370
    -2
380
     1
100
AcDbBlockReference
  2
*U15
 10
828.96
 20
0.0
 30
0.0
  0
INSERT
  5
27F7
330
279A
100
AcDbEntity
  8
本体
  6
ByBlock
 62
     0
370
    -2
380
     1
100
AcDbBlockReference
  2
*U15
 10
841.52
 20
0.0
 30
0.0
  0
INSERT
  5
27F8
330
279A
100
AcDbEntity
  8
本体
  6
ByBlock
 62
     0
370
    -2
380
     1
100
AcDbBlockReference
  2
*U15
 10
854.08
 20
0.0
 30
0.0
  0
INSERT
  5
27F9
330
279A
100
AcDbEntity
  8
本体
  6
ByBlock
 62
     0
370
    -2
380
     1
100
AcDbBlockReference
  2
*U15
 10
866.6399999999999
 20
0.0
 30
0.0
  0
INSERT
  5
27FA
330
279A
100
AcDbEntity
  8
本体
  6
ByBlock
 62
     0
370
    -2
380
     1
100
AcDbBlockReference
  2
*U15
 10
879.1999999999999
 20
0.0
 30
0.0
  0
INSERT
  5
27FB
330
279A
100
AcDbEntity
  8
本体
  6
ByBlock
 62
     0
370
    -2
380
     1
100
AcDbBlockReference
  2
*U15
 10
891.76
 20
0.0
 30
0.0
  0
INSERT
  5
27FC
330
279A
100
AcDbEntity
  8
本体
  6
ByBlock
 62
     0
370
    -2
380
     1
100
AcDbBlockReference
  2
*U15
 10
904.32
 20
0.0
 30
0.0
  0
INSERT
  5
27FD
330
279A
100
AcDbEntity
  8
本体
  6
ByBlock
 62
     0
370
    -2
380
     1
100
AcDbBlockReference
  2
*U15
 10
916.88
 20
0.0
 30
0.0
  0
INSERT
  5
27FE
330
279A
100
AcDbEntity
  8
本体
  6
ByBlock
 62
     0
370
    -2
380
     1
100
AcDbBlockReference
  2
*U15
 10
929.4400000000001
 20
0.0
 30
0.0
  0
INSERT
  5
27FF
330
279A
100
AcDbEntity
  8
本体
  6
ByBlock
 62
     0
370
    -2
380
     1
100
AcDbBlockReference
  2
*U15
 10
942.0
 20
0.0
 30
0.0
  0
INSERT
  5
2800
330
279A
100
AcDbEntity
  8
本体
  6
ByBlock
 62
     0
370
    -2
380
     1
100
AcDbBlockReference
  2
*U15
 10
954.56
 20
0.0
 30
0.0
  0
ENDBLK
  5
279C
330
279A
100
AcDbEntity
  8
0
 48
3.0
100
AcDbBlockEnd
  0
BLOCK
  5
28D0
330
28CF
100
AcDbEntity
  8
0
 48
3.0
100
AcDbBlockBegin
  2
*U17
 70
     1
 10
0.0
 20
0.0
 30
0.0
  3
*U17
  1

  0
LINE
  5
2C5A
330
28CF
100
AcDbEntity
  8
本体
  6
Continuous
100
AcDbLine
 10
7.778480385000193
 20
191.5
 30
0.0
 11
7.778480385000193
 21
152.5
 31
0.0
  0
LINE
  5
2C5B
330
28CF
100
AcDbEntity
  8
本体
  6
Continuous
100
AcDbLine
 10
4.778480385000193
 20
191.5
 30
0.0
 11
4.778480385000193
 21
152.5
 31
0.0
  0
LINE
  5
2C5C
330
28CF
100
AcDbEntity
  8
本体
  6
Continuous
100
AcDbLine
 10
7.778480385000193
 20
147.5
 30
0.0
 11
7.778480385000193
 21
52.5
 31
0.0
  0
LINE
  5
2C5D
330
28CF
100
AcDbEntity
  8
本体
  6
Continuous
100
AcDbLine
 10
4.778480385000193
 20
147.5
 30
0.0
 11
4.778480385000193
 21
52.5
 31
0.0
  0
LINE
  5
2C5E
330
28CF
100
AcDbEntity
  8
本体
  6
Continuous
100
AcDbLine
 10
7.778480385000193
 20
-47.5
 30
0.0
 11
7.778480385000193
 21
47.5
 31
0.0
  0
LINE
  5
2C5F
330
28CF
100
AcDbEntity
  8
本体
  6
Continuous
100
AcDbLine
 10
4.778480385000193
 20
-47.5
 30
0.0
 11
4.778480385000193
 21
47.5
 31
0.0
  0
LINE
  5
2C60
330
28CF
100
AcDbEntity
  8
本体
  6
Continuous
100
AcDbLine
 10
7.778480385000193
 20
-191.5
 30
0.0
 11
7.778480385000193
 21
-152.5
 31
0.0
  0
LINE
  5
2C61
330
28CF
100
AcDbEntity
  8
本体
  6
Continuous
100
AcDbLine
 10
4.778480385000193
 20
-191.5
 30
0.0
 11
4.778480385000193
 21
-152.5
 31
0.0
  0
LINE
  5
2C62
330
28CF
100
AcDbEntity
  8
本体
  6
Continuous
100
AcDbLine
 10
4.778480385000193
 20
-147.5
 30
0.0
 11
4.778480385000193
 21
-52.5
 31
0.0
  0
LINE
  5
2C63
330
28CF
100
AcDbEntity
  8
本体
  6
Continuous
100
AcDbLine
 10
7.778480385000193
 20
-147.5
 30
0.0
 11
7.778480385000193
 21
-52.5
 31
0.0
  0
LINE
  5
2C64
330
28CF
100
AcDbEntity
  8
本体
  6
Continuous
100
AcDbLine
 10
-7.778481614999918
 20
147.5
 30
0.0
 11
4.778480385000193
 21
152.5
 31
0.0
  0
LINE
  5
2C65
330
28CF
100
AcDbEntity
  8
本体
  6
Continuous
100
AcDbLine
 10
-7.778481614999918
 20
47.5
 30
0.0
 11
4.778480385000193
 21
52.5
 31
0.0
  0
LINE
  5
2C66
330
28CF
100
AcDbEntity
  8
本体
  6
Continuous
100
AcDbLine
 10
-7.778481614999918
 20
-52.5
 30
0.0
 11
4.778480385000193
 21
-47.5
 31
0.0
  0
LINE
  5
2C67
330
28CF
100
AcDbEntity
  8
本体
  6
Continuous
100
AcDbLine
 10
-7.778481614999918
 20
-152.5
 30
0.0
 11
4.778480385000193
 21
-147.5
 31
0.0
  0
LINE
  5
2C68
330
28CF
100
AcDbEntity
  8
エンボス
  6
Continuous
100
AcDbLine
 10
4.778481614999918
 20
-38.96693721583938
 30
0.0
 11
7.778481614999918
 21
-37.76693721583934
 31
0.0
  0
LINE
  5
2C69
330
28CF
100
AcDbEntity
  8
エンボス
  6
Continuous
100
AcDbLine
 10
4.778481614999918
 20
-188.2000048
 30
0.0
 11
7.778481614999918
 21
-187.0000047999999
 31
0.0
  0
LINE
  5
2C6A
330
28CF
100
AcDbEntity
  8
エンボス
  6
Continuous
100
AcDbLine
 10
7.778481614999918
 20
-191.2000048
 30
0.0
 11
4.778481614999918
 21
-190.0000047999999
 31
0.0
  0
LINE
  5
2C6B
330
28CF
100
AcDbEntity
  8
エンボス
  6
Continuous
100
AcDbLine
 10
4.778481614999918
 20
-112.5669372158395
 30
0.0
 11
7.778481614999918
 21
-113.7669372158393
 31
0.0
  0
LINE
  5
2C6C
330
28CF
100
AcDbEntity
  8
エンボス
  6
Continuous
100
AcDbLine
 10
4.778481614999918
 20
-171.4000048
 30
0.0
 11
7.778481614999918
 21
-170.2000048
 31
0.0
  0
LINE
  5
2C6D
330
28CF
100
AcDbEntity
  8
エンボス
  6
Continuous
100
AcDbLine
 10
7.778481614999918
 20
-174.4000048
 30
0.0
 11
4.778481614999918
 21
-173.2000048
 31
0.0
  0
LINE
  5
2C6E
330
28CF
100
AcDbEntity
  8
エンボス
  6
Continuous
100
AcDbLine
 10
7.778481614999918
 20
-164.8000047999999
 30
0.0
 11
4.778481614999918
 21
-166.0000047999999
 31
0.0
  0
LINE
  5
2C6F
330
28CF
100
AcDbEntity
  8
エンボス
  6
Continuous
100
AcDbLine
 10
4.778481614999918
 20
-161.8000047999999
 30
0.0
 11
7.778481614999918
 21
-163.0000047999999
 31
0.0
  0
LINE
  5
2C70
330
28CF
100
AcDbEntity
  8
エンボス
  6
Continuous
100
AcDbLine
 10
7.778481614999918
 20
-157.6000048000001
 30
0.0
 11
4.778481614999918
 21
-156.4000048
 31
0.0
  0
LINE
  5
2C71
330
28CF
100
AcDbEntity
  8
エンボス
  6
Continuous
100
AcDbLine
 10
4.778481614999918
 20
-154.6000048000001
 30
0.0
 11
7.778481614999918
 21
-153.4000048
 31
0.0
  0
LINE
  5
2C72
330
28CF
100
AcDbEntity
  8
エンボス
  6
Continuous
100
AcDbLine
 10
4.778481614999918
 20
-178.6000048000001
 30
0.0
 11
7.778481614999918
 21
-179.8000047999999
 31
0.0
  0
LINE
  5
2C73
330
28CF
100
AcDbEntity
  8
エンボス
  6
Continuous
100
AcDbLine
 10
7.778481614999918
 20
-181.6000048000001
 30
0.0
 11
4.778481614999918
 21
-182.8000047999999
 31
0.0
  0
LINE
  5
2C74
330
28CF
100
AcDbEntity
  8
エンボス
  6
Continuous
100
AcDbLine
 10
7.778481614999918
 20
-125.1669372158394
 30
0.0
 11
4.778481614999918
 21
-123.9669372158394
 31
0.0
  0
LINE
  5
2C75
330
28CF
100
AcDbEntity
  8
エンボス
  6
Continuous
100
AcDbLine
 10
7.778481614999918
 20
-115.5669372158395
 30
0.0
 11
4.778481614999918
 21
-116.7669372158393
 31
0.0
  0
LINE
  5
2C76
330
28CF
100
AcDbEntity
  8
エンボス
  6
Continuous
100
AcDbLine
 10
4.778481614999918
 20
-122.1669372158394
 30
0.0
 11
7.778481614999918
 21
-120.9669372158393
 31
0.0
  0
LINE
  5
2C77
330
28CF
100
AcDbEntity
  8
エンボス
  6
Continuous
100
AcDbLine
 10
7.778481614999918
 20
-132.3669372158394
 30
0.0
 11
4.778481614999918
 21
-133.5669372158395
 31
0.0
  0
LINE
  5
2C78
330
28CF
100
AcDbEntity
  8
エンボス
  6
Continuous
100
AcDbLine
 10
4.778481614999918
 20
-129.3669372158394
 30
0.0
 11
7.778481614999918
 21
-130.5669372158395
 31
0.0
  0
LINE
  5
2C79
330
28CF
100
AcDbEntity
  8
エンボス
  6
Continuous
100
AcDbLine
 10
7.778481614999918
 20
-141.9669372158393
 30
0.0
 11
4.778481614999918
 21
-140.7669372158393
 31
0.0
  0
LINE
  5
2C7A
330
28CF
100
AcDbEntity
  8
エンボス
  6
Continuous
100
AcDbLine
 10
4.778481614999918
 20
-138.9669372158394
 30
0.0
 11
7.778481614999918
 21
-137.7669372158393
 31
0.0
  0
LINE
  5
2C7B
330
28CF
100
AcDbEntity
  8
エンボス
  6
Continuous
100
AcDbLine
 10
4.778481614999918
 20
-88.20000479999999
 30
0.0
 11
7.778481614999918
 21
-87.00000479999994
 31
0.0
  0
LINE
  5
2C7C
330
28CF
100
AcDbEntity
  8
エンボス
  6
Continuous
100
AcDbLine
 10
7.778481614999918
 20
-81.60000480000007
 30
0.0
 11
4.778481614999918
 21
-82.80000479999989
 31
0.0
  0
LINE
  5
2C7D
330
28CF
100
AcDbEntity
  8
エンボス
  6
Continuous
100
AcDbLine
 10
4.778481614999918
 20
-78.60000480000008
 30
0.0
 11
7.778481614999918
 21
-79.8000047999999
 31
0.0
  0
LINE
  5
2C7E
330
28CF
100
AcDbEntity
  8
エンボス
  6
Continuous
100
AcDbLine
 10
4.778481614999918
 20
-95.40000480000003
 30
0.0
 11
7.778481614999918
 21
-96.60000480000007
 31
0.0
  0
LINE
  5
2C7F
330
28CF
100
AcDbEntity
  8
エンボス
  6
Continuous
100
AcDbLine
 10
7.778481614999918
 20
-98.40000480000004
 30
0.0
 11
4.778481614999918
 21
-99.60000480000008
 31
0.0
  0
LINE
  5
2C80
330
28CF
100
AcDbEntity
  8
エンボス
  6
Continuous
100
AcDbLine
 10
7.778481614999918
 20
-91.20000479999999
 30
0.0
 11
4.778481614999918
 21
-90.00000479999995
 31
0.0
  0
LINE
  5
2C81
330
28CF
100
AcDbEntity
  8
エンボス
  6
Continuous
100
AcDbLine
 10
7.778481614999918
 20
-108.0000047999999
 30
0.0
 11
4.778481614999918
 21
-106.8000047999999
 31
0.0
  0
LINE
  5
2C82
330
28CF
100
AcDbEntity
  8
エンボス
  6
Continuous
100
AcDbLine
 10
4.778481614999918
 20
-105.0000047999999
 30
0.0
 11
7.778481614999918
 21
-103.8000047999999
 31
0.0
  0
LINE
  5
2C83
330
28CF
100
AcDbEntity
  8
エンボス
  6
Continuous
100
AcDbLine
 10
4.778481614999918
 20
-54.60000480000008
 30
0.0
 11
7.778481614999918
 21
-53.40000480000004
 31
0.0
  0
LINE
  5
2C84
330
28CF
100
AcDbEntity
  8
エンボス
  6
Continuous
100
AcDbLine
 10
7.778481614999918
 20
-57.60000480000008
 30
0.0
 11
4.778481614999918
 21
-56.40000480000003
 31
0.0
  0
LINE
  5
2C85
330
28CF
100
AcDbEntity
  8
エンボス
  6
Continuous
100
AcDbLine
 10
4.778481614999918
 20
-61.80000479999989
 30
0.0
 11
7.778481614999918
 21
-63.00000479999994
 31
0.0
  0
LINE
  5
2C86
330
28CF
100
AcDbEntity
  8
エンボス
  6
Continuous
100
AcDbLine
 10
7.778481614999918
 20
-64.8000047999999
 30
0.0
 11
4.778481614999918
 21
-66.00000479999994
 31
0.0
  0
LINE
  5
2C87
330
28CF
100
AcDbEntity
  8
エンボス
  6
Continuous
100
AcDbLine
 10
7.778481614999918
 20
-74.40000480000003
 30
0.0
 11
4.778481614999918
 21
-73.20000479999999
 31
0.0
  0
LINE
  5
2C88
330
28CF
100
AcDbEntity
  8
エンボス
  6
Continuous
100
AcDbLine
 10
4.778481614999918
 20
-71.40000480000003
 30
0.0
 11
7.778481614999918
 21
-70.20000479999999
 31
0.0
  0
LINE
  5
2C89
330
28CF
100
AcDbEntity
  8
エンボス
  6
Continuous
100
AcDbLine
 10
7.778481614999918
 20
-41.96693721583938
 30
0.0
 11
4.778481614999918
 21
-40.76693721583933
 31
0.0
  0
LINE
  5
2C8A
330
28CF
100
AcDbEntity
  8
エンボス
  6
Continuous
100
AcDbLine
 10
7.778481614999918
 20
108.7999952
 30
0.0
 11
4.778481614999918
 21
109.9999951999998
 31
0.0
  0
LINE
  5
2C8B
330
28CF
100
AcDbEntity
  8
エンボス
  6
Continuous
100
AcDbLine
 10
4.778481614999918
 20
-12.56693721583951
 30
0.0
 11
7.778481614999918
 21
-13.76693721583933
 31
0.0
  0
LINE
  5
2C8C
330
28CF
100
AcDbEntity
  8
エンボス
  6
Continuous
100
AcDbLine
 10
4.778481614999918
 20
-5.000004799999942
 30
0.0
 11
7.778481614999918
 21
-3.800004799999896
 31
0.0
  0
LINE
  5
2C8D
330
28CF
100
AcDbEntity
  8
エンボス
  6
Continuous
100
AcDbLine
 10
7.778481614999918
 20
-8.000004799999942
 30
0.0
 11
4.778481614999918
 21
-6.800004799999896
 31
0.0
  0
LINE
  5
2C8E
330
28CF
100
AcDbEntity
  8
エンボス
  6
Continuous
100
AcDbLine
 10
4.778481614999918
 20
-29.36693721583947
 30
0.0
 11
7.778481614999918
 21
-30.56693721583952
 31
0.0
  0
LINE
  5
2C8F
330
28CF
100
AcDbEntity
  8
エンボス
  6
Continuous
100
AcDbLine
 10
7.778481614999918
 20
-32.36693721583947
 30
0.0
 11
4.778481614999918
 21
-33.56693721583952
 31
0.0
  0
LINE
  5
2C90
330
28CF
100
AcDbEntity
  8
エンボス
  6
Continuous
100
AcDbLine
 10
4.778481614999918
 20
-22.16693721583943
 30
0.0
 11
7.778481614999918
 21
-20.96693721583938
 31
0.0
  0
LINE
  5
2C91
330
28CF
100
AcDbEntity
  8
エンボス
  6
Continuous
100
AcDbLine
 10
7.778481614999918
 20
-15.56693721583951
 30
0.0
 11
4.778481614999918
 21
-16.76693721583933
 31
0.0
  0
LINE
  5
2C92
330
28CF
100
AcDbEntity
  8
エンボス
  6
Continuous
100
AcDbLine
 10
7.778481614999918
 20
-25.16693721583943
 30
0.0
 11
4.778481614999918
 21
-23.96693721583938
 31
0.0
  0
LINE
  5
2C93
330
28CF
100
AcDbEntity
  8
エンボス
  6
Continuous
100
AcDbLine
 10
4.778481614999918
 20
28.5999952000002
 30
0.0
 11
7.778481614999918
 21
29.79999520000001
 31
0.0
  0
LINE
  5
2C94
330
28CF
100
AcDbEntity
  8
エンボス
  6
Continuous
100
AcDbLine
 10
7.778481614999918
 20
25.59999520000019
 30
0.0
 11
4.778481614999918
 21
26.79999520000001
 31
0.0
  0
LINE
  5
2C95
330
28CF
100
AcDbEntity
  8
エンボス
  6
Continuous
100
AcDbLine
 10
7.778481614999918
 20
35.1999952000001
 30
0.0
 11
4.778481614999918
 21
33.99999519999983
 31
0.0
  0
LINE
  5
2C96
330
28CF
100
AcDbEntity
  8
エンボス
  6
Continuous
100
AcDbLine
 10
7.778481614999918
 20
8.799995200000012
 30
0.0
 11
4.778481614999918
 21
9.999995200000057
 31
0.0
  0
LINE
  5
2C97
330
28CF
100
AcDbEntity
  8
エンボス
  6
Continuous
100
AcDbLine
 10
7.778481614999918
 20
1.599995199999966
 30
0.0
 11
4.778481614999918
 21
0.3999951999999212
 31
0.0
  0
LINE
  5
2C98
330
28CF
100
AcDbEntity
  8
エンボス
  6
Continuous
100
AcDbLine
 10
4.778481614999918
 20
4.599995199999966
 30
0.0
 11
7.778481614999918
 21
3.399995199999921
 31
0.0
  0
LINE
  5
2C99
330
28CF
100
AcDbEntity
  8
エンボス
  6
Continuous
100
AcDbLine
 10
4.778481614999918
 20
21.39999519999992
 30
0.0
 11
7.778481614999918
 21
20.1999952000001
 31
0.0
  0
LINE
  5
2C9A
330
28CF
100
AcDbEntity
  8
エンボス
  6
Continuous
100
AcDbLine
 10
7.778481614999918
 20
18.39999519999992
 30
0.0
 11
4.778481614999918
 21
17.1999952000001
 31
0.0
  0
LINE
  5
2C9B
330
28CF
100
AcDbEntity
  8
エンボス
  6
Continuous
100
AcDbLine
 10
4.778481614999918
 20
11.79999520000001
 30
0.0
 11
7.778481614999918
 21
12.99999520000006
 31
0.0
  0
LINE
  5
2C9C
330
28CF
100
AcDbEntity
  8
エンボス
  6
Continuous
100
AcDbLine
 10
4.778481614999918
 20
38.1999952000001
 30
0.0
 11
7.778481614999918
 21
36.99999519999983
 31
0.0
  0
LINE
  5
2C9D
330
28CF
100
AcDbEntity
  8
エンボス
  6
Continuous
100
AcDbLine
 10
7.778481614999918
 20
42.39999519999992
 30
0.0
 11
4.778481614999918
 21
43.59999520000019
 31
0.0
  0
LINE
  5
2C9E
330
28CF
100
AcDbEntity
  8
エンボス
  6
Continuous
100
AcDbLine
 10
4.778481614999918
 20
45.39999519999992
 30
0.0
 11
7.778481614999918
 21
46.59999520000019
 31
0.0
  0
LINE
  5
2C9F
330
28CF
100
AcDbEntity
  8
エンボス
  6
Continuous
100
AcDbLine
 10
4.778481614999918
 20
61.03306278416039
 30
0.0
 11
7.778481614999918
 21
62.23306278416067
 31
0.0
  0
LINE
  5
2CA0
330
28CF
100
AcDbEntity
  8
エンボス
  6
Continuous
100
AcDbLine
 10
7.778481614999918
 20
67.63306278416076
 30
0.0
 11
4.778481614999918
 21
66.43306278416048
 31
0.0
  0
LINE
  5
2CA1
330
28CF
100
AcDbEntity
  8
エンボス
  6
Continuous
100
AcDbLine
 10
4.778481614999918
 20
70.63306278416075
 30
0.0
 11
7.778481614999918
 21
69.43306278416049
 31
0.0
  0
LINE
  5
2CA2
330
28CF
100
AcDbEntity
  8
エンボス
  6
Continuous
100
AcDbLine
 10
7.778481614999918
 20
58.03306278416039
 30
0.0
 11
4.778481614999918
 21
59.23306278416067
 31
0.0
  0
LINE
  5
2CA3
330
28CF
100
AcDbEntity
  8
エンボス
  6
Continuous
100
AcDbLine
 10
4.778481614999918
 20
104.5999952000002
 30
0.0
 11
7.778481614999918
 21
103.3999951999999
 31
0.0
  0
LINE
  5
2CA4
330
28CF
100
AcDbEntity
  8
エンボス
  6
Continuous
100
AcDbLine
 10
7.778481614999918
 20
101.5999952000002
 30
0.0
 11
4.778481614999918
 21
100.3999951999999
 31
0.0
  0
LINE
  5
2CA5
330
28CF
100
AcDbEntity
  8
エンボス
  6
Continuous
100
AcDbLine
 10
7.778481614999918
 20
91.99999519999982
 30
0.0
 11
4.778481614999918
 21
93.1999952000001
 31
0.0
  0
LINE
  5
2CA6
330
28CF
100
AcDbEntity
  8
エンボス
  6
Continuous
100
AcDbLine
 10
4.778481614999918
 20
94.99999519999983
 30
0.0
 11
7.778481614999918
 21
96.19999520000011
 31
0.0
  0
LINE
  5
2CA7
330
28CF
100
AcDbEntity
  8
エンボス
  6
Continuous
100
AcDbLine
 10
7.778481614999918
 20
74.83306278416057
 30
0.0
 11
4.778481614999918
 21
76.03306278416039
 31
0.0
  0
LINE
  5
2CA8
330
28CF
100
AcDbEntity
  8
エンボス
  6
Continuous
100
AcDbLine
 10
4.778481614999918
 20
87.43306278416048
 30
0.0
 11
7.778481614999918
 21
86.23306278416066
 31
0.0
  0
LINE
  5
2CA9
330
28CF
100
AcDbEntity
  8
エンボス
  6
Continuous
100
AcDbLine
 10
7.778481614999918
 20
84.43306278416049
 30
0.0
 11
4.778481614999918
 21
83.23306278416067
 31
0.0
  0
LINE
  5
2CAA
330
28CF
100
AcDbEntity
  8
エンボス
  6
Continuous
100
AcDbLine
 10
4.778481614999918
 20
77.83306278416057
 30
0.0
 11
7.778481614999918
 21
79.03306278416039
 31
0.0
  0
LINE
  5
2CAB
330
28CF
100
AcDbEntity
  8
エンボス
  6
Continuous
100
AcDbLine
 10
7.778481614999918
 20
184.4330627841605
 30
0.0
 11
4.778481614999918
 21
183.2330627841606
 31
0.0
  0
LINE
  5
2CAC
330
28CF
100
AcDbEntity
  8
エンボス
  6
Continuous
100
AcDbLine
 10
7.778481614999918
 20
142.3999951999999
 30
0.0
 11
4.778481614999918
 21
143.5999952000002
 31
0.0
  0
LINE
  5
2CAD
330
28CF
100
AcDbEntity
  8
エンボス
  6
Continuous
100
AcDbLine
 10
4.778481614999918
 20
145.3999951999999
 30
0.0
 11
7.778481614999918
 21
146.5999952000002
 31
0.0
  0
LINE
  5
2CAE
330
28CF
100
AcDbEntity
  8
エンボス
  6
Continuous
100
AcDbLine
 10
4.778481614999918
 20
138.1999952000001
 30
0.0
 11
7.778481614999918
 21
136.9999951999998
 31
0.0
  0
LINE
  5
2CAF
330
28CF
100
AcDbEntity
  8
エンボス
  6
Continuous
100
AcDbLine
 10
7.778481614999918
 20
125.5999952000002
 30
0.0
 11
4.778481614999918
 21
126.7999952
 31
0.0
  0
LINE
  5
2CB0
330
28CF
100
AcDbEntity
  8
エンボス
  6
Continuous
100
AcDbLine
 10
4.778481614999918
 20
128.5999952000002
 30
0.0
 11
7.778481614999918
 21
129.7999952
 31
0.0
  0
LINE
  5
2CB1
330
28CF
100
AcDbEntity
  8
エンボス
  6
Continuous
100
AcDbLine
 10
4.778481614999918
 20
111.7999952
 30
0.0
 11
7.778481614999918
 21
112.9999951999998
 31
0.0
  0
LINE
  5
2CB2
330
28CF
100
AcDbEntity
  8
エンボス
  6
Continuous
100
AcDbLine
 10
7.778481614999918
 20
118.3999951999999
 30
0.0
 11
4.778481614999918
 21
117.1999952000001
 31
0.0
  0
LINE
  5
2CB3
330
28CF
100
AcDbEntity
  8
エンボス
  6
Continuous
100
AcDbLine
 10
4.778481614999918
 20
121.3999951999999
 30
0.0
 11
7.778481614999918
 21
120.1999952000001
 31
0.0
  0
LINE
  5
2CB4
330
28CF
100
AcDbEntity
  8
エンボス
  6
Continuous
100
AcDbLine
 10
7.778481614999918
 20
135.1999952000001
 30
0.0
 11
4.778481614999918
 21
133.9999951999998
 31
0.0
  0
LINE
  5
2CB5
330
28CF
100
AcDbEntity
  8
エンボス
  6
Continuous
100
AcDbLine
 10
4.778481614999918
 20
177.8330627841605
 30
0.0
 11
7.778481614999918
 21
179.0330627841604
 31
0.0
  0
LINE
  5
2CB6
330
28CF
100
AcDbEntity
  8
エンボス
  6
Continuous
100
AcDbLine
 10
7.778481614999918
 20
174.8330627841605
 30
0.0
 11
4.778481614999918
 21
176.0330627841604
 31
0.0
  0
LINE
  5
2CB7
330
28CF
100
AcDbEntity
  8
エンボス
  6
Continuous
100
AcDbLine
 10
7.778481614999918
 20
158.0330627841604
 30
0.0
 11
4.778481614999918
 21
159.2330627841606
 31
0.0
  0
LINE
  5
2CB8
330
28CF
100
AcDbEntity
  8
エンボス
  6
Continuous
100
AcDbLine
 10
4.778481614999918
 20
170.6330627841607
 30
0.0
 11
7.778481614999918
 21
169.4330627841605
 31
0.0
  0
LINE
  5
2CB9
330
28CF
100
AcDbEntity
  8
エンボス
  6
Continuous
100
AcDbLine
 10
7.778481614999918
 20
167.6330627841607
 30
0.0
 11
4.778481614999918
 21
166.4330627841605
 31
0.0
  0
LINE
  5
2CBA
330
28CF
100
AcDbEntity
  8
エンボス
  6
Continuous
100
AcDbLine
 10
4.778481614999918
 20
161.0330627841604
 30
0.0
 11
7.778481614999918
 21
162.2330627841606
 31
0.0
  0
LINE
  5
2CBB
330
28CF
100
AcDbEntity
  8
エンボス
  6
Continuous
100
AcDbLine
 10
4.778481614999918
 20
187.4330627841605
 30
0.0
 11
7.778481614999918
 21
186.2330627841607
 31
0.0
  0
ENDBLK
  5
28D1
330
28CF
100
AcDbEntity
  8
0
 48
3.0
100
AcDbBlockEnd
  0
BLOCK
  5
28D3
330
28D2
100
AcDbEntity
  8
0
 48
3.0
100
AcDbBlockBegin
  2
*U18
 70
     1
 10
0.0
 20
0.0
 30
0.0
  3
*U18
  1

  0
INSERT
  5
2943
330
28D2
100
AcDbEntity
  8
本体
  6
ByBlock
 62
     0
370
    -2
380
     1
100
AcDbBlockReference
  2
*U17
 10
0.0
 20
0.0
 30
0.0
  0
INSERT
  5
2944
330
28D2
100
AcDbEntity
  8
本体
  6
ByBlock
 62
     0
370
    -2
380
     1
100
AcDbBlockReference
  2
*U17
 10
12.56
 20
0.0
 30
0.0
  0
INSERT
  5
2946
330
28D2
100
AcDbEntity
  8
本体
  6
ByBlock
 62
     0
370
    -2
380
     1
100
AcDbBlockReference
  2
*U17
 10
37.68
 20
0.0
 30
0.0
  0
INSERT
  5
2947
330
28D2
100
AcDbEntity
  8
本体
  6
ByBlock
 62
     0
370
    -2
380
     1
100
AcDbBlockReference
  2
*U17
 10
50.24
 20
0.0
 30
0.0
  0
INSERT
  5
2948
330
28D2
100
AcDbEntity
  8
本体
  6
ByBlock
 62
     0
370
    -2
380
     1
100
AcDbBlockReference
  2
*U17
 10
62.80000000000001
 20
0.0
 30
0.0
  0
INSERT
  5
2949
330
28D2
100
AcDbEntity
  8
本体
  6
ByBlock
 62
     0
370
    -2
380
     1
100
AcDbBlockReference
  2
*U17
 10
75.36
 20
0.0
 30
0.0
  0
INSERT
  5
294A
330
28D2
100
AcDbEntity
  8
本体
  6
ByBlock
 62
     0
370
    -2
380
     1
100
AcDbBlockReference
  2
*U17
 10
87.91999999999999
 20
0.0
 30
0.0
  0
INSERT
  5
294B
330
28D2
100
AcDbEntity
  8
本体
  6
ByBlock
 62
     0
370
    -2
380
     1
100
AcDbBlockReference
  2
*U17
 10
100.48
 20
0.0
 30
0.0
  0
INSERT
  5
294C
330
28D2
100
AcDbEntity
  8
本体
  6
ByBlock
 62
     0
370
    -2
380
     1
100
AcDbBlockReference
  2
*U17
 10
113.04
 20
0.0
 30
0.0
  0
INSERT
  5
294D
330
28D2
100
AcDbEntity
  8
本体
  6
ByBlock
 62
     0
370
    -2
380
     1
100
AcDbBlockReference
  2
*U17
 10
125.6
 20
0.0
 30
0.0
  0
INSERT
  5
294E
330
28D2
100
AcDbEntity
  8
本体
  6
ByBlock
 62
     0
370
    -2
380
     1
100
AcDbBlockReference
  2
*U17
 10
138.16
 20
0.0
 30
0.0
  0
INSERT
  5
294F
330
28D2
100
AcDbEntity
  8
本体
  6
ByBlock
 62
     0
370
    -2
380
     1
100
AcDbBlockReference
  2
*U17
 10
150.72
 20
0.0
 30
0.0
  0
INSERT
  5
2950
330
28D2
100
AcDbEntity
  8
本体
  6
ByBlock
 62
     0
370
    -2
380
     1
100
AcDbBlockReference
  2
*U17
 10
163.28
 20
0.0
 30
0.0
  0
INSERT
  5
2951
330
28D2
100
AcDbEntity
  8
本体
  6
ByBlock
 62
     0
370
    -2
380
     1
100
AcDbBlockReference
  2
*U17
 10
175.84
 20
0.0
 30
0.0
  0
INSERT
  5
2952
330
28D2
100
AcDbEntity
  8
本体
  6
ByBlock
 62
     0
370
    -2
380
     1
100
AcDbBlockReference
  2
*U17
 10
188.4
 20
0.0
 30
0.0
  0
INSERT
  5
2953
330
28D2
100
AcDbEntity
  8
本体
  6
ByBlock
 62
     0
370
    -2
380
     1
100
AcDbBlockReference
  2
*U17
 10
200.96
 20
0.0
 30
0.0
  0
INSERT
  5
2954
330
28D2
100
AcDbEntity
  8
本体
  6
ByBlock
 62
     0
370
    -2
380
     1
100
AcDbBlockReference
  2
*U17
 10
213.52
 20
0.0
 30
0.0
  0
INSERT
  5
2955
330
28D2
100
AcDbEntity
  8
本体
  6
ByBlock
 62
     0
370
    -2
380
     1
100
AcDbBlockReference
  2
*U17
 10
226.08
 20
0.0
 30
0.0
  0
INSERT
  5
2956
330
28D2
100
AcDbEntity
  8
本体
  6
ByBlock
 62
     0
370
    -2
380
     1
100
AcDbBlockReference
  2
*U17
 10
238.64
 20
0.0
 30
0.0
  0
INSERT
  5
2957
330
28D2
100
AcDbEntity
  8
本体
  6
ByBlock
 62
     0
370
    -2
380
     1
100
AcDbBlockReference
  2
*U17
 10
251.2
 20
0.0
 30
0.0
  0
INSERT
  5
2958
330
28D2
100
AcDbEntity
  8
本体
  6
ByBlock
 62
     0
370
    -2
380
     1
100
AcDbBlockReference
  2
*U17
 10
263.76
 20
0.0
 30
0.0
  0
INSERT
  5
2959
330
28D2
100
AcDbEntity
  8
本体
  6
ByBlock
 62
     0
370
    -2
380
     1
100
AcDbBlockReference
  2
*U17
 10
276.32
 20
0.0
 30
0.0
  0
INSERT
  5
295A
330
28D2
100
AcDbEntity
  8
本体
  6
ByBlock
 62
     0
370
    -2
380
     1
100
AcDbBlockReference
  2
*U17
 10
288.88
 20
0.0
 30
0.0
  0
INSERT
  5
295B
330
28D2
100
AcDbEntity
  8
本体
  6
ByBlock
 62
     0
370
    -2
380
     1
100
AcDbBlockReference
  2
*U17
 10
301.44
 20
0.0
 30
0.0
  0
INSERT
  5
295C
330
28D2
100
AcDbEntity
  8
本体
  6
ByBlock
 62
     0
370
    -2
380
     1
100
AcDbBlockReference
  2
*U17
 10
314.0
 20
0.0
 30
0.0
  0
INSERT
  5
295D
330
28D2
100
AcDbEntity
  8
本体
  6
ByBlock
 62
     0
370
    -2
380
     1
100
AcDbBlockReference
  2
*U17
 10
326.56
 20
0.0
 30
0.0
  0
INSERT
  5
295E
330
28D2
100
AcDbEntity
  8
本体
  6
ByBlock
 62
     0
370
    -2
380
     1
100
AcDbBlockReference
  2
*U17
 10
339.12
 20
0.0
 30
0.0
  0
INSERT
  5
295F
330
28D2
100
AcDbEntity
  8
本体
  6
ByBlock
 62
     0
370
    -2
380
     1
100
AcDbBlockReference
  2
*U17
 10
351.68
 20
0.0
 30
0.0
  0
INSERT
  5
2960
330
28D2
100
AcDbEntity
  8
本体
  6
ByBlock
 62
     0
370
    -2
380
     1
100
AcDbBlockReference
  2
*U17
 10
364.24
 20
0.0
 30
0.0
  0
INSERT
  5
2961
330
28D2
100
AcDbEntity
  8
本体
  6
ByBlock
 62
     0
370
    -2
380
     1
100
AcDbBlockReference
  2
*U17
 10
376.8
 20
0.0
 30
0.0
  0
INSERT
  5
2962
330
28D2
100
AcDbEntity
  8
本体
  6
ByBlock
 62
     0
370
    -2
380
     1
100
AcDbBlockReference
  2
*U17
 10
389.36
 20
0.0
 30
0.0
  0
INSERT
  5
2963
330
28D2
100
AcDbEntity
  8
本体
  6
ByBlock
 62
     0
370
    -2
380
     1
100
AcDbBlockReference
  2
*U17
 10
401.92
 20
0.0
 30
0.0
  0
INSERT
  5
2964
330
28D2
100
AcDbEntity
  8
本体
  6
ByBlock
 62
     0
370
    -2
380
     1
100
AcDbBlockReference
  2
*U17
 10
414.48
 20
0.0
 30
0.0
  0
INSERT
  5
2965
330
28D2
100
AcDbEntity
  8
本体
  6
ByBlock
 62
     0
370
    -2
380
     1
100
AcDbBlockReference
  2
*U17
 10
427.04
 20
0.0
 30
0.0
  0
INSERT
  5
2966
330
28D2
100
AcDbEntity
  8
本体
  6
ByBlock
 62
     0
370
    -2
380
     1
100
AcDbBlockReference
  2
*U17
 10
439.5999999999999
 20
0.0
 30
0.0
  0
INSERT
  5
2967
330
28D2
100
AcDbEntity
  8
本体
  6
ByBlock
 62
     0
370
    -2
380
     1
100
AcDbBlockReference
  2
*U17
 10
452.16
 20
0.0
 30
0.0
  0
INSERT
  5
2968
330
28D2
100
AcDbEntity
  8
本体
  6
ByBlock
 62
     0
370
    -2
380
     1
100
AcDbBlockReference
  2
*U17
 10
464.72
 20
0.0
 30
0.0
  0
INSERT
  5
2969
330
28D2
100
AcDbEntity
  8
本体
  6
ByBlock
 62
     0
370
    -2
380
     1
100
AcDbBlockReference
  2
*U17
 10
477.28
 20
0.0
 30
0.0
  0
INSERT
  5
296A
330
28D2
100
AcDbEntity
  8
本体
  6
ByBlock
 62
     0
370
    -2
380
     1
100
AcDbBlockReference
  2
*U17
 10
489.84
 20
0.0
 30
0.0
  0
INSERT
  5
296B
330
28D2
100
AcDbEntity
  8
本体
  6
ByBlock
 62
     0
370
    -2
380
     1
100
AcDbBlockReference
  2
*U17
 10
502.4
 20
0.0
 30
0.0
  0
INSERT
  5
296C
330
28D2
100
AcDbEntity
  8
本体
  6
ByBlock
 62
     0
370
    -2
380
     1
100
AcDbBlockReference
  2
*U17
 10
514.96
 20
0.0
 30
0.0
  0
INSERT
  5
296D
330
28D2
100
AcDbEntity
  8
本体
  6
ByBlock
 62
     0
370
    -2
380
     1
100
AcDbBlockReference
  2
*U17
 10
527.5199999999999
 20
0.0
 30
0.0
  0
INSERT
  5
296E
330
28D2
100
AcDbEntity
  8
本体
  6
ByBlock
 62
     0
370
    -2
380
     1
100
AcDbBlockReference
  2
*U17
 10
540.08
 20
0.0
 30
0.0
  0
INSERT
  5
296F
330
28D2
100
AcDbEntity
  8
本体
  6
ByBlock
 62
     0
370
    -2
380
     1
100
AcDbBlockReference
  2
*U17
 10
552.6399999999999
 20
0.0
 30
0.0
  0
INSERT
  5
2970
330
28D2
100
AcDbEntity
  8
本体
  6
ByBlock
 62
     0
370
    -2
380
     1
100
AcDbBlockReference
  2
*U17
 10
565.2
 20
0.0
 30
0.0
  0
INSERT
  5
2971
330
28D2
100
AcDbEntity
  8
本体
  6
ByBlock
 62
     0
370
    -2
380
     1
100
AcDbBlockReference
  2
*U17
 10
577.7599999999999
 20
0.0
 30
0.0
  0
INSERT
  5
2972
330
28D2
100
AcDbEntity
  8
本体
  6
ByBlock
 62
     0
370
    -2
380
     1
100
AcDbBlockReference
  2
*U17
 10
590.32
 20
0.0
 30
0.0
  0
INSERT
  5
2973
330
28D2
100
AcDbEntity
  8
本体
  6
ByBlock
 62
     0
370
    -2
380
     1
100
AcDbBlockReference
  2
*U17
 10
602.88
 20
0.0
 30
0.0
  0
INSERT
  5
2974
330
28D2
100
AcDbEntity
  8
本体
  6
ByBlock
 62
     0
370
    -2
380
     1
100
AcDbBlockReference
  2
*U17
 10
615.44
 20
0.0
 30
0.0
  0
INSERT
  5
2975
330
28D2
100
AcDbEntity
  8
本体
  6
ByBlock
 62
     0
370
    -2
380
     1
100
AcDbBlockReference
  2
*U17
 10
628.0
 20
0.0
 30
0.0
  0
INSERT
  5
2976
330
28D2
100
AcDbEntity
  8
本体
  6
ByBlock
 62
     0
370
    -2
380
     1
100
AcDbBlockReference
  2
*U17
 10
640.56
 20
0.0
 30
0.0
  0
INSERT
  5
2977
330
28D2
100
AcDbEntity
  8
本体
  6
ByBlock
 62
     0
370
    -2
380
     1
100
AcDbBlockReference
  2
*U17
 10
653.12
 20
0.0
 30
0.0
  0
INSERT
  5
2978
330
28D2
100
AcDbEntity
  8
本体
  6
ByBlock
 62
     0
370
    -2
380
     1
100
AcDbBlockReference
  2
*U17
 10
665.68
 20
0.0
 30
0.0
  0
INSERT
  5
2979
330
28D2
100
AcDbEntity
  8
本体
  6
ByBlock
 62
     0
370
    -2
380
     1
100
AcDbBlockReference
  2
*U17
 10
678.2399999999999
 20
0.0
 30
0.0
  0
INSERT
  5
297A
330
28D2
100
AcDbEntity
  8
本体
  6
ByBlock
 62
     0
370
    -2
380
     1
100
AcDbBlockReference
  2
*U17
 10
690.8000000000001
 20
0.0
 30
0.0
  0
INSERT
  5
297B
330
28D2
100
AcDbEntity
  8
本体
  6
ByBlock
 62
     0
370
    -2
380
     1
100
AcDbBlockReference
  2
*U17
 10
703.3599999999999
 20
0.0
 30
0.0
  0
INSERT
  5
297C
330
28D2
100
AcDbEntity
  8
本体
  6
ByBlock
 62
     0
370
    -2
380
     1
100
AcDbBlockReference
  2
*U17
 10
715.9200000000001
 20
0.0
 30
0.0
  0
INSERT
  5
297D
330
28D2
100
AcDbEntity
  8
本体
  6
ByBlock
 62
     0
370
    -2
380
     1
100
AcDbBlockReference
  2
*U17
 10
728.48
 20
0.0
 30
0.0
  0
INSERT
  5
297E
330
28D2
100
AcDbEntity
  8
本体
  6
ByBlock
 62
     0
370
    -2
380
     1
100
AcDbBlockReference
  2
*U17
 10
741.04
 20
0.0
 30
0.0
  0
INSERT
  5
297F
330
28D2
100
AcDbEntity
  8
本体
  6
ByBlock
 62
     0
370
    -2
380
     1
100
AcDbBlockReference
  2
*U17
 10
753.6
 20
0.0
 30
0.0
  0
INSERT
  5
2980
330
28D2
100
AcDbEntity
  8
本体
  6
ByBlock
 62
     0
370
    -2
380
     1
100
AcDbBlockReference
  2
*U17
 10
766.16
 20
0.0
 30
0.0
  0
INSERT
  5
2981
330
28D2
100
AcDbEntity
  8
本体
  6
ByBlock
 62
     0
370
    -2
380
     1
100
AcDbBlockReference
  2
*U17
 10
778.72
 20
0.0
 30
0.0
  0
INSERT
  5
2982
330
28D2
100
AcDbEntity
  8
本体
  6
ByBlock
 62
     0
370
    -2
380
     1
100
AcDbBlockReference
  2
*U17
 10
791.28
 20
0.0
 30
0.0
  0
INSERT
  5
2983
330
28D2
100
AcDbEntity
  8
本体
  6
ByBlock
 62
     0
370
    -2
380
     1
100
AcDbBlockReference
  2
*U17
 10
803.8400000000001
 20
0.0
 30
0.0
  0
INSERT
  5
2984
330
28D2
100
AcDbEntity
  8
本体
  6
ByBlock
 62
     0
370
    -2
380
     1
100
AcDbBlockReference
  2
*U17
 10
816.3999999999999
 20
0.0
 30
0.0
  0
INSERT
  5
2985
330
28D2
100
AcDbEntity
  8
本体
  6
ByBlock
 62
     0
370
    -2
380
     1
100
AcDbBlockReference
  2
*U17
 10
828.96
 20
0.0
 30
0.0
  0
INSERT
  5
2986
330
28D2
100
AcDbEntity
  8
本体
  6
ByBlock
 62
     0
370
    -2
380
     1
100
AcDbBlockReference
  2
*U17
 10
841.52
 20
0.0
 30
0.0
  0
INSERT
  5
2987
330
28D2
100
AcDbEntity
  8
本体
  6
ByBlock
 62
     0
370
    -2
380
     1
100
AcDbBlockReference
  2
*U17
 10
854.08
 20
0.0
 30
0.0
  0
INSERT
  5
2988
330
28D2
100
AcDbEntity
  8
本体
  6
ByBlock
 62
     0
370
    -2
380
     1
100
AcDbBlockReference
  2
*U17
 10
866.6399999999999
 20
0.0
 30
0.0
  0
INSERT
  5
2989
330
28D2
100
AcDbEntity
  8
本体
  6
ByBlock
 62
     0
370
    -2
380
     1
100
AcDbBlockReference
  2
*U17
 10
879.1999999999999
 20
0.0
 30
0.0
  0
INSERT
  5
298A
330
28D2
100
AcDbEntity
  8
本体
  6
ByBlock
 62
     0
370
    -2
380
     1
100
AcDbBlockReference
  2
*U17
 10
891.76
 20
0.0
 30
0.0
  0
INSERT
  5
298B
330
28D2
100
AcDbEntity
  8
本体
  6
ByBlock
 62
     0
370
    -2
380
     1
100
AcDbBlockReference
  2
*U17
 10
904.32
 20
0.0
 30
0.0
  0
INSERT
  5
298C
330
28D2
100
AcDbEntity
  8
本体
  6
ByBlock
 62
     0
370
    -2
380
     1
100
AcDbBlockReference
  2
*U17
 10
916.88
 20
0.0
 30
0.0
  0
INSERT
  5
298D
330
28D2
100
AcDbEntity
  8
本体
  6
ByBlock
 62
     0
370
    -2
380
     1
100
AcDbBlockReference
  2
*U17
 10
929.4400000000001
 20
0.0
 30
0.0
  0
INSERT
  5
298E
330
28D2
100
AcDbEntity
  8
本体
  6
ByBlock
 62
     0
370
    -2
380
     1
100
AcDbBlockReference
  2
*U17
 10
942.0
 20
0.0
 30
0.0
  0
INSERT
  5
298F
330
28D2
100
AcDbEntity
  8
本体
  6
ByBlock
 62
     0
370
    -2
380
     1
100
AcDbBlockReference
  2
*U17
 10
954.56
 20
0.0
 30
0.0
  0
INSERT
  5
2990
330
28D2
100
AcDbEntity
  8
本体
  6
ByBlock
 62
     0
370
    -2
380
     1
100
AcDbBlockReference
  2
*U17
 10
967.12
 20
0.0
 30
0.0
  0
INSERT
  5
2CBC
330
28D2
100
AcDbEntity
  8
本体
  6
ByBlock
 62
     0
370
    -2
380
     1
100
AcDbBlockReference
  2
*U17
 10
25.12
 20
0.0
 30
0.0
  0
ENDBLK
  5
28D4
330
28D2
100
AcDbEntity
  8
0
 48
3.0
100
AcDbBlockEnd
  0
BLOCK
  5
29F4
330
29F3
100
AcDbEntity
  8
0
 48
3.0
100
AcDbBlockBegin
  2
*D19
 70
     1
 10
0.0
 20
0.0
 30
0.0
  3
*D19
  1

  0
LINE
  5
2A4C
330
29F3
100
AcDbEntity
  8
本体
 62
     0
 48
3.0
370
    -2
100
AcDbLine
 10
1366.384219678332
 20
1185.972907576634
 30
0.0
 11
1479.178615067149
 21
1185.972907576634
 31
0.0
  0
LINE
  5
2A4D
330
29F3
100
AcDbEntity
  8
本体
 62
     0
 48
3.0
370
    -2
100
AcDbLine
 10
1366.384219678332
 20
1179.972907576634
 30
0.0
 11
1479.178615067149
 21
1179.972907576634
 31
0.0
  0
LINE
  5
2A4E
330
29F3
100
AcDbEntity
  8
本体
 62
     0
 48
3.0
370
    -2
100
AcDbLine
 10
1464.178615067148
 20
1200.972907576634
 30
0.0
 11
1464.178615067148
 21
1215.972907576634
 31
0.0
  0
LINE
  5
2A4F
330
29F3
100
AcDbEntity
  8
本体
 62
     0
 48
3.0
370
    -2
100
AcDbLine
 10
1464.178615067148
 20
1164.972907576634
 30
0.0
 11
1464.178615067148
 21
1124.744481180695
 31
0.0
  0
LINE
  5
2A50
330
29F3
100
AcDbEntity
  8
本体
 62
     0
 48
3.0
370
    -2
100
AcDbLine
 10
1464.178615067148
 20
1185.972907576634
 30
0.0
 11
1464.178615067148
 21
1179.972907576634
 31
0.0
  0
INSERT
  5
2A51
330
29F3
100
AcDbEntity
  8
本体
 62
     0
 48
3.0
370
    -2
100
AcDbBlockReference
  2
_Open30
 10
1464.178615067148
 20
1185.972907576634
 30
0.0
 41
15.0
 42
15.0
 43
15.0
 50
270.0
  0
INSERT
  5
2A52
330
29F3
100
AcDbEntity
  8
本体
 62
     0
 48
3.0
370
    -2
100
AcDbBlockReference
  2
_Open30
 10
1464.178615067148
 20
1179.972907576634
 30
0.0
 41
15.0
 42
15.0
 43
15.0
 50
90.0
  0
MTEXT
  5
2A53
330
29F3
100
AcDbEntity
  8
本体
 62
     0
 48
3.0
100
AcDbMText
 10
1444.178615067148
 20
1137.358694378664
 30
0.0
 40
30.0
 41
0.0
 71
     5
 72
     1
  1
6
 11
0.0000000000000001
 21
1.0
 31
0.0
 73
     1
 44
1.0
1001
ACAD
1000
MTEXTBEGIN
1070
    73
1070
     1
1070
    44
1040
1.0
1070
    74
1070
     0
1000
MTEXTEND
  0
POINT
  5
2A54
330
29F3
100
AcDbEntity
  8
Defpoints
 62
     0
 48
3.0
100
AcDbPoint
 10
1346.384219678332
 20
1185.972907576634
 30
0.0
  0
POINT
  5
2A55
330
29F3
100
AcDbEntity
  8
Defpoints
 62
     0
 48
3.0
100
AcDbPoint
 10
1346.384219678332
 20
1179.972907576634
 30
0.0
  0
POINT
  5
2A56
330
29F3
100
AcDbEntity
  8
Defpoints
 62
     0
 48
3.0
100
AcDbPoint
 10
1464.178615067148
 20
1179.972907576634
 30
0.0
  0
ENDBLK
  5
29F5
330
29F3
100
AcDbEntity
  8
0
 48
3.0
100
AcDbBlockEnd
  0
BLOCK
  5
2A03
330
2A02
100
AcDbEntity
  8
0
 48
3.0
100
AcDbBlockBegin
  2
*D20
 70
     1
 10
0.0
 20
0.0
 30
0.0
  3
*D20
  1

  0
LINE
  5
2A57
330
2A02
100
AcDbEntity
  8
本体
 62
     0
 48
3.0
370
    -2
100
AcDbLine
 10
1366.384219678332
 20
1179.972907576634
 30
0.0
 11
1577.112014614255
 21
1179.972907576634
 31
0.0
  0
LINE
  5
2A58
330
2A02
100
AcDbEntity
  8
本体
 62
     0
 48
3.0
370
    -2
100
AcDbLine
 10
1366.384219678332
 20
1574.972907576634
 30
0.0
 11
1577.112014614255
 21
1574.972907576634
 31
0.0
  0
LINE
  5
2A59
330
2A02
100
AcDbEntity
  8
本体
 62
     0
 48
3.0
370
    -2
100
AcDbLine
 10
1562.112014614255
 20
1194.972907576634
 30
0.0
 11
1562.112014614255
 21
1559.972907576634
 31
0.0
  0
INSERT
  5
2A5A
330
2A02
100
AcDbEntity
  8
本体
 62
     0
 48
3.0
370
    -2
100
AcDbBlockReference
  2
_Open30
 10
1562.112014614255
 20
1179.972907576634
 30
0.0
 41
15.0
 42
15.0
 43
15.0
 50
270.0
  0
INSERT
  5
2A5B
330
2A02
100
AcDbEntity
  8
本体
 62
     0
 48
3.0
370
    -2
100
AcDbBlockReference
  2
_Open30
 10
1562.112014614255
 20
1574.972907576634
 30
0.0
 41
15.0
 42
15.0
 43
15.0
 50
90.0
  0
MTEXT
  5
2A5C
330
2A02
100
AcDbEntity
  8
本体
 62
     0
 48
3.0
100
AcDbMText
 10
1542.112014614254
 20
1377.472907576634
 30
0.0
 40
30.0
 41
0.0
 71
     5
 72
     1
  1
395
 11
0.0000000000000001
 21
1.0
 31
0.0
 73
     1
 44
1.0
1001
ACAD
1000
MTEXTBEGIN
1070
    73
1070
     1
1070
    44
1040
1.0
1070
    74
1070
     0
1000
MTEXTEND
  0
POINT
  5
2A5D
330
2A02
100
AcDbEntity
  8
Defpoints
 62
     0
 48
3.0
100
AcDbPoint
 10
1346.384219678332
 20
1179.972907576634
 30
0.0
  0
POINT
  5
2A5E
330
2A02
100
AcDbEntity
  8
Defpoints
 62
     0
 48
3.0
100
AcDbPoint
 10
1346.384219678332
 20
1574.972907576634
 30
0.0
  0
POINT
  5
2A5F
330
2A02
100
AcDbEntity
  8
Defpoints
 62
     0
 48
3.0
100
AcDbPoint
 10
1562.112014614255
 20
1574.972907576634
 30
0.0
  0
ENDBLK
  5
2A04
330
2A02
100
AcDbEntity
  8
0
 48
3.0
100
AcDbBlockEnd
  0
ENDSEC
  0
SECTION
  2
ENTITIES
  0
LINE
  5
12
330
2
100
AcDbEntity
  8
外枠
 48
80.0
370
     9
100
AcDbLine
 10
0.0
 20
0.0
 30
0.0
 11
2789.511161023067
 21
0.0
 31
0.0
  0
LINE
  5
13
330
2
100
AcDbEntity
  8
外枠
 48
80.0
370
     9
100
AcDbLine
 10
2789.511161023071
 20
1973.26911249564
 30
0.0
 11
0.0
 21
1973.26911249564
 31
0.0
  0
LINE
  5
14
330
2
100
AcDbEntity
  8
外枠
 48
100.0
370
     9
100
AcDbLine
 10
10.0
 20
10.0
 30
0.0
 11
2780.119625023061
 21
10.0
 31
0.0
  0
LINE
  5
17
330
2
100
AcDbEntity
  8
外枠
  6
Continuous
 48
100.0
370
     9
100
AcDbLine
 10
9.999999999996362
 20
155.3992728208031
 30
0.0
 11
2780.119625023061
 21
155.3992728207995
 31
0.0
  0
LINE
  5
18
330
2
100
AcDbEntity
  8
外枠
  6
Continuous
 48
100.0
370
     9
100
AcDbLine
 10
9.999999999996362
 20
160.0950408208045
 30
0.0
 11
2780.119625023061
 21
160.0950408207973
 31
0.0
  0
LINE
  5
19
330
2
100
AcDbEntity
  8
外枠
 48
100.0
370
     9
100
AcDbLine
 10
10.0
 20
1963.877576495633
 30
0.0
 11
2780.119625023053
 21
1963.877576495637
 31
0.0
  0
LINE
  5
1A
330
2
100
AcDbEntity
  8
外枠
 48
80.0
370
     9
100
AcDbLine
 10
0.0
 20
0.0
 30
0.0
 11
0.0
 21
1973.26911249564
 31
0.0
  0
LINE
  5
1B
330
2
100
AcDbEntity
  8
外枠
 48
100.0
370
     9
100
AcDbLine
 10
10.0
 20
1963.877576495633
 30
0.0
 11
10.0
 21
10.0
 31
0.0
  0
LINE
  5
1C
330
2
100
AcDbEntity
  8
外枠
  6
Continuous
 48
100.0
370
     9
100
AcDbLine
 10
10.0
 20
82.69963641040158
 30
0.0
 11
1153.530108552004
 21
82.69963641039794
 31
0.0
  0
MTEXT
  5
1D
330
2
100
AcDbEntity
  8
外枠
  6
Continuous
 48
100.0
370
     9
100
AcDbMText
 10
545.7796281175178
 20
136.1535564242149
 30
0.0
 40
29.0
 41
664.6118999999999
 71
     1
 72
     5
  1
細目自由勾配側溝用グレーチング
 73
     1
 44
1.0
1001
ACAD
1000
MTEXTBEGIN
1070
    73
1070
     1
1070
    44
1040
1.0
1070
    74
1070
     0
1000
MTEXTEND
  0
MTEXT
  5
1E
330
2
100
AcDbEntity
  8
外枠
  6
Continuous
 48
100.0
370
     9
100
AcDbMText
 10
246.8574963386418
 20
64.81814764649607
 30
0.0
 40
35.0
 41
532.9183
 71
     1
 72
     5
  1
395\U+00D7995\U+00D732/92
 73
     1
 44
1.0
1001
ACAD
1000
MTEXTBEGIN
1070
    73
1070
     1
1070
    44
1040
1.0
1070
    74
1070
     0
1000
MTEXTEND
  0
MTEXT
  5
1F
330
2
100
AcDbEntity
  8
外枠
  6
Continuous
 48
100.0
370
     9
100
AcDbMText
 10
73.47653388609796
 20
137.3760680266387
 30
0.0
 40
30.0
 41
126.3036
 71
     1
 72
     5
  1
T-14
 73
     1
 44
1.0
1001
ACAD
1000
MTEXTBEGIN
1070
    73
1070
     1
1070
    44
1040
1.0
1070
    74
1070
     0
1000
MTEXTEND
  0
MTEXT
  5
20
330
2
100
AcDbEntity
  8
外枠
  6
Continuous
 48
100.0
370
     9
100
AcDbMText
 10
68.92783543177666
 20
59.95966632915224
 30
0.0
 40
35.0
 41
88.86979999999999
 71
     1
 72
     5
  1
EVH
 73
     1
 44
1.0
1001
ACAD
1000
MTEXTBEGIN
1070
    73
1070
     1
1070
    44
1040
1.0
1070
    74
1070
     0
1000
MTEXTEND
  0
LINE
  5
21
330
2
100
AcDbEntity
  8
外枠
 48
100.0
370
     9
100
AcDbLine
 10
45.0
 20
155.3992728208031
 30
0.0
 11
45.0
 21
10.0
 31
0.0
  0
MTEXT
  5
22
330
2
100
AcDbEntity
  8
外枠
  6
Continuous
 48
100.0
370
     9
100
AcDbMText
 10
15.05670849094895
 20
75.82038473524153
 30
0.0
 40
20.0
 41
23.52947333656417
 71
     1
 72
     5
  1
品\P番
 73
     1
 44
1.0
1001
ACAD
1000
MTEXTBEGIN
1070
    73
1070
     1
1070
    44
1040
1.0
1070
    74
1070
     0
1000
MTEXTEND
  0
MTEXT
  5
23
330
2
100
AcDbEntity
  8
外枠
  6
Continuous
 48
100.0
370
     9
100
AcDbMText
 10
14.92010060012399
 20
149.3317229429121
 30
0.0
 40
20.0
 41
30.07989939987533
 71
     1
 72
     5
  1
荷\P重
 73
     1
 44
1.0
1001
ACAD
1000
MTEXTBEGIN
1070
    73
1070
     1
1070
    44
1040
1.0
1070
    74
1070
     0
1000
MTEXTEND
  0
LINE
  5
24
330
2
100
AcDbEntity
  8
外枠
 48
100.0
370
     9
100
AcDbLine
 10
179.1040495562847
 20
155.3992728208031
 30
0.0
 11
179.1040495562847
 21
10.0
 31
0.0
  0
MTEXT
  5
25
330
2
100
AcDbEntity
  8
外枠
  6
Continuous
 48
100.0
370
     9
100
AcDbMText
 10
268.9341625605839
 20
133.8572910967996
 30
0.0
 40
30.0
 41
163.9045
 71
     1
 72
     5
  1
VS300用
 73
     1
 44
1.0
1001
ACAD
1000
MTEXTBEGIN
1070
    73
1070
     1
1070
    44
1040
1.0
1070
    74
1070
     0
1000
MTEXTEND
  0
MTEXT
  5
26
330
2
100
AcDbEntity
  8
外枠
  6
Continuous
 48
100.0
370
     9
100
AcDbMText
 10
184.4346535744698
 20
149.3074501239389
 30
0.0
 40
20.0
 41
29.6694
 71
     1
 72
     5
  1
溝幅
 73
     1
 44
1.0
1001
ACAD
1000
MTEXTBEGIN
1070
    73
1070
     1
1070
    44
1040
1.0
1070
    74
1070
     0
1000
MTEXTEND
  0
LINE
  5
27
330
2
100
AcDbEntity
  8
外枠
 48
100.0
370
     9
100
AcDbLine
 10
214.1040495562847
 20
155.3992728208031
 30
0.0
 11
214.1040495562847
 21
82.69963641040158
 31
0.0
  0
MTEXT
  5
28
330
2
100
AcDbEntity
  8
外枠
  6
Continuous
 48
100.0
370
     9
100
AcDbMText
 10
477.8955451146976
 20
149.3074501239389
 30
0.0
 40
20.0
 41
29.6694
 71
     1
 72
     5
  1
品名
 73
     1
 44
1.0
1001
ACAD
1000
MTEXTBEGIN
1070
    73
1070
     1
1070
    44
1040
1.0
1070
    74
1070
     0
1000
MTEXTEND
  0
LINE
  5
29
330
2
100
AcDbEntity
  8
外枠
 48
100.0
370
     9
100
AcDbLine
 10
472.5649410965124
 20
155.3992728208031
 30
0.0
 11
472.5649410965124
 21
82.69963641040158
 31
0.0
  0
LINE
  5
2A
330
2
100
AcDbEntity
  8
外枠
 48
100.0
370
     9
100
AcDbLine
 10
507.5649410965125
 20
155.3992728208031
 30
0.0
 11
507.5649410965125
 21
82.69963641040158
 31
0.0
  0
MTEXT
  5
2B
330
2
100
AcDbEntity
  8
外枠
  6
Continuous
 48
100.0
370
     9
100
AcDbMText
 10
728.477887653953
 20
76.92551173516403
 30
0.0
 40
20.0
 41
664.6118999999999
 71
     1
 72
     5
  1
摘\P要
 73
     1
 44
1.0
1001
ACAD
1000
MTEXTBEGIN
1070
    73
1070
     1
1070
    44
1040
1.0
1070
    74
1070
     0
1000
MTEXTEND
  0
LINE
  5
2C
330
2
100
AcDbEntity
  8
外枠
 48
100.0
370
     9
100
AcDbLine
 10
723.8282373115871
 20
82.6996364103943
 30
0.0
 11
723.8282373115871
 21
9.999999999992724
 31
0.0
  0
LINE
  5
2F
330
2
100
AcDbEntity
  8
外枠
 48
100.0
370
     9
100
AcDbLine
 10
758.8282373115871
 20
82.6996364103943
 30
0.0
 11
758.8282373115871
 21
9.999999999992724
 31
0.0
  0
LINE
  5
31
330
2
100
AcDbEntity
  8
外枠
 48
100.0
370
     9
100
AcDbLine
 10
974.9513069700951
 20
82.6996364103943
 30
0.0
 11
974.9513069700951
 21
9.999999999992724
 31
0.0
  0
MTEXT
  5
32
330
2
100
AcDbEntity
  8
外枠
  6
Continuous
 48
100.0
370
     9
100
AcDbMText
 10
979.7329598959768
 20
74.84825461820583
 30
0.0
 40
20.0
 41
31.38947761565365
 71
     1
 72
     5
  1
材\P質
 73
     1
 44
1.0
1001
ACAD
1000
MTEXTBEGIN
1070
    73
1070
     1
1070
    44
1040
1.0
1070
    74
1070
     0
1000
MTEXTEND
  0
LINE
  5
33
330
2
100
AcDbEntity
  8
外枠
 48
100.0
370
     9
100
AcDbLine
 10
1009.951306970095
 20
82.6996364103943
 30
0.0
 11
1009.951306970095
 21
9.999999999992724
 31
0.0
  0
LINE
  5
37
330
2
100
AcDbEntity
  8
外枠
 48
80.0
370
     9
100
AcDbLine
 10
2789.511161023067
 20
0.0
 30
0.0
 11
2789.511161023071
 21
1973.26911249564
 31
0.0
  0
LINE
  5
38
330
2
100
AcDbEntity
  8
外枠
 48
100.0
370
     9
100
AcDbLine
 10
2780.119625023053
 20
1963.877576495637
 30
0.0
 11
2780.119625023061
 21
10.0
 31
0.0
  0
LINE
  5
3A
330
2
100
AcDbEntity
  8
外枠
 48
3.0
100
AcDbLine
 10
1607.072254912545
 20
61.67068719952067
 30
0.0
 11
2262.173600934632
 21
61.67068719952067
 31
0.0
  0
MTEXT
  5
3B
330
2
100
AcDbEntity
  8
外枠
  6
Continuous
 48
100.0
370
     9
100
AcDbMText
 10
1683.622173868318
 20
50.71504764095289
 30
0.0
 40
30.00024
 41
539.4827578564582
 71
     1
 72
     5
  1
T A K A R A   G R A T I N G
 73
     1
 44
1.0
1001
ACAD
1000
MTEXTBEGIN
1070
    73
1070
     1
1070
    44
1040
1.0
1070
    74
1070
     0
1000
MTEXTEND
  0
MTEXT
  5
3C
330
2
100
AcDbEntity
  8
外枠
  6
Continuous
 48
100.0
370
     9
100
AcDbMText
 10
1728.02061463669
 20
127.1672938476838
 30
0.0
 40
30.0
 41
282.8297
 71
     1
 72
     5
  1
株 式 会 社
 73
     1
 44
1.0
1001
ACAD
1000
MTEXTBEGIN
1070
    73
1070
     1
1070
    44
1040
1.0
1070
    74
1070
     0
1000
MTEXTEND
  0
LINE
  5
3D
330
2
100
AcDbEntity
  8
外枠
  6
Continuous
 48
100.0
370
     9
100
AcDbLine
 10
1508.680137877982
 20
155.3992728208068
 30
0.0
 11
1508.680137877982
 21
10.00000000000364
 31
0.0
  0
LINE
  5
3E
330
2
100
AcDbEntity
  8
外枠
  6
Continuous
 48
100.0
370
     9
100
AcDbLine
 10
1593.95141853916
 20
155.3992728207995
 30
0.0
 11
1593.95141853916
 21
9.999999999996362
 31
0.0
  0
LINE
  5
3F
330
2
100
AcDbEntity
  8
外枠
  6
Continuous
 48
100.0
370
     9
100
AcDbLine
 10
1616.777813337499
 20
106.634063069062
 30
0.0
 11
1612.463999974505
 21
110.08511375945
 31
0.0
  0
LINE
  5
40
330
2
100
AcDbEntity
  8
外枠
  6
Continuous
 48
100.0
370
     9
100
AcDbLine
 10
1616.777813337499
 20
106.634063069062
 30
0.0
 11
1612.463999974505
 21
103.183012378663
 31
0.0
  0
LINE
  5
41
330
2
100
AcDbEntity
  8
外枠
  6
Continuous
 48
100.0
370
     9
100
AcDbLine
 10
1616.777813337505
 20
113.5361644498489
 30
0.0
 11
1612.463999974505
 21
110.08511375945
 31
0.0
  0
LINE
  5
42
330
2
100
AcDbEntity
  8
外枠
  6
Continuous
 48
100.0
370
     9
100
AcDbLine
 10
1616.777813337499
 20
99.73196168827508
 30
0.0
 11
1612.463999974505
 21
103.183012378663
 31
0.0
  0
MTEXT
  5
43
330
2
100
AcDbEntity
  8
外枠
  6
Continuous
 48
100.0
370
     9
100
AcDbMText
 10
1520.476936402745
 20
137.4995509975779
 30
0.0
 40
20.0
 41
1015.1375
 71
     1
 72
     5
  1
34.3
 73
     1
 44
1.0
1001
ACAD
1000
MTEXTBEGIN
1070
    73
1070
     1
1070
    44
1040
1.0
1070
    74
1070
     0
1000
MTEXTEND
  0
MTEXT
  5
44
330
2
100
AcDbEntity
  8
外枠
  6
Continuous
 48
100.0
370
     9
100
AcDbMText
 10
1568.464698185987
 20
108.4136993179927
 30
0.0
 40
18.0
 41
25.456
 71
     1
 72
     5
  1
kg
 73
     1
 44
1.0
1001
ACAD
1000
MTEXTBEGIN
1070
    73
1070
     1
1070
    44
1040
1.0
1070
    74
1070
     0
1000
MTEXTEND
  0
LINE
  5
45
330
2
100
AcDbEntity
  8
外枠
  6
Continuous
 48
100.0
370
     9
100
AcDbLine
 10
1649.122643507042
 20
139.4120285854742
 30
0.0
 11
1653.436456870031
 21
135.9609778950862
 31
0.0
  0
LINE
  5
46
330
2
100
AcDbEntity
  8
外枠
  6
Continuous
 48
100.0
370
     9
100
AcDbLine
 10
1666.377896959009
 20
139.4120285854742
 30
0.0
 11
1662.06408359602
 21
135.9609778950862
 31
0.0
  0
MTEXT
  5
47
330
2
100
AcDbEntity
  8
外枠
  6
Continuous
 48
100.0
370
     9
100
AcDbMText
 10
1642.840555134189
 20
120.8184913847756
 30
0.0
 40
23.95393639053264
 41
23.85059431815661
 71
     1
 72
     5
  1
{\fＭＳ ゴシック|b0|i0|c128|p49;宝}
 73
     1
 44
1.0
1001
ACAD
1000
MTEXTBEGIN
1070
    73
1070
     1
1070
    44
1040
1.0
1070
    74
1070
     0
1000
MTEXTEND
  0
LINE
  5
48
330
2
100
AcDbEntity
  8
外枠
  6
Continuous
 48
100.0
370
     9
100
AcDbLine
 10
1662.06408359602
 20
135.9609778950862
 30
0.0
 11
1694.408913765557
 21
110.08511375945
 31
0.0
  0
LINE
  5
49
330
2
100
AcDbEntity
  8
外枠
  6
Continuous
 48
100.0
370
     9
100
AcDbLine
 10
1657.750270233026
 20
132.5099272046927
 30
0.0
 11
1690.095100402563
 21
106.634063069062
 31
0.0
  0
LINE
  5
4A
330
2
100
AcDbEntity
  8
外枠
  6
Continuous
 48
100.0
370
     9
100
AcDbLine
 10
1690.095100402563
 20
106.634063069062
 30
0.0
 11
1657.750270233026
 21
80.75819893343123
 31
0.0
  0
LINE
  5
4B
330
2
100
AcDbEntity
  8
外枠
  6
Continuous
 48
100.0
370
     9
100
AcDbLine
 10
1694.408913765557
 20
103.183012378663
 30
0.0
 11
1662.06408359602
 21
77.30714824303777
 31
0.0
  0
LINE
  5
4C
330
2
100
AcDbEntity
  8
外枠
  6
Continuous
 48
100.0
370
     9
100
AcDbLine
 10
1657.750270233026
 20
80.75819893342577
 30
0.0
 11
1625.405440063488
 21
106.634063069062
 31
0.0
  0
LINE
  5
4D
330
2
100
AcDbEntity
  8
外枠
  6
Continuous
 48
100.0
370
     9
100
AcDbLine
 10
1653.436456870031
 20
77.30714824303777
 30
0.0
 11
1621.0916267005
 21
103.183012378663
 31
0.0
  0
LINE
  5
4E
330
2
100
AcDbEntity
  8
外枠
  6
Continuous
 48
100.0
370
     9
100
AcDbLine
 10
1621.0916267005
 20
103.183012378663
 30
0.0
 11
1616.777813337505
 21
99.73196168827508
 31
0.0
  0
LINE
  5
4F
330
2
100
AcDbEntity
  8
外枠
  6
Continuous
 48
100.0
370
     9
100
AcDbLine
 10
1653.436456870031
 20
77.30714824303777
 30
0.0
 11
1649.122643507042
 21
73.85609755263885
 31
0.0
  0
LINE
  5
50
330
2
100
AcDbEntity
  8
外枠
  6
Continuous
 48
100.0
370
     9
100
AcDbLine
 10
1653.436456870031
 20
70.4050468622454
 30
0.0
 11
1649.122643507042
 21
73.85609755263885
 31
0.0
  0
LINE
  5
51
330
2
100
AcDbEntity
  8
外枠
  6
Continuous
 48
100.0
370
     9
100
AcDbLine
 10
1657.750270233026
 20
73.85609755263885
 30
0.0
 11
1653.436456870031
 21
70.4050468622454
 31
0.0
  0
LINE
  5
52
330
2
100
AcDbEntity
  8
外枠
  6
Continuous
 48
100.0
370
     9
100
AcDbLine
 10
1666.377896959009
 20
73.85609755263885
 30
0.0
 11
1662.06408359602
 21
70.4050468622454
 31
0.0
  0
LINE
  5
53
330
2
100
AcDbEntity
  8
外枠
  6
Continuous
 48
100.0
370
     9
100
AcDbLine
 10
1662.06408359602
 20
70.4050468622454
 30
0.0
 11
1657.750270233026
 21
73.85609755263885
 31
0.0
  0
LINE
  5
54
330
2
100
AcDbEntity
  8
外枠
  6
Continuous
 48
100.0
370
     9
100
AcDbLine
 10
1666.377896959009
 20
73.85609755263885
 30
0.0
 11
1662.06408359602
 21
77.30714824303777
 31
0.0
  0
LINE
  5
55
330
2
100
AcDbEntity
  8
外枠
  6
Continuous
 48
100.0
370
     9
100
AcDbLine
 10
1657.750270233026
 20
132.5099272046927
 30
0.0
 11
1625.405440063483
 21
106.634063069062
 31
0.0
  0
LINE
  5
56
330
2
100
AcDbEntity
  8
外枠
  6
Continuous
 48
100.0
370
     9
100
AcDbLine
 10
1653.436456870031
 20
135.9609778950862
 30
0.0
 11
1621.0916267005
 21
110.08511375945
 31
0.0
  0
LINE
  5
57
330
2
100
AcDbEntity
  8
外枠
  6
Continuous
 48
100.0
370
     9
100
AcDbLine
 10
1621.0916267005
 20
110.08511375945
 30
0.0
 11
1616.777813337505
 21
113.5361644498489
 31
0.0
  0
LINE
  5
58
330
2
100
AcDbEntity
  8
外枠
  6
Continuous
 48
100.0
370
     9
100
AcDbLine
 10
1694.408913765557
 20
103.183012378663
 30
0.0
 11
1698.722727128541
 21
99.73196168827508
 31
0.0
  0
LINE
  5
59
330
2
100
AcDbEntity
  8
外枠
  6
Continuous
 48
100.0
370
     9
100
AcDbLine
 10
1703.036540491541
 20
103.183012378663
 30
0.0
 11
1698.722727128541
 21
99.73196168827508
 31
0.0
  0
LINE
  5
5A
330
2
100
AcDbEntity
  8
外枠
  6
Continuous
 48
100.0
370
     9
100
AcDbLine
 10
1698.722727128541
 20
113.5361644498489
 30
0.0
 11
1694.408913765557
 21
110.08511375945
 31
0.0
  0
LINE
  5
5B
330
2
100
AcDbEntity
  8
外枠
  6
Continuous
 48
100.0
370
     9
100
AcDbLine
 10
1698.722727128541
 20
106.634063069062
 30
0.0
 11
1703.036540491541
 21
103.183012378663
 31
0.0
  0
LINE
  5
5C
330
2
100
AcDbEntity
  8
外枠
  6
Continuous
 48
100.0
370
     9
100
AcDbLine
 10
1698.722727128541
 20
113.5361644498489
 30
0.0
 11
1703.036540491541
 21
110.08511375945
 31
0.0
  0
LINE
  5
5D
330
2
100
AcDbEntity
  8
外枠
  6
Continuous
 48
100.0
370
     9
100
AcDbLine
 10
1703.036540491541
 20
110.08511375945
 30
0.0
 11
1698.722727128541
 21
106.634063069062
 31
0.0
  0
LINE
  5
5E
330
2
100
AcDbEntity
  8
外枠
  6
Continuous
 48
100.0
370
     9
100
AcDbLine
 10
1653.436456870031
 20
142.8630792758676
 30
0.0
 11
1649.122643507042
 21
139.4120285854742
 31
0.0
  0
LINE
  5
5F
330
2
100
AcDbEntity
  8
外枠
  6
Continuous
 48
100.0
370
     9
100
AcDbLine
 10
1662.06408359602
 20
142.8630792758676
 30
0.0
 11
1666.377896959009
 21
139.4120285854742
 31
0.0
  0
LINE
  5
60
330
2
100
AcDbEntity
  8
外枠
  6
Continuous
 48
100.0
370
     9
100
AcDbLine
 10
1653.436456870031
 20
142.8630792758676
 30
0.0
 11
1657.750270233026
 21
139.4120285854742
 31
0.0
  0
LINE
  5
61
330
2
100
AcDbEntity
  8
外枠
  6
Continuous
 48
100.0
370
     9
100
AcDbLine
 10
1662.06408359602
 20
142.8630792758676
 30
0.0
 11
1657.750270233026
 21
139.4120285854742
 31
0.0
  0
MTEXT
  5
62
330
2
100
AcDbEntity
  8
外枠
  6
Continuous
 48
100.0
370
     9
100
AcDbMText
 10
1982.246612759803
 20
141.5312822365363
 30
0.0
 40
50.0
 41
269.1378
 71
     1
 72
     5
  1
宝 機 材
 73
     1
 44
1.0
1001
ACAD
1000
MTEXTBEGIN
1070
    73
1070
     1
1070
    44
1040
1.0
1070
    74
1070
     0
1000
MTEXTEND
  0
LINE
  5
63
330
2
100
AcDbEntity
  8
外枠
  6
Continuous
 48
100.0
370
     9
100
AcDbLine
 10
2694.775480668144
 20
78.59726492113622
 30
0.0
 11
2729.639779322774
 21
43.73296626650699
 31
0.0
  0
LINE
  5
64
330
2
100
AcDbEntity
  8
外枠
  6
Continuous
 48
100.0
370
     9
100
AcDbLine
 10
2729.639779322774
 20
113.4615635757691
 30
0.0
 11
2694.775480668144
 21
78.59726492113622
 31
0.0
  0
LINE
  5
66
330
2
100
AcDbEntity
  8
外枠
  6
Continuous
 48
100.0
370
     9
100
AcDbLine
 10
2271.730765417811
 20
155.3992728207995
 30
0.0
 11
2271.730765417811
 21
10.0
 31
0.0
  0
LINE
  5
67
330
2
100
AcDbEntity
  8
外枠
  6
Continuous
 48
100.0
370
     9
100
AcDbLine
 10
2387.385592047314
 20
155.3992728207995
 30
0.0
 11
2387.385592047314
 21
9.999999999996362
 31
0.0
  0
MTEXT
  5
68
330
2
100
AcDbEntity
  8
外枠
  6
Continuous
 48
100.0
370
     9
100
AcDbMText
 10
2518.897970034654
 20
80.52451510381798
 30
0.0
 40
16.435188
 41
274.138099993296
 71
     1
 72
     5
  1
縮尺（A4用紙)
 73
     1
 44
1.0
1001
ACAD
1000
MTEXTBEGIN
1070
    73
1070
     1
1070
    44
1040
1.0
1070
    74
1070
     0
1000
MTEXTEND
  0
LINE
  5
69
330
2
100
AcDbEntity
  8
外枠
  6
Continuous
 48
100.0
370
     9
100
AcDbLine
 10
2503.04041867681
 20
155.3992728207995
 30
0.0
 11
2503.04041867681
 21
9.999999999996362
 31
0.0
  0
LINE
  5
6A
330
2
100
AcDbEntity
  8
外枠
  6
Continuous
 48
100.0
370
     9
100
AcDbLine
 10
2676.662359028593
 20
155.3992728207995
 30
0.0
 11
2676.662359028593
 21
10.0
 31
0.0
  0
MTEXT
  5
6B
330
2
100
AcDbEntity
  8
外枠
  6
Continuous
 48
100.0
370
     9
100
AcDbMText
 10
2557.587330290393
 20
42.24161905183791
 30
0.0
 40
23.47884
 41
274.138099993296
 71
     1
 72
     5
  1
1：10
 73
     1
 44
1.0
1001
ACAD
1000
MTEXTBEGIN
1070
    73
1070
     1
1070
    44
1040
1.0
1070
    74
1070
     0
1000
MTEXTEND
  0
MTEXT
  5
6C
330
2
100
AcDbEntity
  8
外枠
  6
Continuous
 48
100.0
370
     9
100
AcDbMText
 10
2280.290404386422
 20
149.5129012429788
 30
0.0
 40
18.783072
 41
274.13809060176
 71
     1
 72
     5
  1
Check
 73
     1
 44
1.0
1001
ACAD
1000
MTEXTBEGIN
1070
    73
1070
     1
1070
    44
1040
1.0
1070
    74
1070
     0
1000
MTEXTEND
  0
MTEXT
  5
6D
330
2
100
AcDbEntity
  8
外枠
  6
Continuous
 48
100.0
370
     9
100
AcDbMText
 10
2398.03460165154
 20
149.5129012429788
 30
0.0
 40
18.783072
 41
274.13809060176
 71
     1
 72
     5
  1
Draw
 73
     1
 44
1.0
1001
ACAD
1000
MTEXTBEGIN
1070
    73
1070
     1
1070
    44
1040
1.0
1070
    74
1070
     0
1000
MTEXTEND
  0
LINE
  5
6F
330
2
100
AcDbEntity
  8
外枠
  6
Continuous
 48
100.0
370
     9
100
AcDbLine
 10
2676.662359028593
 20
85.04752041039683
 30
0.0
 11
2503.04041867681
 21
85.04752041039683
 31
0.0
  0
MTEXT
  5
70
330
2
100
AcDbEntity
  8
外枠
  6
Continuous
 48
100.0
370
     9
100
AcDbMText
 10
2518.897970034654
 20
153.7304166203976
 30
0.0
 40
16.435188
 41
274.138099993296
 71
     1
 72
     5
  1
図面作成日
 73
     1
 44
1.0
1001
ACAD
1000
MTEXTBEGIN
1070
    73
1070
     1
1070
    44
1040
1.0
1070
    74
1070
     0
1000
MTEXTEND
  0
LINE
  5
72
330
2
100
AcDbEntity
  8
外枠
  6
Continuous
 48
100.0
370
     9
100
AcDbLine
 10
2729.639779322774
 20
43.73296626650699
 30
0.0
 11
2764.504077977396
 21
78.59726492113622
 31
0.0
  0
LINE
  5
73
330
2
100
AcDbEntity
  8
外枠
  6
Continuous
 48
100.0
370
     9
100
AcDbLine
 10
2764.504077977396
 20
78.59726492113622
 30
0.0
 11
2729.639779322774
 21
113.4615635757691
 31
0.0
  0
LINE
  5
7F
330
2
100
AcDbEntity
  8
本体
  6
Continuous
100
AcDbLine
 10
351.3842196783325
 20
1574.972907576634
 30
0.0
 11
1346.384219678332
 21
1574.972907576634
 31
0.0
  0
LINE
  5
81
330
2
100
AcDbEntity
  8
本体
  6
Continuous
100
AcDbLine
 10
351.3842196783325
 20
1568.972907576634
 30
0.0
 11
1346.384219678332
 21
1568.972907576634
 31
0.0
  0
LINE
  5
82
330
2
100
AcDbEntity
  8
本体
  6
Continuous
100
AcDbLine
 10
351.3842196783325
 20
1529.972907576634
 30
0.0
 11
1346.384219678332
 21
1529.972907576634
 31
0.0
  0
LINE
  5
83
330
2
100
AcDbEntity
  8
本体
  6
Continuous
100
AcDbLine
 10
351.3842196783325
 20
1524.972907576634
 30
0.0
 11
1346.384219678332
 21
1524.972907576634
 31
0.0
  0
LINE
  5
84
330
2
100
AcDbEntity
  8
本体
  6
Continuous
100
AcDbLine
 10
351.3842196783325
 20
1429.972907576634
 30
0.0
 11
1346.384219678332
 21
1429.972907576634
 31
0.0
  0
LINE
  5
85
330
2
100
AcDbEntity
  8
本体
  6
Continuous
100
AcDbLine
 10
351.3842196783325
 20
1424.972907576634
 30
0.0
 11
1346.384219678332
 21
1424.972907576634
 31
0.0
  0
LINE
  5
8B
330
2
100
AcDbEntity
  8
本体
  6
Continuous
100
AcDbLine
 10
1826.694690178666
 20
1574.972907576634
 30
0.0
 11
1826.694690178666
 21
1568.972907576634
 31
0.0
  0
LINE
  5
8C
330
2
100
AcDbEntity
  8
本体
  6
Continuous
100
AcDbLine
 10
1826.694690178666
 20
1568.972907576634
 30
0.0
 11
1858.694690178666
 21
1568.972907576634
 31
0.0
  0
LINE
  5
8D
330
2
100
AcDbEntity
  8
本体
  6
Continuous
100
AcDbLine
 10
1858.694690178666
 20
1568.972907576634
 30
0.0
 11
1858.694690178666
 21
1571.972907576634
 31
0.0
  0
LINE
  5
8E
330
2
100
AcDbEntity
  8
本体
  6
Continuous
100
AcDbLine
 10
1858.694690178666
 20
1571.972907576634
 30
0.0
 11
1826.694690178666
 21
1574.972907576634
 31
0.0
  0
LINE
  5
8F
330
2
100
AcDbEntity
  8
本体
  6
Continuous
100
AcDbLine
 10
1826.694690178666
 20
1185.972907576634
 30
0.0
 11
1858.694690178666
 21
1185.972907576634
 31
0.0
  0
LINE
  5
90
330
2
100
AcDbEntity
  8
本体
  6
Continuous
100
AcDbLine
 10
1858.694690178666
 20
1182.972907576634
 30
0.0
 11
1826.694690178666
 21
1179.972907576634
 31
0.0
  0
LINE
  5
91
330
2
100
AcDbEntity
  8
本体
  6
Continuous
100
AcDbLine
 10
1826.694690178666
 20
1179.972907576634
 30
0.0
 11
1826.694690178666
 21
1185.972907576634
 31
0.0
  0
LINE
  5
92
330
2
100
AcDbEntity
  8
本体
  6
Continuous
100
AcDbLine
 10
1858.694690178666
 20
1185.972907576634
 30
0.0
 11
1858.694690178666
 21
1182.972907576634
 31
0.0
  0
LINE
  5
93
330
2
100
AcDbEntity
  8
本体
  6
Continuous
100
AcDbLine
 10
1826.694690178666
 20
1568.972907576634
 30
0.0
 11
1826.694690178666
 21
1185.972907576634
 31
0.0
  0
LINE
  5
94
330
2
100
AcDbEntity
  8
本体
  6
Continuous
100
AcDbLine
 10
1858.694690178666
 20
1568.972907576634
 30
0.0
 11
1858.694690178666
 21
1185.972907576634
 31
0.0
  0
DIMENSION
  5
A0
330
2
100
AcDbEntity
  8
寸法線
  6
Continuous
100
AcDbDimension
  2
*D3
 10
1726.751020130032
 20
1427.472907576634
 30
0.0
 11
1706.751020130032
 21
1477.472907576634
 31
0.0
 70
    32
 71
     5
 42
-1.0
  3
ISO-25
100
AcDbAlignedDimension
 13
1826.694690178666
 23
1527.472907576634
 33
0.0
 14
1826.694690178666
 24
1427.472907576634
 34
0.0
 50
90.0
100
AcDbRotatedDimension
  0
DIMENSION
  5
AE
330
2
100
AcDbEntity
  8
寸法線
  6
Continuous
100
AcDbDimension
  2
*D4
 10
1626.707268246686
 20
1179.972907576634
 30
0.0
 11
1606.707268246686
 21
1377.472907576634
 31
0.0
 70
    32
 71
     5
 42
-1.0
  3
ISO-25
100
AcDbAlignedDimension
 13
1826.694690178666
 23
1574.972907576634
 33
0.0
 14
1826.694690178666
 24
1179.972907576634
 34
0.0
 50
90.0
100
AcDbRotatedDimension
  0
DIMENSION
  5
BB
330
2
100
AcDbEntity
  8
寸法線
  6
Continuous
100
AcDbDimension
  2
*D5
 10
2031.575608686543
 20
1189.972906576634
 30
0.0
 11
2011.575608686542
 21
1377.472907576634
 31
0.0
 70
    32
 71
     5
 42
-1.0
  3
ISO-25
100
AcDbAlignedDimension
 13
1925.694687178666
 23
1564.972908576634
 33
0.0
 14
1925.694687178666
 24
1189.972906576634
 34
0.0
 50
90.0
100
AcDbRotatedDimension
  0
LEADER
  5
C8
330
2
100
AcDbEntity
  8
寸法線
  6
Continuous
100
AcDbLeader
  3
ISO-25
 73
     0
 74
     0
 75
     1
 40
36.39593908629441
 41
132.1827411167512
 76
     3
 10
1344.567811388808
 20
1573.472907576634
 30
0.0
 10
1402.278489507463
 20
1644.183585695289
 30
0.0
 10
1417.278489507463
 20
1644.183585695289
 30
0.0
340
C9
1001
ACAD
1000
DSTYLE
1002
{
1070
     5
1000
OPEN30
1070
    77
1070
     1
1070
   147
1040
0.5
1070
   342
1005
96
1002
}
  0
MTEXT
  5
C9
102
{ACAD_REACTORS
330
C8
102
}
330
2
100
AcDbEntity
  8
寸法線
  6
Continuous
100
AcDbMText
 10
1422.278489507463
 20
1649.183585695289
 30
0.0
 40
30.0
 41
0.0
 71
     7
 72
     1
  1
6/3\U+00D732
 73
     1
 44
1.0
1001
ACAD
1000
MTEXTBEGIN
1070
    73
1070
     1
1070
    44
1040
1.0
1070
    74
1070
     0
1000
MTEXTEND
  0
LEADER
  5
CA
330
2
100
AcDbEntity
  8
寸法線
  6
Continuous
100
AcDbLeader
  3
ISO-25
 73
     0
 74
     0
 75
     1
 40
30.0
 41
230.2538071065989
 76
     3
 10
1896.194687178666
 20
1564.972908576634
 30
0.0
 10
1962.905364297321
 20
1648.183585695289
 30
0.0
 10
1977.905364297321
 20
1648.183585695289
 30
0.0
340
CB
1001
ACAD
1000
DSTYLE
1002
{
1070
     5
1000
OPEN30
1070
    77
1070
     1
1070
   147
1040
0.5
1070
   342
1005
96
1002
}
  0
MTEXT
  5
CB
102
{ACAD_REACTORS
330
CA
102
}
330
2
100
AcDbEntity
  8
寸法線
  6
Continuous
100
AcDbMText
 10
1982.905364297321
 20
1653.183585695289
 30
0.0
 40
30.0
 41
0.0
 71
     7
 72
     1
  1
P2.3\U+00D760\U+00D740
 73
     1
 44
1.0
1001
ACAD
1000
MTEXTBEGIN
1070
    73
1070
     1
1070
    44
1040
1.0
1070
    74
1070
     0
1000
MTEXTEND
  0
LINE
  5
CD
330
2
100
AcDbEntity
  8
嵩上断面
  6
HIDDEN
 48
2.0
100
AcDbLine
 10
1336.384219678332
 20
646.7823688195982
 30
0.0
 11
361.3842196783326
 21
646.7823688195982
 31
0.0
  0
DIMENSION
  5
D0
330
2
100
AcDbEntity
  8
寸法線
  6
Continuous
100
AcDbDimension
  2
*D6
 10
1336.384219678332
 20
439.2024478118387
 30
0.0
 11
848.8842196783325
 21
459.2024478118387
 31
0.0
 70
    32
 71
     5
 42
-1.0
  3
ISO-25
100
AcDbAlignedDimension
 13
361.3842196783326
 23
589.0823688195983
 33
0.0
 14
1336.384219678332
 24
589.0823688195983
 34
0.0
100
AcDbRotatedDimension
  0
LINE
  5
DD
330
2
100
AcDbEntity
  8
中心線
  6
Continuous
100
AcDbLine
 10
1106.301939678332
 20
695.0823688195982
 30
0.0
 11
1106.301939678332
 21
641.0823688195982
 31
0.0
  0
LINE
  5
DE
330
2
100
AcDbEntity
  8
中心線
  6
Continuous
100
AcDbLine
 10
1118.858901678332
 20
695.0823688195982
 30
0.0
 11
1118.858901678332
 21
641.0823688195982
 31
0.0
  0
LINE
  5
E1
330
2
100
AcDbEntity
  8
本体
  6
Continuous
100
AcDbLine
 10
354.3252298985544
 20
681.0823688195982
 30
0.0
 11
363.9411816783322
 21
681.0823688195982
 31
0.0
  0
LINE
  5
E2
330
2
100
AcDbEntity
  8
本体
  6
Continuous
100
AcDbLine
 10
354.9336243446375
 20
675.0823688195983
 30
0.0
 11
363.9411816783322
 21
675.0823688195983
 31
0.0
  0
DIMENSION
  5
103
330
2
100
AcDbEntity
  8
寸法線
  6
Continuous
100
AcDbDimension
  2
*D7
 10
1443.148843602096
 20
681.0823688195982
 30
0.0
 11
1423.148843602096
 21
733.6712013069082
 31
0.0
 70
    32
 71
     5
 42
-1.0
  3
ISO-25
100
AcDbAlignedDimension
 13
1338.884219678332
 23
649.0823688195982
 33
0.0
 14
1343.884219678332
 24
681.0823688195982
 34
0.0
 50
90.0
100
AcDbRotatedDimension
  0
DIMENSION
  5
112
330
2
100
AcDbEntity
  8
寸法線
  6
Continuous
100
AcDbDimension
  2
*D8
 10
1542.111080505596
 20
589.0823688195983
 30
0.0
 11
1522.111080505595
 21
635.0823688195985
 31
0.0
 70
    32
 71
     5
 42
-1.0
  3
ISO-25
100
AcDbAlignedDimension
 13
1343.884219678332
 23
681.0823688195982
 33
0.0
 14
1336.384219678332
 24
589.0823688195983
 34
0.0
 50
90.0
100
AcDbRotatedDimension
  0
LINE
  5
1BA
330
2
100
AcDbEntity
  8
本体
  6
Continuous
100
AcDbLine
 10
1333.827255678332
 20
681.0823688195982
 30
0.0
 11
1343.44320945811
 21
681.0823688195982
 31
0.0
  0
LINE
  5
1BC
330
2
100
AcDbEntity
  8
本体
  6
Continuous
100
AcDbLine
 10
1342.834815012027
 20
675.0823688195983
 30
0.0
 11
1334.058143678332
 21
675.0823688195983
 31
0.0
  0
DIMENSION
  5
1BD
330
2
100
AcDbEntity
  8
寸法線
  6
Continuous
100
AcDbDimension
  2
*D9
 10
351.3842196783325
 20
877.8872197702927
 30
0.0
 11
848.884219678332
 21
897.8872197702926
 31
0.0
 70
    32
 71
     5
 42
-1.0
  3
ISO-25
100
AcDbAlignedDimension
 13
1346.384219678331
 23
680.4903731400941
 33
0.0
 14
351.3842196783325
 24
680.4903731400941
 34
0.0
100
AcDbRotatedDimension
  0
DIMENSION
  5
1CA
330
2
100
AcDbEntity
  8
寸法線
  6
Continuous
100
AcDbDimension
  2
*D10
 10
1118.858901678332
 20
751.793046938253
 30
0.0
 11
1189.797987972749
 21
771.7930469382531
 31
0.0
 70
    32
  1
12.5
 71
     5
 42
-1.0
  3
ISO-25
100
AcDbAlignedDimension
 13
1106.301939678332
 23
681.0823688195982
 33
0.0
 14
1118.858901678332
 24
681.0823688195982
 34
0.0
100
AcDbRotatedDimension
  0
LINE
  5
1D9
330
2
100
AcDbEntity
  8
本体
  6
Continuous
100
AcDbLine
 10
351.3842196783325
 20
1329.972907576634
 30
0.0
 11
1346.384219678332
 21
1329.972907576634
 31
0.0
  0
LINE
  5
1DA
330
2
100
AcDbEntity
  8
本体
  6
Continuous
100
AcDbLine
 10
351.3842196783325
 20
1324.972907576634
 30
0.0
 11
1346.384219678332
 21
1324.972907576634
 31
0.0
  0
LINE
  5
1DB
330
2
100
AcDbEntity
  8
本体
  6
Continuous
100
AcDbLine
 10
351.3842196783325
 20
1185.972907576634
 30
0.0
 11
1346.384219678332
 21
1185.972907576634
 31
0.0
  0
LINE
  5
1DC
330
2
100
AcDbEntity
  8
本体
  6
Continuous
100
AcDbLine
 10
351.3842196783325
 20
1179.972907576634
 30
0.0
 11
1346.384219678332
 21
1179.972907576634
 31
0.0
  0
INSERT
  5
460
330
2
100
AcDbEntity
  8
本体
  6
Continuous
100
AcDbBlockReference
  2
TB5
 10
1826.694690178666
 20
1527.472907576634
 30
0.0
  0
INSERT
  5
469
330
2
100
AcDbEntity
  8
本体
  6
Continuous
100
AcDbBlockReference
  2
TB5
 10
1826.694690178666
 20
1427.472907576634
 30
0.0
  0
INSERT
  5
46A
330
2
100
AcDbEntity
  8
本体
  6
Continuous
100
AcDbBlockReference
  2
TB5
 10
1826.694690178666
 20
1227.472907576634
 30
0.0
  0
LINE
  5
473
330
2
100
AcDbEntity
  8
本体
  6
Continuous
100
AcDbLine
 10
363.9411816783322
 20
681.0823688195982
 30
0.0
 11
366.9411816783322
 21
681.0823688195982
 31
0.0
  0
LINE
  5
474
330
2
100
AcDbEntity
  8
本体
  6
Continuous
100
AcDbLine
 10
366.9411816783322
 20
681.0823688195982
 30
0.0
 11
366.9411816783322
 21
649.0823688195982
 31
0.0
  0
LINE
  5
475
330
2
100
AcDbEntity
  8
本体
  6
Continuous
100
AcDbLine
 10
366.9411816783322
 20
649.0823688195982
 30
0.0
 11
363.9411816783322
 21
649.0823688195982
 31
0.0
  0
LINE
  5
476
330
2
100
AcDbEntity
  8
本体
  6
Continuous
100
AcDbLine
 10
363.9411816783322
 20
649.0823688195982
 30
0.0
 11
363.9411816783322
 21
681.0823688195982
 31
0.0
  0
LINE
  5
58B
330
2
100
AcDbEntity
  8
本体
  6
Continuous
100
AcDbLine
 10
1343.397315008732
 20
681.0823688195982
 30
0.0
 11
1346.384217687062
 21
680.8023466951456
 31
0.0
  0
LINE
  5
58C
330
2
100
AcDbEntity
  8
本体
  6
Continuous
100
AcDbLine
 10
1346.384217687062
 20
680.8023466951456
 30
0.0
 11
1343.397315026233
 21
648.9420514596219
 31
0.0
  0
LINE
  5
58D
330
2
100
AcDbEntity
  8
本体
  6
Continuous
100
AcDbLine
 10
1343.397315026233
 20
648.9420514596219
 30
0.0
 11
1340.410412347903
 21
649.2220735840747
 31
0.0
  0
LINE
  5
58E
330
2
100
AcDbEntity
  8
本体
  6
Continuous
100
AcDbLine
 10
1340.410412347903
 20
649.2220735840747
 30
0.0
 11
1343.397315008732
 21
681.0823688195982
 31
0.0
  0
LINE
  5
5A3
330
2
100
AcDbEntity
  8
本体
  6
Continuous
100
AcDbLine
 10
351.3842196783325
 20
1224.972907576634
 30
0.0
 11
1346.384219678332
 21
1224.972907576634
 31
0.0
  0
LINE
  5
5A4
330
2
100
AcDbEntity
  8
本体
  6
Continuous
100
AcDbLine
 10
351.3842196783325
 20
1229.972907576634
 30
0.0
 11
1346.384219678332
 21
1229.972907576634
 31
0.0
  0
INSERT
  5
647
330
2
100
AcDbEntity
  8
本体
  6
Continuous
100
AcDbBlockReference
  2
TB5
 10
1826.694690178666
 20
1327.472907576634
 30
0.0
  0
LINE
  5
650
330
2
100
AcDbEntity
  8
嵩上断面
  6
Continuous
100
AcDbLine
 10
361.3842196783326
 20
649.0823688195982
 30
0.0
 11
1336.384219678332
 21
649.0823688195982
 31
0.0
  0
LINE
  5
652
330
2
100
AcDbEntity
  8
嵩上断面
  6
Continuous
100
AcDbLine
 10
361.3842196783326
 20
589.0823688195983
 30
0.0
 11
1336.384219678332
 21
589.0823688195983
 31
0.0
  0
LINE
  5
6D8
330
2
100
AcDbEntity
  8
本体
  6
Continuous
100
AcDbLine
 10
354.9336243446375
 20
675.0823688195983
 30
0.0
 11
363.9411816783322
 21
681.0823688195982
 31
0.0
  0
LINE
  5
726
330
2
100
AcDbEntity
  8
本体
  6
Continuous
100
AcDbLine
 10
1334.058143678332
 20
675.0823688195983
 30
0.0
 11
1343.397315008732
 21
681.0823688195982
 31
0.0
  0
LINE
  5
21B8
330
2
100
AcDbEntity
  8
嵩上断面
  6
Continuous
100
AcDbLine
 10
1336.384219678332
 20
649.0823688195982
 30
0.0
 11
1336.384219678332
 21
589.0823688195983
 31
0.0
  0
LINE
  5
21B9
330
2
100
AcDbEntity
  8
嵩上断面
  6
Continuous
100
AcDbLine
 10
361.3842196783326
 20
649.0823688195982
 30
0.0
 11
361.3842196783326
 21
589.0823688195983
 31
0.0
  0
DIMENSION
  5
21BA
330
2
100
AcDbEntity
  8
寸法線
 48
3.0
100
AcDbDimension
  2
*D11
 10
1443.148843602096
 20
649.0823688195982
 30
0.0
 11
1423.148843602096
 21
619.0823688195985
 31
0.0
 70
    32
 71
     5
 42
-1.0
  3
ISO-25
100
AcDbAlignedDimension
 13
1336.384219678332
 23
589.0823688195983
 33
0.0
 14
1336.384219678332
 24
649.0823688195982
 34
0.0
 50
90.0
100
AcDbRotatedDimension
  0
LINE
  5
2228
330
2
100
AcDbEntity
  8
嵩上平面
  6
HIDDEN
 48
3.0
370
     9
100
AcDbLine
 10
361.3842196783326
 20
1564.972908576634
 30
0.0
 11
1336.384219678332
 21
1564.972908576634
 31
0.0
  0
LINE
  5
2229
330
2
100
AcDbEntity
  8
嵩上平面
  6
HIDDEN
 48
3.0
370
     9
100
AcDbLine
 10
361.3842196783326
 20
1524.972908576634
 30
0.0
 11
1336.384219678332
 21
1524.972908576634
 31
0.0
  0
LINE
  5
222A
330
2
100
AcDbEntity
  8
嵩上平面
  6
HIDDEN
 48
3.0
370
     9
100
AcDbLine
 10
361.3842196783326
 20
1229.972906576634
 30
0.0
 11
1336.384219678332
 21
1229.972906576634
 31
0.0
  0
LINE
  5
222B
330
2
100
AcDbEntity
  8
嵩上平面
  6
HIDDEN
 48
3.0
370
     9
100
AcDbLine
 10
361.3842196783326
 20
1189.972906576634
 30
0.0
 11
1336.384219678332
 21
1189.972906576634
 31
0.0
  0
LINE
  5
222C
330
2
100
AcDbEntity
  8
嵩上平面
  6
HIDDEN
 48
3.0
370
     9
100
AcDbLine
 10
1336.384219678332
 20
1189.972906576634
 30
0.0
 11
1336.384219678332
 21
1229.972906576634
 31
0.0
  0
LINE
  5
222D
330
2
100
AcDbEntity
  8
嵩上平面
  6
HIDDEN
 48
3.0
370
     9
100
AcDbLine
 10
361.3842196783326
 20
1189.972906576634
 30
0.0
 11
361.3842196783326
 21
1229.972906576634
 31
0.0
  0
LINE
  5
222E
330
2
100
AcDbEntity
  8
嵩上平面
  6
HIDDEN
 48
3.0
370
     9
100
AcDbLine
 10
361.3842196783326
 20
1524.972908576633
 30
0.0
 11
361.3842196783326
 21
1564.972908576634
 31
0.0
  0
LINE
  5
222F
330
2
100
AcDbEntity
  8
嵩上平面
  6
HIDDEN
 48
3.0
370
     9
100
AcDbLine
 10
1336.384219678332
 20
1524.972908576633
 30
0.0
 11
1336.384219678332
 21
1564.972908576634
 31
0.0
  0
MTEXT
  5
23CA
330
2
100
AcDbEntity
  8
外枠
  6
Continuous
 48
100.0
370
     9
100
AcDbMText
 10
1022.193186254242
 20
77.61017986570414
 30
0.0
 40
18.0
 41
122.0406
 71
     1
 72
     5
  1
【主部材】
 73
     1
 44
1.0
1001
ACAD
1000
MTEXTBEGIN
1070
    73
1070
     1
1070
    44
1040
1.0
1070
    74
1070
     0
1000
MTEXTEND
  0
MTEXT
  5
23CB
330
2
100
AcDbEntity
  8
外枠
  6
Continuous
 48
100.0
370
     9
100
AcDbMText
 10
1038.975343934131
 20
43.7816999552947
 30
0.0
 40
25.0
 41
122.0406
 71
     1
 72
     5
  1
SS400
 73
     1
 44
1.0
1001
ACAD
1000
MTEXTBEGIN
1070
    73
1070
     1
1070
    44
1040
1.0
1070
    74
1070
     0
1000
MTEXTEND
  0
MTEXT
  5
23CC
330
2
100
AcDbEntity
  8
外枠
  6
Continuous
 48
100.0
370
     9
100
AcDbMText
 10
1202.677957061338
 20
120.1377642323818
 30
0.0
 40
25.0
 41
1015.1375
 71
     1
 72
     5
  1
溶融亜鉛めっき仕上
 73
     1
 44
1.0
1001
ACAD
1000
MTEXTBEGIN
1070
    73
1070
     1
1070
    44
1040
1.0
1070
    74
1070
     0
1000
MTEXTEND
  0
MTEXT
  5
23CD
330
2
100
AcDbEntity
  8
外枠
  6
Continuous
 48
100.0
370
     9
100
AcDbMText
 10
1199.761738767627
 20
151.0819879350654
 30
0.0
 40
18.0
 41
301.8661
 71
     1
 72
     5
  1
【グレーチング】JIS　H8641
 73
     1
 44
1.0
1001
ACAD
1000
MTEXTBEGIN
1070
    73
1070
     1
1070
    44
1040
1.0
1070
    74
1070
     0
1000
MTEXTEND
  0
MTEXT
  5
23CE
330
2
100
AcDbEntity
  8
外枠
  6
Continuous
 48
100.0
370
     9
100
AcDbMText
 10
1159.385398923399
 20
148.6111115828503
 30
0.0
 40
20.0
 41
1015.1375
 71
     1
 72
     5
  1
表\P面\P処\P理
 73
     1
 44
1.0
1001
ACAD
1000
MTEXTBEGIN
1070
    73
1070
     1
1070
    44
1040
1.0
1070
    74
1070
     0
1000
MTEXTEND
  0
LINE
  5
23CF
330
2
100
AcDbEntity
  8
外枠
  6
Continuous
 48
100.0
370
     9
100
AcDbLine
 10
1188.531791166651
 20
155.3992728207999
 30
0.0
 11
1188.531791166651
 21
9.999999999996816
 31
0.0
  0
LINE
  5
23D0
330
2
100
AcDbEntity
  8
外枠
  6
Continuous
 48
100.0
370
     9
100
AcDbLine
 10
1153.531306970095
 20
155.3992728207999
 30
0.0
 11
1153.531306970095
 21
9.999999999996816
 31
0.0
  0
LINE
  5
23D1
330
2
100
AcDbEntity
  8
外枠
 48
3.0
100
AcDbLine
 10
1188.531791166651
 20
82.6996364103984
 30
0.0
 11
1593.951336296073
 21
82.6996364103984
 31
0.0
  0
MTEXT
  5
24D7
330
2
100
AcDbEntity
  8
外枠
  6
Continuous
 48
100.0
370
     9
100
AcDbMText
 10
2509.985545378613
 20
121.2206105686568
 30
0.0
 40
23.47884
 41
274.1381
 71
     1
 72
     5
  1
'14・09・01
 73
     1
 44
1.0
1001
ACAD
1000
MTEXTBEGIN
1070
    73
1070
     1
1070
    44
1040
1.0
1070
    74
1070
     0
1000
MTEXTEND
  0
INSERT
  5
2568
330
2
100
AcDbEntity
  8
嵩上断面
 48
3.0
100
AcDbBlockReference
  2
P-H60
 10
1858.694690178666
 20
1564.972908576634
 30
0.0
  0
INSERT
  5
256A
330
2
100
AcDbEntity
  8
嵩上断面
 48
3.0
100
AcDbBlockReference
  2
P-H60
 10
1858.694690178666
 20
1189.972906576634
 30
0.0
 41
-1.0
 50
180.0
  0
MTEXT
  5
258E
330
2
100
AcDbEntity
  8
外枠
  6
Continuous
100
AcDbMText
 10
2427.938927859905
 20
67.25039165302274
 30
0.0
 40
28.17460800000001
 41
43.8527
 71
     1
 72
     5
  1
{\fHG正楷書体-PRO|b0|i0|c128|p65;水}
 73
     1
 44
1.0
1001
ACAD
1000
MTEXTBEGIN
1070
    73
1070
     1
1070
    44
1040
1.0
1070
    74
1070
     0
1000
MTEXTEND
  0
MTEXT
  5
258F
330
2
100
AcDbEntity
  8
外枠
  6
Continuous
100
AcDbMText
 10
2427.938927859905
 20
109.7804165221501
 30
0.0
 40
28.17460800000001
 41
43.8527
 71
     1
 72
     5
  1
{\fHG正楷書体-PRO|b0|i0|c128|p65;清}
 73
     1
 44
1.0
1001
ACAD
1000
MTEXTBEGIN
1070
    73
1070
     1
1070
    44
1040
1.0
1070
    74
1070
     0
1000
MTEXTEND
  0
ELLIPSE
  5
2590
330
2
100
AcDbEntity
  8
外枠
  6
Continuous
100
AcDbEllipse
 10
2449.066278910865
 20
70.80064248893592
 30
0.0
 11
0.0
 21
-47.8594442149426
 31
0.0
210
0.0
220
0.0
230
1.0
 40
0.7999999999999857
 41
0.0
 42
6.283185307179586
  0
INSERT
  5
266C
330
2
100
AcDbEntity
  8
外枠
 48
3.0
100
AcDbBlockReference
  2
鎌下
 10
2271.730765417811
 20
155.3992728207995
 30
0.0
  0
INSERT
  5
2716
330
2
100
AcDbEntity
  8
本体
 48
3.0
100
AcDbBlockReference
  2
GFB新
 10
2780.119625023061
 20
160.0950408207973
 30
0.0
  0
LINE
  5
2717
330
2
100
AcDbEntity
  8
嵩上断面
  6
HIDDEN
 48
2.0
100
AcDbLine
 10
1336.384219678332
 20
591.3823688195983
 30
0.0
 11
361.3842196783326
 21
591.3823688195983
 31
0.0
  0
LINE
  5
2726
330
2
100
AcDbEntity
  8
本体
  6
Continuous
100
AcDbLine
 10
354.3711243479334
 20
681.0823688195982
 30
0.0
 11
351.384221669603
 21
680.8023466951456
 31
0.0
  0
LINE
  5
2727
330
2
100
AcDbEntity
  8
本体
  6
Continuous
100
AcDbLine
 10
351.384221669603
 20
680.8023466951456
 30
0.0
 11
354.3711243304322
 21
648.9420514596219
 31
0.0
  0
LINE
  5
2728
330
2
100
AcDbEntity
  8
本体
  6
Continuous
100
AcDbLine
 10
354.3711243304322
 20
648.9420514596219
 30
0.0
 11
357.3580270087625
 21
649.2220735840747
 31
0.0
  0
LINE
  5
2729
330
2
100
AcDbEntity
  8
本体
  6
Continuous
100
AcDbLine
 10
357.3580270087625
 20
649.2220735840747
 30
0.0
 11
354.3711243479334
 21
681.0823688195982
 31
0.0
  0
LINE
  5
2795
330
2
100
AcDbEntity
  8
本体
 48
3.0
100
AcDbLine
 10
363.9411816783322
 20
649.0823688195982
 30
0.0
 11
355.8645756695974
 21
649.0820625218483
 31
0.0
  0
INSERT
  5
279D
102
{ACAD_REACTORS
330
27B1
102
}
330
2
100
AcDbEntity
  8
本体
100
AcDbBlockReference
  2
*U16
 10
373.2196626783323
 20
665.0823688195982
 30
0.0
  0
LINE
  5
2801
330
2
100
AcDbEntity
  8
本体
 48
3.0
100
AcDbLine
 10
1334.058143678332
 20
649.0823688195982
 30
0.0
 11
1341.903863687068
 21
649.0820625218483
 31
0.0
  0
LINE
  5
2802
330
2
100
AcDbEntity
  8
本体
  6
Continuous
100
AcDbLine
 10
1346.384219678332
 20
1568.972907576634
 30
0.0
 11
1346.384219678332
 21
1529.972907576634
 31
0.0
  0
LINE
  5
2803
330
2
100
AcDbEntity
  8
本体
  6
Continuous
100
AcDbLine
 10
1343.384219678332
 20
1568.972907576634
 30
0.0
 11
1343.384219678332
 21
1529.972907576634
 31
0.0
  0
LINE
  5
2804
330
2
100
AcDbEntity
  8
本体
  6
Continuous
100
AcDbLine
 10
1346.384219678332
 20
1524.972907576634
 30
0.0
 11
1346.384219678332
 21
1429.972907576634
 31
0.0
  0
LINE
  5
2805
330
2
100
AcDbEntity
  8
本体
  6
Continuous
100
AcDbLine
 10
1343.384219678332
 20
1524.972907576634
 30
0.0
 11
1343.384219678332
 21
1429.972907576634
 31
0.0
  0
LINE
  5
2806
330
2
100
AcDbEntity
  8
本体
  6
Continuous
100
AcDbLine
 10
1346.384219678332
 20
1329.972907576634
 30
0.0
 11
1346.384219678332
 21
1424.972907576634
 31
0.0
  0
LINE
  5
2807
330
2
100
AcDbEntity
  8
本体
  6
Continuous
100
AcDbLine
 10
1343.384219678332
 20
1329.972907576634
 30
0.0
 11
1343.384219678332
 21
1424.972907576634
 31
0.0
  0
LINE
  5
2808
330
2
100
AcDbEntity
  8
本体
  6
Continuous
100
AcDbLine
 10
1346.384219678332
 20
1185.972907576634
 30
0.0
 11
1346.384219678332
 21
1224.972907576634
 31
0.0
  0
LINE
  5
2809
330
2
100
AcDbEntity
  8
本体
  6
Continuous
100
AcDbLine
 10
1343.384219678332
 20
1185.972907576634
 30
0.0
 11
1343.384219678332
 21
1224.972907576634
 31
0.0
  0
LINE
  5
280A
330
2
100
AcDbEntity
  8
本体
  6
Continuous
100
AcDbLine
 10
1343.384219678332
 20
1229.972907576634
 30
0.0
 11
1343.384219678332
 21
1324.972907576634
 31
0.0
  0
LINE
  5
280B
330
2
100
AcDbEntity
  8
本体
  6
Continuous
100
AcDbLine
 10
1346.384219678332
 20
1229.972907576634
 30
0.0
 11
1346.384219678332
 21
1324.972907576634
 31
0.0
  0
LINE
  5
280C
330
2
100
AcDbEntity
  8
本体
  6
Continuous
100
AcDbLine
 10
1330.827257678332
 20
1524.972907576634
 30
0.0
 11
1343.384219678332
 21
1529.972907576634
 31
0.0
  0
LINE
  5
280D
330
2
100
AcDbEntity
  8
本体
  6
Continuous
100
AcDbLine
 10
1330.827257678332
 20
1424.972907576634
 30
0.0
 11
1343.384219678332
 21
1429.972907576634
 31
0.0
  0
LINE
  5
280E
330
2
100
AcDbEntity
  8
本体
  6
Continuous
100
AcDbLine
 10
1330.827257678332
 20
1324.972907576634
 30
0.0
 11
1343.384219678332
 21
1329.972907576634
 31
0.0
  0
LINE
  5
280F
330
2
100
AcDbEntity
  8
本体
  6
Continuous
100
AcDbLine
 10
1330.827257678332
 20
1224.972907576634
 30
0.0
 11
1343.384219678332
 21
1229.972907576634
 31
0.0
  0
LINE
  5
2810
330
2
100
AcDbEntity
  8
エンボス
  6
Continuous
100
AcDbLine
 10
1343.384220908332
 20
1338.505970360795
 30
0.0
 11
1346.384220908332
 21
1339.705970360794
 31
0.0
  0
LINE
  5
2811
330
2
100
AcDbEntity
  8
エンボス
  6
Continuous
100
AcDbLine
 10
1343.384220908332
 20
1189.272902776634
 30
0.0
 11
1346.384220908332
 21
1190.472902776634
 31
0.0
  0
LINE
  5
2812
330
2
100
AcDbEntity
  8
エンボス
  6
Continuous
100
AcDbLine
 10
1346.384220908332
 20
1186.272902776634
 30
0.0
 11
1343.384220908332
 21
1187.472902776634
 31
0.0
  0
LINE
  5
2813
330
2
100
AcDbEntity
  8
エンボス
  6
Continuous
100
AcDbLine
 10
1343.384220908332
 20
1264.905970360794
 30
0.0
 11
1346.384220908332
 21
1263.705970360795
 31
0.0
  0
LINE
  5
2814
330
2
100
AcDbEntity
  8
エンボス
  6
Continuous
100
AcDbLine
 10
1343.384220908332
 20
1206.072902776634
 30
0.0
 11
1346.384220908332
 21
1207.272902776634
 31
0.0
  0
LINE
  5
2815
330
2
100
AcDbEntity
  8
エンボス
  6
Continuous
100
AcDbLine
 10
1346.384220908332
 20
1203.072902776634
 30
0.0
 11
1343.384220908332
 21
1204.272902776634
 31
0.0
  0
LINE
  5
2816
330
2
100
AcDbEntity
  8
エンボス
  6
Continuous
100
AcDbLine
 10
1346.384220908332
 20
1212.672902776634
 30
0.0
 11
1343.384220908332
 21
1211.472902776634
 31
0.0
  0
LINE
  5
2817
330
2
100
AcDbEntity
  8
エンボス
  6
Continuous
100
AcDbLine
 10
1343.384220908332
 20
1215.672902776634
 30
0.0
 11
1346.384220908332
 21
1214.472902776634
 31
0.0
  0
LINE
  5
2818
330
2
100
AcDbEntity
  8
エンボス
  6
Continuous
100
AcDbLine
 10
1346.384220908332
 20
1219.872902776634
 30
0.0
 11
1343.384220908332
 21
1221.072902776634
 31
0.0
  0
LINE
  5
2819
330
2
100
AcDbEntity
  8
エンボス
  6
Continuous
100
AcDbLine
 10
1343.384220908332
 20
1222.872902776634
 30
0.0
 11
1346.384220908332
 21
1224.072902776634
 31
0.0
  0
LINE
  5
281A
330
2
100
AcDbEntity
  8
エンボス
  6
Continuous
100
AcDbLine
 10
1343.384220908332
 20
1198.872902776634
 30
0.0
 11
1346.384220908332
 21
1197.672902776634
 31
0.0
  0
LINE
  5
281B
330
2
100
AcDbEntity
  8
エンボス
  6
Continuous
100
AcDbLine
 10
1346.384220908332
 20
1195.872902776634
 30
0.0
 11
1343.384220908332
 21
1194.672902776634
 31
0.0
  0
LINE
  5
281C
330
2
100
AcDbEntity
  8
エンボス
  6
Continuous
100
AcDbLine
 10
1346.384220908332
 20
1252.305970360795
 30
0.0
 11
1343.384220908332
 21
1253.505970360795
 31
0.0
  0
LINE
  5
281D
330
2
100
AcDbEntity
  8
エンボス
  6
Continuous
100
AcDbLine
 10
1346.384220908332
 20
1261.905970360794
 30
0.0
 11
1343.384220908332
 21
1260.705970360795
 31
0.0
  0
LINE
  5
281E
330
2
100
AcDbEntity
  8
エンボス
  6
Continuous
100
AcDbLine
 10
1343.384220908332
 20
1255.305970360794
 30
0.0
 11
1346.384220908332
 21
1256.505970360795
 31
0.0
  0
LINE
  5
281F
330
2
100
AcDbEntity
  8
エンボス
  6
Continuous
100
AcDbLine
 10
1346.384220908332
 20
1245.105970360794
 30
0.0
 11
1343.384220908332
 21
1243.905970360794
 31
0.0
  0
LINE
  5
2820
330
2
100
AcDbEntity
  8
エンボス
  6
Continuous
100
AcDbLine
 10
1343.384220908332
 20
1248.105970360794
 30
0.0
 11
1346.384220908332
 21
1246.905970360794
 31
0.0
  0
LINE
  5
2821
330
2
100
AcDbEntity
  8
エンボス
  6
Continuous
100
AcDbLine
 10
1346.384220908332
 20
1235.505970360795
 30
0.0
 11
1343.384220908332
 21
1236.705970360795
 31
0.0
  0
LINE
  5
2822
330
2
100
AcDbEntity
  8
エンボス
  6
Continuous
100
AcDbLine
 10
1343.384220908332
 20
1238.505970360795
 30
0.0
 11
1346.384220908332
 21
1239.705970360795
 31
0.0
  0
LINE
  5
2823
330
2
100
AcDbEntity
  8
エンボス
  6
Continuous
100
AcDbLine
 10
1343.384220908332
 20
1289.272902776634
 30
0.0
 11
1346.384220908332
 21
1290.472902776634
 31
0.0
  0
LINE
  5
2824
330
2
100
AcDbEntity
  8
エンボス
  6
Continuous
100
AcDbLine
 10
1346.384220908332
 20
1295.872902776634
 30
0.0
 11
1343.384220908332
 21
1294.672902776634
 31
0.0
  0
LINE
  5
2825
330
2
100
AcDbEntity
  8
エンボス
  6
Continuous
100
AcDbLine
 10
1343.384220908332
 20
1298.872902776634
 30
0.0
 11
1346.384220908332
 21
1297.672902776634
 31
0.0
  0
LINE
  5
2826
330
2
100
AcDbEntity
  8
エンボス
  6
Continuous
100
AcDbLine
 10
1343.384220908332
 20
1282.072902776634
 30
0.0
 11
1346.384220908332
 21
1280.872902776634
 31
0.0
  0
LINE
  5
2827
330
2
100
AcDbEntity
  8
エンボス
  6
Continuous
100
AcDbLine
 10
1346.384220908332
 20
1279.072902776634
 30
0.0
 11
1343.384220908332
 21
1277.872902776634
 31
0.0
  0
LINE
  5
2828
330
2
100
AcDbEntity
  8
エンボス
  6
Continuous
100
AcDbLine
 10
1346.384220908332
 20
1286.272902776634
 30
0.0
 11
1343.384220908332
 21
1287.472902776634
 31
0.0
  0
LINE
  5
2829
330
2
100
AcDbEntity
  8
エンボス
  6
Continuous
100
AcDbLine
 10
1346.384220908332
 20
1269.472902776634
 30
0.0
 11
1343.384220908332
 21
1270.672902776634
 31
0.0
  0
LINE
  5
282A
330
2
100
AcDbEntity
  8
エンボス
  6
Continuous
100
AcDbLine
 10
1343.384220908332
 20
1272.472902776634
 30
0.0
 11
1346.384220908332
 21
1273.672902776634
 31
0.0
  0
LINE
  5
282B
330
2
100
AcDbEntity
  8
エンボス
  6
Continuous
100
AcDbLine
 10
1343.384220908332
 20
1322.872902776634
 30
0.0
 11
1346.384220908332
 21
1324.072902776634
 31
0.0
  0
LINE
  5
282C
330
2
100
AcDbEntity
  8
エンボス
  6
Continuous
100
AcDbLine
 10
1346.384220908332
 20
1319.872902776634
 30
0.0
 11
1343.384220908332
 21
1321.072902776634
 31
0.0
  0
LINE
  5
282D
330
2
100
AcDbEntity
  8
エンボス
  6
Continuous
100
AcDbLine
 10
1343.384220908332
 20
1315.672902776634
 30
0.0
 11
1346.384220908332
 21
1314.472902776634
 31
0.0
  0
LINE
  5
282E
330
2
100
AcDbEntity
  8
エンボス
  6
Continuous
100
AcDbLine
 10
1346.384220908332
 20
1312.672902776634
 30
0.0
 11
1343.384220908332
 21
1311.472902776634
 31
0.0
  0
LINE
  5
282F
330
2
100
AcDbEntity
  8
エンボス
  6
Continuous
100
AcDbLine
 10
1346.384220908332
 20
1303.072902776634
 30
0.0
 11
1343.384220908332
 21
1304.272902776634
 31
0.0
  0
LINE
  5
2830
330
2
100
AcDbEntity
  8
エンボス
  6
Continuous
100
AcDbLine
 10
1343.384220908332
 20
1306.072902776634
 30
0.0
 11
1346.384220908332
 21
1307.272902776634
 31
0.0
  0
LINE
  5
2831
330
2
100
AcDbEntity
  8
エンボス
  6
Continuous
100
AcDbLine
 10
1346.384220908332
 20
1335.505970360794
 30
0.0
 11
1343.384220908332
 21
1336.705970360795
 31
0.0
  0
LINE
  5
2832
330
2
100
AcDbEntity
  8
エンボス
  6
Continuous
100
AcDbLine
 10
1346.384220908332
 20
1486.272902776634
 30
0.0
 11
1343.384220908332
 21
1487.472902776634
 31
0.0
  0
LINE
  5
2833
330
2
100
AcDbEntity
  8
エンボス
  6
Continuous
100
AcDbLine
 10
1343.384220908332
 20
1364.905970360794
 30
0.0
 11
1346.384220908332
 21
1363.705970360794
 31
0.0
  0
LINE
  5
2834
330
2
100
AcDbEntity
  8
エンボス
  6
Continuous
100
AcDbLine
 10
1343.384220908332
 20
1372.472902776634
 30
0.0
 11
1346.384220908332
 21
1373.672902776634
 31
0.0
  0
LINE
  5
2835
330
2
100
AcDbEntity
  8
エンボス
  6
Continuous
100
AcDbLine
 10
1346.384220908332
 20
1369.472902776634
 30
0.0
 11
1343.384220908332
 21
1370.672902776634
 31
0.0
  0
LINE
  5
2836
330
2
100
AcDbEntity
  8
エンボス
  6
Continuous
100
AcDbLine
 10
1343.384220908332
 20
1348.105970360794
 30
0.0
 11
1346.384220908332
 21
1346.905970360794
 31
0.0
  0
LINE
  5
2837
330
2
100
AcDbEntity
  8
エンボス
  6
Continuous
100
AcDbLine
 10
1346.384220908332
 20
1345.105970360794
 30
0.0
 11
1343.384220908332
 21
1343.905970360794
 31
0.0
  0
LINE
  5
2838
330
2
100
AcDbEntity
  8
エンボス
  6
Continuous
100
AcDbLine
 10
1343.384220908332
 20
1355.305970360795
 30
0.0
 11
1346.384220908332
 21
1356.505970360794
 31
0.0
  0
LINE
  5
2839
330
2
100
AcDbEntity
  8
エンボス
  6
Continuous
100
AcDbLine
 10
1346.384220908332
 20
1361.905970360794
 30
0.0
 11
1343.384220908332
 21
1360.705970360794
 31
0.0
  0
LINE
  5
283A
330
2
100
AcDbEntity
  8
エンボス
  6
Continuous
100
AcDbLine
 10
1346.384220908332
 20
1352.305970360794
 30
0.0
 11
1343.384220908332
 21
1353.505970360795
 31
0.0
  0
LINE
  5
283B
330
2
100
AcDbEntity
  8
エンボス
  6
Continuous
100
AcDbLine
 10
1343.384220908332
 20
1406.072902776634
 30
0.0
 11
1346.384220908332
 21
1407.272902776634
 31
0.0
  0
LINE
  5
283C
330
2
100
AcDbEntity
  8
エンボス
  6
Continuous
100
AcDbLine
 10
1346.384220908332
 20
1403.072902776634
 30
0.0
 11
1343.384220908332
 21
1404.272902776634
 31
0.0
  0
LINE
  5
283D
330
2
100
AcDbEntity
  8
エンボス
  6
Continuous
100
AcDbLine
 10
1346.384220908332
 20
1412.672902776634
 30
0.0
 11
1343.384220908332
 21
1411.472902776634
 31
0.0
  0
LINE
  5
283E
330
2
100
AcDbEntity
  8
エンボス
  6
Continuous
100
AcDbLine
 10
1346.384220908332
 20
1386.272902776634
 30
0.0
 11
1343.384220908332
 21
1387.472902776634
 31
0.0
  0
LINE
  5
283F
330
2
100
AcDbEntity
  8
エンボス
  6
Continuous
100
AcDbLine
 10
1346.384220908332
 20
1379.072902776634
 30
0.0
 11
1343.384220908332
 21
1377.872902776634
 31
0.0
  0
LINE
  5
2840
330
2
100
AcDbEntity
  8
エンボス
  6
Continuous
100
AcDbLine
 10
1343.384220908332
 20
1382.072902776634
 30
0.0
 11
1346.384220908332
 21
1380.872902776634
 31
0.0
  0
LINE
  5
2841
330
2
100
AcDbEntity
  8
エンボス
  6
Continuous
100
AcDbLine
 10
1343.384220908332
 20
1398.872902776634
 30
0.0
 11
1346.384220908332
 21
1397.672902776634
 31
0.0
  0
LINE
  5
2842
330
2
100
AcDbEntity
  8
エンボス
  6
Continuous
100
AcDbLine
 10
1346.384220908332
 20
1395.872902776634
 30
0.0
 11
1343.384220908332
 21
1394.672902776634
 31
0.0
  0
LINE
  5
2843
330
2
100
AcDbEntity
  8
エンボス
  6
Continuous
100
AcDbLine
 10
1343.384220908332
 20
1389.272902776634
 30
0.0
 11
1346.384220908332
 21
1390.472902776634
 31
0.0
  0
LINE
  5
2844
330
2
100
AcDbEntity
  8
エンボス
  6
Continuous
100
AcDbLine
 10
1343.384220908332
 20
1415.672902776634
 30
0.0
 11
1346.384220908332
 21
1414.472902776634
 31
0.0
  0
LINE
  5
2845
330
2
100
AcDbEntity
  8
エンボス
  6
Continuous
100
AcDbLine
 10
1346.384220908332
 20
1419.872902776634
 30
0.0
 11
1343.384220908332
 21
1421.072902776634
 31
0.0
  0
LINE
  5
2846
330
2
100
AcDbEntity
  8
エンボス
  6
Continuous
100
AcDbLine
 10
1343.384220908332
 20
1422.872902776634
 30
0.0
 11
1346.384220908332
 21
1424.072902776634
 31
0.0
  0
LINE
  5
2847
330
2
100
AcDbEntity
  8
エンボス
  6
Continuous
100
AcDbLine
 10
1343.384220908332
 20
1438.505970360794
 30
0.0
 11
1346.384220908332
 21
1439.705970360795
 31
0.0
  0
LINE
  5
2848
330
2
100
AcDbEntity
  8
エンボス
  6
Continuous
100
AcDbLine
 10
1346.384220908332
 20
1445.105970360795
 30
0.0
 11
1343.384220908332
 21
1443.905970360794
 31
0.0
  0
LINE
  5
2849
330
2
100
AcDbEntity
  8
エンボス
  6
Continuous
100
AcDbLine
 10
1343.384220908332
 20
1448.105970360795
 30
0.0
 11
1346.384220908332
 21
1446.905970360794
 31
0.0
  0
LINE
  5
284A
330
2
100
AcDbEntity
  8
エンボス
  6
Continuous
100
AcDbLine
 10
1346.384220908332
 20
1435.505970360794
 30
0.0
 11
1343.384220908332
 21
1436.705970360795
 31
0.0
  0
LINE
  5
284B
330
2
100
AcDbEntity
  8
エンボス
  6
Continuous
100
AcDbLine
 10
1343.384220908332
 20
1482.072902776634
 30
0.0
 11
1346.384220908332
 21
1480.872902776634
 31
0.0
  0
LINE
  5
284C
330
2
100
AcDbEntity
  8
エンボス
  6
Continuous
100
AcDbLine
 10
1346.384220908332
 20
1479.072902776634
 30
0.0
 11
1343.384220908332
 21
1477.872902776634
 31
0.0
  0
LINE
  5
284D
330
2
100
AcDbEntity
  8
エンボス
  6
Continuous
100
AcDbLine
 10
1346.384220908332
 20
1469.472902776634
 30
0.0
 11
1343.384220908332
 21
1470.672902776634
 31
0.0
  0
LINE
  5
284E
330
2
100
AcDbEntity
  8
エンボス
  6
Continuous
100
AcDbLine
 10
1343.384220908332
 20
1472.472902776634
 30
0.0
 11
1346.384220908332
 21
1473.672902776634
 31
0.0
  0
LINE
  5
284F
330
2
100
AcDbEntity
  8
エンボス
  6
Continuous
100
AcDbLine
 10
1346.384220908332
 20
1452.305970360795
 30
0.0
 11
1343.384220908332
 21
1453.505970360794
 31
0.0
  0
LINE
  5
2850
330
2
100
AcDbEntity
  8
エンボス
  6
Continuous
100
AcDbLine
 10
1343.384220908332
 20
1464.905970360794
 30
0.0
 11
1346.384220908332
 21
1463.705970360795
 31
0.0
  0
LINE
  5
2851
330
2
100
AcDbEntity
  8
エンボス
  6
Continuous
100
AcDbLine
 10
1346.384220908332
 20
1461.905970360794
 30
0.0
 11
1343.384220908332
 21
1460.705970360795
 31
0.0
  0
LINE
  5
2852
330
2
100
AcDbEntity
  8
エンボス
  6
Continuous
100
AcDbLine
 10
1343.384220908332
 20
1455.305970360794
 30
0.0
 11
1346.384220908332
 21
1456.505970360794
 31
0.0
  0
LINE
  5
2853
330
2
100
AcDbEntity
  8
エンボス
  6
Continuous
100
AcDbLine
 10
1346.384220908332
 20
1561.905970360794
 30
0.0
 11
1343.384220908332
 21
1560.705970360795
 31
0.0
  0
LINE
  5
2854
330
2
100
AcDbEntity
  8
エンボス
  6
Continuous
100
AcDbLine
 10
1346.384220908332
 20
1519.872902776634
 30
0.0
 11
1343.384220908332
 21
1521.072902776634
 31
0.0
  0
LINE
  5
2855
330
2
100
AcDbEntity
  8
エンボス
  6
Continuous
100
AcDbLine
 10
1343.384220908332
 20
1522.872902776634
 30
0.0
 11
1346.384220908332
 21
1524.072902776634
 31
0.0
  0
LINE
  5
2856
330
2
100
AcDbEntity
  8
エンボス
  6
Continuous
100
AcDbLine
 10
1343.384220908332
 20
1515.672902776634
 30
0.0
 11
1346.384220908332
 21
1514.472902776634
 31
0.0
  0
LINE
  5
2857
330
2
100
AcDbEntity
  8
エンボス
  6
Continuous
100
AcDbLine
 10
1346.384220908332
 20
1503.072902776634
 30
0.0
 11
1343.384220908332
 21
1504.272902776634
 31
0.0
  0
LINE
  5
2858
330
2
100
AcDbEntity
  8
エンボス
  6
Continuous
100
AcDbLine
 10
1343.384220908332
 20
1506.072902776634
 30
0.0
 11
1346.384220908332
 21
1507.272902776634
 31
0.0
  0
LINE
  5
2859
330
2
100
AcDbEntity
  8
エンボス
  6
Continuous
100
AcDbLine
 10
1343.384220908332
 20
1489.272902776634
 30
0.0
 11
1346.384220908332
 21
1490.472902776634
 31
0.0
  0
LINE
  5
285A
330
2
100
AcDbEntity
  8
エンボス
  6
Continuous
100
AcDbLine
 10
1346.384220908332
 20
1495.872902776634
 30
0.0
 11
1343.384220908332
 21
1494.672902776634
 31
0.0
  0
LINE
  5
285B
330
2
100
AcDbEntity
  8
エンボス
  6
Continuous
100
AcDbLine
 10
1343.384220908332
 20
1498.872902776634
 30
0.0
 11
1346.384220908332
 21
1497.672902776634
 31
0.0
  0
LINE
  5
285C
330
2
100
AcDbEntity
  8
エンボス
  6
Continuous
100
AcDbLine
 10
1346.384220908332
 20
1512.672902776634
 30
0.0
 11
1343.384220908332
 21
1511.472902776634
 31
0.0
  0
LINE
  5
285D
330
2
100
AcDbEntity
  8
エンボス
  6
Continuous
100
AcDbLine
 10
1343.384220908332
 20
1555.305970360794
 30
0.0
 11
1346.384220908332
 21
1556.505970360794
 31
0.0
  0
LINE
  5
285E
330
2
100
AcDbEntity
  8
エンボス
  6
Continuous
100
AcDbLine
 10
1346.384220908332
 20
1552.305970360795
 30
0.0
 11
1343.384220908332
 21
1553.505970360794
 31
0.0
  0
LINE
  5
285F
330
2
100
AcDbEntity
  8
エンボス
  6
Continuous
100
AcDbLine
 10
1346.384220908332
 20
1535.505970360794
 30
0.0
 11
1343.384220908332
 21
1536.705970360794
 31
0.0
  0
LINE
  5
2860
330
2
100
AcDbEntity
  8
エンボス
  6
Continuous
100
AcDbLine
 10
1343.384220908332
 20
1548.105970360795
 30
0.0
 11
1346.384220908332
 21
1546.905970360794
 31
0.0
  0
LINE
  5
2861
330
2
100
AcDbEntity
  8
エンボス
  6
Continuous
100
AcDbLine
 10
1346.384220908332
 20
1545.105970360794
 30
0.0
 11
1343.384220908332
 21
1543.905970360794
 31
0.0
  0
LINE
  5
2862
330
2
100
AcDbEntity
  8
エンボス
  6
Continuous
100
AcDbLine
 10
1343.384220908332
 20
1538.505970360794
 30
0.0
 11
1346.384220908332
 21
1539.705970360795
 31
0.0
  0
LINE
  5
2863
330
2
100
AcDbEntity
  8
エンボス
  6
Continuous
100
AcDbLine
 10
1343.384220908332
 20
1564.905970360794
 30
0.0
 11
1346.384220908332
 21
1563.705970360795
 31
0.0
  0
LINE
  5
286E
330
2
100
AcDbEntity
  8
本体
  6
Continuous
100
AcDbLine
 10
354.3842196783326
 20
1568.972907576634
 30
0.0
 11
354.3842196783326
 21
1529.972907576634
 31
0.0
  0
LINE
  5
286F
330
2
100
AcDbEntity
  8
本体
  6
Continuous
100
AcDbLine
 10
351.3842196783325
 20
1568.972907576634
 30
0.0
 11
351.3842196783325
 21
1529.972907576634
 31
0.0
  0
LINE
  5
2870
330
2
100
AcDbEntity
  8
本体
  6
Continuous
100
AcDbLine
 10
354.3842196783326
 20
1524.972907576634
 30
0.0
 11
354.3842196783326
 21
1429.972907576634
 31
0.0
  0
LINE
  5
2871
330
2
100
AcDbEntity
  8
本体
  6
Continuous
100
AcDbLine
 10
351.3842196783325
 20
1524.972907576634
 30
0.0
 11
351.3842196783325
 21
1429.972907576634
 31
0.0
  0
LINE
  5
2872
330
2
100
AcDbEntity
  8
本体
  6
Continuous
100
AcDbLine
 10
354.3842196783326
 20
1329.972907576634
 30
0.0
 11
354.3842196783326
 21
1424.972907576634
 31
0.0
  0
LINE
  5
2873
330
2
100
AcDbEntity
  8
本体
  6
Continuous
100
AcDbLine
 10
351.3842196783325
 20
1329.972907576634
 30
0.0
 11
351.3842196783325
 21
1424.972907576634
 31
0.0
  0
LINE
  5
2874
330
2
100
AcDbEntity
  8
本体
  6
Continuous
100
AcDbLine
 10
354.3842196783326
 20
1185.972907576634
 30
0.0
 11
354.3842196783326
 21
1224.972907576634
 31
0.0
  0
LINE
  5
2875
330
2
100
AcDbEntity
  8
本体
  6
Continuous
100
AcDbLine
 10
351.3842196783325
 20
1185.972907576634
 30
0.0
 11
351.3842196783325
 21
1224.972907576634
 31
0.0
  0
LINE
  5
2876
330
2
100
AcDbEntity
  8
本体
  6
Continuous
100
AcDbLine
 10
351.3842196783325
 20
1229.972907576634
 30
0.0
 11
351.3842196783325
 21
1324.972907576634
 31
0.0
  0
LINE
  5
2877
330
2
100
AcDbEntity
  8
本体
  6
Continuous
100
AcDbLine
 10
354.3842196783326
 20
1229.972907576634
 30
0.0
 11
354.3842196783326
 21
1324.972907576634
 31
0.0
  0
LINE
  5
2878
330
2
100
AcDbEntity
  8
エンボス
  6
Continuous
100
AcDbLine
 10
351.3842209083323
 20
1338.505970360795
 30
0.0
 11
354.3842209083323
 21
1339.705970360794
 31
0.0
  0
LINE
  5
2879
330
2
100
AcDbEntity
  8
エンボス
  6
Continuous
100
AcDbLine
 10
351.3842209083323
 20
1189.272902776634
 30
0.0
 11
354.3842209083323
 21
1190.472902776634
 31
0.0
  0
LINE
  5
287A
330
2
100
AcDbEntity
  8
エンボス
  6
Continuous
100
AcDbLine
 10
354.3842209083323
 20
1186.272902776634
 30
0.0
 11
351.3842209083323
 21
1187.472902776634
 31
0.0
  0
LINE
  5
287B
330
2
100
AcDbEntity
  8
エンボス
  6
Continuous
100
AcDbLine
 10
351.3842209083323
 20
1264.905970360794
 30
0.0
 11
354.3842209083323
 21
1263.705970360795
 31
0.0
  0
LINE
  5
287C
330
2
100
AcDbEntity
  8
エンボス
  6
Continuous
100
AcDbLine
 10
351.3842209083323
 20
1206.072902776634
 30
0.0
 11
354.3842209083323
 21
1207.272902776634
 31
0.0
  0
LINE
  5
287D
330
2
100
AcDbEntity
  8
エンボス
  6
Continuous
100
AcDbLine
 10
354.3842209083323
 20
1203.072902776634
 30
0.0
 11
351.3842209083323
 21
1204.272902776634
 31
0.0
  0
LINE
  5
287E
330
2
100
AcDbEntity
  8
エンボス
  6
Continuous
100
AcDbLine
 10
354.3842209083323
 20
1212.672902776634
 30
0.0
 11
351.3842209083323
 21
1211.472902776634
 31
0.0
  0
LINE
  5
287F
330
2
100
AcDbEntity
  8
エンボス
  6
Continuous
100
AcDbLine
 10
351.3842209083323
 20
1215.672902776634
 30
0.0
 11
354.3842209083323
 21
1214.472902776634
 31
0.0
  0
LINE
  5
2880
330
2
100
AcDbEntity
  8
エンボス
  6
Continuous
100
AcDbLine
 10
354.3842209083323
 20
1219.872902776634
 30
0.0
 11
351.3842209083323
 21
1221.072902776634
 31
0.0
  0
LINE
  5
2881
330
2
100
AcDbEntity
  8
エンボス
  6
Continuous
100
AcDbLine
 10
351.3842209083323
 20
1222.872902776634
 30
0.0
 11
354.3842209083323
 21
1224.072902776634
 31
0.0
  0
LINE
  5
2882
330
2
100
AcDbEntity
  8
エンボス
  6
Continuous
100
AcDbLine
 10
351.3842209083323
 20
1198.872902776634
 30
0.0
 11
354.3842209083323
 21
1197.672902776634
 31
0.0
  0
LINE
  5
2883
330
2
100
AcDbEntity
  8
エンボス
  6
Continuous
100
AcDbLine
 10
354.3842209083323
 20
1195.872902776634
 30
0.0
 11
351.3842209083323
 21
1194.672902776634
 31
0.0
  0
LINE
  5
2884
330
2
100
AcDbEntity
  8
エンボス
  6
Continuous
100
AcDbLine
 10
354.3842209083323
 20
1252.305970360795
 30
0.0
 11
351.3842209083323
 21
1253.505970360795
 31
0.0
  0
LINE
  5
2885
330
2
100
AcDbEntity
  8
エンボス
  6
Continuous
100
AcDbLine
 10
354.3842209083323
 20
1261.905970360794
 30
0.0
 11
351.3842209083323
 21
1260.705970360795
 31
0.0
  0
LINE
  5
2886
330
2
100
AcDbEntity
  8
エンボス
  6
Continuous
100
AcDbLine
 10
351.3842209083323
 20
1255.305970360794
 30
0.0
 11
354.3842209083323
 21
1256.505970360795
 31
0.0
  0
LINE
  5
2887
330
2
100
AcDbEntity
  8
エンボス
  6
Continuous
100
AcDbLine
 10
354.3842209083323
 20
1245.105970360794
 30
0.0
 11
351.3842209083323
 21
1243.905970360794
 31
0.0
  0
LINE
  5
2888
330
2
100
AcDbEntity
  8
エンボス
  6
Continuous
100
AcDbLine
 10
351.3842209083323
 20
1248.105970360794
 30
0.0
 11
354.3842209083323
 21
1246.905970360794
 31
0.0
  0
LINE
  5
2889
330
2
100
AcDbEntity
  8
エンボス
  6
Continuous
100
AcDbLine
 10
354.3842209083323
 20
1235.505970360795
 30
0.0
 11
351.3842209083323
 21
1236.705970360795
 31
0.0
  0
LINE
  5
288A
330
2
100
AcDbEntity
  8
エンボス
  6
Continuous
100
AcDbLine
 10
351.3842209083323
 20
1238.505970360795
 30
0.0
 11
354.3842209083323
 21
1239.705970360795
 31
0.0
  0
LINE
  5
288B
330
2
100
AcDbEntity
  8
エンボス
  6
Continuous
100
AcDbLine
 10
351.3842209083323
 20
1289.272902776634
 30
0.0
 11
354.3842209083323
 21
1290.472902776634
 31
0.0
  0
LINE
  5
288C
330
2
100
AcDbEntity
  8
エンボス
  6
Continuous
100
AcDbLine
 10
354.3842209083323
 20
1295.872902776634
 30
0.0
 11
351.3842209083323
 21
1294.672902776634
 31
0.0
  0
LINE
  5
288D
330
2
100
AcDbEntity
  8
エンボス
  6
Continuous
100
AcDbLine
 10
351.3842209083323
 20
1298.872902776634
 30
0.0
 11
354.3842209083323
 21
1297.672902776634
 31
0.0
  0
LINE
  5
288E
330
2
100
AcDbEntity
  8
エンボス
  6
Continuous
100
AcDbLine
 10
351.3842209083323
 20
1282.072902776634
 30
0.0
 11
354.3842209083323
 21
1280.872902776634
 31
0.0
  0
LINE
  5
288F
330
2
100
AcDbEntity
  8
エンボス
  6
Continuous
100
AcDbLine
 10
354.3842209083323
 20
1279.072902776634
 30
0.0
 11
351.3842209083323
 21
1277.872902776634
 31
0.0
  0
LINE
  5
2890
330
2
100
AcDbEntity
  8
エンボス
  6
Continuous
100
AcDbLine
 10
354.3842209083323
 20
1286.272902776634
 30
0.0
 11
351.3842209083323
 21
1287.472902776634
 31
0.0
  0
LINE
  5
2891
330
2
100
AcDbEntity
  8
エンボス
  6
Continuous
100
AcDbLine
 10
354.3842209083323
 20
1269.472902776634
 30
0.0
 11
351.3842209083323
 21
1270.672902776634
 31
0.0
  0
LINE
  5
2892
330
2
100
AcDbEntity
  8
エンボス
  6
Continuous
100
AcDbLine
 10
351.3842209083323
 20
1272.472902776634
 30
0.0
 11
354.3842209083323
 21
1273.672902776634
 31
0.0
  0
LINE
  5
2893
330
2
100
AcDbEntity
  8
エンボス
  6
Continuous
100
AcDbLine
 10
351.3842209083323
 20
1322.872902776634
 30
0.0
 11
354.3842209083323
 21
1324.072902776634
 31
0.0
  0
LINE
  5
2894
330
2
100
AcDbEntity
  8
エンボス
  6
Continuous
100
AcDbLine
 10
354.3842209083323
 20
1319.872902776634
 30
0.0
 11
351.3842209083323
 21
1321.072902776634
 31
0.0
  0
LINE
  5
2895
330
2
100
AcDbEntity
  8
エンボス
  6
Continuous
100
AcDbLine
 10
351.3842209083323
 20
1315.672902776634
 30
0.0
 11
354.3842209083323
 21
1314.472902776634
 31
0.0
  0
LINE
  5
2896
330
2
100
AcDbEntity
  8
エンボス
  6
Continuous
100
AcDbLine
 10
354.3842209083323
 20
1312.672902776634
 30
0.0
 11
351.3842209083323
 21
1311.472902776634
 31
0.0
  0
LINE
  5
2897
330
2
100
AcDbEntity
  8
エンボス
  6
Continuous
100
AcDbLine
 10
354.3842209083323
 20
1303.072902776634
 30
0.0
 11
351.3842209083323
 21
1304.272902776634
 31
0.0
  0
LINE
  5
2898
330
2
100
AcDbEntity
  8
エンボス
  6
Continuous
100
AcDbLine
 10
351.3842209083323
 20
1306.072902776634
 30
0.0
 11
354.3842209083323
 21
1307.272902776634
 31
0.0
  0
LINE
  5
2899
330
2
100
AcDbEntity
  8
エンボス
  6
Continuous
100
AcDbLine
 10
354.3842209083323
 20
1335.505970360794
 30
0.0
 11
351.3842209083323
 21
1336.705970360795
 31
0.0
  0
LINE
  5
289A
330
2
100
AcDbEntity
  8
エンボス
  6
Continuous
100
AcDbLine
 10
354.3842209083323
 20
1486.272902776634
 30
0.0
 11
351.3842209083323
 21
1487.472902776634
 31
0.0
  0
LINE
  5
289B
330
2
100
AcDbEntity
  8
エンボス
  6
Continuous
100
AcDbLine
 10
351.3842209083323
 20
1364.905970360794
 30
0.0
 11
354.3842209083323
 21
1363.705970360794
 31
0.0
  0
LINE
  5
289C
330
2
100
AcDbEntity
  8
エンボス
  6
Continuous
100
AcDbLine
 10
351.3842209083323
 20
1372.472902776634
 30
0.0
 11
354.3842209083323
 21
1373.672902776634
 31
0.0
  0
LINE
  5
289D
330
2
100
AcDbEntity
  8
エンボス
  6
Continuous
100
AcDbLine
 10
354.3842209083323
 20
1369.472902776634
 30
0.0
 11
351.3842209083323
 21
1370.672902776634
 31
0.0
  0
LINE
  5
289E
330
2
100
AcDbEntity
  8
エンボス
  6
Continuous
100
AcDbLine
 10
351.3842209083323
 20
1348.105970360794
 30
0.0
 11
354.3842209083323
 21
1346.905970360794
 31
0.0
  0
LINE
  5
289F
330
2
100
AcDbEntity
  8
エンボス
  6
Continuous
100
AcDbLine
 10
354.3842209083323
 20
1345.105970360794
 30
0.0
 11
351.3842209083323
 21
1343.905970360794
 31
0.0
  0
LINE
  5
28A0
330
2
100
AcDbEntity
  8
エンボス
  6
Continuous
100
AcDbLine
 10
351.3842209083323
 20
1355.305970360795
 30
0.0
 11
354.3842209083323
 21
1356.505970360794
 31
0.0
  0
LINE
  5
28A1
330
2
100
AcDbEntity
  8
エンボス
  6
Continuous
100
AcDbLine
 10
354.3842209083323
 20
1361.905970360794
 30
0.0
 11
351.3842209083323
 21
1360.705970360794
 31
0.0
  0
LINE
  5
28A2
330
2
100
AcDbEntity
  8
エンボス
  6
Continuous
100
AcDbLine
 10
354.3842209083323
 20
1352.305970360794
 30
0.0
 11
351.3842209083323
 21
1353.505970360795
 31
0.0
  0
LINE
  5
28A3
330
2
100
AcDbEntity
  8
エンボス
  6
Continuous
100
AcDbLine
 10
351.3842209083323
 20
1406.072902776634
 30
0.0
 11
354.3842209083323
 21
1407.272902776634
 31
0.0
  0
LINE
  5
28A4
330
2
100
AcDbEntity
  8
エンボス
  6
Continuous
100
AcDbLine
 10
354.3842209083323
 20
1403.072902776634
 30
0.0
 11
351.3842209083323
 21
1404.272902776634
 31
0.0
  0
LINE
  5
28A5
330
2
100
AcDbEntity
  8
エンボス
  6
Continuous
100
AcDbLine
 10
354.3842209083323
 20
1412.672902776634
 30
0.0
 11
351.3842209083323
 21
1411.472902776634
 31
0.0
  0
LINE
  5
28A6
330
2
100
AcDbEntity
  8
エンボス
  6
Continuous
100
AcDbLine
 10
354.3842209083323
 20
1386.272902776634
 30
0.0
 11
351.3842209083323
 21
1387.472902776634
 31
0.0
  0
LINE
  5
28A7
330
2
100
AcDbEntity
  8
エンボス
  6
Continuous
100
AcDbLine
 10
354.3842209083323
 20
1379.072902776634
 30
0.0
 11
351.3842209083323
 21
1377.872902776634
 31
0.0
  0
LINE
  5
28A8
330
2
100
AcDbEntity
  8
エンボス
  6
Continuous
100
AcDbLine
 10
351.3842209083323
 20
1382.072902776634
 30
0.0
 11
354.3842209083323
 21
1380.872902776634
 31
0.0
  0
LINE
  5
28A9
330
2
100
AcDbEntity
  8
エンボス
  6
Continuous
100
AcDbLine
 10
351.3842209083323
 20
1398.872902776634
 30
0.0
 11
354.3842209083323
 21
1397.672902776634
 31
0.0
  0
LINE
  5
28AA
330
2
100
AcDbEntity
  8
エンボス
  6
Continuous
100
AcDbLine
 10
354.3842209083323
 20
1395.872902776634
 30
0.0
 11
351.3842209083323
 21
1394.672902776634
 31
0.0
  0
LINE
  5
28AB
330
2
100
AcDbEntity
  8
エンボス
  6
Continuous
100
AcDbLine
 10
351.3842209083323
 20
1389.272902776634
 30
0.0
 11
354.3842209083323
 21
1390.472902776634
 31
0.0
  0
LINE
  5
28AC
330
2
100
AcDbEntity
  8
エンボス
  6
Continuous
100
AcDbLine
 10
351.3842209083323
 20
1415.672902776634
 30
0.0
 11
354.3842209083323
 21
1414.472902776634
 31
0.0
  0
LINE
  5
28AD
330
2
100
AcDbEntity
  8
エンボス
  6
Continuous
100
AcDbLine
 10
354.3842209083323
 20
1419.872902776634
 30
0.0
 11
351.3842209083323
 21
1421.072902776634
 31
0.0
  0
LINE
  5
28AE
330
2
100
AcDbEntity
  8
エンボス
  6
Continuous
100
AcDbLine
 10
351.3842209083323
 20
1422.872902776634
 30
0.0
 11
354.3842209083323
 21
1424.072902776634
 31
0.0
  0
LINE
  5
28AF
330
2
100
AcDbEntity
  8
エンボス
  6
Continuous
100
AcDbLine
 10
351.3842209083323
 20
1438.505970360794
 30
0.0
 11
354.3842209083323
 21
1439.705970360795
 31
0.0
  0
LINE
  5
28B0
330
2
100
AcDbEntity
  8
エンボス
  6
Continuous
100
AcDbLine
 10
354.3842209083323
 20
1445.105970360795
 30
0.0
 11
351.3842209083323
 21
1443.905970360794
 31
0.0
  0
LINE
  5
28B1
330
2
100
AcDbEntity
  8
エンボス
  6
Continuous
100
AcDbLine
 10
351.3842209083323
 20
1448.105970360795
 30
0.0
 11
354.3842209083323
 21
1446.905970360794
 31
0.0
  0
LINE
  5
28B2
330
2
100
AcDbEntity
  8
エンボス
  6
Continuous
100
AcDbLine
 10
354.3842209083323
 20
1435.505970360794
 30
0.0
 11
351.3842209083323
 21
1436.705970360795
 31
0.0
  0
LINE
  5
28B3
330
2
100
AcDbEntity
  8
エンボス
  6
Continuous
100
AcDbLine
 10
351.3842209083323
 20
1482.072902776634
 30
0.0
 11
354.3842209083323
 21
1480.872902776634
 31
0.0
  0
LINE
  5
28B4
330
2
100
AcDbEntity
  8
エンボス
  6
Continuous
100
AcDbLine
 10
354.3842209083323
 20
1479.072902776634
 30
0.0
 11
351.3842209083323
 21
1477.872902776634
 31
0.0
  0
LINE
  5
28B5
330
2
100
AcDbEntity
  8
エンボス
  6
Continuous
100
AcDbLine
 10
354.3842209083323
 20
1469.472902776634
 30
0.0
 11
351.3842209083323
 21
1470.672902776634
 31
0.0
  0
LINE
  5
28B6
330
2
100
AcDbEntity
  8
エンボス
  6
Continuous
100
AcDbLine
 10
351.3842209083323
 20
1472.472902776634
 30
0.0
 11
354.3842209083323
 21
1473.672902776634
 31
0.0
  0
LINE
  5
28B7
330
2
100
AcDbEntity
  8
エンボス
  6
Continuous
100
AcDbLine
 10
354.3842209083323
 20
1452.305970360795
 30
0.0
 11
351.3842209083323
 21
1453.505970360794
 31
0.0
  0
LINE
  5
28B8
330
2
100
AcDbEntity
  8
エンボス
  6
Continuous
100
AcDbLine
 10
351.3842209083323
 20
1464.905970360794
 30
0.0
 11
354.3842209083323
 21
1463.705970360795
 31
0.0
  0
LINE
  5
28B9
330
2
100
AcDbEntity
  8
エンボス
  6
Continuous
100
AcDbLine
 10
354.3842209083323
 20
1461.905970360794
 30
0.0
 11
351.3842209083323
 21
1460.705970360795
 31
0.0
  0
LINE
  5
28BA
330
2
100
AcDbEntity
  8
エンボス
  6
Continuous
100
AcDbLine
 10
351.3842209083323
 20
1455.305970360794
 30
0.0
 11
354.3842209083323
 21
1456.505970360794
 31
0.0
  0
LINE
  5
28BB
330
2
100
AcDbEntity
  8
エンボス
  6
Continuous
100
AcDbLine
 10
354.3842209083323
 20
1561.905970360794
 30
0.0
 11
351.3842209083323
 21
1560.705970360795
 31
0.0
  0
LINE
  5
28BC
330
2
100
AcDbEntity
  8
エンボス
  6
Continuous
100
AcDbLine
 10
354.3842209083323
 20
1519.872902776634
 30
0.0
 11
351.3842209083323
 21
1521.072902776634
 31
0.0
  0
LINE
  5
28BD
330
2
100
AcDbEntity
  8
エンボス
  6
Continuous
100
AcDbLine
 10
351.3842209083323
 20
1522.872902776634
 30
0.0
 11
354.3842209083323
 21
1524.072902776634
 31
0.0
  0
LINE
  5
28BE
330
2
100
AcDbEntity
  8
エンボス
  6
Continuous
100
AcDbLine
 10
351.3842209083323
 20
1515.672902776634
 30
0.0
 11
354.3842209083323
 21
1514.472902776634
 31
0.0
  0
LINE
  5
28BF
330
2
100
AcDbEntity
  8
エンボス
  6
Continuous
100
AcDbLine
 10
354.3842209083323
 20
1503.072902776634
 30
0.0
 11
351.3842209083323
 21
1504.272902776634
 31
0.0
  0
LINE
  5
28C0
330
2
100
AcDbEntity
  8
エンボス
  6
Continuous
100
AcDbLine
 10
351.3842209083323
 20
1506.072902776634
 30
0.0
 11
354.3842209083323
 21
1507.272902776634
 31
0.0
  0
LINE
  5
28C1
330
2
100
AcDbEntity
  8
エンボス
  6
Continuous
100
AcDbLine
 10
351.3842209083323
 20
1489.272902776634
 30
0.0
 11
354.3842209083323
 21
1490.472902776634
 31
0.0
  0
LINE
  5
28C2
330
2
100
AcDbEntity
  8
エンボス
  6
Continuous
100
AcDbLine
 10
354.3842209083323
 20
1495.872902776634
 30
0.0
 11
351.3842209083323
 21
1494.672902776634
 31
0.0
  0
LINE
  5
28C3
330
2
100
AcDbEntity
  8
エンボス
  6
Continuous
100
AcDbLine
 10
351.3842209083323
 20
1498.872902776634
 30
0.0
 11
354.3842209083323
 21
1497.672902776634
 31
0.0
  0
LINE
  5
28C4
330
2
100
AcDbEntity
  8
エンボス
  6
Continuous
100
AcDbLine
 10
354.3842209083323
 20
1512.672902776634
 30
0.0
 11
351.3842209083323
 21
1511.472902776634
 31
0.0
  0
LINE
  5
28C5
330
2
100
AcDbEntity
  8
エンボス
  6
Continuous
100
AcDbLine
 10
351.3842209083323
 20
1555.305970360794
 30
0.0
 11
354.3842209083323
 21
1556.505970360794
 31
0.0
  0
LINE
  5
28C6
330
2
100
AcDbEntity
  8
エンボス
  6
Continuous
100
AcDbLine
 10
354.3842209083323
 20
1552.305970360795
 30
0.0
 11
351.3842209083323
 21
1553.505970360794
 31
0.0
  0
LINE
  5
28C7
330
2
100
AcDbEntity
  8
エンボス
  6
Continuous
100
AcDbLine
 10
354.3842209083323
 20
1535.505970360794
 30
0.0
 11
351.3842209083323
 21
1536.705970360794
 31
0.0
  0
LINE
  5
28C8
330
2
100
AcDbEntity
  8
エンボス
  6
Continuous
100
AcDbLine
 10
351.3842209083323
 20
1548.105970360795
 30
0.0
 11
354.3842209083323
 21
1546.905970360794
 31
0.0
  0
LINE
  5
28C9
330
2
100
AcDbEntity
  8
エンボス
  6
Continuous
100
AcDbLine
 10
354.3842209083323
 20
1545.105970360794
 30
0.0
 11
351.3842209083323
 21
1543.905970360794
 31
0.0
  0
LINE
  5
28CA
330
2
100
AcDbEntity
  8
エンボス
  6
Continuous
100
AcDbLine
 10
351.3842209083323
 20
1538.505970360794
 30
0.0
 11
354.3842209083323
 21
1539.705970360795
 31
0.0
  0
LINE
  5
28CB
330
2
100
AcDbEntity
  8
エンボス
  6
Continuous
100
AcDbLine
 10
351.3842209083323
 20
1564.905970360794
 30
0.0
 11
354.3842209083323
 21
1563.705970360795
 31
0.0
  0
LINE
  5
28CD
330
2
100
AcDbEntity
  8
本体
 48
3.0
100
AcDbLine
 10
351.3842196783325
 20
1574.972907576634
 30
0.0
 11
351.3842196783325
 21
1179.972907576634
 31
0.0
  0
INSERT
  5
28D5
102
{ACAD_REACTORS
330
2940
102
}
330
2
100
AcDbEntity
  8
本体
100
AcDbBlockReference
  2
*U18
 10
359.1627012933325
 20
1377.472907576634
 30
0.0
  0
LINE
  5
2991
330
2
100
AcDbEntity
  8
本体
 48
3.0
100
AcDbLine
 10
1346.384219678332
 20
1179.972907576634
 30
0.0
 11
1346.384219678332
 21
1574.972907576634
 31
0.0
  0
LEADER
  5
2992
330
2
100
AcDbEntity
  8
寸法線
  6
Continuous
100
AcDbLeader
  3
ISO-25
 73
     0
 74
     0
 75
     1
 40
30.0
 41
152.2842639593908
 76
     3
 10
1346.567811388808
 20
1457.080767544694
 30
0.0
 10
1402.278489507463
 20
1527.791445663349
 30
0.0
 10
1417.278489507463
 20
1527.791445663349
 30
0.0
340
2993
1001
ACAD
1000
DSTYLE
1002
{
1070
     5
1000
OPEN30
1070
    77
1070
     1
1070
   147
1040
0.5
1070
   342
1005
96
1002
}
  0
MTEXT
  5
2993
102
{ACAD_REACTORS
330
2992
102
}
330
2
100
AcDbEntity
  8
寸法線
  6
Continuous
100
AcDbMText
 10
1422.278489507463
 20
1532.791445663349
 30
0.0
 40
30.0
 41
0.0
 71
     7
 72
     1
  1
GFB3\U+00D732
 73
     1
 44
1.0
1001
ACAD
1000
MTEXTBEGIN
1070
    73
1070
     1
1070
    44
1040
1.0
1070
    74
1070
     0
1000
MTEXTEND
  0
LEADER
  5
2994
330
2
100
AcDbEntity
  8
寸法線
  6
Continuous
100
AcDbLeader
  3
ISO-25
 73
     0
 74
     0
 75
     1
 40
30.0
 41
35.78680203045685
 76
     3
 10
1346.567811388808
 20
1326.697576757694
 30
0.0
 10
1402.278489507463
 20
1397.408254876349
 30
0.0
 10
1417.278489507463
 20
1397.408254876349
 30
0.0
340
2995
1001
ACAD
1000
DSTYLE
1002
{
1070
     5
1000
OPEN30
1070
    77
1070
     1
1070
   147
1040
0.5
1070
   342
1005
96
1002
}
  0
MTEXT
  5
2995
102
{ACAD_REACTORS
330
2994
102
}
330
2
100
AcDbEntity
  8
寸法線
  6
Continuous
100
AcDbMText
 10
1422.278489507463
 20
1402.408254876349
 30
0.0
 40
30.0
 41
0.0
 71
     7
 72
     1
  1
TB
 73
     1
 44
1.0
1001
ACAD
1000
MTEXTBEGIN
1070
    73
1070
     1
1070
    44
1040
1.0
1070
    74
1070
     0
1000
MTEXTEND
  0
ENDSEC
  0
SECTION
  2
OBJECTS
  0
DICTIONARY
  5
7
330
0
100
AcDbDictionary
281
     1
  3
ACAD_ASSOCNETWORK
350
27A9
  3
ACAD_BACKGROUND
350
2C54
  3
ACAD_CIP_PREVIOUS_PRODUCT_INFO
350
25F3
  3
ACAD_COLOR
350
25D1
  3
ACAD_DETAILVIEWSTYLE
350
25EA
  3
ACAD_GROUP
350
21E6
  3
ACAD_LAYOUT
350
21CC
  3
ACAD_MATERIAL
350
259F
  3
ACAD_MLEADERSTYLE
350
25E6
  3
ACAD_MLINESTYLE
350
21E7
  3
ACAD_PLOTSETTINGS
350
21E8
  3
ACAD_PLOTSTYLENAME
350
6
  3
ACAD_SCALELIST
350
25D4
  3
ACAD_SECTIONVIEWSTYLE
350
25E8
  3
ACAD_TABLESTYLE
350
25D2
  3
ACAD_VISUALSTYLE
350
25B8
  3
ACDB_RECOMPOSE_DATA
350
2D08
  3
AcDbVariableDictionary
350
2652
  3
DWGPROPS
350
2D09
  0
DICTIONARY
  5
2615
330
21E1
100
AcDbDictionary
280
     1
281
     1
  0
DICTIONARY
  5
2718
330
21D9
100
AcDbDictionary
280
     1
281
     1
  3
ACAD_LAYERSTATES
360
2719
  0
DICTIONARY
  5
25F4
330
76
100
AcDbDictionary
280
     1
281
     1
  3
ADSK_XREC_LAYER_RECONCILED
360
25F5
  0
DICTIONARY
  5
25F6
330
80
100
AcDbDictionary
280
     1
281
     1
  3
ADSK_XREC_LAYER_RECONCILED
360
25F7
  0
DICTIONARY
  5
25F8
330
4
100
AcDbDictionary
280
     1
281
     1
  3
ADSK_XREC_LAYER_RECONCILED
360
25F9
  0
DICTIONARY
  5
25FC
330
728
100
AcDbDictionary
280
     1
281
     1
  3
ADSK_XREC_LAYER_RECONCILED
360
25FD
  0
DICTIONARY
  5
25FE
330
11
100
AcDbDictionary
280
     1
281
     1
  3
ADSK_XREC_LAYER_RECONCILED
360
25FF
  0
DICTIONARY
  5
2604
330
2578
100
AcDbDictionary
280
     1
281
     1
  3
ADSK_XREC_LAYER_RECONCILED
360
2605
  0
DICTIONARY
  5
2606
330
257D
100
AcDbDictionary
280
     1
281
     1
  3
ADSK_XREC_LAYER_RECONCILED
360
2607
  0
DICTIONARY
  5
2608
330
2582
100
AcDbDictionary
280
     1
281
     1
  3
ADSK_XREC_LAYER_RECONCILED
360
2609
  0
DICTIONARY
  5
21C7
330
2
100
AcDbDictionary
280
     1
281
     1
  3
ACAD_ASSOCNETWORK
360
27A7
  3
ACAD_LAYOUTSELFREF
360
250C
  0
DICTIONARY
  5
21CE
330
21CD
100
AcDbDictionary
280
     1
281
     1
  3
ACAD_LAYOUTSELFREF
360
2519
  0
DICTIONARY
  5
21D4
330
21D3
100
AcDbDictionary
280
     1
281
     1
  3
ACAD_LAYOUTSELFREF
360
251A
  0
DICTIONARY
  5
2669
330
2665
100
AcDbDictionary
280
     1
281
     1
  0
DICTIONARY
  5
2713
330
2708
100
AcDbDictionary
280
     1
281
     1
  0
DICTIONARY
  5
29DB
330
279A
100
AcDbDictionary
280
     1
281
     1
  3
AcDbBlockTableRecordData
360
2D4A
  0
DICTIONARY
  5
29DE
330
28D2
100
AcDbDictionary
280
     1
281
     1
  3
AcDbBlockTableRecordData
360
2D4C
  0
DICTIONARY
  5
27A9
102
{ACAD_REACTORS
330
7
102
}
330
7
100
AcDbDictionary
281
     1
  3
ACAD_ASSOCNETWORK
350
27AA
  0
DICTIONARY
  5
2C54
102
{ACAD_REACTORS
330
7
102
}
330
7
100
AcDbDictionary
281
     1
  0
XRECORD
  5
25F3
102
{ACAD_REACTORS
330
7
102
}
330
7
100
AcDbXrecord
280
     1
300
ACDLT
300
2014
300
ACDLT_F_S
  0
DICTIONARY
  5
25D1
102
{ACAD_REACTORS
330
7
102
}
330
7
100
AcDbDictionary
281
     1
  0
DICTIONARY
  5
25EA
102
{ACAD_REACTORS
330
7
102
}
330
7
100
AcDbDictionary
281
     1
  3
Metric50
350
25EB
  0
DICTIONARY
  5
21E6
102
{ACAD_REACTORS
330
7
102
}
330
7
100
AcDbDictionary
281
     1
  0
DICTIONARY
  5
21CC
102
{ACAD_REACTORS
330
7
102
}
330
7
100
AcDbDictionary
281
     1
  3
Layout1
350
21D2
  3
Layout2
350
21D8
  3
Model
350
21CB
  0
DICTIONARY
  5
259F
102
{ACAD_REACTORS
330
7
102
}
330
7
100
AcDbDictionary
281
     1
  3
ByBlock
350
25A8
  3
ByLayer
350
25A0
  3
Global
350
25B0
  0
DICTIONARY
  5
25E6
102
{ACAD_REACTORS
330
7
102
}
330
7
100
AcDbDictionary
281
     1
  3
Standard
350
25E7
  0
DICTIONARY
  5
21E7
102
{ACAD_REACTORS
330
7
102
}
330
7
100
AcDbDictionary
281
     1
  3
Standard
350
21E9
  0
DICTIONARY
  5
21E8
102
{ACAD_REACTORS
330
7
102
}
330
7
100
AcDbDictionary
281
     1
  0
ACDBDICTIONARYWDFLT
  5
6
102
{ACAD_REACTORS
330
7
102
}
330
7
100
AcDbDictionary
281
     1
  3
Normal
350
5
100
AcDbDictionaryWithDefault
340
5
  0
DICTIONARY
  5
25D4
102
{ACAD_REACTORS
330
7
102
}
330
7
100
AcDbDictionary
281
     1
  3
A0
350
25D5
  3
A1
350
25D6
  3
A2
350
25D7
  3
A3
350
25D8
  3
A4
350
25D9
  3
A5
350
25DA
  3
A6
350
25DB
  3
A7
350
25DC
  3
A8
350
25DD
  3
A9
350
25DE
  3
B0
350
25DF
  3
B1
350
25E0
  3
B2
350
25E1
  3
B3
350
25E2
  3
B4
350
25E3
  3
B5
350
25E4
  3
B6
350
25E5
  0
DICTIONARY
  5
25E8
102
{ACAD_REACTORS
330
7
102
}
330
7
100
AcDbDictionary
281
     1
  3
Metric50
350
25E9
  0
DICTIONARY
  5
25D2
102
{ACAD_REACTORS
330
7
102
}
330
7
100
AcDbDictionary
281
     1
  3
Standard
350
25D3
  0
DICTIONARY
  5
25B8
102
{ACAD_REACTORS
330
7
102
}
330
7
100
AcDbDictionary
281
     1
  3
2dWireframe
350
25BE
  3
Basic
350
25BD
  3
Brighten
350
25C4
  3
ColorChange
350
25C8
  3
Conceptual
350
25C1
  3
Dim
350
25C3
  3
EdgeColorOff
350
25D0
  3
Facepattern
350
25C7
  3
Flat
350
25B9
  3
FlatWithEdges
350
25BA
  3
Gouraud
350
25BB
  3
GouraudWithEdges
350
25BC
  3
Hidden
350
25C0
  3
JitterOff
350
25CE
  3
Linepattern
350
25C6
  3
OverhangOff
350
25CF
  3
Realistic
350
25C2
  3
Shaded
350
25CD
  3
Shaded with edges
350
25CC
  3
Shades of Gray
350
25C9
  3
Sketchy
350
25CA
  3
Thicken
350
25C5
  3
Wireframe
350
25BF
  3
X-Ray
350
25CB
  0
XRECORD
  5
2D08
102
{ACAD_REACTORS
330
7
102
}
330
7
100
AcDbXrecord
280
     1
 90
        1
330
25D3
  0
DICTIONARY
  5
2652
102
{ACAD_REACTORS
330
7
102
}
330
7
100
AcDbDictionary
281
     1
  3
CANNOSCALE
350
2657
  3
CMLEADERSTYLE
350
2654
  3
CTABLESTYLE
350
2653
  3
CVIEWDETAILSTYLE
350
2655
  3
CVIEWSECTIONSTYLE
350
2656
  3
DIMASSOC
350
265A
  3
INDEXCTL
350
2659
  3
SORTENTS
350
2658
  3
XCLIPFRAME
350
2D06
  0
XRECORD
  5
2D09
102
{ACAD_REACTORS
330
7
102
}
330
7
100
AcDbXrecord
280
     1
  1
DWGPROPS COOKIE
  2

  3

  4

  6

  7

  8
takara
  9

300
=
301
=
302
=
303
=
304
=
305
=
306
=
307
=
308
=
309
=
 40
0.0795392708333333
 41
2453510.558637211
 42
2457700.634833183
  1

 90
        0
  0
DICTIONARY
  5
2719
102
{ACAD_REACTORS
330
2718
102
}
330
2718
100
AcDbDictionary
281
     1
  0
XRECORD
  5
25F5
102
{ACAD_REACTORS
330
25F4
102
}
330
25F4
100
AcDbXrecord
280
     1
290
     1
  0
XRECORD
  5
25F7
102
{ACAD_REACTORS
330
25F6
102
}
330
25F6
100
AcDbXrecord
280
     1
290
     1
  0
XRECORD
  5
25F9
102
{ACAD_REACTORS
330
25F8
102
}
330
25F8
100
AcDbXrecord
280
     1
290
     1
  0
XRECORD
  5
25FD
102
{ACAD_REACTORS
330
25FC
102
}
330
25FC
100
AcDbXrecord
280
     1
290
     1
  0
XRECORD
  5
25FF
102
{ACAD_REACTORS
330
25FE
102
}
330
25FE
100
AcDbXrecord
280
     1
290
     1
  0
XRECORD
  5
2605
102
{ACAD_REACTORS
330
2604
102
}
330
2604
100
AcDbXrecord
280
     1
290
     1
  0
XRECORD
  5
2607
102
{ACAD_REACTORS
330
2606
102
}
330
2606
100
AcDbXrecord
280
     1
290
     1
  0
XRECORD
  5
2609
102
{ACAD_REACTORS
330
2608
102
}
330
2608
100
AcDbXrecord
280
     1
290
     1
  0
DICTIONARY
  5
27A7
102
{ACAD_REACTORS
330
21C7
102
}
330
21C7
100
AcDbDictionary
281
     1
  3
ACAD_ASSOCNETWORK
350
27A8
  0
XRECORD
  5
250C
102
{ACAD_REACTORS
330
21C7
102
}
330
21C7
100
AcDbXrecord
280
     1
340
2
  0
XRECORD
  5
2519
102
{ACAD_REACTORS
330
21CE
102
}
330
21CE
100
AcDbXrecord
280
     1
340
21CD
  0
XRECORD
  5
251A
102
{ACAD_REACTORS
330
21D4
102
}
330
21D4
100
AcDbXrecord
280
     1
340
21D3
  0
DICTIONARY
  5
2D4A
102
{ACAD_REACTORS
330
29DB
102
}
330
29DB
100
AcDbDictionary
280
     1
281
     1
  3
Edit
360
2D4B
  0
DICTIONARY
  5
2D4C
102
{ACAD_REACTORS
330
29DE
102
}
330
29DE
100
AcDbDictionary
280
     1
281
     1
  3
Edit
360
2D4D
  0
ACDBASSOCNETWORK
  5
27AA
102
{ACAD_REACTORS
330
27A9
102
}
330
27A9
100
AcDbAssocAction
 90
        1
 90
        1
330
0
360
0
 90
        0
 90
        0
 90
        0
100
AcDbAssocNetwork
 90
        0
 90
        1
 90
        1
330
27A8
 90
        1
330
27A8
  0
ACDBDETAILVIEWSTYLE
  5
25EB
102
{ACAD_XDICTIONARY
360
2D48
102
}
102
{ACAD_REACTORS
330
25EA
102
}
330
25EA
100
AcDbModelDocViewStyle
 70
     0
  3
Metric50
290
     0
100
AcDbDetailViewStyle
 70
     0
 71
     0
 90
        3
 71
     1
340
9
 40
5.0
340
0
 40
5.0
300

 40
0.0
280
     1
 71
     2
340
8
 90
       25
 71
     3
340
9
 40
5.0
 90
        0
 40
15.0
 90
        1
300
%<\AcVar ViewDetailId>% (%<\AcVar ViewScale \f "%sn">%)
 71
     4
340
8
 90
       25
340
8
 90
       25
280
     0
  0
LAYOUT
  5
21D2
102
{ACAD_XDICTIONARY
360
2D0C
102
}
102
{ACAD_REACTORS
330
21CC
102
}
330
21CC
100
AcDbPlotSettings
  1

  2
None
  4

  6

 40
0.0
 41
0.0
 42
0.0
 43
0.0
 44
0.0
 45
0.0
 46
0.0
 47
0.0
 48
0.0
 49
0.0
140
0.0
141
0.0
142
1.0
143
1.0
 70
   688
 72
     0
 73
     0
 74
     5
  7
monochrome.ctb
 75
    16
147
1.0
148
0.0
149
0.0
100
AcDbLayout
  1
Layout1
 70
     1
 71
     1
 10
0.0
 20
0.0
 11
12.0
 21
9.0
 12
0.0
 22
0.0
 32
0.0
 14
0.0
 24
0.0
 34
0.0
 15
0.0
 25
0.0
 35
0.0
146
0.0
 13
0.0
 23
0.0
 33
0.0
 16
1.0
 26
0.0
 36
0.0
 17
0.0
 27
1.0
 37
0.0
 76
     0
330
21CD
  0
LAYOUT
  5
21D8
102
{ACAD_XDICTIONARY
360
2D0E
102
}
102
{ACAD_REACTORS
330
21CC
102
}
330
21CC
100
AcDbPlotSettings
  1

  2
None
  4

  6

 40
0.0
 41
0.0
 42
0.0
 43
0.0
 44
0.0
 45
0.0
 46
0.0
 47
0.0
 48
0.0
 49
0.0
140
0.0
141
0.0
142
1.0
143
1.0
 70
   688
 72
     0
 73
     0
 74
     5
  7
monochrome.ctb
 75
    16
147
1.0
148
0.0
149
0.0
100
AcDbLayout
  1
Layout2
 70
     1
 71
     2
 10
0.0
 20
0.0
 11
12.0
 21
9.0
 12
0.0
 22
0.0
 32
0.0
 14
0.0
 24
0.0
 34
0.0
 15
0.0
 25
0.0
 35
0.0
146
0.0
 13
0.0
 23
0.0
 33
0.0
 16
1.0
 26
0.0
 36
0.0
 17
0.0
 27
1.0
 37
0.0
 76
     0
330
21D3
  0
LAYOUT
  5
21CB
102
{ACAD_XDICTIONARY
360
2D0A
102
}
102
{ACAD_REACTORS
330
21CC
102
}
330
21CC
100
AcDbPlotSettings
  1

  2
EPSON LP-9400
  4
A4
  6

 40
5.873749732971191
 41
5.873747825622558
 42
5.873748779296875
 43
5.873748779296875
 44
209.9733276367187
 45
297.0106506347656
 46
2.339999999999999
 47
0.0
 48
0.0
 49
0.0
140
0.0
141
0.0
142
1.0
143
9.816891609963194
 70
 11956
 72
     1
 73
     1
 74
     1
  7
monochrome.ctb
 75
     0
147
0.1018652379725877
148
1264.94917075748
149
959.6633564695521
100
AcDbLayout
  1
Model
 70
     1
 71
     0
 10
0.0
 20
0.0
 11
12.0
 21
9.0
 12
0.0
 22
0.0
 32
0.0
 14
0.0
 24
0.0
 34
0.0
 15
0.0
 25
0.0
 35
0.0
146
0.0
 13
0.0
 23
0.0
 33
0.0
 16
1.0
 26
0.0
 36
0.0
 17
0.0
 27
1.0
 37
0.0
 76
     0
330
2
331
259D
  0
MATERIAL
  5
25A8
102
{ACAD_XDICTIONARY
360
25A9
102
}
102
{ACAD_REACTORS
330
259F
102
}
330
259F
100
AcDbMaterial
  1
ByBlock
 72
     0
 43
0.0008202099737533
 43
0.0
 43
0.0
 43
0.0
 43
0.0
 43
0.0008202099737533
 43
0.0
 43
0.0
 43
0.0
 43
0.0
 43
1.0
 43
0.0
 43
0.0
 43
0.0
 43
0.0
 43
1.0
 77
     0
 47
0.0008202099737533
 47
0.0
 47
0.0
 47
0.0
 47
0.0
 47
0.0008202099737533
 47
0.0
 47
0.0
 47
0.0
 47
0.0
 47
1.0
 47
0.0
 47
0.0
 47
0.0
 47
0.0
 47
1.0
171
     0
 49
0.0008202099737533
 49
0.0
 49
0.0
 49
0.0
 49
0.0
 49
0.0008202099737533
 49
0.0
 49
0.0
 49
0.0
 49
0.0
 49
1.0
 49
0.0
 49
0.0
 49
0.0
 49
0.0
 49
1.0
175
     0
142
0.0008202099737533
142
0.0
142
0.0
142
0.0
142
0.0
142
0.0008202099737533
142
0.0
142
0.0
142
0.0
142
0.0
142
1.0
142
0.0
142
0.0
142
0.0
142
0.0
142
1.0
179
     0
144
0.0008202099737533
144
0.0
144
0.0
144
0.0
144
0.0
144
0.0008202099737533
144
0.0
144
0.0
144
0.0
144
0.0
144
1.0
144
0.0
144
0.0
144
0.0
144
0.0
144
1.0
147
0.0008202099737533
147
0.0
147
0.0
147
0.0
147
0.0
147
0.0008202099737533
147
0.0
147
0.0
147
0.0
147
0.0
147
1.0
147
0.0
147
0.0
147
0.0
147
0.0
147
1.0
  0
MATERIAL
  5
25A0
102
{ACAD_XDICTIONARY
360
25A1
102
}
102
{ACAD_REACTORS
330
259F
102
}
330
259F
100
AcDbMaterial
  1
ByLayer
 72
     0
 43
0.0008202099737533
 43
0.0
 43
0.0
 43
0.0
 43
0.0
 43
0.0008202099737533
 43
0.0
 43
0.0
 43
0.0
 43
0.0
 43
1.0
 43
0.0
 43
0.0
 43
0.0
 43
0.0
 43
1.0
 77
     0
 47
0.0008202099737533
 47
0.0
 47
0.0
 47
0.0
 47
0.0
 47
0.0008202099737533
 47
0.0
 47
0.0
 47
0.0
 47
0.0
 47
1.0
 47
0.0
 47
0.0
 47
0.0
 47
0.0
 47
1.0
171
     0
 49
0.0008202099737533
 49
0.0
 49
0.0
 49
0.0
 49
0.0
 49
0.0008202099737533
 49
0.0
 49
0.0
 49
0.0
 49
0.0
 49
1.0
 49
0.0
 49
0.0
 49
0.0
 49
0.0
 49
1.0
175
     0
142
0.0008202099737533
142
0.0
142
0.0
142
0.0
142
0.0
142
0.0008202099737533
142
0.0
142
0.0
142
0.0
142
0.0
142
1.0
142
0.0
142
0.0
142
0.0
142
0.0
142
1.0
179
     0
144
0.0008202099737533
144
0.0
144
0.0
144
0.0
144
0.0
144
0.0008202099737533
144
0.0
144
0.0
144
0.0
144
0.0
144
1.0
144
0.0
144
0.0
144
0.0
144
0.0
144
1.0
147
0.0008202099737533
147
0.0
147
0.0
147
0.0
147
0.0
147
0.0008202099737533
147
0.0
147
0.0
147
0.0
147
0.0
147
1.0
147
0.0
147
0.0
147
0.0
147
0.0
147
1.0
  0
MATERIAL
  5
25B0
102
{ACAD_XDICTIONARY
360
25B1
102
}
102
{ACAD_REACTORS
330
259F
102
}
330
259F
100
AcDbMaterial
  1
Global
 72
     0
 43
0.0008202099737533
 43
0.0
 43
0.0
 43
0.0
 43
0.0
 43
0.0008202099737533
 43
0.0
 43
0.0
 43
0.0
 43
0.0
 43
1.0
 43
0.0
 43
0.0
 43
0.0
 43
0.0
 43
1.0
 77
     0
 47
0.0008202099737533
 47
0.0
 47
0.0
 47
0.0
 47
0.0
 47
0.0008202099737533
 47
0.0
 47
0.0
 47
0.0
 47
0.0
 47
1.0
 47
0.0
 47
0.0
 47
0.0
 47
0.0
 47
1.0
171
     0
 49
0.0008202099737533
 49
0.0
 49
0.0
 49
0.0
 49
0.0
 49
0.0008202099737533
 49
0.0
 49
0.0
 49
0.0
 49
0.0
 49
1.0
 49
0.0
 49
0.0
 49
0.0
 49
0.0
 49
1.0
175
     0
142
0.0008202099737533
142
0.0
142
0.0
142
0.0
142
0.0
142
0.0008202099737533
142
0.0
142
0.0
142
0.0
142
0.0
142
1.0
142
0.0
142
0.0
142
0.0
142
0.0
142
1.0
179
     0
144
0.0008202099737533
144
0.0
144
0.0
144
0.0
144
0.0
144
0.0008202099737533
144
0.0
144
0.0
144
0.0
144
0.0
144
1.0
144
0.0
144
0.0
144
0.0
144
0.0
144
1.0
147
0.0008202099737533
147
0.0
147
0.0
147
0.0
147
0.0
147
0.0008202099737533
147
0.0
147
0.0
147
0.0
147
0.0
147
1.0
147
0.0
147
0.0
147
0.0
147
0.0
147
1.0
  0
MLEADERSTYLE
  5
25E7
102
{ACAD_XDICTIONARY
360
2D44
102
}
102
{ACAD_REACTORS
330
25E6
102
}
330
25E6
100
AcDbMLeaderStyle
170
     2
171
     1
172
     0
 90
        2
 40
0.0
 41
0.0
173
     1
 91
-1056964608
340
21DD
 92
       -2
290
     1
 42
2.0
291
     1
 43
0.36
  3
Standard
 44
4.0
300

342
9
174
     1
178
     6
175
     1
176
     0
 93
-1056964608
 45
4.0
292
     0
297
     0
 46
4.0
 94
-1056964608
 47
1.0
 49
1.0
140
1.0
293
     1
141
0.0
294
     1
177
     0
142
1.0
295
     0
296
     0
143
0.125
1001
ACAD_MLEADERVER
1070
     2
  0
MLINESTYLE
  5
21E9
102
{ACAD_REACTORS
330
21E7
102
}
330
21E7
100
AcDbMlineStyle
  2
STANDARD
 70
     0
  3

 62
   256
 51
90.0
 52
90.0
 71
     2
 49
0.5
 62
   256
  6
BYLAYER
 49
-0.5
 62
   256
  6
BYLAYER
  0
ACDBPLACEHOLDER
  5
5
102
{ACAD_REACTORS
330
6
102
}
330
6
  0
SCALE
  5
25D5
102
{ACAD_REACTORS
330
25D4
102
}
330
25D4
100
AcDbScale
 70
     0
300
1:1
140
1.0
141
1.0
290
     1
  0
SCALE
  5
25D6
102
{ACAD_REACTORS
330
25D4
102
}
330
25D4
100
AcDbScale
 70
     0
300
1:2
140
1.0
141
2.0
290
     0
  0
SCALE
  5
25D7
102
{ACAD_REACTORS
330
25D4
102
}
330
25D4
100
AcDbScale
 70
     0
300
1:4
140
1.0
141
4.0
290
     0
  0
SCALE
  5
25D8
102
{ACAD_REACTORS
330
25D4
102
}
330
25D4
100
AcDbScale
 70
     0
300
1:5
140
1.0
141
5.0
290
     0
  0
SCALE
  5
25D9
102
{ACAD_REACTORS
330
25D4
102
}
330
25D4
100
AcDbScale
 70
     0
300
1:8
140
1.0
141
8.0
290
     0
  0
SCALE
  5
25DA
102
{ACAD_REACTORS
330
25D4
102
}
330
25D4
100
AcDbScale
 70
     0
300
1:10
140
1.0
141
10.0
290
     0
  0
SCALE
  5
25DB
102
{ACAD_REACTORS
330
25D4
102
}
330
25D4
100
AcDbScale
 70
     0
300
1:16
140
1.0
141
16.0
290
     0
  0
SCALE
  5
25DC
102
{ACAD_REACTORS
330
25D4
102
}
330
25D4
100
AcDbScale
 70
     0
300
1:20
140
1.0
141
20.0
290
     0
  0
SCALE
  5
25DD
102
{ACAD_REACTORS
330
25D4
102
}
330
25D4
100
AcDbScale
 70
     0
300
1:30
140
1.0
141
30.0
290
     0
  0
SCALE
  5
25DE
102
{ACAD_REACTORS
330
25D4
102
}
330
25D4
100
AcDbScale
 70
     0
300
1:40
140
1.0
141
40.0
290
     0
  0
SCALE
  5
25DF
102
{ACAD_REACTORS
330
25D4
102
}
330
25D4
100
AcDbScale
 70
     0
300
1:50
140
1.0
141
50.0
290
     0
  0
SCALE
  5
25E0
102
{ACAD_REACTORS
330
25D4
102
}
330
25D4
100
AcDbScale
 70
     0
300
1:100
140
1.0
141
100.0
290
     0
  0
SCALE
  5
25E1
102
{ACAD_REACTORS
330
25D4
102
}
330
25D4
100
AcDbScale
 70
     0
300
2:1
140
2.0
141
1.0
290
     0
  0
SCALE
  5
25E2
102
{ACAD_REACTORS
330
25D4
102
}
330
25D4
100
AcDbScale
 70
     0
300
4:1
140
4.0
141
1.0
290
     0
  0
SCALE
  5
25E3
102
{ACAD_REACTORS
330
25D4
102
}
330
25D4
100
AcDbScale
 70
     0
300
8:1
140
8.0
141
1.0
290
     0
  0
SCALE
  5
25E4
102
{ACAD_REACTORS
330
25D4
102
}
330
25D4
100
AcDbScale
 70
     0
300
10:1
140
10.0
141
1.0
290
     0
  0
SCALE
  5
25E5
102
{ACAD_REACTORS
330
25D4
102
}
330
25D4
100
AcDbScale
 70
     0
300
100:1
140
100.0
141
1.0
290
     0
  0
ACDBSECTIONVIEWSTYLE
  5
25E9
102
{ACAD_XDICTIONARY
360
2D46
102
}
102
{ACAD_REACTORS
330
25E8
102
}
330
25E8
100
AcDbModelDocViewStyle
 70
     0
  3
Metric50
290
     0
100
AcDbSectionViewStyle
 70
     0
 71
     0
 90
      102
 71
     1
340
9
 40
5.0
340
0
340
0
 40
5.0
300
I, O, Q, S, X, Z
 40
10.0
 90
        0
 40
2.5
 90
        0
 71
     2
340
8
 90
       25
340
8
 90
       50
 40
5.0
 40
2.5
 40
5.0
 71
     3
340
9
 40
5.0
 90
        0
 40
15.0
 90
        1
300
%<\AcVar ViewSectionStartId>%-%<\AcVar ViewSectionEndId>% (%<\AcVar ViewScale \f "%sn">%)
 71
     4
300
ANSI31
 40
1.0
 90
        0
290
     0
290
     0
 90
        6
 40
0.0
 40
1.570796326794896
 40
0.2617993877991494
 40
1.308996938995747
 40
-0.2617993877991494
 40
1.832595714594046
  0
TABLESTYLE
  5
25D3
102
{ACAD_XDICTIONARY
360
260B
102
}
102
{ACAD_REACTORS
330
25D2
102
}
330
25D2
100
AcDbTableStyle
  3
Standard
 70
     0
 71
     0
 40
1.5
 41
1.5
280
     0
281
     0
  7
Standard
140
4.5
170
     2
 62
     0
 63
     7
283
     0
274
    -2
284
     1
 64
     0
275
    -2
285
     1
 65
     0
276
    -2
286
     1
 66
     0
277
    -2
287
     1
 67
     0
278
    -2
288
     1
 68
     0
279
    -2
289
     1
 69
     0
  7
Standard
140
6.0
170
     5
 62
     0
 63
     7
283
     0
274
    -2
284
     1
 64
     0
275
    -2
285
     1
 65
     0
276
    -2
286
     1
 66
     0
277
    -2
287
     1
 67
     0
278
    -2
288
     1
 68
     0
279
    -2
289
     1
 69
     0
  7
Standard
140
4.5
170
     5
 62
     0
 63
     7
283
     0
274
    -2
284
     1
 64
     0
275
    -2
285
     1
 65
     0
276
    -2
286
     1
 66
     0
277
    -2
287
     1
 67
     0
278
    -2
288
     1
 68
     0
279
    -2
289
     1
 69
     0
  0
VISUALSTYLE
  5
25BE
102
{ACAD_XDICTIONARY
360
2D1D
102
}
102
{ACAD_REACTORS
330
25B8
102
}
330
25B8
100
AcDbVisualStyle
  2
2dWireframe
 70
     4
 71
     0
 72
     2
 73
     0
 90
        0
 40
-0.6
 41
-30.0
 62
     5
 63
     7
 74
     1
 91
        4
 64
     7
 65
   257
 75
     1
175
     1
 42
1.0
 92
        0
 66
   257
 43
1.0
 76
     1
 77
     6
 78
     2
 67
     7
 79
     5
170
     0
171
     0
290
     0
174
     0
 93
        1
 44
0.0
173
     0
291
     0
 45
0.0
1001
ACAD
1000
AcDbSavedByObjectVersion
1070
     0
  0
VISUALSTYLE
  5
25BD
102
{ACAD_XDICTIONARY
360
2D1B
102
}
102
{ACAD_REACTORS
330
25B8
102
}
330
25B8
100
AcDbVisualStyle
  2
Basic
 70
     7
 71
     1
 72
     0
 73
     1
 90
        0
 40
-0.6
 41
-30.0
 62
     5
 63
     7
 74
     0
 91
        4
 64
     7
 65
   257
 75
     1
175
     1
 42
1.0
 92
        8
 66
     7
 43
1.0
 76
     1
 77
     6
 78
     2
 67
     7
 79
     5
170
     0
171
     0
290
     0
174
     0
 93
        1
 44
0.0
173
     0
291
     1
 45
0.0
1001
ACAD
1000
AcDbSavedByObjectVersion
1070
     0
  0
VISUALSTYLE
  5
25C4
102
{ACAD_XDICTIONARY
360
2D29
102
}
102
{ACAD_REACTORS
330
25B8
102
}
330
25B8
100
AcDbVisualStyle
  2
Brighten
 70
    12
 71
     2
 72
     2
 73
     0
 90
        0
 40
-0.6
 41
-30.0
 62
     5
 63
     7
 74
     1
 91
        4
 64
     7
 65
   257
 75
     1
175
     1
 42
1.0
 92
        8
 66
     7
 43
1.0
 76
     1
 77
     6
 78
     2
 67
     7
 79
     5
170
     0
171
     0
290
     0
174
     0
 93
        1
 44
50.0
173
     0
291
     1
 45
0.0
1001
ACAD
1000
AcDbSavedByObjectVersion
1070
     0
  0
VISUALSTYLE
  5
25C8
102
{ACAD_XDICTIONARY
360
2D31
102
}
102
{ACAD_REACTORS
330
25B8
102
}
330
25B8
100
AcDbVisualStyle
  2
ColorChange
 70
    16
 71
     2
 72
     2
 73
     3
 90
        0
 40
-0.6
 41
-30.0
 62
     5
 63
     8
 74
     1
 91
        4
 64
     7
 65
   257
 75
     1
175
     1
 42
1.0
 92
        8
 66
     8
 43
1.0
 76
     1
 77
     6
 78
     2
 67
     7
 79
     5
170
     0
171
     0
290
     0
174
     0
 93
        1
 44
0.0
173
     0
291
     1
 45
0.0
1001
ACAD
1000
AcDbSavedByObjectVersion
1070
     0
  0
VISUALSTYLE
  5
25C1
102
{ACAD_XDICTIONARY
360
2D23
102
}
102
{ACAD_REACTORS
330
25B8
102
}
330
25B8
100
AcDbVisualStyle
  2
Conceptual
 70
     9
 71
     3
 72
     2
 73
     0
 90
        0
 40
-0.6
 41
-30.0
 62
     5
 63
     7
 74
     2
 91
        2
 64
     7
 65
   257
 75
     1
175
     1
 42
179.0
 92
        8
 66
     7
 43
1.0
 76
     1
 77
     6
 78
     2
 67
     7
 79
     3
170
     0
171
     0
290
     0
174
     0
 93
        1
 44
0.0
173
     0
291
     0
 45
0.0
1001
ACAD
1000
AcDbSavedByObjectVersion
1070
     0
  0
VISUALSTYLE
  5
25C3
102
{ACAD_XDICTIONARY
360
2D27
102
}
102
{ACAD_REACTORS
330
25B8
102
}
330
25B8
100
AcDbVisualStyle
  2
Dim
 70
    11
 71
     2
 72
     2
 73
     0
 90
        0
 40
-0.6
 41
-30.0
 62
     5
 63
     7
 74
     1
 91
        4
 64
     7
 65
   257
 75
     1
175
     1
 42
1.0
 92
        8
 66
     7
 43
1.0
 76
     1
 77
     6
 78
     2
 67
     7
 79
     5
170
     0
171
     0
290
     0
174
     0
 93
        1
 44
-50.0
173
     0
291
     1
 45
0.0
1001
ACAD
1000
AcDbSavedByObjectVersion
1070
     0
  0
VISUALSTYLE
  5
25D0
102
{ACAD_XDICTIONARY
360
2D41
102
}
102
{ACAD_REACTORS
330
25B8
102
}
330
25B8
100
AcDbVisualStyle
  2
EdgeColorOff
 70
    22
 71
     2
 72
     2
 73
     0
 90
        0
 40
-0.6
 41
-30.0
 62
     5
 63
     7
 74
     1
 91
        4
 64
     7
 65
   257
 75
     1
175
     1
 42
1.0
 92
        8
 66
     7
 43
1.0
 76
     1
 77
     6
 78
     2
 67
     7
 79
     5
170
     0
171
     0
290
     0
174
     0
 93
        1
 44
0.0
173
     0
291
     1
 45
0.0
1001
ACAD
1000
AcDbSavedByObjectVersion
1070
     0
  0
VISUALSTYLE
  5
25C7
102
{ACAD_XDICTIONARY
360
2D2F
102
}
102
{ACAD_REACTORS
330
25B8
102
}
330
25B8
100
AcDbVisualStyle
  2
Facepattern
 70
    15
 71
     2
 72
     2
 73
     0
 90
        0
 40
-0.6
 41
-30.0
 62
     5
 63
     7
 74
     1
 91
        4
 64
     7
 65
   257
 75
     1
175
     1
 42
1.0
 92
        8
 66
     7
 43
1.0
 76
     1
 77
     6
 78
     2
 67
     7
 79
     5
170
     0
171
     0
290
     0
174
     0
 93
        1
 44
0.0
173
     0
291
     1
 45
0.0
1001
ACAD
1000
AcDbSavedByObjectVersion
1070
     0
  0
VISUALSTYLE
  5
25B9
102
{ACAD_XDICTIONARY
360
2D13
102
}
102
{ACAD_REACTORS
330
25B8
102
}
330
25B8
100
AcDbVisualStyle
  2
Flat
 70
     0
 71
     2
 72
     1
 73
     1
 90
        2
 40
-0.6
 41
30.0
 62
     5
 63
     7
 74
     0
 91
        0
 64
     7
 65
   257
 75
     1
175
     1
 42
1.0
 92
        8
 66
     7
 43
1.0
 76
     1
 77
     6
 78
     2
 67
     7
 79
     5
170
     0
171
     0
290
     0
174
     0
 93
       13
 44
0.0
173
     0
291
     1
 45
0.0
1001
ACAD
1000
AcDbSavedByObjectVersion
1070
     0
  0
VISUALSTYLE
  5
25BA
102
{ACAD_XDICTIONARY
360
2D15
102
}
102
{ACAD_REACTORS
330
25B8
102
}
330
25B8
100
AcDbVisualStyle
  2
FlatWithEdges
 70
     1
 71
     2
 72
     1
 73
     1
 90
        2
 40
-0.6
 41
30.0
 62
     5
 63
     7
 74
     1
 91
        0
 64
     7
 65
   257
 75
     1
175
     1
 42
1.0
 92
        0
 66
   257
 43
1.0
 76
     1
 77
     6
 78
     2
 67
     7
 79
     5
170
     0
171
     0
290
     0
174
     0
 93
       13
 44
0.0
173
     0
291
     1
 45
0.0
1001
ACAD
1000
AcDbSavedByObjectVersion
1070
     0
  0
VISUALSTYLE
  5
25BB
102
{ACAD_XDICTIONARY
360
2D17
102
}
102
{ACAD_REACTORS
330
25B8
102
}
330
25B8
100
AcDbVisualStyle
  2
Gouraud
 70
     2
 71
     2
 72
     2
 73
     1
 90
        2
 40
-0.6
 41
30.0
 62
     5
 63
     7
 74
     0
 91
        0
 64
     7
 65
   257
 75
     1
175
     1
 42
1.0
 92
        0
 66
     7
 43
1.0
 76
     1
 77
     6
 78
     2
 67
     7
 79
     5
170
     0
171
     0
290
     0
174
     0
 93
       13
 44
0.0
173
     0
291
     1
 45
0.0
1001
ACAD
1000
AcDbSavedByObjectVersion
1070
     0
  0
VISUALSTYLE
  5
25BC
102
{ACAD_XDICTIONARY
360
2D19
102
}
102
{ACAD_REACTORS
330
25B8
102
}
330
25B8
100
AcDbVisualStyle
  2
GouraudWithEdges
 70
     3
 71
     2
 72
     2
 73
     1
 90
        2
 40
-0.6
 41
30.0
 62
     5
 63
     7
 74
     1
 91
        0
 64
     7
 65
   257
 75
     1
175
     1
 42
1.0
 92
        0
 66
   257
 43
1.0
 76
     1
 77
     6
 78
     2
 67
     7
 79
     5
170
     0
171
     0
290
     0
174
     0
 93
       13
 44
0.0
173
     0
291
     1
 45
0.0
1001
ACAD
1000
AcDbSavedByObjectVersion
1070
     0
  0
VISUALSTYLE
  5
25C0
102
{ACAD_XDICTIONARY
360
2D21
102
}
102
{ACAD_REACTORS
330
25B8
102
}
330
25B8
100
AcDbVisualStyle
  2
Hidden
 70
     6
 71
     1
 72
     2
 73
     2
 90
        0
 40
-0.6
 41
-30.0
 62
     5
 63
     7
 74
     2
 91
        2
 64
     7
 65
   257
 75
     2
175
     1
 42
40.0
 92
        0
 66
   257
 43
1.0
 76
     1
 77
     6
 78
     2
 67
     7
 79
     3
170
     0
171
     0
290
     0
174
     0
 93
        1
 44
0.0
173
     0
291
     0
 45
0.0
1001
ACAD
1000
AcDbSavedByObjectVersion
1070
     0
  0
VISUALSTYLE
  5
25CE
102
{ACAD_XDICTIONARY
360
2D3D
102
}
102
{ACAD_REACTORS
330
25B8
102
}
330
25B8
100
AcDbVisualStyle
  2
JitterOff
 70
    20
 71
     2
 72
     2
 73
     0
 90
        0
 40
-0.6
 41
-30.0
 62
     5
 63
     7
 74
     1
 91
        4
 64
     7
 65
   257
 75
     1
175
     1
 42
1.0
 92
       10
 66
     7
 43
1.0
 76
     1
 77
     6
 78
     2
 67
     7
 79
     5
170
     0
171
     0
290
     0
174
     0
 93
        1
 44
0.0
173
     0
291
     1
 45
0.0
1001
ACAD
1000
AcDbSavedByObjectVersion
1070
     0
  0
VISUALSTYLE
  5
25C6
102
{ACAD_XDICTIONARY
360
2D2D
102
}
102
{ACAD_REACTORS
330
25B8
102
}
330
25B8
100
AcDbVisualStyle
  2
Linepattern
 70
    14
 71
     2
 72
     2
 73
     0
 90
        0
 40
-0.6
 41
-30.0
 62
     5
 63
     7
 74
     1
 91
        4
 64
     7
 65
   257
 75
     7
175
     7
 42
1.0
 92
        8
 66
     7
 43
1.0
 76
     1
 77
     6
 78
     2
 67
     7
 79
     5
170
     0
171
     0
290
     0
174
     0
 93
        1
 44
0.0
173
     0
291
     1
 45
0.0
1001
ACAD
1000
AcDbSavedByObjectVersion
1070
     0
  0
VISUALSTYLE
  5
25CF
102
{ACAD_XDICTIONARY
360
2D3F
102
}
102
{ACAD_REACTORS
330
25B8
102
}
330
25B8
100
AcDbVisualStyle
  2
OverhangOff
 70
    21
 71
     2
 72
     2
 73
     0
 90
        0
 40
-0.6
 41
-30.0
 62
     5
 63
     7
 74
     1
 91
        4
 64
     7
 65
   257
 75
     1
175
     1
 42
1.0
 92
        9
 66
     7
 43
1.0
 76
     1
 77
     6
 78
     2
 67
     7
 79
     5
170
     0
171
     0
290
     0
174
     0
 93
        1
 44
0.0
173
     0
291
     1
 45
0.0
1001
ACAD
1000
AcDbSavedByObjectVersion
1070
     0
  0
VISUALSTYLE
  5
25C2
102
{ACAD_XDICTIONARY
360
2D25
102
}
102
{ACAD_REACTORS
330
25B8
102
}
330
25B8
100
AcDbVisualStyle
  2
Realistic
 70
     8
 71
     2
 72
     2
 73
     0
 90
        2
 40
-0.6
 41
30.0
 62
     5
 63
     7
 74
     0
 91
        0
 64
     7
 65
   257
 75
     1
175
     1
 42
1.0
 92
        8
 66
   257
 43
1.0
 76
     1
 77
     6
 78
     2
 67
     7
 79
     3
170
     0
171
     0
290
     0
174
     0
 93
       13
 44
0.0
173
     0
291
     0
 45
0.0
1001
ACAD
1000
AcDbSavedByObjectVersion
1070
     0
  0
VISUALSTYLE
  5
25CD
102
{ACAD_XDICTIONARY
360
2D3B
102
}
102
{ACAD_REACTORS
330
25B8
102
}
330
25B8
100
AcDbVisualStyle
  2
Shaded
 70
    27
 71
     2
 72
     2
 73
     1
 90
        2
 40
-0.6
 41
30.0
 62
     5
 63
     7
 74
     0
 91
        4
 64
     7
 65
   257
 75
     1
175
     1
 42
1.0
 92
        8
 66
   257
 43
1.0
 76
     1
 77
     6
 78
     2
 67
     8
 79
     3
170
     0
171
     0
290
     0
174
     0
 93
        5
 44
0.0
173
     0
291
     0
 45
0.0
1001
ACAD
1000
AcDbSavedByObjectVersion
1070
     0
  0
VISUALSTYLE
  5
25CC
102
{ACAD_XDICTIONARY
360
2D39
102
}
102
{ACAD_REACTORS
330
25B8
102
}
330
25B8
100
AcDbVisualStyle
  2
Shaded with edges
 70
    26
 71
     2
 72
     2
 73
     1
 90
        2
 40
-0.6
 41
30.0
 62
     5
 63
     7
 74
     1
 91
       10
 64
     7
 65
   257
 75
     2
175
     1
 42
1.0
 92
        8
 66
   257
 43
1.0
 76
     1
 77
     6
 78
     2
 67
     7
 79
     3
170
     0
171
     0
290
     0
174
     0
 93
        5
 44
0.0
173
     0
291
     0
 45
0.0
1001
ACAD
1000
AcDbSavedByObjectVersion
1070
     0
  0
VISUALSTYLE
  5
25C9
102
{ACAD_XDICTIONARY
360
2D33
102
}
102
{ACAD_REACTORS
330
25B8
102
}
330
25B8
100
AcDbVisualStyle
  2
Shades of Gray
 70
    23
 71
     2
 72
     2
 73
     3
 90
        0
 40
-0.6
 41
-30.0
 62
     5
 63
     7
 74
     2
 91
        2
 64
     7
 65
     7
 75
     1
175
     1
 42
40.0
 92
        8
 66
     7
 43
1.0
 76
     1
 77
     6
 78
     2
 67
     7
 79
     3
170
     0
171
     0
290
     0
174
     0
 93
        1
 44
0.0
173
     0
291
     0
 45
0.0
1001
ACAD
1000
AcDbSavedByObjectVersion
1070
     0
  0
VISUALSTYLE
  5
25CA
102
{ACAD_XDICTIONARY
360
2D35
102
}
102
{ACAD_REACTORS
330
25B8
102
}
330
25B8
100
AcDbVisualStyle
  2
Sketchy
 70
    24
 71
     1
 72
     2
 73
     2
 90
        0
 40
-0.6
 41
-30.0
 62
     5
 63
     7
 74
     2
 91
        2
 64
     7
 65
     7
 75
     1
175
     1
 42
40.0
 92
       11
 66
     7
 43
1.0
 76
     1
 77
     6
 78
     2
 67
     7
 79
     6
170
     0
171
     0
290
     0
174
     0
 93
        1
 44
0.0
173
     0
291
     0
 45
0.0
1001
ACAD
1000
AcDbSavedByObjectVersion
1070
     0
  0
VISUALSTYLE
  5
25C5
102
{ACAD_XDICTIONARY
360
2D2B
102
}
102
{ACAD_REACTORS
330
25B8
102
}
330
25B8
100
AcDbVisualStyle
  2
Thicken
 70
    13
 71
     2
 72
     2
 73
     0
 90
        0
 40
-0.6
 41
-30.0
 62
     5
 63
     7
 74
     1
 91
        4
 64
     7
 65
   257
 75
     1
175
     1
 42
1.0
 92
       12
 66
     7
 43
1.0
 76
     1
 77
     6
 78
     2
 67
     7
 79
     5
170
     0
171
     0
290
     0
174
     0
 93
        1
 44
0.0
173
     0
291
     1
 45
0.0
1001
ACAD
1000
AcDbSavedByObjectVersion
1070
     0
  0
VISUALSTYLE
  5
25BF
102
{ACAD_XDICTIONARY
360
2D1F
102
}
102
{ACAD_REACTORS
330
25B8
102
}
330
25B8
100
AcDbVisualStyle
  2
Wireframe
 70
     5
 71
     0
 72
     2
 73
     0
 90
        0
 40
-0.6
 41
-30.0
 62
     5
 63
     7
 74
     1
 91
        4
 64
     7
 65
   257
 75
     1
175
     1
 42
1.0
 92
        0
 66
   257
 43
1.0
 76
     1
 77
     6
 78
     2
 67
     7
 79
     3
170
     0
171
     0
290
     0
174
     0
 93
        1
 44
0.0
173
     0
291
     0
 45
0.0
1001
ACAD
1000
AcDbSavedByObjectVersion
1070
     0
  0
VISUALSTYLE
  5
25CB
102
{ACAD_XDICTIONARY
360
2D37
102
}
102
{ACAD_REACTORS
330
25B8
102
}
330
25B8
100
AcDbVisualStyle
  2
X-Ray
 70
    25
 71
     2
 72
     2
 73
     1
 90
        1
 40
0.5
 41
-30.0
 62
     5
 63
     7
 74
     1
 91
        0
 64
     7
 65
   257
 75
     1
175
     1
 42
1.0
 92
        8
 66
     7
 43
1.0
 76
     1
 77
     6
 78
     2
 67
     7
 79
     3
170
     0
171
     0
290
     0
174
     0
 93
       13
 44
0.0
173
     0
291
     0
 45
0.0
1001
ACAD
1000
AcDbSavedByObjectVersion
1070
     0
  0
DICTIONARYVAR
  5
2657
102
{ACAD_REACTORS
330
2652
102
}
330
2652
100
DictionaryVariables
280
     0
  1
1:1
  0
DICTIONARYVAR
  5
2654
102
{ACAD_REACTORS
330
2652
102
}
330
2652
100
DictionaryVariables
280
     0
  1
STANDARD
  0
DICTIONARYVAR
  5
2653
102
{ACAD_REACTORS
330
2652
102
}
330
2652
100
DictionaryVariables
280
     0
  1
STANDARD
  0
DICTIONARYVAR
  5
2655
102
{ACAD_REACTORS
330
2652
102
}
330
2652
100
DictionaryVariables
280
     0
  1
Metric50
  0
DICTIONARYVAR
  5
2656
102
{ACAD_REACTORS
330
2652
102
}
330
2652
100
DictionaryVariables
280
     0
  1
Metric50
  0
DICTIONARYVAR
  5
265A
102
{ACAD_REACTORS
330
2652
102
}
330
2652
100
DictionaryVariables
280
     0
  1
1
  0
DICTIONARYVAR
  5
2659
102
{ACAD_REACTORS
330
2652
102
}
330
2652
100
DictionaryVariables
280
     0
  1
0
  0
DICTIONARYVAR
  5
2658
102
{ACAD_REACTORS
330
2652
102
}
330
2652
100
DictionaryVariables
280
     0
  1
127
  0
DICTIONARYVAR
  5
2D06
102
{ACAD_REACTORS
330
2652
102
}
330
2652
100
DictionaryVariables
280
     0
  1
2
  0
ACDBASSOCNETWORK
  5
27A8
102
{ACAD_REACTORS
330
27A7
102
}
330
27A7
100
AcDbAssocAction
 90
        1
 90
        1
330
27AA
360
0
 90
        1
 90
        0
 90
        0
100
AcDbAssocNetwork
 90
        0
 90
        3
 90
        2
360
27AB
360
293A
 90
        2
330
27AB
330
293A
  0
XRECORD
  5
2D4B
102
{ACAD_REACTORS
330
2D4A
102
}
330
2D4A
100
AcDbXrecord
280
     1
1070
     0
1070
     1
1070
     1
  0
XRECORD
  5
2D4D
102
{ACAD_REACTORS
330
2D4C
102
}
330
2D4C
100
AcDbXrecord
280
     1
1070
     0
1070
     1
1070
     1
  0
DICTIONARY
  5
2D48
330
25EB
100
AcDbDictionary
280
     1
281
     1
  3
ACAD_XREC_ROUNDTRIP
360
2D49
  0
DICTIONARY
  5
2D0C
330
21D2
100
AcDbDictionary
280
     1
281
     1
  3
ACAD_XREC_ROUNDTRIP
360
2D0D
  0
DICTIONARY
  5
2D0E
330
21D8
100
AcDbDictionary
280
     1
281
     1
  3
ACAD_XREC_ROUNDTRIP
360
2D0F
  0
DICTIONARY
  5
2D0A
330
21CB
100
AcDbDictionary
280
     1
281
     1
  3
ACAD_XREC_ROUNDTRIP
360
2D0B
  0
DICTIONARY
  5
25A9
330
25A8
100
AcDbDictionary
280
     1
281
     1
  3
ACAD_XREC_ROUNDTRIP
360
2D11
  3
BUMPTILE
360
25AB
  3
DIFFUSETILE
360
25AA
  3
OPACITYTILE
360
25AE
  3
REFLECTIONTILE
360
25AD
  3
REFRACTIONTILE
360
25AF
  3
SPECULARTILE
360
25AC
  0
DICTIONARY
  5
25A1
330
25A0
100
AcDbDictionary
280
     1
281
     1
  3
ACAD_XREC_ROUNDTRIP
360
2D10
  3
BUMPTILE
360
25A3
  3
DIFFUSETILE
360
25A2
  3
OPACITYTILE
360
25A6
  3
REFLECTIONTILE
360
25A5
  3
REFRACTIONTILE
360
25A7
  3
SPECULARTILE
360
25A4
  0
DICTIONARY
  5
25B1
330
25B0
100
AcDbDictionary
280
     1
281
     1
  3
ACAD_XREC_ROUNDTRIP
360
2D12
  3
BUMPTILE
360
25B3
  3
DIFFUSETILE
360
25B2
  3
OPACITYTILE
360
25B6
  3
REFLECTIONTILE
360
25B5
  3
REFRACTIONTILE
360
25B7
  3
SPECULARTILE
360
25B4
  0
DICTIONARY
  5
2D44
330
25E7
100
AcDbDictionary
280
     1
281
     1
  3
ACAD_XREC_ROUNDTRIP
360
2D45
  0
DICTIONARY
  5
2D46
330
25E9
100
AcDbDictionary
280
     1
281
     1
  3
ACAD_XREC_ROUNDTRIP
360
2D47
  0
DICTIONARY
  5
260B
330
25D3
100
AcDbDictionary
280
     1
281
     1
  3
ACAD_ROUNDTRIP_2008_TABLESTYLE_CELLSTYLEMAP
360
2D07
  3
ACAD_XREC_ROUNDTRIP
360
2D43
  0
DICTIONARY
  5
2D1D
330
25BE
100
AcDbDictionary
280
     1
281
     1
  3
ACAD_XREC_ROUNDTRIP
360
2D1E
  0
DICTIONARY
  5
2D1B
330
25BD
100
AcDbDictionary
280
     1
281
     1
  3
ACAD_XREC_ROUNDTRIP
360
2D1C
  0
DICTIONARY
  5
2D29
330
25C4
100
AcDbDictionary
280
     1
281
     1
  3
ACAD_XREC_ROUNDTRIP
360
2D2A
  0
DICTIONARY
  5
2D31
330
25C8
100
AcDbDictionary
280
     1
281
     1
  3
ACAD_XREC_ROUNDTRIP
360
2D32
  0
DICTIONARY
  5
2D23
330
25C1
100
AcDbDictionary
280
     1
281
     1
  3
ACAD_XREC_ROUNDTRIP
360
2D24
  0
DICTIONARY
  5
2D27
330
25C3
100
AcDbDictionary
280
     1
281
     1
  3
ACAD_XREC_ROUNDTRIP
360
2D28
  0
DICTIONARY
  5
2D41
330
25D0
100
AcDbDictionary
280
     1
281
     1
  3
ACAD_XREC_ROUNDTRIP
360
2D42
  0
DICTIONARY
  5
2D2F
330
25C7
100
AcDbDictionary
280
     1
281
     1
  3
ACAD_XREC_ROUNDTRIP
360
2D30
  0
DICTIONARY
  5
2D13
330
25B9
100
AcDbDictionary
280
     1
281
     1
  3
ACAD_XREC_ROUNDTRIP
360
2D14
  0
DICTIONARY
  5
2D15
330
25BA
100
AcDbDictionary
280
     1
281
     1
  3
ACAD_XREC_ROUNDTRIP
360
2D16
  0
DICTIONARY
  5
2D17
330
25BB
100
AcDbDictionary
280
     1
281
     1
  3
ACAD_XREC_ROUNDTRIP
360
2D18
  0
DICTIONARY
  5
2D19
330
25BC
100
AcDbDictionary
280
     1
281
     1
  3
ACAD_XREC_ROUNDTRIP
360
2D1A
  0
DICTIONARY
  5
2D21
330
25C0
100
AcDbDictionary
280
     1
281
     1
  3
ACAD_XREC_ROUNDTRIP
360
2D22
  0
DICTIONARY
  5
2D3D
330
25CE
100
AcDbDictionary
280
     1
281
     1
  3
ACAD_XREC_ROUNDTRIP
360
2D3E
  0
DICTIONARY
  5
2D2D
330
25C6
100
AcDbDictionary
280
     1
281
     1
  3
ACAD_XREC_ROUNDTRIP
360
2D2E
  0
DICTIONARY
  5
2D3F
330
25CF
100
AcDbDictionary
280
     1
281
     1
  3
ACAD_XREC_ROUNDTRIP
360
2D40
  0
DICTIONARY
  5
2D25
330
25C2
100
AcDbDictionary
280
     1
281
     1
  3
ACAD_XREC_ROUNDTRIP
360
2D26
  0
DICTIONARY
  5
2D3B
330
25CD
100
AcDbDictionary
280
     1
281
     1
  3
ACAD_XREC_ROUNDTRIP
360
2D3C
  0
DICTIONARY
  5
2D39
330
25CC
100
AcDbDictionary
280
     1
281
     1
  3
ACAD_XREC_ROUNDTRIP
360
2D3A
  0
DICTIONARY
  5
2D33
330
25C9
100
AcDbDictionary
280
     1
281
     1
  3
ACAD_XREC_ROUNDTRIP
360
2D34
  0
DICTIONARY
  5
2D35
330
25CA
100
AcDbDictionary
280
     1
281
     1
  3
ACAD_XREC_ROUNDTRIP
360
2D36
  0
DICTIONARY
  5
2D2B
330
25C5
100
AcDbDictionary
280
     1
281
     1
  3
ACAD_XREC_ROUNDTRIP
360
2D2C
  0
DICTIONARY
  5
2D1F
330
25BF
100
AcDbDictionary
280
     1
281
     1
  3
ACAD_XREC_ROUNDTRIP
360
2D20
  0
DICTIONARY
  5
2D37
330
25CB
100
AcDbDictionary
280
     1
281
     1
  3
ACAD_XREC_ROUNDTRIP
360
2D38
  0
ACDBASSOCACTION
  5
27AB
330
27A8
100
AcDbAssocAction
 90
        1
 90
        1
330
27A8
360
27AC
 90
        1
 90
        3
 90
        3
360
27AF
360
27B0
360
27B1
  0
ACDBASSOCACTION
  5
293A
330
27A8
100
AcDbAssocAction
 90
        1
 90
        1
330
27A8
360
293B
 90
        2
 90
        3
 90
        3
360
293E
360
293F
360
2940
  0
XRECORD
  5
2D49
102
{ACAD_REACTORS
330
2D48
102
}
330
2D48
100
AcDbXrecord
280
     1
102
DISPLAYNAME
  1
Metric50
102
FLAGS
 90
        0
  0
XRECORD
  5
2D0D
102
{ACAD_REACTORS
330
2D0C
102
}
330
2D0C
100
AcDbXrecord
280
     1
102
SHADEPLOT
 70
     0
102
SHADEPLOTRESLEVEL
 70
     2
102
SHADEPLOTCUSTOMDPI
 70
   300
  0
XRECORD
  5
2D0F
102
{ACAD_REACTORS
330
2D0E
102
}
330
2D0E
100
AcDbXrecord
280
     1
102
SHADEPLOT
 70
     0
102
SHADEPLOTRESLEVEL
 70
     2
102
SHADEPLOTCUSTOMDPI
 70
   300
  0
XRECORD
  5
2D0B
102
{ACAD_REACTORS
330
2D0A
102
}
330
2D0A
100
AcDbXrecord
280
     1
102
SHADEPLOT
 70
     0
102
SHADEPLOTRESLEVEL
 70
     2
102
SHADEPLOTCUSTOMDPI
 70
   300
  0
XRECORD
  5
2D11
102
{ACAD_REACTORS
330
25A9
102
}
330
25A9
100
AcDbXrecord
280
     1
102
MATERIAL
148
0.0
149
0.0
149
0.0
 93
        0
 94
      127
282
     0
 72
     0
 77
     0
171
     0
175
     0
179
     0
273
     0
  0
XRECORD
  5
25AB
102
{ACAD_REACTORS
330
25A9
102
}
330
25A9
100
AcDbXrecord
280
     1
270
     1
271
     1
  0
XRECORD
  5
25AA
102
{ACAD_REACTORS
330
25A9
102
}
330
25A9
100
AcDbXrecord
280
     1
270
     1
271
     1
  0
XRECORD
  5
25AE
102
{ACAD_REACTORS
330
25A9
102
}
330
25A9
100
AcDbXrecord
280
     1
270
     1
271
     1
  0
XRECORD
  5
25AD
102
{ACAD_REACTORS
330
25A9
102
}
330
25A9
100
AcDbXrecord
280
     1
270
     1
271
     1
  0
XRECORD
  5
25AF
102
{ACAD_REACTORS
330
25A9
102
}
330
25A9
100
AcDbXrecord
280
     1
270
     1
271
     1
  0
XRECORD
  5
25AC
102
{ACAD_REACTORS
330
25A9
102
}
330
25A9
100
AcDbXrecord
280
     1
270
     1
271
     1
  0
XRECORD
  5
2D10
102
{ACAD_REACTORS
330
25A1
102
}
330
25A1
100
AcDbXrecord
280
     1
102
MATERIAL
148
0.0
149
0.0
149
0.0
 93
        0
 94
      127
282
     0
 72
     0
 77
     0
171
     0
175
     0
179
     0
273
     0
  0
XRECORD
  5
25A3
102
{ACAD_REACTORS
330
25A1
102
}
330
25A1
100
AcDbXrecord
280
     1
270
     1
271
     1
  0
XRECORD
  5
25A2
102
{ACAD_REACTORS
330
25A1
102
}
330
25A1
100
AcDbXrecord
280
     1
270
     1
271
     1
  0
XRECORD
  5
25A6
102
{ACAD_REACTORS
330
25A1
102
}
330
25A1
100
AcDbXrecord
280
     1
270
     1
271
     1
  0
XRECORD
  5
25A5
102
{ACAD_REACTORS
330
25A1
102
}
330
25A1
100
AcDbXrecord
280
     1
270
     1
271
     1
  0
XRECORD
  5
25A7
102
{ACAD_REACTORS
330
25A1
102
}
330
25A1
100
AcDbXrecord
280
     1
270
     1
271
     1
  0
XRECORD
  5
25A4
102
{ACAD_REACTORS
330
25A1
102
}
330
25A1
100
AcDbXrecord
280
     1
270
     1
271
     1
  0
XRECORD
  5
2D12
102
{ACAD_REACTORS
330
25B1
102
}
330
25B1
100
AcDbXrecord
280
     1
102
MATERIAL
148
0.0
149
0.0
149
0.0
 93
        0
 94
      127
282
     0
 72
     0
 77
     0
171
     0
175
     0
179
     0
273
     0
  0
XRECORD
  5
25B3
102
{ACAD_REACTORS
330
25B1
102
}
330
25B1
100
AcDbXrecord
280
     1
270
     1
271
     1
  0
XRECORD
  5
25B2
102
{ACAD_REACTORS
330
25B1
102
}
330
25B1
100
AcDbXrecord
280
     1
270
     1
271
     1
  0
XRECORD
  5
25B6
102
{ACAD_REACTORS
330
25B1
102
}
330
25B1
100
AcDbXrecord
280
     1
270
     1
271
     1
  0
XRECORD
  5
25B5
102
{ACAD_REACTORS
330
25B1
102
}
330
25B1
100
AcDbXrecord
280
     1
270
     1
271
     1
  0
XRECORD
  5
25B7
102
{ACAD_REACTORS
330
25B1
102
}
330
25B1
100
AcDbXrecord
280
     1
270
     1
271
     1
  0
XRECORD
  5
25B4
102
{ACAD_REACTORS
330
25B1
102
}
330
25B1
100
AcDbXrecord
280
     1
270
     1
271
     1
  0
XRECORD
  5
2D45
102
{ACAD_REACTORS
330
2D44
102
}
330
2D44
100
AcDbXrecord
280
     1
102
ACAD_ROUNDTRIP_2012_MLEADER_STYLE
298
     1
  0
XRECORD
  5
2D47
102
{ACAD_REACTORS
330
2D46
102
}
330
2D46
100
AcDbXrecord
280
     1
102
DISPLAYNAME
  1
Metric50
102
FLAGS
 90
        0
  0
CELLSTYLEMAP
  5
2D07
102
{ACAD_REACTORS
330
260B
102
}
330
260B
100
AcDbCellStyleMap
 90
        3
300
CELLSTYLE
  1
TABLEFORMAT_BEGIN
 90
        5
170
     1
 91
        0
 92
    32768
 62
   257
 93
        1
300
CONTENTFORMAT
  1
CONTENTFORMAT_BEGIN
 90
        0
 91
        0
 92
      512
 93
        0
300

 40
0.0
140
1.0
 94
        5
 62
     0
340
9
144
6.0
309
CONTENTFORMAT_END
171
     1
301
MARGIN
  1
CELLMARGIN_BEGIN
 40
1.5
 40
1.5
 40
1.5
 40
1.5
 40
4.5
 40
4.5
309
CELLMARGIN_END
 94
        6
 95
        1
302
GRIDFORMAT
  1
GRIDFORMAT_BEGIN
 90
        0
 91
        1
 62
     0
 92
       -2
340
0
 93
        0
 40
1.125
309
GRIDFORMAT_END
 95
        2
302
GRIDFORMAT
  1
GRIDFORMAT_BEGIN
 90
        0
 91
        1
 62
     0
 92
       -2
340
0
 93
        0
 40
1.125
309
GRIDFORMAT_END
 95
        4
302
GRIDFORMAT
  1
GRIDFORMAT_BEGIN
 90
        0
 91
        1
 62
     0
 92
       -2
340
0
 93
        0
 40
1.125
309
GRIDFORMAT_END
 95
        8
302
GRIDFORMAT
  1
GRIDFORMAT_BEGIN
 90
        0
 91
        1
 62
     0
 92
       -2
340
0
 93
        0
 40
1.125
309
GRIDFORMAT_END
 95
       16
302
GRIDFORMAT
  1
GRIDFORMAT_BEGIN
 90
        0
 91
        1
 62
     0
 92
       -2
340
0
 93
        0
 40
1.125
309
GRIDFORMAT_END
 95
       32
302
GRIDFORMAT
  1
GRIDFORMAT_BEGIN
 90
        0
 91
        1
 62
     0
 92
       -2
340
0
 93
        0
 40
1.125
309
GRIDFORMAT_END
309
TABLEFORMAT_END
  1
CELLSTYLE_BEGIN
 90
        1
 91
        1
300
_TITLE
309
CELLSTYLE_END
300
CELLSTYLE
  1
TABLEFORMAT_BEGIN
 90
        5
170
     1
 91
        0
 92
        0
 62
   257
 93
        1
300
CONTENTFORMAT
  1
CONTENTFORMAT_BEGIN
 90
        0
 91
        0
 92
      512
 93
        0
300

 40
0.0
140
1.0
 94
        5
 62
     0
340
9
144
4.5
309
CONTENTFORMAT_END
171
     1
301
MARGIN
  1
CELLMARGIN_BEGIN
 40
1.5
 40
1.5
 40
1.5
 40
1.5
 40
4.5
 40
4.5
309
CELLMARGIN_END
 94
        6
 95
        1
302
GRIDFORMAT
  1
GRIDFORMAT_BEGIN
 90
        0
 91
        1
 62
     0
 92
       -2
340
0
 93
        0
 40
1.125
309
GRIDFORMAT_END
 95
        2
302
GRIDFORMAT
  1
GRIDFORMAT_BEGIN
 90
        0
 91
        1
 62
     0
 92
       -2
340
0
 93
        0
 40
1.125
309
GRIDFORMAT_END
 95
        4
302
GRIDFORMAT
  1
GRIDFORMAT_BEGIN
 90
        0
 91
        1
 62
     0
 92
       -2
340
0
 93
        0
 40
1.125
309
GRIDFORMAT_END
 95
        8
302
GRIDFORMAT
  1
GRIDFORMAT_BEGIN
 90
        0
 91
        1
 62
     0
 92
       -2
340
0
 93
        0
 40
1.125
309
GRIDFORMAT_END
 95
       16
302
GRIDFORMAT
  1
GRIDFORMAT_BEGIN
 90
        0
 91
        1
 62
     0
 92
       -2
340
0
 93
        0
 40
1.125
309
GRIDFORMAT_END
 95
       32
302
GRIDFORMAT
  1
GRIDFORMAT_BEGIN
 90
        0
 91
        1
 62
     0
 92
       -2
340
0
 93
        0
 40
1.125
309
GRIDFORMAT_END
309
TABLEFORMAT_END
  1
CELLSTYLE_BEGIN
 90
        2
 91
        1
300
_HEADER
309
CELLSTYLE_END
300
CELLSTYLE
  1
TABLEFORMAT_BEGIN
 90
        5
170
     1
 91
        0
 92
        0
 62
   257
 93
        1
300
CONTENTFORMAT
  1
CONTENTFORMAT_BEGIN
 90
        0
 91
        0
 92
      512
 93
        0
300

 40
0.0
140
1.0
 94
        2
 62
     0
340
9
144
4.5
309
CONTENTFORMAT_END
171
     1
301
MARGIN
  1
CELLMARGIN_BEGIN
 40
1.5
 40
1.5
 40
1.5
 40
1.5
 40
4.5
 40
4.5
309
CELLMARGIN_END
 94
        6
 95
        1
302
GRIDFORMAT
  1
GRIDFORMAT_BEGIN
 90
        0
 91
        1
 62
     0
 92
       -2
340
0
 93
        0
 40
1.125
309
GRIDFORMAT_END
 95
        2
302
GRIDFORMAT
  1
GRIDFORMAT_BEGIN
 90
        0
 91
        1
 62
     0
 92
       -2
340
0
 93
        0
 40
1.125
309
GRIDFORMAT_END
 95
        4
302
GRIDFORMAT
  1
GRIDFORMAT_BEGIN
 90
        0
 91
        1
 62
     0
 92
       -2
340
0
 93
        0
 40
1.125
309
GRIDFORMAT_END
 95
        8
302
GRIDFORMAT
  1
GRIDFORMAT_BEGIN
 90
        0
 91
        1
 62
     0
 92
       -2
340
0
 93
        0
 40
1.125
309
GRIDFORMAT_END
 95
       16
302
GRIDFORMAT
  1
GRIDFORMAT_BEGIN
 90
        0
 91
        1
 62
     0
 92
       -2
340
0
 93
        0
 40
1.125
309
GRIDFORMAT_END
 95
       32
302
GRIDFORMAT
  1
GRIDFORMAT_BEGIN
 90
        0
 91
        1
 62
     0
 92
       -2
340
0
 93
        0
 40
1.125
309
GRIDFORMAT_END
309
TABLEFORMAT_END
  1
CELLSTYLE_BEGIN
 90
        3
 91
        2
300
_DATA
309
CELLSTYLE_END
  0
XRECORD
  5
2D43
102
{ACAD_REACTORS
330
260B
102
}
330
260B
100
AcDbXrecord
280
     1
102
ACAD_ROUNDTRIP_PRE2007_TABLESTYLE
 90
      512
 91
        0
  1

 92
      512
 93
        0
  2

 94
      512
 95
        0
  3

  0
XRECORD
  5
2D1E
102
{ACAD_REACTORS
330
2D1D
102
}
330
2D1D
100
AcDbXrecord
280
     1
102
RTVSPost2010Prop28
280
     1
102
RTVSPost2010PropOp28
 70
     1
102
RTVSPost2010Prop29
280
     1
102
RTVSPost2010PropOp29
 70
     1
102
RTVSPost2010Prop30
280
     0
102
RTVSPost2010PropOp30
 70
     1
102
RTVSPost2010Prop31
280
     0
102
RTVSPost2010PropOp31
 70
     1
102
RTVSPost2010Prop32
280
     0
102
RTVSPost2010PropOp32
 70
     1
102
RTVSPost2010Prop33
280
     0
102
RTVSPost2010PropOp33
 70
     1
102
RTVSPost2010Prop34
280
     0
102
RTVSPost2010PropOp34
 70
     1
102
RTVSPost2010Prop35
280
     0
102
RTVSPost2010PropOp35
 70
     1
102
RTVSPost2010Prop36
280
     0
102
RTVSPost2010PropOp36
 70
     1
102
RTVSPost2010Prop37
 90
       50
102
RTVSPost2010PropOp37
 70
     1
102
RTVSPost2010Prop38
140
0.0
102
RTVSPost2010PropOp38
 70
     1
102
RTVSPost2010Prop39
140
1.0
102
RTVSPost2010PropOp39
 70
     1
102
RTVSPost2010Prop40
 90
        0
102
RTVSPost2010PropOp40
 70
     1
102
RTVSPost2010Prop41ColorIndex
 90
       18
102
RTVSPost2010Prop41ColorRGB
 90
        0
102
RTVSPost2010PropOp41
 70
     1
102
RTVSPost2010Prop42
 90
       50
102
RTVSPost2010PropOp42
 70
     1
102
RTVSPost2010Prop43
 90
        3
102
RTVSPost2010PropOp43
 70
     1
102
RTVSPost2010Prop44ColorIndex
 90
        5
102
RTVSPost2010Prop44ColorRGB
 90
      255
102
RTVSPost2010PropOp44
 70
     1
102
RTVSPost2010Prop45
280
     0
102
RTVSPost2010PropOp45
 70
     1
102
RTVSPost2010Prop46
 90
       50
102
RTVSPost2010PropOp46
 70
     1
102
RTVSPost2010Prop47
 90
       50
102
RTVSPost2010PropOp47
 70
     1
102
RTVSPost2010Prop48
 90
       50
102
RTVSPost2010PropOp48
 70
     1
102
RTVSPost2010Prop49
280
     0
102
RTVSPost2010PropOp49
 70
     1
102
RTVSPost2010Prop50
 90
       50
102
RTVSPost2010PropOp50
 70
     1
102
RTVSPost2010Prop51ColorIndex
 90
      256
102
RTVSPost2010Prop51ColorRGB
 90
-16777216
102
RTVSPost2010PropOp51
 70
     0
102
RTVSPost2010Prop52
140
1.0
102
RTVSPost2010PropOp52
 70
     0
102
RTVSPost2010Prop53
 90
        2
102
RTVSPost2010PropOp53
 70
     1
102
RTVSPost2010Prop54
  1
strokes_ogs.tif
102
RTVSPost2010PropOp54
 70
     1
102
RTVSPost2010Prop55
280
     0
102
RTVSPost2010PropOp55
 70
     1
102
RTVSPost2010Prop56
140
1.0
102
RTVSPost2010PropOp56
 70
     1
102
RTVSPost2010Prop57
140
1.0
102
RTVSPost2010PropOp57
 70
     1
102
RTVSPropertyOp0
 70
     1
102
RTVSPropertyOp1
 70
     1
102
RTVSPropertyOp2
 70
     1
102
RTVSPropertyOp3
 70
     1
102
RTVSPropertyOp4
 70
     1
102
RTVSPropertyOp5
 70
     1
102
RTVSPropertyOp6
 70
     1
102
RTVSPropertyOp7
 70
     1
102
RTVSPropertyOp8
 70
     1
102
RTVSPropertyOp9
 70
     1
102
RTVSPropertyOp10
 70
     1
102
RTVSPropertyOp11
 70
     1
102
RTVSPropertyOp12
 70
     1
102
RTVSPropertyOp13
 70
     1
102
RTVSPropertyOp14
 70
     1
102
RTVSPropertyOp15
 70
     1
102
RTVSPropertyOp16
 70
     1
102
RTVSPropertyOp17
 70
     1
102
RTVSPropertyOp18
 70
     1
102
RTVSPropertyOp19
 70
     1
102
RTVSPropertyOp20
 70
     1
102
RTVSPropertyOp21
 70
     1
102
RTVSPropertyOp22
 70
     1
102
RTVSPropertyOp23
 70
     1
102
RTVSPropertyOp24
 70
     1
102
RTVSPropertyOp25
 70
     1
102
RTVSPropertyOp26
 70
     1
102
RTVSPropertyOp27
 70
     1
102
RTVSPropertyOp28
 70
     1
102
RTVSPropertyOp29
 70
     1
102
RTVSPropertyOp30
 70
     1
102
RTVSPropertyOp31
 70
     1
102
RTVSPropertyOp32
 70
     1
102
RTVSPropertyOp33
 70
     1
102
RTVSPropertyOp34
 70
     1
102
RTVSPropertyOp35
 70
     1
102
RTVSPropertyOp36
 70
     1
102
RTVSPropertyOp37
 70
     1
102
RTVSPropertyOp38
 70
     1
102
RTVSPropertyOp39
 70
     1
102
RTVSPropertyOp40
 70
     1
102
RTVSPropertyOp41
 70
     1
102
RTVSPropertyOp42
 70
     1
102
RTVSPropertyOp43
 70
     1
102
RTVSPropertyOp44
 70
     1
102
RTVSPropertyOp45
 70
     1
102
RTVSPropertyOp46
 70
     1
102
RTVSPropertyOp47
 70
     1
102
RTVSPropertyOp48
 70
     1
102
RTVSPropertyOp49
 70
     1
102
RTVSPropertyOp50
 70
     1
102
RTVSPropertyOp51
 70
     0
102
RTVSPropertyOp52
 70
     0
102
RTVSPropertyOp53
 70
     1
102
RTVSPropertyOp54
 70
     1
102
RTVSPropertyOp55
 70
     1
102
RTVSPropertyOp56
 70
     1
102
RTVSPropertyOp57
 70
     1
102
RTVSPropertyOp58
 70
     1
102
RTVSPropertyOp59
 70
     1
102
RTVSPropertyOp60
 70
     1
102
RTVSPropertyOp61
 70
     1
102
RTVSPropertyOp62
 70
     1
  0
XRECORD
  5
2D1C
102
{ACAD_REACTORS
330
2D1B
102
}
330
2D1B
100
AcDbXrecord
280
     1
102
RTVSPost2010Prop28
280
     0
102
RTVSPost2010PropOp28
 70
     1
102
RTVSPost2010Prop29
280
     1
102
RTVSPost2010PropOp29
 70
     1
102
RTVSPost2010Prop30
280
     1
102
RTVSPost2010PropOp30
 70
     1
102
RTVSPost2010Prop31
280
     0
102
RTVSPost2010PropOp31
 70
     1
102
RTVSPost2010Prop32
280
     0
102
RTVSPost2010PropOp32
 70
     1
102
RTVSPost2010Prop33
280
     0
102
RTVSPost2010PropOp33
 70
     1
102
RTVSPost2010Prop34
280
     0
102
RTVSPost2010PropOp34
 70
     1
102
RTVSPost2010Prop35
280
     0
102
RTVSPost2010PropOp35
 70
     1
102
RTVSPost2010Prop36
280
     0
102
RTVSPost2010PropOp36
 70
     1
102
RTVSPost2010Prop37
 90
       50
102
RTVSPost2010PropOp37
 70
     1
102
RTVSPost2010Prop38
140
0.0
102
RTVSPost2010PropOp38
 70
     1
102
RTVSPost2010Prop39
140
1.0
102
RTVSPost2010PropOp39
 70
     1
102
RTVSPost2010Prop40
 90
        0
102
RTVSPost2010PropOp40
 70
     1
102
RTVSPost2010Prop41ColorIndex
 90
       18
102
RTVSPost2010Prop41ColorRGB
 90
        0
102
RTVSPost2010PropOp41
 70
     1
102
RTVSPost2010Prop42
 90
       50
102
RTVSPost2010PropOp42
 70
     1
102
RTVSPost2010Prop43
 90
        3
102
RTVSPost2010PropOp43
 70
     1
102
RTVSPost2010Prop44ColorIndex
 90
        5
102
RTVSPost2010Prop44ColorRGB
 90
      255
102
RTVSPost2010PropOp44
 70
     1
102
RTVSPost2010Prop45
280
     0
102
RTVSPost2010PropOp45
 70
     1
102
RTVSPost2010Prop46
 90
       50
102
RTVSPost2010PropOp46
 70
     1
102
RTVSPost2010Prop47
 90
       50
102
RTVSPost2010PropOp47
 70
     1
102
RTVSPost2010Prop48
 90
       50
102
RTVSPost2010PropOp48
 70
     1
102
RTVSPost2010Prop49
280
     0
102
RTVSPost2010PropOp49
 70
     1
102
RTVSPost2010Prop50
 90
       50
102
RTVSPost2010PropOp50
 70
     1
102
RTVSPost2010Prop51ColorIndex
 90
      256
102
RTVSPost2010Prop51ColorRGB
 90
-16777216
102
RTVSPost2010PropOp51
 70
     0
102
RTVSPost2010Prop52
140
1.0
102
RTVSPost2010PropOp52
 70
     0
102
RTVSPost2010Prop53
 90
        2
102
RTVSPost2010PropOp53
 70
     1
102
RTVSPost2010Prop54
  1
strokes_ogs.tif
102
RTVSPost2010PropOp54
 70
     1
102
RTVSPost2010Prop55
280
     0
102
RTVSPost2010PropOp55
 70
     1
102
RTVSPost2010Prop56
140
1.0
102
RTVSPost2010PropOp56
 70
     1
102
RTVSPost2010Prop57
140
1.0
102
RTVSPost2010PropOp57
 70
     1
102
RTVSPropertyOp0
 70
     1
102
RTVSPropertyOp1
 70
     1
102
RTVSPropertyOp2
 70
     1
102
RTVSPropertyOp3
 70
     1
102
RTVSPropertyOp4
 70
     1
102
RTVSPropertyOp5
 70
     1
102
RTVSPropertyOp6
 70
     1
102
RTVSPropertyOp7
 70
     1
102
RTVSPropertyOp8
 70
     1
102
RTVSPropertyOp9
 70
     1
102
RTVSPropertyOp10
 70
     1
102
RTVSPropertyOp11
 70
     1
102
RTVSPropertyOp12
 70
     1
102
RTVSPropertyOp13
 70
     1
102
RTVSPropertyOp14
 70
     1
102
RTVSPropertyOp15
 70
     1
102
RTVSPropertyOp16
 70
     1
102
RTVSPropertyOp17
 70
     1
102
RTVSPropertyOp18
 70
     1
102
RTVSPropertyOp19
 70
     1
102
RTVSPropertyOp20
 70
     1
102
RTVSPropertyOp21
 70
     1
102
RTVSPropertyOp22
 70
     1
102
RTVSPropertyOp23
 70
     1
102
RTVSPropertyOp24
 70
     1
102
RTVSPropertyOp25
 70
     1
102
RTVSPropertyOp26
 70
     1
102
RTVSPropertyOp27
 70
     1
102
RTVSPropertyOp28
 70
     1
102
RTVSPropertyOp29
 70
     1
102
RTVSPropertyOp30
 70
     1
102
RTVSPropertyOp31
 70
     1
102
RTVSPropertyOp32
 70
     1
102
RTVSPropertyOp33
 70
     1
102
RTVSPropertyOp34
 70
     1
102
RTVSPropertyOp35
 70
     1
102
RTVSPropertyOp36
 70
     1
102
RTVSPropertyOp37
 70
     1
102
RTVSPropertyOp38
 70
     1
102
RTVSPropertyOp39
 70
     1
102
RTVSPropertyOp40
 70
     1
102
RTVSPropertyOp41
 70
     1
102
RTVSPropertyOp42
 70
     1
102
RTVSPropertyOp43
 70
     1
102
RTVSPropertyOp44
 70
     1
102
RTVSPropertyOp45
 70
     1
102
RTVSPropertyOp46
 70
     1
102
RTVSPropertyOp47
 70
     1
102
RTVSPropertyOp48
 70
     1
102
RTVSPropertyOp49
 70
     1
102
RTVSPropertyOp50
 70
     1
102
RTVSPropertyOp51
 70
     0
102
RTVSPropertyOp52
 70
     0
102
RTVSPropertyOp53
 70
     1
102
RTVSPropertyOp54
 70
     1
102
RTVSPropertyOp55
 70
     1
102
RTVSPropertyOp56
 70
     1
102
RTVSPropertyOp57
 70
     1
102
RTVSPropertyOp58
 70
     1
102
RTVSPropertyOp59
 70
     1
102
RTVSPropertyOp60
 70
     1
102
RTVSPropertyOp61
 70
     1
102
RTVSPropertyOp62
 70
     1
  0
XRECORD
  5
2D2A
102
{ACAD_REACTORS
330
2D29
102
}
330
2D29
100
AcDbXrecord
280
     1
102
RTVSPost2010Prop28
280
     0
102
RTVSPost2010PropOp28
 70
     1
102
RTVSPost2010Prop29
280
     1
102
RTVSPost2010PropOp29
 70
     1
102
RTVSPost2010Prop30
280
     1
102
RTVSPost2010PropOp30
 70
     1
102
RTVSPost2010Prop31
280
     0
102
RTVSPost2010PropOp31
 70
     1
102
RTVSPost2010Prop32
280
     0
102
RTVSPost2010PropOp32
 70
     1
102
RTVSPost2010Prop33
280
     0
102
RTVSPost2010PropOp33
 70
     1
102
RTVSPost2010Prop34
280
     0
102
RTVSPost2010PropOp34
 70
     1
102
RTVSPost2010Prop35
280
     0
102
RTVSPost2010PropOp35
 70
     1
102
RTVSPost2010Prop36
280
     0
102
RTVSPost2010PropOp36
 70
     1
102
RTVSPost2010Prop37
 90
       50
102
RTVSPost2010PropOp37
 70
     1
102
RTVSPost2010Prop38
140
0.0
102
RTVSPost2010PropOp38
 70
     1
102
RTVSPost2010Prop39
140
1.0
102
RTVSPost2010PropOp39
 70
     1
102
RTVSPost2010Prop40
 90
        0
102
RTVSPost2010PropOp40
 70
     1
102
RTVSPost2010Prop41ColorIndex
 90
       18
102
RTVSPost2010Prop41ColorRGB
 90
        0
102
RTVSPost2010PropOp41
 70
     1
102
RTVSPost2010Prop42
 90
       50
102
RTVSPost2010PropOp42
 70
     1
102
RTVSPost2010Prop43
 90
        3
102
RTVSPost2010PropOp43
 70
     1
102
RTVSPost2010Prop44ColorIndex
 90
        5
102
RTVSPost2010Prop44ColorRGB
 90
      255
102
RTVSPost2010PropOp44
 70
     1
102
RTVSPost2010Prop45
280
     0
102
RTVSPost2010PropOp45
 70
     1
102
RTVSPost2010Prop46
 90
       50
102
RTVSPost2010PropOp46
 70
     1
102
RTVSPost2010Prop47
 90
       50
102
RTVSPost2010PropOp47
 70
     1
102
RTVSPost2010Prop48
 90
       50
102
RTVSPost2010PropOp48
 70
     1
102
RTVSPost2010Prop49
280
     0
102
RTVSPost2010PropOp49
 70
     1
102
RTVSPost2010Prop50
 90
       50
102
RTVSPost2010PropOp50
 70
     1
102
RTVSPost2010Prop51ColorIndex
 90
      256
102
RTVSPost2010Prop51ColorRGB
 90
-16777216
102
RTVSPost2010PropOp51
 70
     0
102
RTVSPost2010Prop52
140
1.0
102
RTVSPost2010PropOp52
 70
     0
102
RTVSPost2010Prop53
 90
        2
102
RTVSPost2010PropOp53
 70
     1
102
RTVSPost2010Prop54
  1
strokes_ogs.tif
102
RTVSPost2010PropOp54
 70
     1
102
RTVSPost2010Prop55
280
     0
102
RTVSPost2010PropOp55
 70
     1
102
RTVSPost2010Prop56
140
1.0
102
RTVSPost2010PropOp56
 70
     1
102
RTVSPost2010Prop57
140
1.0
102
RTVSPost2010PropOp57
 70
     1
102
RTVSPropertyOp0
 70
     1
102
RTVSPropertyOp1
 70
     1
102
RTVSPropertyOp2
 70
     1
102
RTVSPropertyOp3
 70
     1
102
RTVSPropertyOp4
 70
     1
102
RTVSPropertyOp5
 70
     1
102
RTVSPropertyOp6
 70
     1
102
RTVSPropertyOp7
 70
     1
102
RTVSPropertyOp8
 70
     1
102
RTVSPropertyOp9
 70
     1
102
RTVSPropertyOp10
 70
     1
102
RTVSPropertyOp11
 70
     1
102
RTVSPropertyOp12
 70
     1
102
RTVSPropertyOp13
 70
     1
102
RTVSPropertyOp14
 70
     1
102
RTVSPropertyOp15
 70
     1
102
RTVSPropertyOp16
 70
     1
102
RTVSPropertyOp17
 70
     1
102
RTVSPropertyOp18
 70
     1
102
RTVSPropertyOp19
 70
     1
102
RTVSPropertyOp20
 70
     1
102
RTVSPropertyOp21
 70
     1
102
RTVSPropertyOp22
 70
     1
102
RTVSPropertyOp23
 70
     1
102
RTVSPropertyOp24
 70
     1
102
RTVSPropertyOp25
 70
     1
102
RTVSPropertyOp26
 70
     1
102
RTVSPropertyOp27
 70
     1
102
RTVSPropertyOp28
 70
     1
102
RTVSPropertyOp29
 70
     1
102
RTVSPropertyOp30
 70
     1
102
RTVSPropertyOp31
 70
     1
102
RTVSPropertyOp32
 70
     1
102
RTVSPropertyOp33
 70
     1
102
RTVSPropertyOp34
 70
     1
102
RTVSPropertyOp35
 70
     1
102
RTVSPropertyOp36
 70
     1
102
RTVSPropertyOp37
 70
     1
102
RTVSPropertyOp38
 70
     1
102
RTVSPropertyOp39
 70
     1
102
RTVSPropertyOp40
 70
     1
102
RTVSPropertyOp41
 70
     1
102
RTVSPropertyOp42
 70
     1
102
RTVSPropertyOp43
 70
     1
102
RTVSPropertyOp44
 70
     1
102
RTVSPropertyOp45
 70
     1
102
RTVSPropertyOp46
 70
     1
102
RTVSPropertyOp47
 70
     1
102
RTVSPropertyOp48
 70
     1
102
RTVSPropertyOp49
 70
     1
102
RTVSPropertyOp50
 70
     1
102
RTVSPropertyOp51
 70
     0
102
RTVSPropertyOp52
 70
     0
102
RTVSPropertyOp53
 70
     1
102
RTVSPropertyOp54
 70
     1
102
RTVSPropertyOp55
 70
     1
102
RTVSPropertyOp56
 70
     1
102
RTVSPropertyOp57
 70
     1
102
RTVSPropertyOp58
 70
     1
102
RTVSPropertyOp59
 70
     1
102
RTVSPropertyOp60
 70
     1
102
RTVSPropertyOp61
 70
     1
102
RTVSPropertyOp62
 70
     1
  0
XRECORD
  5
2D32
102
{ACAD_REACTORS
330
2D31
102
}
330
2D31
100
AcDbXrecord
280
     1
102
RTVSPost2010Prop28
280
     0
102
RTVSPost2010PropOp28
 70
     1
102
RTVSPost2010Prop29
280
     1
102
RTVSPost2010PropOp29
 70
     1
102
RTVSPost2010Prop30
280
     1
102
RTVSPost2010PropOp30
 70
     1
102
RTVSPost2010Prop31
280
     0
102
RTVSPost2010PropOp31
 70
     1
102
RTVSPost2010Prop32
280
     0
102
RTVSPost2010PropOp32
 70
     1
102
RTVSPost2010Prop33
280
     0
102
RTVSPost2010PropOp33
 70
     1
102
RTVSPost2010Prop34
280
     0
102
RTVSPost2010PropOp34
 70
     1
102
RTVSPost2010Prop35
280
     0
102
RTVSPost2010PropOp35
 70
     1
102
RTVSPost2010Prop36
280
     0
102
RTVSPost2010PropOp36
 70
     1
102
RTVSPost2010Prop37
 90
       50
102
RTVSPost2010PropOp37
 70
     1
102
RTVSPost2010Prop38
140
0.0
102
RTVSPost2010PropOp38
 70
     1
102
RTVSPost2010Prop39
140
1.0
102
RTVSPost2010PropOp39
 70
     1
102
RTVSPost2010Prop40
 90
        0
102
RTVSPost2010PropOp40
 70
     1
102
RTVSPost2010Prop41ColorIndex
 90
       18
102
RTVSPost2010Prop41ColorRGB
 90
        0
102
RTVSPost2010PropOp41
 70
     1
102
RTVSPost2010Prop42
 90
       50
102
RTVSPost2010PropOp42
 70
     1
102
RTVSPost2010Prop43
 90
        3
102
RTVSPost2010PropOp43
 70
     1
102
RTVSPost2010Prop44ColorIndex
 90
        5
102
RTVSPost2010Prop44ColorRGB
 90
      255
102
RTVSPost2010PropOp44
 70
     1
102
RTVSPost2010Prop45
280
     0
102
RTVSPost2010PropOp45
 70
     1
102
RTVSPost2010Prop46
 90
       50
102
RTVSPost2010PropOp46
 70
     1
102
RTVSPost2010Prop47
 90
       50
102
RTVSPost2010PropOp47
 70
     1
102
RTVSPost2010Prop48
 90
       50
102
RTVSPost2010PropOp48
 70
     1
102
RTVSPost2010Prop49
280
     0
102
RTVSPost2010PropOp49
 70
     1
102
RTVSPost2010Prop50
 90
       50
102
RTVSPost2010PropOp50
 70
     1
102
RTVSPost2010Prop51ColorIndex
 90
      256
102
RTVSPost2010Prop51ColorRGB
 90
-16777216
102
RTVSPost2010PropOp51
 70
     0
102
RTVSPost2010Prop52
140
1.0
102
RTVSPost2010PropOp52
 70
     0
102
RTVSPost2010Prop53
 90
        2
102
RTVSPost2010PropOp53
 70
     1
102
RTVSPost2010Prop54
  1
strokes_ogs.tif
102
RTVSPost2010PropOp54
 70
     1
102
RTVSPost2010Prop55
280
     0
102
RTVSPost2010PropOp55
 70
     1
102
RTVSPost2010Prop56
140
1.0
102
RTVSPost2010PropOp56
 70
     1
102
RTVSPost2010Prop57
140
1.0
102
RTVSPost2010PropOp57
 70
     1
102
RTVSPropertyOp0
 70
     1
102
RTVSPropertyOp1
 70
     1
102
RTVSPropertyOp2
 70
     1
102
RTVSPropertyOp3
 70
     1
102
RTVSPropertyOp4
 70
     1
102
RTVSPropertyOp5
 70
     1
102
RTVSPropertyOp6
 70
     1
102
RTVSPropertyOp7
 70
     1
102
RTVSPropertyOp8
 70
     1
102
RTVSPropertyOp9
 70
     1
102
RTVSPropertyOp10
 70
     1
102
RTVSPropertyOp11
 70
     1
102
RTVSPropertyOp12
 70
     1
102
RTVSPropertyOp13
 70
     1
102
RTVSPropertyOp14
 70
     1
102
RTVSPropertyOp15
 70
     1
102
RTVSPropertyOp16
 70
     1
102
RTVSPropertyOp17
 70
     1
102
RTVSPropertyOp18
 70
     1
102
RTVSPropertyOp19
 70
     1
102
RTVSPropertyOp20
 70
     1
102
RTVSPropertyOp21
 70
     1
102
RTVSPropertyOp22
 70
     1
102
RTVSPropertyOp23
 70
     1
102
RTVSPropertyOp24
 70
     1
102
RTVSPropertyOp25
 70
     1
102
RTVSPropertyOp26
 70
     1
102
RTVSPropertyOp27
 70
     1
102
RTVSPropertyOp28
 70
     1
102
RTVSPropertyOp29
 70
     1
102
RTVSPropertyOp30
 70
     1
102
RTVSPropertyOp31
 70
     1
102
RTVSPropertyOp32
 70
     1
102
RTVSPropertyOp33
 70
     1
102
RTVSPropertyOp34
 70
     1
102
RTVSPropertyOp35
 70
     1
102
RTVSPropertyOp36
 70
     1
102
RTVSPropertyOp37
 70
     1
102
RTVSPropertyOp38
 70
     1
102
RTVSPropertyOp39
 70
     1
102
RTVSPropertyOp40
 70
     1
102
RTVSPropertyOp41
 70
     1
102
RTVSPropertyOp42
 70
     1
102
RTVSPropertyOp43
 70
     1
102
RTVSPropertyOp44
 70
     1
102
RTVSPropertyOp45
 70
     1
102
RTVSPropertyOp46
 70
     1
102
RTVSPropertyOp47
 70
     1
102
RTVSPropertyOp48
 70
     1
102
RTVSPropertyOp49
 70
     1
102
RTVSPropertyOp50
 70
     1
102
RTVSPropertyOp51
 70
     0
102
RTVSPropertyOp52
 70
     0
102
RTVSPropertyOp53
 70
     1
102
RTVSPropertyOp54
 70
     1
102
RTVSPropertyOp55
 70
     1
102
RTVSPropertyOp56
 70
     1
102
RTVSPropertyOp57
 70
     1
102
RTVSPropertyOp58
 70
     1
102
RTVSPropertyOp59
 70
     1
102
RTVSPropertyOp60
 70
     1
102
RTVSPropertyOp61
 70
     1
102
RTVSPropertyOp62
 70
     1
  0
XRECORD
  5
2D24
102
{ACAD_REACTORS
330
2D23
102
}
330
2D23
100
AcDbXrecord
280
     1
102
RTVSPost2010Prop28
280
     0
102
RTVSPost2010PropOp28
 70
     1
102
RTVSPost2010Prop29
280
     1
102
RTVSPost2010PropOp29
 70
     1
102
RTVSPost2010Prop30
280
     1
102
RTVSPost2010PropOp30
 70
     1
102
RTVSPost2010Prop31
280
     0
102
RTVSPost2010PropOp31
 70
     1
102
RTVSPost2010Prop32
280
     0
102
RTVSPost2010PropOp32
 70
     1
102
RTVSPost2010Prop33
280
     0
102
RTVSPost2010PropOp33
 70
     1
102
RTVSPost2010Prop34
280
     0
102
RTVSPost2010PropOp34
 70
     1
102
RTVSPost2010Prop35
280
     0
102
RTVSPost2010PropOp35
 70
     1
102
RTVSPost2010Prop36
280
     0
102
RTVSPost2010PropOp36
 70
     1
102
RTVSPost2010Prop37
 90
       50
102
RTVSPost2010PropOp37
 70
     1
102
RTVSPost2010Prop38
140
0.0
102
RTVSPost2010PropOp38
 70
     1
102
RTVSPost2010Prop39
140
1.0
102
RTVSPost2010PropOp39
 70
     1
102
RTVSPost2010Prop40
 90
        0
102
RTVSPost2010PropOp40
 70
     1
102
RTVSPost2010Prop41ColorIndex
 90
       18
102
RTVSPost2010Prop41ColorRGB
 90
        0
102
RTVSPost2010PropOp41
 70
     1
102
RTVSPost2010Prop42
 90
       50
102
RTVSPost2010PropOp42
 70
     1
102
RTVSPost2010Prop43
 90
        3
102
RTVSPost2010PropOp43
 70
     1
102
RTVSPost2010Prop44ColorIndex
 90
        5
102
RTVSPost2010Prop44ColorRGB
 90
      255
102
RTVSPost2010PropOp44
 70
     1
102
RTVSPost2010Prop45
280
     0
102
RTVSPost2010PropOp45
 70
     1
102
RTVSPost2010Prop46
 90
       50
102
RTVSPost2010PropOp46
 70
     1
102
RTVSPost2010Prop47
 90
       50
102
RTVSPost2010PropOp47
 70
     1
102
RTVSPost2010Prop48
 90
       50
102
RTVSPost2010PropOp48
 70
     1
102
RTVSPost2010Prop49
280
     0
102
RTVSPost2010PropOp49
 70
     1
102
RTVSPost2010Prop50
 90
       50
102
RTVSPost2010PropOp50
 70
     1
102
RTVSPost2010Prop51ColorIndex
 90
      256
102
RTVSPost2010Prop51ColorRGB
 90
-16777216
102
RTVSPost2010PropOp51
 70
     0
102
RTVSPost2010Prop52
140
1.0
102
RTVSPost2010PropOp52
 70
     0
102
RTVSPost2010Prop53
 90
        2
102
RTVSPost2010PropOp53
 70
     1
102
RTVSPost2010Prop54
  1
strokes_ogs.tif
102
RTVSPost2010PropOp54
 70
     1
102
RTVSPost2010Prop55
280
     0
102
RTVSPost2010PropOp55
 70
     1
102
RTVSPost2010Prop56
140
1.0
102
RTVSPost2010PropOp56
 70
     1
102
RTVSPost2010Prop57
140
1.0
102
RTVSPost2010PropOp57
 70
     1
102
RTVSPropertyOp0
 70
     1
102
RTVSPropertyOp1
 70
     1
102
RTVSPropertyOp2
 70
     1
102
RTVSPropertyOp3
 70
     1
102
RTVSPropertyOp4
 70
     1
102
RTVSPropertyOp5
 70
     1
102
RTVSPropertyOp6
 70
     1
102
RTVSPropertyOp7
 70
     1
102
RTVSPropertyOp8
 70
     1
102
RTVSPropertyOp9
 70
     1
102
RTVSPropertyOp10
 70
     1
102
RTVSPropertyOp11
 70
     1
102
RTVSPropertyOp12
 70
     1
102
RTVSPropertyOp13
 70
     1
102
RTVSPropertyOp14
 70
     1
102
RTVSPropertyOp15
 70
     1
102
RTVSPropertyOp16
 70
     1
102
RTVSPropertyOp17
 70
     1
102
RTVSPropertyOp18
 70
     1
102
RTVSPropertyOp19
 70
     1
102
RTVSPropertyOp20
 70
     1
102
RTVSPropertyOp21
 70
     1
102
RTVSPropertyOp22
 70
     1
102
RTVSPropertyOp23
 70
     1
102
RTVSPropertyOp24
 70
     1
102
RTVSPropertyOp25
 70
     1
102
RTVSPropertyOp26
 70
     1
102
RTVSPropertyOp27
 70
     1
102
RTVSPropertyOp28
 70
     1
102
RTVSPropertyOp29
 70
     1
102
RTVSPropertyOp30
 70
     1
102
RTVSPropertyOp31
 70
     1
102
RTVSPropertyOp32
 70
     1
102
RTVSPropertyOp33
 70
     1
102
RTVSPropertyOp34
 70
     1
102
RTVSPropertyOp35
 70
     1
102
RTVSPropertyOp36
 70
     1
102
RTVSPropertyOp37
 70
     1
102
RTVSPropertyOp38
 70
     1
102
RTVSPropertyOp39
 70
     1
102
RTVSPropertyOp40
 70
     1
102
RTVSPropertyOp41
 70
     1
102
RTVSPropertyOp42
 70
     1
102
RTVSPropertyOp43
 70
     1
102
RTVSPropertyOp44
 70
     1
102
RTVSPropertyOp45
 70
     1
102
RTVSPropertyOp46
 70
     1
102
RTVSPropertyOp47
 70
     1
102
RTVSPropertyOp48
 70
     1
102
RTVSPropertyOp49
 70
     1
102
RTVSPropertyOp50
 70
     1
102
RTVSPropertyOp51
 70
     0
102
RTVSPropertyOp52
 70
     0
102
RTVSPropertyOp53
 70
     1
102
RTVSPropertyOp54
 70
     1
102
RTVSPropertyOp55
 70
     1
102
RTVSPropertyOp56
 70
     1
102
RTVSPropertyOp57
 70
     1
102
RTVSPropertyOp58
 70
     1
102
RTVSPropertyOp59
 70
     1
102
RTVSPropertyOp60
 70
     1
102
RTVSPropertyOp61
 70
     1
102
RTVSPropertyOp62
 70
     1
  0
XRECORD
  5
2D28
102
{ACAD_REACTORS
330
2D27
102
}
330
2D27
100
AcDbXrecord
280
     1
102
RTVSPost2010Prop28
280
     0
102
RTVSPost2010PropOp28
 70
     1
102
RTVSPost2010Prop29
280
     1
102
RTVSPost2010PropOp29
 70
     1
102
RTVSPost2010Prop30
280
     1
102
RTVSPost2010PropOp30
 70
     1
102
RTVSPost2010Prop31
280
     0
102
RTVSPost2010PropOp31
 70
     1
102
RTVSPost2010Prop32
280
     0
102
RTVSPost2010PropOp32
 70
     1
102
RTVSPost2010Prop33
280
     0
102
RTVSPost2010PropOp33
 70
     1
102
RTVSPost2010Prop34
280
     0
102
RTVSPost2010PropOp34
 70
     1
102
RTVSPost2010Prop35
280
     0
102
RTVSPost2010PropOp35
 70
     1
102
RTVSPost2010Prop36
280
     0
102
RTVSPost2010PropOp36
 70
     1
102
RTVSPost2010Prop37
 90
       50
102
RTVSPost2010PropOp37
 70
     1
102
RTVSPost2010Prop38
140
0.0
102
RTVSPost2010PropOp38
 70
     1
102
RTVSPost2010Prop39
140
1.0
102
RTVSPost2010PropOp39
 70
     1
102
RTVSPost2010Prop40
 90
        0
102
RTVSPost2010PropOp40
 70
     1
102
RTVSPost2010Prop41ColorIndex
 90
       18
102
RTVSPost2010Prop41ColorRGB
 90
        0
102
RTVSPost2010PropOp41
 70
     1
102
RTVSPost2010Prop42
 90
       50
102
RTVSPost2010PropOp42
 70
     1
102
RTVSPost2010Prop43
 90
        3
102
RTVSPost2010PropOp43
 70
     1
102
RTVSPost2010Prop44ColorIndex
 90
        5
102
RTVSPost2010Prop44ColorRGB
 90
      255
102
RTVSPost2010PropOp44
 70
     1
102
RTVSPost2010Prop45
280
     0
102
RTVSPost2010PropOp45
 70
     1
102
RTVSPost2010Prop46
 90
       50
102
RTVSPost2010PropOp46
 70
     1
102
RTVSPost2010Prop47
 90
       50
102
RTVSPost2010PropOp47
 70
     1
102
RTVSPost2010Prop48
 90
       50
102
RTVSPost2010PropOp48
 70
     1
102
RTVSPost2010Prop49
280
     0
102
RTVSPost2010PropOp49
 70
     1
102
RTVSPost2010Prop50
 90
       50
102
RTVSPost2010PropOp50
 70
     1
102
RTVSPost2010Prop51ColorIndex
 90
      256
102
RTVSPost2010Prop51ColorRGB
 90
-16777216
102
RTVSPost2010PropOp51
 70
     0
102
RTVSPost2010Prop52
140
1.0
102
RTVSPost2010PropOp52
 70
     0
102
RTVSPost2010Prop53
 90
        2
102
RTVSPost2010PropOp53
 70
     1
102
RTVSPost2010Prop54
  1
strokes_ogs.tif
102
RTVSPost2010PropOp54
 70
     1
102
RTVSPost2010Prop55
280
     0
102
RTVSPost2010PropOp55
 70
     1
102
RTVSPost2010Prop56
140
1.0
102
RTVSPost2010PropOp56
 70
     1
102
RTVSPost2010Prop57
140
1.0
102
RTVSPost2010PropOp57
 70
     1
102
RTVSPropertyOp0
 70
     1
102
RTVSPropertyOp1
 70
     1
102
RTVSPropertyOp2
 70
     1
102
RTVSPropertyOp3
 70
     1
102
RTVSPropertyOp4
 70
     1
102
RTVSPropertyOp5
 70
     1
102
RTVSPropertyOp6
 70
     1
102
RTVSPropertyOp7
 70
     1
102
RTVSPropertyOp8
 70
     1
102
RTVSPropertyOp9
 70
     1
102
RTVSPropertyOp10
 70
     1
102
RTVSPropertyOp11
 70
     1
102
RTVSPropertyOp12
 70
     1
102
RTVSPropertyOp13
 70
     1
102
RTVSPropertyOp14
 70
     1
102
RTVSPropertyOp15
 70
     1
102
RTVSPropertyOp16
 70
     1
102
RTVSPropertyOp17
 70
     1
102
RTVSPropertyOp18
 70
     1
102
RTVSPropertyOp19
 70
     1
102
RTVSPropertyOp20
 70
     1
102
RTVSPropertyOp21
 70
     1
102
RTVSPropertyOp22
 70
     1
102
RTVSPropertyOp23
 70
     1
102
RTVSPropertyOp24
 70
     1
102
RTVSPropertyOp25
 70
     1
102
RTVSPropertyOp26
 70
     1
102
RTVSPropertyOp27
 70
     1
102
RTVSPropertyOp28
 70
     1
102
RTVSPropertyOp29
 70
     1
102
RTVSPropertyOp30
 70
     1
102
RTVSPropertyOp31
 70
     1
102
RTVSPropertyOp32
 70
     1
102
RTVSPropertyOp33
 70
     1
102
RTVSPropertyOp34
 70
     1
102
RTVSPropertyOp35
 70
     1
102
RTVSPropertyOp36
 70
     1
102
RTVSPropertyOp37
 70
     1
102
RTVSPropertyOp38
 70
     1
102
RTVSPropertyOp39
 70
     1
102
RTVSPropertyOp40
 70
     1
102
RTVSPropertyOp41
 70
     1
102
RTVSPropertyOp42
 70
     1
102
RTVSPropertyOp43
 70
     1
102
RTVSPropertyOp44
 70
     1
102
RTVSPropertyOp45
 70
     1
102
RTVSPropertyOp46
 70
     1
102
RTVSPropertyOp47
 70
     1
102
RTVSPropertyOp48
 70
     1
102
RTVSPropertyOp49
 70
     1
102
RTVSPropertyOp50
 70
     1
102
RTVSPropertyOp51
 70
     0
102
RTVSPropertyOp52
 70
     0
102
RTVSPropertyOp53
 70
     1
102
RTVSPropertyOp54
 70
     1
102
RTVSPropertyOp55
 70
     1
102
RTVSPropertyOp56
 70
     1
102
RTVSPropertyOp57
 70
     1
102
RTVSPropertyOp58
 70
     1
102
RTVSPropertyOp59
 70
     1
102
RTVSPropertyOp60
 70
     1
102
RTVSPropertyOp61
 70
     1
102
RTVSPropertyOp62
 70
     1
  0
XRECORD
  5
2D42
102
{ACAD_REACTORS
330
2D41
102
}
330
2D41
100
AcDbXrecord
280
     1
102
RTVSPost2010Prop28
280
     0
102
RTVSPost2010PropOp28
 70
     0
102
RTVSPost2010Prop29
280
     1
102
RTVSPost2010PropOp29
 70
     0
102
RTVSPost2010Prop30
280
     1
102
RTVSPost2010PropOp30
 70
     0
102
RTVSPost2010Prop31
280
     0
102
RTVSPost2010PropOp31
 70
     0
102
RTVSPost2010Prop32
280
     0
102
RTVSPost2010PropOp32
 70
     0
102
RTVSPost2010Prop33
280
     0
102
RTVSPost2010PropOp33
 70
     0
102
RTVSPost2010Prop34
280
     0
102
RTVSPost2010PropOp34
 70
     0
102
RTVSPost2010Prop35
280
     0
102
RTVSPost2010PropOp35
 70
     0
102
RTVSPost2010Prop36
280
     0
102
RTVSPost2010PropOp36
 70
     0
102
RTVSPost2010Prop37
 90
       50
102
RTVSPost2010PropOp37
 70
     0
102
RTVSPost2010Prop38
140
0.0
102
RTVSPost2010PropOp38
 70
     0
102
RTVSPost2010Prop39
140
1.0
102
RTVSPost2010PropOp39
 70
     0
102
RTVSPost2010Prop40
 90
        0
102
RTVSPost2010PropOp40
 70
     0
102
RTVSPost2010Prop41ColorIndex
 90
       18
102
RTVSPost2010Prop41ColorRGB
 90
        0
102
RTVSPost2010PropOp41
 70
     0
102
RTVSPost2010Prop42
 90
       50
102
RTVSPost2010PropOp42
 70
     0
102
RTVSPost2010Prop43
 90
        3
102
RTVSPost2010PropOp43
 70
     0
102
RTVSPost2010Prop44ColorIndex
 90
        5
102
RTVSPost2010Prop44ColorRGB
 90
      255
102
RTVSPost2010PropOp44
 70
     0
102
RTVSPost2010Prop45
280
     0
102
RTVSPost2010PropOp45
 70
     0
102
RTVSPost2010Prop46
 90
       50
102
RTVSPost2010PropOp46
 70
     0
102
RTVSPost2010Prop47
 90
       50
102
RTVSPost2010PropOp47
 70
     0
102
RTVSPost2010Prop48
 90
       50
102
RTVSPost2010PropOp48
 70
     0
102
RTVSPost2010Prop49
280
     0
102
RTVSPost2010PropOp49
 70
     0
102
RTVSPost2010Prop50
 90
       50
102
RTVSPost2010PropOp50
 70
     0
102
RTVSPost2010Prop51ColorIndex
 90
      256
102
RTVSPost2010Prop51ColorRGB
 90
-16777216
102
RTVSPost2010PropOp51
 70
     0
102
RTVSPost2010Prop52
140
1.0
102
RTVSPost2010PropOp52
 70
     0
102
RTVSPost2010Prop53
 90
        2
102
RTVSPost2010PropOp53
 70
     0
102
RTVSPost2010Prop54
  1
strokes_ogs.tif
102
RTVSPost2010PropOp54
 70
     0
102
RTVSPost2010Prop55
280
     0
102
RTVSPost2010PropOp55
 70
     0
102
RTVSPost2010Prop56
140
1.0
102
RTVSPost2010PropOp56
 70
     0
102
RTVSPost2010Prop57
140
1.0
102
RTVSPost2010PropOp57
 70
     0
102
RTVSPropertyOp0
 70
     0
102
RTVSPropertyOp1
 70
     0
102
RTVSPropertyOp2
 70
     0
102
RTVSPropertyOp3
 70
     0
102
RTVSPropertyOp4
 70
     0
102
RTVSPropertyOp5
 70
     0
102
RTVSPropertyOp6
 70
     0
102
RTVSPropertyOp7
 70
     0
102
RTVSPropertyOp8
 70
     0
102
RTVSPropertyOp9
 70
     0
102
RTVSPropertyOp10
 70
     0
102
RTVSPropertyOp11
 70
     0
102
RTVSPropertyOp12
 70
     0
102
RTVSPropertyOp13
 70
     0
102
RTVSPropertyOp14
 70
     2
102
RTVSPropertyOp15
 70
     0
102
RTVSPropertyOp16
 70
     0
102
RTVSPropertyOp17
 70
     0
102
RTVSPropertyOp18
 70
     0
102
RTVSPropertyOp19
 70
     0
102
RTVSPropertyOp20
 70
     0
102
RTVSPropertyOp21
 70
     0
102
RTVSPropertyOp22
 70
     0
102
RTVSPropertyOp23
 70
     0
102
RTVSPropertyOp24
 70
     0
102
RTVSPropertyOp25
 70
     0
102
RTVSPropertyOp26
 70
     0
102
RTVSPropertyOp27
 70
     0
102
RTVSPropertyOp28
 70
     0
102
RTVSPropertyOp29
 70
     0
102
RTVSPropertyOp30
 70
     0
102
RTVSPropertyOp31
 70
     0
102
RTVSPropertyOp32
 70
     0
102
RTVSPropertyOp33
 70
     0
102
RTVSPropertyOp34
 70
     0
102
RTVSPropertyOp35
 70
     0
102
RTVSPropertyOp36
 70
     0
102
RTVSPropertyOp37
 70
     0
102
RTVSPropertyOp38
 70
     0
102
RTVSPropertyOp39
 70
     0
102
RTVSPropertyOp40
 70
     0
102
RTVSPropertyOp41
 70
     0
102
RTVSPropertyOp42
 70
     0
102
RTVSPropertyOp43
 70
     0
102
RTVSPropertyOp44
 70
     0
102
RTVSPropertyOp45
 70
     0
102
RTVSPropertyOp46
 70
     0
102
RTVSPropertyOp47
 70
     0
102
RTVSPropertyOp48
 70
     0
102
RTVSPropertyOp49
 70
     0
102
RTVSPropertyOp50
 70
     0
102
RTVSPropertyOp51
 70
     0
102
RTVSPropertyOp52
 70
     0
102
RTVSPropertyOp53
 70
     0
102
RTVSPropertyOp54
 70
     0
102
RTVSPropertyOp55
 70
     0
102
RTVSPropertyOp56
 70
     0
102
RTVSPropertyOp57
 70
     0
102
RTVSPropertyOp58
 70
     0
102
RTVSPropertyOp59
 70
     0
102
RTVSPropertyOp60
 70
     0
102
RTVSPropertyOp61
 70
     0
102
RTVSPropertyOp62
 70
     0
  0
XRECORD
  5
2D30
102
{ACAD_REACTORS
330
2D2F
102
}
330
2D2F
100
AcDbXrecord
280
     1
102
RTVSPost2010Prop28
280
     0
102
RTVSPost2010PropOp28
 70
     1
102
RTVSPost2010Prop29
280
     1
102
RTVSPost2010PropOp29
 70
     1
102
RTVSPost2010Prop30
280
     1
102
RTVSPost2010PropOp30
 70
     1
102
RTVSPost2010Prop31
280
     0
102
RTVSPost2010PropOp31
 70
     1
102
RTVSPost2010Prop32
280
     0
102
RTVSPost2010PropOp32
 70
     1
102
RTVSPost2010Prop33
280
     0
102
RTVSPost2010PropOp33
 70
     1
102
RTVSPost2010Prop34
280
     0
102
RTVSPost2010PropOp34
 70
     1
102
RTVSPost2010Prop35
280
     0
102
RTVSPost2010PropOp35
 70
     1
102
RTVSPost2010Prop36
280
     0
102
RTVSPost2010PropOp36
 70
     1
102
RTVSPost2010Prop37
 90
       50
102
RTVSPost2010PropOp37
 70
     1
102
RTVSPost2010Prop38
140
0.0
102
RTVSPost2010PropOp38
 70
     1
102
RTVSPost2010Prop39
140
1.0
102
RTVSPost2010PropOp39
 70
     1
102
RTVSPost2010Prop40
 90
        0
102
RTVSPost2010PropOp40
 70
     1
102
RTVSPost2010Prop41ColorIndex
 90
       18
102
RTVSPost2010Prop41ColorRGB
 90
        0
102
RTVSPost2010PropOp41
 70
     1
102
RTVSPost2010Prop42
 90
       50
102
RTVSPost2010PropOp42
 70
     1
102
RTVSPost2010Prop43
 90
        3
102
RTVSPost2010PropOp43
 70
     1
102
RTVSPost2010Prop44ColorIndex
 90
        5
102
RTVSPost2010Prop44ColorRGB
 90
      255
102
RTVSPost2010PropOp44
 70
     1
102
RTVSPost2010Prop45
280
     0
102
RTVSPost2010PropOp45
 70
     1
102
RTVSPost2010Prop46
 90
       50
102
RTVSPost2010PropOp46
 70
     1
102
RTVSPost2010Prop47
 90
       50
102
RTVSPost2010PropOp47
 70
     1
102
RTVSPost2010Prop48
 90
       50
102
RTVSPost2010PropOp48
 70
     1
102
RTVSPost2010Prop49
280
     0
102
RTVSPost2010PropOp49
 70
     1
102
RTVSPost2010Prop50
 90
       50
102
RTVSPost2010PropOp50
 70
     1
102
RTVSPost2010Prop51ColorIndex
 90
      256
102
RTVSPost2010Prop51ColorRGB
 90
-16777216
102
RTVSPost2010PropOp51
 70
     0
102
RTVSPost2010Prop52
140
1.0
102
RTVSPost2010PropOp52
 70
     0
102
RTVSPost2010Prop53
 90
        2
102
RTVSPost2010PropOp53
 70
     1
102
RTVSPost2010Prop54
  1
strokes_ogs.tif
102
RTVSPost2010PropOp54
 70
     1
102
RTVSPost2010Prop55
280
     0
102
RTVSPost2010PropOp55
 70
     1
102
RTVSPost2010Prop56
140
1.0
102
RTVSPost2010PropOp56
 70
     1
102
RTVSPost2010Prop57
140
1.0
102
RTVSPost2010PropOp57
 70
     1
102
RTVSPropertyOp0
 70
     1
102
RTVSPropertyOp1
 70
     1
102
RTVSPropertyOp2
 70
     1
102
RTVSPropertyOp3
 70
     1
102
RTVSPropertyOp4
 70
     1
102
RTVSPropertyOp5
 70
     1
102
RTVSPropertyOp6
 70
     1
102
RTVSPropertyOp7
 70
     1
102
RTVSPropertyOp8
 70
     1
102
RTVSPropertyOp9
 70
     1
102
RTVSPropertyOp10
 70
     1
102
RTVSPropertyOp11
 70
     1
102
RTVSPropertyOp12
 70
     1
102
RTVSPropertyOp13
 70
     1
102
RTVSPropertyOp14
 70
     1
102
RTVSPropertyOp15
 70
     1
102
RTVSPropertyOp16
 70
     1
102
RTVSPropertyOp17
 70
     1
102
RTVSPropertyOp18
 70
     1
102
RTVSPropertyOp19
 70
     1
102
RTVSPropertyOp20
 70
     1
102
RTVSPropertyOp21
 70
     1
102
RTVSPropertyOp22
 70
     1
102
RTVSPropertyOp23
 70
     1
102
RTVSPropertyOp24
 70
     1
102
RTVSPropertyOp25
 70
     1
102
RTVSPropertyOp26
 70
     1
102
RTVSPropertyOp27
 70
     1
102
RTVSPropertyOp28
 70
     1
102
RTVSPropertyOp29
 70
     1
102
RTVSPropertyOp30
 70
     1
102
RTVSPropertyOp31
 70
     1
102
RTVSPropertyOp32
 70
     1
102
RTVSPropertyOp33
 70
     1
102
RTVSPropertyOp34
 70
     1
102
RTVSPropertyOp35
 70
     1
102
RTVSPropertyOp36
 70
     1
102
RTVSPropertyOp37
 70
     1
102
RTVSPropertyOp38
 70
     1
102
RTVSPropertyOp39
 70
     1
102
RTVSPropertyOp40
 70
     1
102
RTVSPropertyOp41
 70
     1
102
RTVSPropertyOp42
 70
     1
102
RTVSPropertyOp43
 70
     1
102
RTVSPropertyOp44
 70
     1
102
RTVSPropertyOp45
 70
     1
102
RTVSPropertyOp46
 70
     1
102
RTVSPropertyOp47
 70
     1
102
RTVSPropertyOp48
 70
     1
102
RTVSPropertyOp49
 70
     1
102
RTVSPropertyOp50
 70
     1
102
RTVSPropertyOp51
 70
     0
102
RTVSPropertyOp52
 70
     0
102
RTVSPropertyOp53
 70
     1
102
RTVSPropertyOp54
 70
     1
102
RTVSPropertyOp55
 70
     1
102
RTVSPropertyOp56
 70
     1
102
RTVSPropertyOp57
 70
     1
102
RTVSPropertyOp58
 70
     1
102
RTVSPropertyOp59
 70
     1
102
RTVSPropertyOp60
 70
     1
102
RTVSPropertyOp61
 70
     1
102
RTVSPropertyOp62
 70
     1
  0
XRECORD
  5
2D14
102
{ACAD_REACTORS
330
2D13
102
}
330
2D13
100
AcDbXrecord
280
     1
102
RTVSPost2010Prop28
280
     0
102
RTVSPost2010PropOp28
 70
     1
102
RTVSPost2010Prop29
280
     1
102
RTVSPost2010PropOp29
 70
     1
102
RTVSPost2010Prop30
280
     1
102
RTVSPost2010PropOp30
 70
     1
102
RTVSPost2010Prop31
280
     0
102
RTVSPost2010PropOp31
 70
     1
102
RTVSPost2010Prop32
280
     0
102
RTVSPost2010PropOp32
 70
     1
102
RTVSPost2010Prop33
280
     0
102
RTVSPost2010PropOp33
 70
     1
102
RTVSPost2010Prop34
280
     0
102
RTVSPost2010PropOp34
 70
     1
102
RTVSPost2010Prop35
280
     0
102
RTVSPost2010PropOp35
 70
     1
102
RTVSPost2010Prop36
280
     0
102
RTVSPost2010PropOp36
 70
     1
102
RTVSPost2010Prop37
 90
       50
102
RTVSPost2010PropOp37
 70
     1
102
RTVSPost2010Prop38
140
0.0
102
RTVSPost2010PropOp38
 70
     1
102
RTVSPost2010Prop39
140
1.0
102
RTVSPost2010PropOp39
 70
     1
102
RTVSPost2010Prop40
 90
        0
102
RTVSPost2010PropOp40
 70
     1
102
RTVSPost2010Prop41ColorIndex
 90
       18
102
RTVSPost2010Prop41ColorRGB
 90
        0
102
RTVSPost2010PropOp41
 70
     1
102
RTVSPost2010Prop42
 90
       50
102
RTVSPost2010PropOp42
 70
     1
102
RTVSPost2010Prop43
 90
        3
102
RTVSPost2010PropOp43
 70
     1
102
RTVSPost2010Prop44ColorIndex
 90
        5
102
RTVSPost2010Prop44ColorRGB
 90
      255
102
RTVSPost2010PropOp44
 70
     1
102
RTVSPost2010Prop45
280
     0
102
RTVSPost2010PropOp45
 70
     1
102
RTVSPost2010Prop46
 90
       50
102
RTVSPost2010PropOp46
 70
     1
102
RTVSPost2010Prop47
 90
       50
102
RTVSPost2010PropOp47
 70
     1
102
RTVSPost2010Prop48
 90
       50
102
RTVSPost2010PropOp48
 70
     1
102
RTVSPost2010Prop49
280
     0
102
RTVSPost2010PropOp49
 70
     1
102
RTVSPost2010Prop50
 90
       50
102
RTVSPost2010PropOp50
 70
     1
102
RTVSPost2010Prop51ColorIndex
 90
      256
102
RTVSPost2010Prop51ColorRGB
 90
-16777216
102
RTVSPost2010PropOp51
 70
     0
102
RTVSPost2010Prop52
140
1.0
102
RTVSPost2010PropOp52
 70
     0
102
RTVSPost2010Prop53
 90
        2
102
RTVSPost2010PropOp53
 70
     1
102
RTVSPost2010Prop54
  1
strokes_ogs.tif
102
RTVSPost2010PropOp54
 70
     1
102
RTVSPost2010Prop55
280
     0
102
RTVSPost2010PropOp55
 70
     1
102
RTVSPost2010Prop56
140
1.0
102
RTVSPost2010PropOp56
 70
     1
102
RTVSPost2010Prop57
140
1.0
102
RTVSPost2010PropOp57
 70
     1
102
RTVSPropertyOp0
 70
     1
102
RTVSPropertyOp1
 70
     1
102
RTVSPropertyOp2
 70
     1
102
RTVSPropertyOp3
 70
     1
102
RTVSPropertyOp4
 70
     1
102
RTVSPropertyOp5
 70
     1
102
RTVSPropertyOp6
 70
     1
102
RTVSPropertyOp7
 70
     1
102
RTVSPropertyOp8
 70
     1
102
RTVSPropertyOp9
 70
     1
102
RTVSPropertyOp10
 70
     1
102
RTVSPropertyOp11
 70
     1
102
RTVSPropertyOp12
 70
     1
102
RTVSPropertyOp13
 70
     1
102
RTVSPropertyOp14
 70
     1
102
RTVSPropertyOp15
 70
     1
102
RTVSPropertyOp16
 70
     1
102
RTVSPropertyOp17
 70
     1
102
RTVSPropertyOp18
 70
     1
102
RTVSPropertyOp19
 70
     1
102
RTVSPropertyOp20
 70
     1
102
RTVSPropertyOp21
 70
     1
102
RTVSPropertyOp22
 70
     1
102
RTVSPropertyOp23
 70
     1
102
RTVSPropertyOp24
 70
     1
102
RTVSPropertyOp25
 70
     1
102
RTVSPropertyOp26
 70
     1
102
RTVSPropertyOp27
 70
     1
102
RTVSPropertyOp28
 70
     1
102
RTVSPropertyOp29
 70
     1
102
RTVSPropertyOp30
 70
     1
102
RTVSPropertyOp31
 70
     1
102
RTVSPropertyOp32
 70
     1
102
RTVSPropertyOp33
 70
     1
102
RTVSPropertyOp34
 70
     1
102
RTVSPropertyOp35
 70
     1
102
RTVSPropertyOp36
 70
     1
102
RTVSPropertyOp37
 70
     1
102
RTVSPropertyOp38
 70
     1
102
RTVSPropertyOp39
 70
     1
102
RTVSPropertyOp40
 70
     1
102
RTVSPropertyOp41
 70
     1
102
RTVSPropertyOp42
 70
     1
102
RTVSPropertyOp43
 70
     1
102
RTVSPropertyOp44
 70
     1
102
RTVSPropertyOp45
 70
     1
102
RTVSPropertyOp46
 70
     1
102
RTVSPropertyOp47
 70
     1
102
RTVSPropertyOp48
 70
     1
102
RTVSPropertyOp49
 70
     1
102
RTVSPropertyOp50
 70
     1
102
RTVSPropertyOp51
 70
     0
102
RTVSPropertyOp52
 70
     0
102
RTVSPropertyOp53
 70
     1
102
RTVSPropertyOp54
 70
     1
102
RTVSPropertyOp55
 70
     1
102
RTVSPropertyOp56
 70
     1
102
RTVSPropertyOp57
 70
     1
102
RTVSPropertyOp58
 70
     1
102
RTVSPropertyOp59
 70
     1
102
RTVSPropertyOp60
 70
     1
102
RTVSPropertyOp61
 70
     1
102
RTVSPropertyOp62
 70
     1
  0
XRECORD
  5
2D16
102
{ACAD_REACTORS
330
2D15
102
}
330
2D15
100
AcDbXrecord
280
     1
102
RTVSPost2010Prop28
280
     0
102
RTVSPost2010PropOp28
 70
     1
102
RTVSPost2010Prop29
280
     1
102
RTVSPost2010PropOp29
 70
     1
102
RTVSPost2010Prop30
280
     1
102
RTVSPost2010PropOp30
 70
     1
102
RTVSPost2010Prop31
280
     0
102
RTVSPost2010PropOp31
 70
     1
102
RTVSPost2010Prop32
280
     0
102
RTVSPost2010PropOp32
 70
     1
102
RTVSPost2010Prop33
280
     0
102
RTVSPost2010PropOp33
 70
     1
102
RTVSPost2010Prop34
280
     0
102
RTVSPost2010PropOp34
 70
     1
102
RTVSPost2010Prop35
280
     0
102
RTVSPost2010PropOp35
 70
     1
102
RTVSPost2010Prop36
280
     0
102
RTVSPost2010PropOp36
 70
     1
102
RTVSPost2010Prop37
 90
       50
102
RTVSPost2010PropOp37
 70
     1
102
RTVSPost2010Prop38
140
0.0
102
RTVSPost2010PropOp38
 70
     1
102
RTVSPost2010Prop39
140
1.0
102
RTVSPost2010PropOp39
 70
     1
102
RTVSPost2010Prop40
 90
        0
102
RTVSPost2010PropOp40
 70
     1
102
RTVSPost2010Prop41ColorIndex
 90
       18
102
RTVSPost2010Prop41ColorRGB
 90
        0
102
RTVSPost2010PropOp41
 70
     1
102
RTVSPost2010Prop42
 90
       50
102
RTVSPost2010PropOp42
 70
     1
102
RTVSPost2010Prop43
 90
        3
102
RTVSPost2010PropOp43
 70
     1
102
RTVSPost2010Prop44ColorIndex
 90
        5
102
RTVSPost2010Prop44ColorRGB
 90
      255
102
RTVSPost2010PropOp44
 70
     1
102
RTVSPost2010Prop45
280
     0
102
RTVSPost2010PropOp45
 70
     1
102
RTVSPost2010Prop46
 90
       50
102
RTVSPost2010PropOp46
 70
     1
102
RTVSPost2010Prop47
 90
       50
102
RTVSPost2010PropOp47
 70
     1
102
RTVSPost2010Prop48
 90
       50
102
RTVSPost2010PropOp48
 70
     1
102
RTVSPost2010Prop49
280
     0
102
RTVSPost2010PropOp49
 70
     1
102
RTVSPost2010Prop50
 90
       50
102
RTVSPost2010PropOp50
 70
     1
102
RTVSPost2010Prop51ColorIndex
 90
      256
102
RTVSPost2010Prop51ColorRGB
 90
-16777216
102
RTVSPost2010PropOp51
 70
     0
102
RTVSPost2010Prop52
140
1.0
102
RTVSPost2010PropOp52
 70
     0
102
RTVSPost2010Prop53
 90
        2
102
RTVSPost2010PropOp53
 70
     1
102
RTVSPost2010Prop54
  1
strokes_ogs.tif
102
RTVSPost2010PropOp54
 70
     1
102
RTVSPost2010Prop55
280
     0
102
RTVSPost2010PropOp55
 70
     1
102
RTVSPost2010Prop56
140
1.0
102
RTVSPost2010PropOp56
 70
     1
102
RTVSPost2010Prop57
140
1.0
102
RTVSPost2010PropOp57
 70
     1
102
RTVSPropertyOp0
 70
     1
102
RTVSPropertyOp1
 70
     1
102
RTVSPropertyOp2
 70
     1
102
RTVSPropertyOp3
 70
     1
102
RTVSPropertyOp4
 70
     1
102
RTVSPropertyOp5
 70
     1
102
RTVSPropertyOp6
 70
     1
102
RTVSPropertyOp7
 70
     1
102
RTVSPropertyOp8
 70
     1
102
RTVSPropertyOp9
 70
     1
102
RTVSPropertyOp10
 70
     1
102
RTVSPropertyOp11
 70
     1
102
RTVSPropertyOp12
 70
     1
102
RTVSPropertyOp13
 70
     1
102
RTVSPropertyOp14
 70
     1
102
RTVSPropertyOp15
 70
     1
102
RTVSPropertyOp16
 70
     1
102
RTVSPropertyOp17
 70
     1
102
RTVSPropertyOp18
 70
     1
102
RTVSPropertyOp19
 70
     1
102
RTVSPropertyOp20
 70
     1
102
RTVSPropertyOp21
 70
     1
102
RTVSPropertyOp22
 70
     1
102
RTVSPropertyOp23
 70
     1
102
RTVSPropertyOp24
 70
     1
102
RTVSPropertyOp25
 70
     1
102
RTVSPropertyOp26
 70
     1
102
RTVSPropertyOp27
 70
     1
102
RTVSPropertyOp28
 70
     1
102
RTVSPropertyOp29
 70
     1
102
RTVSPropertyOp30
 70
     1
102
RTVSPropertyOp31
 70
     1
102
RTVSPropertyOp32
 70
     1
102
RTVSPropertyOp33
 70
     1
102
RTVSPropertyOp34
 70
     1
102
RTVSPropertyOp35
 70
     1
102
RTVSPropertyOp36
 70
     1
102
RTVSPropertyOp37
 70
     1
102
RTVSPropertyOp38
 70
     1
102
RTVSPropertyOp39
 70
     1
102
RTVSPropertyOp40
 70
     1
102
RTVSPropertyOp41
 70
     1
102
RTVSPropertyOp42
 70
     1
102
RTVSPropertyOp43
 70
     1
102
RTVSPropertyOp44
 70
     1
102
RTVSPropertyOp45
 70
     1
102
RTVSPropertyOp46
 70
     1
102
RTVSPropertyOp47
 70
     1
102
RTVSPropertyOp48
 70
     1
102
RTVSPropertyOp49
 70
     1
102
RTVSPropertyOp50
 70
     1
102
RTVSPropertyOp51
 70
     0
102
RTVSPropertyOp52
 70
     0
102
RTVSPropertyOp53
 70
     1
102
RTVSPropertyOp54
 70
     1
102
RTVSPropertyOp55
 70
     1
102
RTVSPropertyOp56
 70
     1
102
RTVSPropertyOp57
 70
     1
102
RTVSPropertyOp58
 70
     1
102
RTVSPropertyOp59
 70
     1
102
RTVSPropertyOp60
 70
     1
102
RTVSPropertyOp61
 70
     1
102
RTVSPropertyOp62
 70
     1
  0
XRECORD
  5
2D18
102
{ACAD_REACTORS
330
2D17
102
}
330
2D17
100
AcDbXrecord
280
     1
102
RTVSPost2010Prop28
280
     0
102
RTVSPost2010PropOp28
 70
     1
102
RTVSPost2010Prop29
280
     1
102
RTVSPost2010PropOp29
 70
     1
102
RTVSPost2010Prop30
280
     1
102
RTVSPost2010PropOp30
 70
     1
102
RTVSPost2010Prop31
280
     0
102
RTVSPost2010PropOp31
 70
     1
102
RTVSPost2010Prop32
280
     0
102
RTVSPost2010PropOp32
 70
     1
102
RTVSPost2010Prop33
280
     0
102
RTVSPost2010PropOp33
 70
     1
102
RTVSPost2010Prop34
280
     0
102
RTVSPost2010PropOp34
 70
     1
102
RTVSPost2010Prop35
280
     0
102
RTVSPost2010PropOp35
 70
     1
102
RTVSPost2010Prop36
280
     0
102
RTVSPost2010PropOp36
 70
     1
102
RTVSPost2010Prop37
 90
       50
102
RTVSPost2010PropOp37
 70
     1
102
RTVSPost2010Prop38
140
0.0
102
RTVSPost2010PropOp38
 70
     1
102
RTVSPost2010Prop39
140
1.0
102
RTVSPost2010PropOp39
 70
     1
102
RTVSPost2010Prop40
 90
        0
102
RTVSPost2010PropOp40
 70
     1
102
RTVSPost2010Prop41ColorIndex
 90
       18
102
RTVSPost2010Prop41ColorRGB
 90
        0
102
RTVSPost2010PropOp41
 70
     1
102
RTVSPost2010Prop42
 90
       50
102
RTVSPost2010PropOp42
 70
     1
102
RTVSPost2010Prop43
 90
        3
102
RTVSPost2010PropOp43
 70
     1
102
RTVSPost2010Prop44ColorIndex
 90
        5
102
RTVSPost2010Prop44ColorRGB
 90
      255
102
RTVSPost2010PropOp44
 70
     1
102
RTVSPost2010Prop45
280
     0
102
RTVSPost2010PropOp45
 70
     1
102
RTVSPost2010Prop46
 90
       50
102
RTVSPost2010PropOp46
 70
     1
102
RTVSPost2010Prop47
 90
       50
102
RTVSPost2010PropOp47
 70
     1
102
RTVSPost2010Prop48
 90
       50
102
RTVSPost2010PropOp48
 70
     1
102
RTVSPost2010Prop49
280
     0
102
RTVSPost2010PropOp49
 70
     1
102
RTVSPost2010Prop50
 90
       50
102
RTVSPost2010PropOp50
 70
     1
102
RTVSPost2010Prop51ColorIndex
 90
      256
102
RTVSPost2010Prop51ColorRGB
 90
-16777216
102
RTVSPost2010PropOp51
 70
     0
102
RTVSPost2010Prop52
140
1.0
102
RTVSPost2010PropOp52
 70
     0
102
RTVSPost2010Prop53
 90
        2
102
RTVSPost2010PropOp53
 70
     1
102
RTVSPost2010Prop54
  1
strokes_ogs.tif
102
RTVSPost2010PropOp54
 70
     1
102
RTVSPost2010Prop55
280
     0
102
RTVSPost2010PropOp55
 70
     1
102
RTVSPost2010Prop56
140
1.0
102
RTVSPost2010PropOp56
 70
     1
102
RTVSPost2010Prop57
140
1.0
102
RTVSPost2010PropOp57
 70
     1
102
RTVSPropertyOp0
 70
     1
102
RTVSPropertyOp1
 70
     1
102
RTVSPropertyOp2
 70
     1
102
RTVSPropertyOp3
 70
     1
102
RTVSPropertyOp4
 70
     1
102
RTVSPropertyOp5
 70
     1
102
RTVSPropertyOp6
 70
     1
102
RTVSPropertyOp7
 70
     1
102
RTVSPropertyOp8
 70
     1
102
RTVSPropertyOp9
 70
     1
102
RTVSPropertyOp10
 70
     1
102
RTVSPropertyOp11
 70
     1
102
RTVSPropertyOp12
 70
     1
102
RTVSPropertyOp13
 70
     1
102
RTVSPropertyOp14
 70
     1
102
RTVSPropertyOp15
 70
     1
102
RTVSPropertyOp16
 70
     1
102
RTVSPropertyOp17
 70
     1
102
RTVSPropertyOp18
 70
     1
102
RTVSPropertyOp19
 70
     1
102
RTVSPropertyOp20
 70
     1
102
RTVSPropertyOp21
 70
     1
102
RTVSPropertyOp22
 70
     1
102
RTVSPropertyOp23
 70
     1
102
RTVSPropertyOp24
 70
     1
102
RTVSPropertyOp25
 70
     1
102
RTVSPropertyOp26
 70
     1
102
RTVSPropertyOp27
 70
     1
102
RTVSPropertyOp28
 70
     1
102
RTVSPropertyOp29
 70
     1
102
RTVSPropertyOp30
 70
     1
102
RTVSPropertyOp31
 70
     1
102
RTVSPropertyOp32
 70
     1
102
RTVSPropertyOp33
 70
     1
102
RTVSPropertyOp34
 70
     1
102
RTVSPropertyOp35
 70
     1
102
RTVSPropertyOp36
 70
     1
102
RTVSPropertyOp37
 70
     1
102
RTVSPropertyOp38
 70
     1
102
RTVSPropertyOp39
 70
     1
102
RTVSPropertyOp40
 70
     1
102
RTVSPropertyOp41
 70
     1
102
RTVSPropertyOp42
 70
     1
102
RTVSPropertyOp43
 70
     1
102
RTVSPropertyOp44
 70
     1
102
RTVSPropertyOp45
 70
     1
102
RTVSPropertyOp46
 70
     1
102
RTVSPropertyOp47
 70
     1
102
RTVSPropertyOp48
 70
     1
102
RTVSPropertyOp49
 70
     1
102
RTVSPropertyOp50
 70
     1
102
RTVSPropertyOp51
 70
     0
102
RTVSPropertyOp52
 70
     0
102
RTVSPropertyOp53
 70
     1
102
RTVSPropertyOp54
 70
     1
102
RTVSPropertyOp55
 70
     1
102
RTVSPropertyOp56
 70
     1
102
RTVSPropertyOp57
 70
     1
102
RTVSPropertyOp58
 70
     1
102
RTVSPropertyOp59
 70
     1
102
RTVSPropertyOp60
 70
     1
102
RTVSPropertyOp61
 70
     1
102
RTVSPropertyOp62
 70
     1
  0
XRECORD
  5
2D1A
102
{ACAD_REACTORS
330
2D19
102
}
330
2D19
100
AcDbXrecord
280
     1
102
RTVSPost2010Prop28
280
     0
102
RTVSPost2010PropOp28
 70
     1
102
RTVSPost2010Prop29
280
     1
102
RTVSPost2010PropOp29
 70
     1
102
RTVSPost2010Prop30
280
     1
102
RTVSPost2010PropOp30
 70
     1
102
RTVSPost2010Prop31
280
     0
102
RTVSPost2010PropOp31
 70
     1
102
RTVSPost2010Prop32
280
     0
102
RTVSPost2010PropOp32
 70
     1
102
RTVSPost2010Prop33
280
     0
102
RTVSPost2010PropOp33
 70
     1
102
RTVSPost2010Prop34
280
     0
102
RTVSPost2010PropOp34
 70
     1
102
RTVSPost2010Prop35
280
     0
102
RTVSPost2010PropOp35
 70
     1
102
RTVSPost2010Prop36
280
     0
102
RTVSPost2010PropOp36
 70
     1
102
RTVSPost2010Prop37
 90
       50
102
RTVSPost2010PropOp37
 70
     1
102
RTVSPost2010Prop38
140
0.0
102
RTVSPost2010PropOp38
 70
     1
102
RTVSPost2010Prop39
140
1.0
102
RTVSPost2010PropOp39
 70
     1
102
RTVSPost2010Prop40
 90
        0
102
RTVSPost2010PropOp40
 70
     1
102
RTVSPost2010Prop41ColorIndex
 90
       18
102
RTVSPost2010Prop41ColorRGB
 90
        0
102
RTVSPost2010PropOp41
 70
     1
102
RTVSPost2010Prop42
 90
       50
102
RTVSPost2010PropOp42
 70
     1
102
RTVSPost2010Prop43
 90
        3
102
RTVSPost2010PropOp43
 70
     1
102
RTVSPost2010Prop44ColorIndex
 90
        5
102
RTVSPost2010Prop44ColorRGB
 90
      255
102
RTVSPost2010PropOp44
 70
     1
102
RTVSPost2010Prop45
280
     0
102
RTVSPost2010PropOp45
 70
     1
102
RTVSPost2010Prop46
 90
       50
102
RTVSPost2010PropOp46
 70
     1
102
RTVSPost2010Prop47
 90
       50
102
RTVSPost2010PropOp47
 70
     1
102
RTVSPost2010Prop48
 90
       50
102
RTVSPost2010PropOp48
 70
     1
102
RTVSPost2010Prop49
280
     0
102
RTVSPost2010PropOp49
 70
     1
102
RTVSPost2010Prop50
 90
       50
102
RTVSPost2010PropOp50
 70
     1
102
RTVSPost2010Prop51ColorIndex
 90
      256
102
RTVSPost2010Prop51ColorRGB
 90
-16777216
102
RTVSPost2010PropOp51
 70
     0
102
RTVSPost2010Prop52
140
1.0
102
RTVSPost2010PropOp52
 70
     0
102
RTVSPost2010Prop53
 90
        2
102
RTVSPost2010PropOp53
 70
     1
102
RTVSPost2010Prop54
  1
strokes_ogs.tif
102
RTVSPost2010PropOp54
 70
     1
102
RTVSPost2010Prop55
280
     0
102
RTVSPost2010PropOp55
 70
     1
102
RTVSPost2010Prop56
140
1.0
102
RTVSPost2010PropOp56
 70
     1
102
RTVSPost2010Prop57
140
1.0
102
RTVSPost2010PropOp57
 70
     1
102
RTVSPropertyOp0
 70
     1
102
RTVSPropertyOp1
 70
     1
102
RTVSPropertyOp2
 70
     1
102
RTVSPropertyOp3
 70
     1
102
RTVSPropertyOp4
 70
     1
102
RTVSPropertyOp5
 70
     1
102
RTVSPropertyOp6
 70
     1
102
RTVSPropertyOp7
 70
     1
102
RTVSPropertyOp8
 70
     1
102
RTVSPropertyOp9
 70
     1
102
RTVSPropertyOp10
 70
     1
102
RTVSPropertyOp11
 70
     1
102
RTVSPropertyOp12
 70
     1
102
RTVSPropertyOp13
 70
     1
102
RTVSPropertyOp14
 70
     1
102
RTVSPropertyOp15
 70
     1
102
RTVSPropertyOp16
 70
     1
102
RTVSPropertyOp17
 70
     1
102
RTVSPropertyOp18
 70
     1
102
RTVSPropertyOp19
 70
     1
102
RTVSPropertyOp20
 70
     1
102
RTVSPropertyOp21
 70
     1
102
RTVSPropertyOp22
 70
     1
102
RTVSPropertyOp23
 70
     1
102
RTVSPropertyOp24
 70
     1
102
RTVSPropertyOp25
 70
     1
102
RTVSPropertyOp26
 70
     1
102
RTVSPropertyOp27
 70
     1
102
RTVSPropertyOp28
 70
     1
102
RTVSPropertyOp29
 70
     1
102
RTVSPropertyOp30
 70
     1
102
RTVSPropertyOp31
 70
     1
102
RTVSPropertyOp32
 70
     1
102
RTVSPropertyOp33
 70
     1
102
RTVSPropertyOp34
 70
     1
102
RTVSPropertyOp35
 70
     1
102
RTVSPropertyOp36
 70
     1
102
RTVSPropertyOp37
 70
     1
102
RTVSPropertyOp38
 70
     1
102
RTVSPropertyOp39
 70
     1
102
RTVSPropertyOp40
 70
     1
102
RTVSPropertyOp41
 70
     1
102
RTVSPropertyOp42
 70
     1
102
RTVSPropertyOp43
 70
     1
102
RTVSPropertyOp44
 70
     1
102
RTVSPropertyOp45
 70
     1
102
RTVSPropertyOp46
 70
     1
102
RTVSPropertyOp47
 70
     1
102
RTVSPropertyOp48
 70
     1
102
RTVSPropertyOp49
 70
     1
102
RTVSPropertyOp50
 70
     1
102
RTVSPropertyOp51
 70
     0
102
RTVSPropertyOp52
 70
     0
102
RTVSPropertyOp53
 70
     1
102
RTVSPropertyOp54
 70
     1
102
RTVSPropertyOp55
 70
     1
102
RTVSPropertyOp56
 70
     1
102
RTVSPropertyOp57
 70
     1
102
RTVSPropertyOp58
 70
     1
102
RTVSPropertyOp59
 70
     1
102
RTVSPropertyOp60
 70
     1
102
RTVSPropertyOp61
 70
     1
102
RTVSPropertyOp62
 70
     1
  0
XRECORD
  5
2D22
102
{ACAD_REACTORS
330
2D21
102
}
330
2D21
100
AcDbXrecord
280
     1
102
RTVSPost2010Prop28
280
     0
102
RTVSPost2010PropOp28
 70
     1
102
RTVSPost2010Prop29
280
     1
102
RTVSPost2010PropOp29
 70
     1
102
RTVSPost2010Prop30
280
     1
102
RTVSPost2010PropOp30
 70
     1
102
RTVSPost2010Prop31
280
     0
102
RTVSPost2010PropOp31
 70
     1
102
RTVSPost2010Prop32
280
     0
102
RTVSPost2010PropOp32
 70
     1
102
RTVSPost2010Prop33
280
     0
102
RTVSPost2010PropOp33
 70
     1
102
RTVSPost2010Prop34
280
     0
102
RTVSPost2010PropOp34
 70
     1
102
RTVSPost2010Prop35
280
     0
102
RTVSPost2010PropOp35
 70
     1
102
RTVSPost2010Prop36
280
     0
102
RTVSPost2010PropOp36
 70
     1
102
RTVSPost2010Prop37
 90
       50
102
RTVSPost2010PropOp37
 70
     1
102
RTVSPost2010Prop38
140
0.0
102
RTVSPost2010PropOp38
 70
     1
102
RTVSPost2010Prop39
140
1.0
102
RTVSPost2010PropOp39
 70
     1
102
RTVSPost2010Prop40
 90
        0
102
RTVSPost2010PropOp40
 70
     1
102
RTVSPost2010Prop41ColorIndex
 90
       18
102
RTVSPost2010Prop41ColorRGB
 90
        0
102
RTVSPost2010PropOp41
 70
     1
102
RTVSPost2010Prop42
 90
       50
102
RTVSPost2010PropOp42
 70
     1
102
RTVSPost2010Prop43
 90
        3
102
RTVSPost2010PropOp43
 70
     1
102
RTVSPost2010Prop44ColorIndex
 90
        5
102
RTVSPost2010Prop44ColorRGB
 90
      255
102
RTVSPost2010PropOp44
 70
     1
102
RTVSPost2010Prop45
280
     0
102
RTVSPost2010PropOp45
 70
     1
102
RTVSPost2010Prop46
 90
       50
102
RTVSPost2010PropOp46
 70
     1
102
RTVSPost2010Prop47
 90
       50
102
RTVSPost2010PropOp47
 70
     1
102
RTVSPost2010Prop48
 90
       50
102
RTVSPost2010PropOp48
 70
     1
102
RTVSPost2010Prop49
280
     0
102
RTVSPost2010PropOp49
 70
     1
102
RTVSPost2010Prop50
 90
       50
102
RTVSPost2010PropOp50
 70
     1
102
RTVSPost2010Prop51ColorIndex
 90
      256
102
RTVSPost2010Prop51ColorRGB
 90
-16777216
102
RTVSPost2010PropOp51
 70
     0
102
RTVSPost2010Prop52
140
1.0
102
RTVSPost2010PropOp52
 70
     0
102
RTVSPost2010Prop53
 90
        2
102
RTVSPost2010PropOp53
 70
     1
102
RTVSPost2010Prop54
  1
strokes_ogs.tif
102
RTVSPost2010PropOp54
 70
     1
102
RTVSPost2010Prop55
280
     0
102
RTVSPost2010PropOp55
 70
     1
102
RTVSPost2010Prop56
140
1.0
102
RTVSPost2010PropOp56
 70
     1
102
RTVSPost2010Prop57
140
1.0
102
RTVSPost2010PropOp57
 70
     1
102
RTVSPropertyOp0
 70
     1
102
RTVSPropertyOp1
 70
     1
102
RTVSPropertyOp2
 70
     1
102
RTVSPropertyOp3
 70
     1
102
RTVSPropertyOp4
 70
     1
102
RTVSPropertyOp5
 70
     1
102
RTVSPropertyOp6
 70
     1
102
RTVSPropertyOp7
 70
     1
102
RTVSPropertyOp8
 70
     1
102
RTVSPropertyOp9
 70
     1
102
RTVSPropertyOp10
 70
     1
102
RTVSPropertyOp11
 70
     1
102
RTVSPropertyOp12
 70
     1
102
RTVSPropertyOp13
 70
     1
102
RTVSPropertyOp14
 70
     1
102
RTVSPropertyOp15
 70
     1
102
RTVSPropertyOp16
 70
     1
102
RTVSPropertyOp17
 70
     1
102
RTVSPropertyOp18
 70
     1
102
RTVSPropertyOp19
 70
     1
102
RTVSPropertyOp20
 70
     1
102
RTVSPropertyOp21
 70
     1
102
RTVSPropertyOp22
 70
     1
102
RTVSPropertyOp23
 70
     1
102
RTVSPropertyOp24
 70
     1
102
RTVSPropertyOp25
 70
     1
102
RTVSPropertyOp26
 70
     1
102
RTVSPropertyOp27
 70
     1
102
RTVSPropertyOp28
 70
     1
102
RTVSPropertyOp29
 70
     1
102
RTVSPropertyOp30
 70
     1
102
RTVSPropertyOp31
 70
     1
102
RTVSPropertyOp32
 70
     1
102
RTVSPropertyOp33
 70
     1
102
RTVSPropertyOp34
 70
     1
102
RTVSPropertyOp35
 70
     1
102
RTVSPropertyOp36
 70
     1
102
RTVSPropertyOp37
 70
     1
102
RTVSPropertyOp38
 70
     1
102
RTVSPropertyOp39
 70
     1
102
RTVSPropertyOp40
 70
     1
102
RTVSPropertyOp41
 70
     1
102
RTVSPropertyOp42
 70
     1
102
RTVSPropertyOp43
 70
     1
102
RTVSPropertyOp44
 70
     1
102
RTVSPropertyOp45
 70
     1
102
RTVSPropertyOp46
 70
     1
102
RTVSPropertyOp47
 70
     1
102
RTVSPropertyOp48
 70
     1
102
RTVSPropertyOp49
 70
     1
102
RTVSPropertyOp50
 70
     1
102
RTVSPropertyOp51
 70
     0
102
RTVSPropertyOp52
 70
     0
102
RTVSPropertyOp53
 70
     1
102
RTVSPropertyOp54
 70
     1
102
RTVSPropertyOp55
 70
     1
102
RTVSPropertyOp56
 70
     1
102
RTVSPropertyOp57
 70
     1
102
RTVSPropertyOp58
 70
     1
102
RTVSPropertyOp59
 70
     1
102
RTVSPropertyOp60
 70
     1
102
RTVSPropertyOp61
 70
     1
102
RTVSPropertyOp62
 70
     1
  0
XRECORD
  5
2D3E
102
{ACAD_REACTORS
330
2D3D
102
}
330
2D3D
100
AcDbXrecord
280
     1
102
RTVSPost2010Prop28
280
     0
102
RTVSPost2010PropOp28
 70
     0
102
RTVSPost2010Prop29
280
     1
102
RTVSPost2010PropOp29
 70
     0
102
RTVSPost2010Prop30
280
     1
102
RTVSPost2010PropOp30
 70
     0
102
RTVSPost2010Prop31
280
     0
102
RTVSPost2010PropOp31
 70
     0
102
RTVSPost2010Prop32
280
     0
102
RTVSPost2010PropOp32
 70
     0
102
RTVSPost2010Prop33
280
     0
102
RTVSPost2010PropOp33
 70
     0
102
RTVSPost2010Prop34
280
     0
102
RTVSPost2010PropOp34
 70
     0
102
RTVSPost2010Prop35
280
     0
102
RTVSPost2010PropOp35
 70
     0
102
RTVSPost2010Prop36
280
     0
102
RTVSPost2010PropOp36
 70
     0
102
RTVSPost2010Prop37
 90
       50
102
RTVSPost2010PropOp37
 70
     0
102
RTVSPost2010Prop38
140
0.0
102
RTVSPost2010PropOp38
 70
     0
102
RTVSPost2010Prop39
140
1.0
102
RTVSPost2010PropOp39
 70
     0
102
RTVSPost2010Prop40
 90
        0
102
RTVSPost2010PropOp40
 70
     0
102
RTVSPost2010Prop41ColorIndex
 90
       18
102
RTVSPost2010Prop41ColorRGB
 90
        0
102
RTVSPost2010PropOp41
 70
     0
102
RTVSPost2010Prop42
 90
       50
102
RTVSPost2010PropOp42
 70
     0
102
RTVSPost2010Prop43
 90
        3
102
RTVSPost2010PropOp43
 70
     0
102
RTVSPost2010Prop44ColorIndex
 90
        5
102
RTVSPost2010Prop44ColorRGB
 90
      255
102
RTVSPost2010PropOp44
 70
     0
102
RTVSPost2010Prop45
280
     0
102
RTVSPost2010PropOp45
 70
     0
102
RTVSPost2010Prop46
 90
       50
102
RTVSPost2010PropOp46
 70
     0
102
RTVSPost2010Prop47
 90
       50
102
RTVSPost2010PropOp47
 70
     0
102
RTVSPost2010Prop48
 90
       50
102
RTVSPost2010PropOp48
 70
     0
102
RTVSPost2010Prop49
280
     0
102
RTVSPost2010PropOp49
 70
     0
102
RTVSPost2010Prop50
 90
       50
102
RTVSPost2010PropOp50
 70
     0
102
RTVSPost2010Prop51ColorIndex
 90
      256
102
RTVSPost2010Prop51ColorRGB
 90
-16777216
102
RTVSPost2010PropOp51
 70
     0
102
RTVSPost2010Prop52
140
1.0
102
RTVSPost2010PropOp52
 70
     0
102
RTVSPost2010Prop53
 90
        2
102
RTVSPost2010PropOp53
 70
     0
102
RTVSPost2010Prop54
  1
strokes_ogs.tif
102
RTVSPost2010PropOp54
 70
     0
102
RTVSPost2010Prop55
280
     0
102
RTVSPost2010PropOp55
 70
     0
102
RTVSPost2010Prop56
140
1.0
102
RTVSPost2010PropOp56
 70
     0
102
RTVSPost2010Prop57
140
1.0
102
RTVSPost2010PropOp57
 70
     0
102
RTVSPropertyOp0
 70
     0
102
RTVSPropertyOp1
 70
     0
102
RTVSPropertyOp2
 70
     0
102
RTVSPropertyOp3
 70
     0
102
RTVSPropertyOp4
 70
     0
102
RTVSPropertyOp5
 70
     0
102
RTVSPropertyOp6
 70
     0
102
RTVSPropertyOp7
 70
     0
102
RTVSPropertyOp8
 70
     0
102
RTVSPropertyOp9
 70
     0
102
RTVSPropertyOp10
 70
     0
102
RTVSPropertyOp11
 70
     0
102
RTVSPropertyOp12
 70
     0
102
RTVSPropertyOp13
 70
     0
102
RTVSPropertyOp14
 70
     2
102
RTVSPropertyOp15
 70
     0
102
RTVSPropertyOp16
 70
     0
102
RTVSPropertyOp17
 70
     0
102
RTVSPropertyOp18
 70
     0
102
RTVSPropertyOp19
 70
     0
102
RTVSPropertyOp20
 70
     0
102
RTVSPropertyOp21
 70
     0
102
RTVSPropertyOp22
 70
     0
102
RTVSPropertyOp23
 70
     0
102
RTVSPropertyOp24
 70
     0
102
RTVSPropertyOp25
 70
     0
102
RTVSPropertyOp26
 70
     0
102
RTVSPropertyOp27
 70
     0
102
RTVSPropertyOp28
 70
     0
102
RTVSPropertyOp29
 70
     0
102
RTVSPropertyOp30
 70
     0
102
RTVSPropertyOp31
 70
     0
102
RTVSPropertyOp32
 70
     0
102
RTVSPropertyOp33
 70
     0
102
RTVSPropertyOp34
 70
     0
102
RTVSPropertyOp35
 70
     0
102
RTVSPropertyOp36
 70
     0
102
RTVSPropertyOp37
 70
     0
102
RTVSPropertyOp38
 70
     0
102
RTVSPropertyOp39
 70
     0
102
RTVSPropertyOp40
 70
     0
102
RTVSPropertyOp41
 70
     0
102
RTVSPropertyOp42
 70
     0
102
RTVSPropertyOp43
 70
     0
102
RTVSPropertyOp44
 70
     0
102
RTVSPropertyOp45
 70
     0
102
RTVSPropertyOp46
 70
     0
102
RTVSPropertyOp47
 70
     0
102
RTVSPropertyOp48
 70
     0
102
RTVSPropertyOp49
 70
     0
102
RTVSPropertyOp50
 70
     0
102
RTVSPropertyOp51
 70
     0
102
RTVSPropertyOp52
 70
     0
102
RTVSPropertyOp53
 70
     0
102
RTVSPropertyOp54
 70
     0
102
RTVSPropertyOp55
 70
     0
102
RTVSPropertyOp56
 70
     0
102
RTVSPropertyOp57
 70
     0
102
RTVSPropertyOp58
 70
     0
102
RTVSPropertyOp59
 70
     0
102
RTVSPropertyOp60
 70
     0
102
RTVSPropertyOp61
 70
     0
102
RTVSPropertyOp62
 70
     0
  0
XRECORD
  5
2D2E
102
{ACAD_REACTORS
330
2D2D
102
}
330
2D2D
100
AcDbXrecord
280
     1
102
RTVSPost2010Prop28
280
     0
102
RTVSPost2010PropOp28
 70
     1
102
RTVSPost2010Prop29
280
     1
102
RTVSPost2010PropOp29
 70
     1
102
RTVSPost2010Prop30
280
     1
102
RTVSPost2010PropOp30
 70
     1
102
RTVSPost2010Prop31
280
     0
102
RTVSPost2010PropOp31
 70
     1
102
RTVSPost2010Prop32
280
     0
102
RTVSPost2010PropOp32
 70
     1
102
RTVSPost2010Prop33
280
     0
102
RTVSPost2010PropOp33
 70
     1
102
RTVSPost2010Prop34
280
     0
102
RTVSPost2010PropOp34
 70
     1
102
RTVSPost2010Prop35
280
     0
102
RTVSPost2010PropOp35
 70
     1
102
RTVSPost2010Prop36
280
     0
102
RTVSPost2010PropOp36
 70
     1
102
RTVSPost2010Prop37
 90
       50
102
RTVSPost2010PropOp37
 70
     1
102
RTVSPost2010Prop38
140
0.0
102
RTVSPost2010PropOp38
 70
     1
102
RTVSPost2010Prop39
140
1.0
102
RTVSPost2010PropOp39
 70
     1
102
RTVSPost2010Prop40
 90
        0
102
RTVSPost2010PropOp40
 70
     1
102
RTVSPost2010Prop41ColorIndex
 90
       18
102
RTVSPost2010Prop41ColorRGB
 90
        0
102
RTVSPost2010PropOp41
 70
     1
102
RTVSPost2010Prop42
 90
       50
102
RTVSPost2010PropOp42
 70
     1
102
RTVSPost2010Prop43
 90
        3
102
RTVSPost2010PropOp43
 70
     1
102
RTVSPost2010Prop44ColorIndex
 90
        5
102
RTVSPost2010Prop44ColorRGB
 90
      255
102
RTVSPost2010PropOp44
 70
     1
102
RTVSPost2010Prop45
280
     0
102
RTVSPost2010PropOp45
 70
     1
102
RTVSPost2010Prop46
 90
       50
102
RTVSPost2010PropOp46
 70
     1
102
RTVSPost2010Prop47
 90
       50
102
RTVSPost2010PropOp47
 70
     1
102
RTVSPost2010Prop48
 90
       50
102
RTVSPost2010PropOp48
 70
     1
102
RTVSPost2010Prop49
280
     0
102
RTVSPost2010PropOp49
 70
     1
102
RTVSPost2010Prop50
 90
       50
102
RTVSPost2010PropOp50
 70
     1
102
RTVSPost2010Prop51ColorIndex
 90
      256
102
RTVSPost2010Prop51ColorRGB
 90
-16777216
102
RTVSPost2010PropOp51
 70
     0
102
RTVSPost2010Prop52
140
1.0
102
RTVSPost2010PropOp52
 70
     0
102
RTVSPost2010Prop53
 90
        2
102
RTVSPost2010PropOp53
 70
     1
102
RTVSPost2010Prop54
  1
strokes_ogs.tif
102
RTVSPost2010PropOp54
 70
     1
102
RTVSPost2010Prop55
280
     0
102
RTVSPost2010PropOp55
 70
     1
102
RTVSPost2010Prop56
140
1.0
102
RTVSPost2010PropOp56
 70
     1
102
RTVSPost2010Prop57
140
1.0
102
RTVSPost2010PropOp57
 70
     1
102
RTVSPropertyOp0
 70
     1
102
RTVSPropertyOp1
 70
     1
102
RTVSPropertyOp2
 70
     1
102
RTVSPropertyOp3
 70
     1
102
RTVSPropertyOp4
 70
     1
102
RTVSPropertyOp5
 70
     1
102
RTVSPropertyOp6
 70
     1
102
RTVSPropertyOp7
 70
     1
102
RTVSPropertyOp8
 70
     1
102
RTVSPropertyOp9
 70
     1
102
RTVSPropertyOp10
 70
     1
102
RTVSPropertyOp11
 70
     1
102
RTVSPropertyOp12
 70
     1
102
RTVSPropertyOp13
 70
     1
102
RTVSPropertyOp14
 70
     1
102
RTVSPropertyOp15
 70
     1
102
RTVSPropertyOp16
 70
     1
102
RTVSPropertyOp17
 70
     1
102
RTVSPropertyOp18
 70
     1
102
RTVSPropertyOp19
 70
     1
102
RTVSPropertyOp20
 70
     1
102
RTVSPropertyOp21
 70
     1
102
RTVSPropertyOp22
 70
     1
102
RTVSPropertyOp23
 70
     1
102
RTVSPropertyOp24
 70
     1
102
RTVSPropertyOp25
 70
     1
102
RTVSPropertyOp26
 70
     1
102
RTVSPropertyOp27
 70
     1
102
RTVSPropertyOp28
 70
     1
102
RTVSPropertyOp29
 70
     1
102
RTVSPropertyOp30
 70
     1
102
RTVSPropertyOp31
 70
     1
102
RTVSPropertyOp32
 70
     1
102
RTVSPropertyOp33
 70
     1
102
RTVSPropertyOp34
 70
     1
102
RTVSPropertyOp35
 70
     1
102
RTVSPropertyOp36
 70
     1
102
RTVSPropertyOp37
 70
     1
102
RTVSPropertyOp38
 70
     1
102
RTVSPropertyOp39
 70
     1
102
RTVSPropertyOp40
 70
     1
102
RTVSPropertyOp41
 70
     1
102
RTVSPropertyOp42
 70
     1
102
RTVSPropertyOp43
 70
     1
102
RTVSPropertyOp44
 70
     1
102
RTVSPropertyOp45
 70
     1
102
RTVSPropertyOp46
 70
     1
102
RTVSPropertyOp47
 70
     1
102
RTVSPropertyOp48
 70
     1
102
RTVSPropertyOp49
 70
     1
102
RTVSPropertyOp50
 70
     1
102
RTVSPropertyOp51
 70
     0
102
RTVSPropertyOp52
 70
     0
102
RTVSPropertyOp53
 70
     1
102
RTVSPropertyOp54
 70
     1
102
RTVSPropertyOp55
 70
     1
102
RTVSPropertyOp56
 70
     1
102
RTVSPropertyOp57
 70
     1
102
RTVSPropertyOp58
 70
     1
102
RTVSPropertyOp59
 70
     1
102
RTVSPropertyOp60
 70
     1
102
RTVSPropertyOp61
 70
     1
102
RTVSPropertyOp62
 70
     1
  0
XRECORD
  5
2D40
102
{ACAD_REACTORS
330
2D3F
102
}
330
2D3F
100
AcDbXrecord
280
     1
102
RTVSPost2010Prop28
280
     0
102
RTVSPost2010PropOp28
 70
     0
102
RTVSPost2010Prop29
280
     1
102
RTVSPost2010PropOp29
 70
     0
102
RTVSPost2010Prop30
280
     1
102
RTVSPost2010PropOp30
 70
     0
102
RTVSPost2010Prop31
280
     0
102
RTVSPost2010PropOp31
 70
     0
102
RTVSPost2010Prop32
280
     0
102
RTVSPost2010PropOp32
 70
     0
102
RTVSPost2010Prop33
280
     0
102
RTVSPost2010PropOp33
 70
     0
102
RTVSPost2010Prop34
280
     0
102
RTVSPost2010PropOp34
 70
     0
102
RTVSPost2010Prop35
280
     0
102
RTVSPost2010PropOp35
 70
     0
102
RTVSPost2010Prop36
280
     0
102
RTVSPost2010PropOp36
 70
     0
102
RTVSPost2010Prop37
 90
       50
102
RTVSPost2010PropOp37
 70
     0
102
RTVSPost2010Prop38
140
0.0
102
RTVSPost2010PropOp38
 70
     0
102
RTVSPost2010Prop39
140
1.0
102
RTVSPost2010PropOp39
 70
     0
102
RTVSPost2010Prop40
 90
        0
102
RTVSPost2010PropOp40
 70
     0
102
RTVSPost2010Prop41ColorIndex
 90
       18
102
RTVSPost2010Prop41ColorRGB
 90
        0
102
RTVSPost2010PropOp41
 70
     0
102
RTVSPost2010Prop42
 90
       50
102
RTVSPost2010PropOp42
 70
     0
102
RTVSPost2010Prop43
 90
        3
102
RTVSPost2010PropOp43
 70
     0
102
RTVSPost2010Prop44ColorIndex
 90
        5
102
RTVSPost2010Prop44ColorRGB
 90
      255
102
RTVSPost2010PropOp44
 70
     0
102
RTVSPost2010Prop45
280
     0
102
RTVSPost2010PropOp45
 70
     0
102
RTVSPost2010Prop46
 90
       50
102
RTVSPost2010PropOp46
 70
     0
102
RTVSPost2010Prop47
 90
       50
102
RTVSPost2010PropOp47
 70
     0
102
RTVSPost2010Prop48
 90
       50
102
RTVSPost2010PropOp48
 70
     0
102
RTVSPost2010Prop49
280
     0
102
RTVSPost2010PropOp49
 70
     0
102
RTVSPost2010Prop50
 90
       50
102
RTVSPost2010PropOp50
 70
     0
102
RTVSPost2010Prop51ColorIndex
 90
      256
102
RTVSPost2010Prop51ColorRGB
 90
-16777216
102
RTVSPost2010PropOp51
 70
     0
102
RTVSPost2010Prop52
140
1.0
102
RTVSPost2010PropOp52
 70
     0
102
RTVSPost2010Prop53
 90
        2
102
RTVSPost2010PropOp53
 70
     0
102
RTVSPost2010Prop54
  1
strokes_ogs.tif
102
RTVSPost2010PropOp54
 70
     0
102
RTVSPost2010Prop55
280
     0
102
RTVSPost2010PropOp55
 70
     0
102
RTVSPost2010Prop56
140
1.0
102
RTVSPost2010PropOp56
 70
     0
102
RTVSPost2010Prop57
140
1.0
102
RTVSPost2010PropOp57
 70
     0
102
RTVSPropertyOp0
 70
     0
102
RTVSPropertyOp1
 70
     0
102
RTVSPropertyOp2
 70
     0
102
RTVSPropertyOp3
 70
     0
102
RTVSPropertyOp4
 70
     0
102
RTVSPropertyOp5
 70
     0
102
RTVSPropertyOp6
 70
     0
102
RTVSPropertyOp7
 70
     0
102
RTVSPropertyOp8
 70
     0
102
RTVSPropertyOp9
 70
     0
102
RTVSPropertyOp10
 70
     0
102
RTVSPropertyOp11
 70
     0
102
RTVSPropertyOp12
 70
     0
102
RTVSPropertyOp13
 70
     0
102
RTVSPropertyOp14
 70
     2
102
RTVSPropertyOp15
 70
     0
102
RTVSPropertyOp16
 70
     0
102
RTVSPropertyOp17
 70
     0
102
RTVSPropertyOp18
 70
     0
102
RTVSPropertyOp19
 70
     0
102
RTVSPropertyOp20
 70
     0
102
RTVSPropertyOp21
 70
     0
102
RTVSPropertyOp22
 70
     0
102
RTVSPropertyOp23
 70
     0
102
RTVSPropertyOp24
 70
     0
102
RTVSPropertyOp25
 70
     0
102
RTVSPropertyOp26
 70
     0
102
RTVSPropertyOp27
 70
     0
102
RTVSPropertyOp28
 70
     0
102
RTVSPropertyOp29
 70
     0
102
RTVSPropertyOp30
 70
     0
102
RTVSPropertyOp31
 70
     0
102
RTVSPropertyOp32
 70
     0
102
RTVSPropertyOp33
 70
     0
102
RTVSPropertyOp34
 70
     0
102
RTVSPropertyOp35
 70
     0
102
RTVSPropertyOp36
 70
     0
102
RTVSPropertyOp37
 70
     0
102
RTVSPropertyOp38
 70
     0
102
RTVSPropertyOp39
 70
     0
102
RTVSPropertyOp40
 70
     0
102
RTVSPropertyOp41
 70
     0
102
RTVSPropertyOp42
 70
     0
102
RTVSPropertyOp43
 70
     0
102
RTVSPropertyOp44
 70
     0
102
RTVSPropertyOp45
 70
     0
102
RTVSPropertyOp46
 70
     0
102
RTVSPropertyOp47
 70
     0
102
RTVSPropertyOp48
 70
     0
102
RTVSPropertyOp49
 70
     0
102
RTVSPropertyOp50
 70
     0
102
RTVSPropertyOp51
 70
     0
102
RTVSPropertyOp52
 70
     0
102
RTVSPropertyOp53
 70
     0
102
RTVSPropertyOp54
 70
     0
102
RTVSPropertyOp55
 70
     0
102
RTVSPropertyOp56
 70
     0
102
RTVSPropertyOp57
 70
     0
102
RTVSPropertyOp58
 70
     0
102
RTVSPropertyOp59
 70
     0
102
RTVSPropertyOp60
 70
     0
102
RTVSPropertyOp61
 70
     0
102
RTVSPropertyOp62
 70
     0
  0
XRECORD
  5
2D26
102
{ACAD_REACTORS
330
2D25
102
}
330
2D25
100
AcDbXrecord
280
     1
102
RTVSPost2010Prop28
280
     0
102
RTVSPost2010PropOp28
 70
     1
102
RTVSPost2010Prop29
280
     1
102
RTVSPost2010PropOp29
 70
     1
102
RTVSPost2010Prop30
280
     1
102
RTVSPost2010PropOp30
 70
     1
102
RTVSPost2010Prop31
280
     0
102
RTVSPost2010PropOp31
 70
     1
102
RTVSPost2010Prop32
280
     0
102
RTVSPost2010PropOp32
 70
     1
102
RTVSPost2010Prop33
280
     0
102
RTVSPost2010PropOp33
 70
     1
102
RTVSPost2010Prop34
280
     0
102
RTVSPost2010PropOp34
 70
     1
102
RTVSPost2010Prop35
280
     0
102
RTVSPost2010PropOp35
 70
     1
102
RTVSPost2010Prop36
280
     0
102
RTVSPost2010PropOp36
 70
     1
102
RTVSPost2010Prop37
 90
       50
102
RTVSPost2010PropOp37
 70
     1
102
RTVSPost2010Prop38
140
0.0
102
RTVSPost2010PropOp38
 70
     1
102
RTVSPost2010Prop39
140
1.0
102
RTVSPost2010PropOp39
 70
     1
102
RTVSPost2010Prop40
 90
        0
102
RTVSPost2010PropOp40
 70
     1
102
RTVSPost2010Prop41ColorIndex
 90
       18
102
RTVSPost2010Prop41ColorRGB
 90
        0
102
RTVSPost2010PropOp41
 70
     1
102
RTVSPost2010Prop42
 90
       50
102
RTVSPost2010PropOp42
 70
     1
102
RTVSPost2010Prop43
 90
        3
102
RTVSPost2010PropOp43
 70
     1
102
RTVSPost2010Prop44ColorIndex
 90
        5
102
RTVSPost2010Prop44ColorRGB
 90
      255
102
RTVSPost2010PropOp44
 70
     1
102
RTVSPost2010Prop45
280
     0
102
RTVSPost2010PropOp45
 70
     1
102
RTVSPost2010Prop46
 90
       50
102
RTVSPost2010PropOp46
 70
     1
102
RTVSPost2010Prop47
 90
       50
102
RTVSPost2010PropOp47
 70
     1
102
RTVSPost2010Prop48
 90
       50
102
RTVSPost2010PropOp48
 70
     1
102
RTVSPost2010Prop49
280
     0
102
RTVSPost2010PropOp49
 70
     1
102
RTVSPost2010Prop50
 90
       50
102
RTVSPost2010PropOp50
 70
     1
102
RTVSPost2010Prop51ColorIndex
 90
      256
102
RTVSPost2010Prop51ColorRGB
 90
-16777216
102
RTVSPost2010PropOp51
 70
     0
102
RTVSPost2010Prop52
140
1.0
102
RTVSPost2010PropOp52
 70
     0
102
RTVSPost2010Prop53
 90
        2
102
RTVSPost2010PropOp53
 70
     1
102
RTVSPost2010Prop54
  1
strokes_ogs.tif
102
RTVSPost2010PropOp54
 70
     1
102
RTVSPost2010Prop55
280
     0
102
RTVSPost2010PropOp55
 70
     1
102
RTVSPost2010Prop56
140
1.0
102
RTVSPost2010PropOp56
 70
     1
102
RTVSPost2010Prop57
140
1.0
102
RTVSPost2010PropOp57
 70
     1
102
RTVSPropertyOp0
 70
     1
102
RTVSPropertyOp1
 70
     1
102
RTVSPropertyOp2
 70
     1
102
RTVSPropertyOp3
 70
     1
102
RTVSPropertyOp4
 70
     1
102
RTVSPropertyOp5
 70
     1
102
RTVSPropertyOp6
 70
     1
102
RTVSPropertyOp7
 70
     1
102
RTVSPropertyOp8
 70
     1
102
RTVSPropertyOp9
 70
     1
102
RTVSPropertyOp10
 70
     1
102
RTVSPropertyOp11
 70
     1
102
RTVSPropertyOp12
 70
     1
102
RTVSPropertyOp13
 70
     1
102
RTVSPropertyOp14
 70
     1
102
RTVSPropertyOp15
 70
     1
102
RTVSPropertyOp16
 70
     1
102
RTVSPropertyOp17
 70
     1
102
RTVSPropertyOp18
 70
     1
102
RTVSPropertyOp19
 70
     1
102
RTVSPropertyOp20
 70
     1
102
RTVSPropertyOp21
 70
     1
102
RTVSPropertyOp22
 70
     1
102
RTVSPropertyOp23
 70
     1
102
RTVSPropertyOp24
 70
     1
102
RTVSPropertyOp25
 70
     1
102
RTVSPropertyOp26
 70
     1
102
RTVSPropertyOp27
 70
     1
102
RTVSPropertyOp28
 70
     1
102
RTVSPropertyOp29
 70
     1
102
RTVSPropertyOp30
 70
     1
102
RTVSPropertyOp31
 70
     1
102
RTVSPropertyOp32
 70
     1
102
RTVSPropertyOp33
 70
     1
102
RTVSPropertyOp34
 70
     1
102
RTVSPropertyOp35
 70
     1
102
RTVSPropertyOp36
 70
     1
102
RTVSPropertyOp37
 70
     1
102
RTVSPropertyOp38
 70
     1
102
RTVSPropertyOp39
 70
     1
102
RTVSPropertyOp40
 70
     1
102
RTVSPropertyOp41
 70
     1
102
RTVSPropertyOp42
 70
     1
102
RTVSPropertyOp43
 70
     1
102
RTVSPropertyOp44
 70
     1
102
RTVSPropertyOp45
 70
     1
102
RTVSPropertyOp46
 70
     1
102
RTVSPropertyOp47
 70
     1
102
RTVSPropertyOp48
 70
     1
102
RTVSPropertyOp49
 70
     1
102
RTVSPropertyOp50
 70
     1
102
RTVSPropertyOp51
 70
     0
102
RTVSPropertyOp52
 70
     0
102
RTVSPropertyOp53
 70
     1
102
RTVSPropertyOp54
 70
     1
102
RTVSPropertyOp55
 70
     1
102
RTVSPropertyOp56
 70
     1
102
RTVSPropertyOp57
 70
     1
102
RTVSPropertyOp58
 70
     1
102
RTVSPropertyOp59
 70
     1
102
RTVSPropertyOp60
 70
     1
102
RTVSPropertyOp61
 70
     1
102
RTVSPropertyOp62
 70
     1
  0
XRECORD
  5
2D3C
102
{ACAD_REACTORS
330
2D3B
102
}
330
2D3B
100
AcDbXrecord
280
     1
102
RTVSPost2010Prop28
280
     0
102
RTVSPost2010PropOp28
 70
     1
102
RTVSPost2010Prop29
280
     1
102
RTVSPost2010PropOp29
 70
     1
102
RTVSPost2010Prop30
280
     1
102
RTVSPost2010PropOp30
 70
     1
102
RTVSPost2010Prop31
280
     0
102
RTVSPost2010PropOp31
 70
     1
102
RTVSPost2010Prop32
280
     0
102
RTVSPost2010PropOp32
 70
     1
102
RTVSPost2010Prop33
280
     0
102
RTVSPost2010PropOp33
 70
     1
102
RTVSPost2010Prop34
280
     0
102
RTVSPost2010PropOp34
 70
     1
102
RTVSPost2010Prop35
280
     0
102
RTVSPost2010PropOp35
 70
     1
102
RTVSPost2010Prop36
280
     0
102
RTVSPost2010PropOp36
 70
     1
102
RTVSPost2010Prop37
 90
       50
102
RTVSPost2010PropOp37
 70
     1
102
RTVSPost2010Prop38
140
0.0
102
RTVSPost2010PropOp38
 70
     1
102
RTVSPost2010Prop39
140
1.0
102
RTVSPost2010PropOp39
 70
     1
102
RTVSPost2010Prop40
 90
        0
102
RTVSPost2010PropOp40
 70
     1
102
RTVSPost2010Prop41ColorIndex
 90
       18
102
RTVSPost2010Prop41ColorRGB
 90
        0
102
RTVSPost2010PropOp41
 70
     1
102
RTVSPost2010Prop42
 90
       50
102
RTVSPost2010PropOp42
 70
     1
102
RTVSPost2010Prop43
 90
        3
102
RTVSPost2010PropOp43
 70
     1
102
RTVSPost2010Prop44ColorIndex
 90
        5
102
RTVSPost2010Prop44ColorRGB
 90
      255
102
RTVSPost2010PropOp44
 70
     1
102
RTVSPost2010Prop45
280
     0
102
RTVSPost2010PropOp45
 70
     1
102
RTVSPost2010Prop46
 90
       50
102
RTVSPost2010PropOp46
 70
     1
102
RTVSPost2010Prop47
 90
       50
102
RTVSPost2010PropOp47
 70
     1
102
RTVSPost2010Prop48
 90
       50
102
RTVSPost2010PropOp48
 70
     1
102
RTVSPost2010Prop49
280
     0
102
RTVSPost2010PropOp49
 70
     1
102
RTVSPost2010Prop50
 90
       50
102
RTVSPost2010PropOp50
 70
     1
102
RTVSPost2010Prop51ColorIndex
 90
      256
102
RTVSPost2010Prop51ColorRGB
 90
-16777216
102
RTVSPost2010PropOp51
 70
     0
102
RTVSPost2010Prop52
140
1.0
102
RTVSPost2010PropOp52
 70
     0
102
RTVSPost2010Prop53
 90
        2
102
RTVSPost2010PropOp53
 70
     1
102
RTVSPost2010Prop54
  1
strokes_ogs.tif
102
RTVSPost2010PropOp54
 70
     1
102
RTVSPost2010Prop55
280
     0
102
RTVSPost2010PropOp55
 70
     1
102
RTVSPost2010Prop56
140
1.0
102
RTVSPost2010PropOp56
 70
     1
102
RTVSPost2010Prop57
140
1.0
102
RTVSPost2010PropOp57
 70
     1
102
RTVSPropertyOp0
 70
     1
102
RTVSPropertyOp1
 70
     1
102
RTVSPropertyOp2
 70
     1
102
RTVSPropertyOp3
 70
     1
102
RTVSPropertyOp4
 70
     1
102
RTVSPropertyOp5
 70
     1
102
RTVSPropertyOp6
 70
     1
102
RTVSPropertyOp7
 70
     1
102
RTVSPropertyOp8
 70
     1
102
RTVSPropertyOp9
 70
     1
102
RTVSPropertyOp10
 70
     1
102
RTVSPropertyOp11
 70
     1
102
RTVSPropertyOp12
 70
     1
102
RTVSPropertyOp13
 70
     1
102
RTVSPropertyOp14
 70
     1
102
RTVSPropertyOp15
 70
     1
102
RTVSPropertyOp16
 70
     1
102
RTVSPropertyOp17
 70
     1
102
RTVSPropertyOp18
 70
     1
102
RTVSPropertyOp19
 70
     1
102
RTVSPropertyOp20
 70
     1
102
RTVSPropertyOp21
 70
     1
102
RTVSPropertyOp22
 70
     1
102
RTVSPropertyOp23
 70
     1
102
RTVSPropertyOp24
 70
     1
102
RTVSPropertyOp25
 70
     1
102
RTVSPropertyOp26
 70
     1
102
RTVSPropertyOp27
 70
     1
102
RTVSPropertyOp28
 70
     1
102
RTVSPropertyOp29
 70
     1
102
RTVSPropertyOp30
 70
     1
102
RTVSPropertyOp31
 70
     1
102
RTVSPropertyOp32
 70
     1
102
RTVSPropertyOp33
 70
     1
102
RTVSPropertyOp34
 70
     1
102
RTVSPropertyOp35
 70
     1
102
RTVSPropertyOp36
 70
     1
102
RTVSPropertyOp37
 70
     1
102
RTVSPropertyOp38
 70
     1
102
RTVSPropertyOp39
 70
     1
102
RTVSPropertyOp40
 70
     1
102
RTVSPropertyOp41
 70
     1
102
RTVSPropertyOp42
 70
     1
102
RTVSPropertyOp43
 70
     1
102
RTVSPropertyOp44
 70
     1
102
RTVSPropertyOp45
 70
     1
102
RTVSPropertyOp46
 70
     1
102
RTVSPropertyOp47
 70
     1
102
RTVSPropertyOp48
 70
     1
102
RTVSPropertyOp49
 70
     1
102
RTVSPropertyOp50
 70
     1
102
RTVSPropertyOp51
 70
     0
102
RTVSPropertyOp52
 70
     0
102
RTVSPropertyOp53
 70
     1
102
RTVSPropertyOp54
 70
     1
102
RTVSPropertyOp55
 70
     1
102
RTVSPropertyOp56
 70
     1
102
RTVSPropertyOp57
 70
     1
102
RTVSPropertyOp58
 70
     1
102
RTVSPropertyOp59
 70
     1
102
RTVSPropertyOp60
 70
     1
102
RTVSPropertyOp61
 70
     1
102
RTVSPropertyOp62
 70
     1
  0
XRECORD
  5
2D3A
102
{ACAD_REACTORS
330
2D39
102
}
330
2D39
100
AcDbXrecord
280
     1
102
RTVSPost2010Prop28
280
     0
102
RTVSPost2010PropOp28
 70
     1
102
RTVSPost2010Prop29
280
     1
102
RTVSPost2010PropOp29
 70
     1
102
RTVSPost2010Prop30
280
     1
102
RTVSPost2010PropOp30
 70
     1
102
RTVSPost2010Prop31
280
     0
102
RTVSPost2010PropOp31
 70
     1
102
RTVSPost2010Prop32
280
     0
102
RTVSPost2010PropOp32
 70
     1
102
RTVSPost2010Prop33
280
     0
102
RTVSPost2010PropOp33
 70
     1
102
RTVSPost2010Prop34
280
     0
102
RTVSPost2010PropOp34
 70
     1
102
RTVSPost2010Prop35
280
     0
102
RTVSPost2010PropOp35
 70
     1
102
RTVSPost2010Prop36
280
     0
102
RTVSPost2010PropOp36
 70
     1
102
RTVSPost2010Prop37
 90
       50
102
RTVSPost2010PropOp37
 70
     1
102
RTVSPost2010Prop38
140
0.0
102
RTVSPost2010PropOp38
 70
     1
102
RTVSPost2010Prop39
140
1.0
102
RTVSPost2010PropOp39
 70
     1
102
RTVSPost2010Prop40
 90
        0
102
RTVSPost2010PropOp40
 70
     1
102
RTVSPost2010Prop41ColorIndex
 90
       18
102
RTVSPost2010Prop41ColorRGB
 90
        0
102
RTVSPost2010PropOp41
 70
     1
102
RTVSPost2010Prop42
 90
       50
102
RTVSPost2010PropOp42
 70
     1
102
RTVSPost2010Prop43
 90
        3
102
RTVSPost2010PropOp43
 70
     1
102
RTVSPost2010Prop44ColorIndex
 90
        5
102
RTVSPost2010Prop44ColorRGB
 90
      255
102
RTVSPost2010PropOp44
 70
     1
102
RTVSPost2010Prop45
280
     0
102
RTVSPost2010PropOp45
 70
     1
102
RTVSPost2010Prop46
 90
       50
102
RTVSPost2010PropOp46
 70
     1
102
RTVSPost2010Prop47
 90
       50
102
RTVSPost2010PropOp47
 70
     1
102
RTVSPost2010Prop48
 90
       50
102
RTVSPost2010PropOp48
 70
     1
102
RTVSPost2010Prop49
280
     0
102
RTVSPost2010PropOp49
 70
     1
102
RTVSPost2010Prop50
 90
       50
102
RTVSPost2010PropOp50
 70
     1
102
RTVSPost2010Prop51ColorIndex
 90
      256
102
RTVSPost2010Prop51ColorRGB
 90
-16777216
102
RTVSPost2010PropOp51
 70
     0
102
RTVSPost2010Prop52
140
1.0
102
RTVSPost2010PropOp52
 70
     0
102
RTVSPost2010Prop53
 90
        2
102
RTVSPost2010PropOp53
 70
     1
102
RTVSPost2010Prop54
  1
strokes_ogs.tif
102
RTVSPost2010PropOp54
 70
     1
102
RTVSPost2010Prop55
280
     0
102
RTVSPost2010PropOp55
 70
     1
102
RTVSPost2010Prop56
140
1.0
102
RTVSPost2010PropOp56
 70
     1
102
RTVSPost2010Prop57
140
1.0
102
RTVSPost2010PropOp57
 70
     1
102
RTVSPropertyOp0
 70
     1
102
RTVSPropertyOp1
 70
     1
102
RTVSPropertyOp2
 70
     1
102
RTVSPropertyOp3
 70
     1
102
RTVSPropertyOp4
 70
     1
102
RTVSPropertyOp5
 70
     1
102
RTVSPropertyOp6
 70
     1
102
RTVSPropertyOp7
 70
     1
102
RTVSPropertyOp8
 70
     1
102
RTVSPropertyOp9
 70
     1
102
RTVSPropertyOp10
 70
     1
102
RTVSPropertyOp11
 70
     1
102
RTVSPropertyOp12
 70
     1
102
RTVSPropertyOp13
 70
     1
102
RTVSPropertyOp14
 70
     1
102
RTVSPropertyOp15
 70
     1
102
RTVSPropertyOp16
 70
     1
102
RTVSPropertyOp17
 70
     1
102
RTVSPropertyOp18
 70
     1
102
RTVSPropertyOp19
 70
     1
102
RTVSPropertyOp20
 70
     1
102
RTVSPropertyOp21
 70
     1
102
RTVSPropertyOp22
 70
     1
102
RTVSPropertyOp23
 70
     1
102
RTVSPropertyOp24
 70
     1
102
RTVSPropertyOp25
 70
     1
102
RTVSPropertyOp26
 70
     1
102
RTVSPropertyOp27
 70
     1
102
RTVSPropertyOp28
 70
     1
102
RTVSPropertyOp29
 70
     1
102
RTVSPropertyOp30
 70
     1
102
RTVSPropertyOp31
 70
     1
102
RTVSPropertyOp32
 70
     1
102
RTVSPropertyOp33
 70
     1
102
RTVSPropertyOp34
 70
     1
102
RTVSPropertyOp35
 70
     1
102
RTVSPropertyOp36
 70
     1
102
RTVSPropertyOp37
 70
     1
102
RTVSPropertyOp38
 70
     1
102
RTVSPropertyOp39
 70
     1
102
RTVSPropertyOp40
 70
     1
102
RTVSPropertyOp41
 70
     1
102
RTVSPropertyOp42
 70
     1
102
RTVSPropertyOp43
 70
     1
102
RTVSPropertyOp44
 70
     1
102
RTVSPropertyOp45
 70
     1
102
RTVSPropertyOp46
 70
     1
102
RTVSPropertyOp47
 70
     1
102
RTVSPropertyOp48
 70
     1
102
RTVSPropertyOp49
 70
     1
102
RTVSPropertyOp50
 70
     1
102
RTVSPropertyOp51
 70
     0
102
RTVSPropertyOp52
 70
     0
102
RTVSPropertyOp53
 70
     1
102
RTVSPropertyOp54
 70
     1
102
RTVSPropertyOp55
 70
     1
102
RTVSPropertyOp56
 70
     1
102
RTVSPropertyOp57
 70
     1
102
RTVSPropertyOp58
 70
     1
102
RTVSPropertyOp59
 70
     1
102
RTVSPropertyOp60
 70
     1
102
RTVSPropertyOp61
 70
     1
102
RTVSPropertyOp62
 70
     1
  0
XRECORD
  5
2D34
102
{ACAD_REACTORS
330
2D33
102
}
330
2D33
100
AcDbXrecord
280
     1
102
RTVSPost2010Prop28
280
     0
102
RTVSPost2010PropOp28
 70
     1
102
RTVSPost2010Prop29
280
     1
102
RTVSPost2010PropOp29
 70
     1
102
RTVSPost2010Prop30
280
     1
102
RTVSPost2010PropOp30
 70
     1
102
RTVSPost2010Prop31
280
     0
102
RTVSPost2010PropOp31
 70
     1
102
RTVSPost2010Prop32
280
     0
102
RTVSPost2010PropOp32
 70
     1
102
RTVSPost2010Prop33
280
     0
102
RTVSPost2010PropOp33
 70
     1
102
RTVSPost2010Prop34
280
     0
102
RTVSPost2010PropOp34
 70
     1
102
RTVSPost2010Prop35
280
     0
102
RTVSPost2010PropOp35
 70
     1
102
RTVSPost2010Prop36
280
     0
102
RTVSPost2010PropOp36
 70
     1
102
RTVSPost2010Prop37
 90
       50
102
RTVSPost2010PropOp37
 70
     1
102
RTVSPost2010Prop38
140
0.0
102
RTVSPost2010PropOp38
 70
     1
102
RTVSPost2010Prop39
140
1.0
102
RTVSPost2010PropOp39
 70
     1
102
RTVSPost2010Prop40
 90
        0
102
RTVSPost2010PropOp40
 70
     1
102
RTVSPost2010Prop41ColorIndex
 90
       18
102
RTVSPost2010Prop41ColorRGB
 90
        0
102
RTVSPost2010PropOp41
 70
     1
102
RTVSPost2010Prop42
 90
       50
102
RTVSPost2010PropOp42
 70
     1
102
RTVSPost2010Prop43
 90
        3
102
RTVSPost2010PropOp43
 70
     1
102
RTVSPost2010Prop44ColorIndex
 90
        5
102
RTVSPost2010Prop44ColorRGB
 90
      255
102
RTVSPost2010PropOp44
 70
     1
102
RTVSPost2010Prop45
280
     0
102
RTVSPost2010PropOp45
 70
     1
102
RTVSPost2010Prop46
 90
       50
102
RTVSPost2010PropOp46
 70
     1
102
RTVSPost2010Prop47
 90
       50
102
RTVSPost2010PropOp47
 70
     1
102
RTVSPost2010Prop48
 90
       50
102
RTVSPost2010PropOp48
 70
     1
102
RTVSPost2010Prop49
280
     0
102
RTVSPost2010PropOp49
 70
     1
102
RTVSPost2010Prop50
 90
       50
102
RTVSPost2010PropOp50
 70
     1
102
RTVSPost2010Prop51ColorIndex
 90
      256
102
RTVSPost2010Prop51ColorRGB
 90
-16777216
102
RTVSPost2010PropOp51
 70
     0
102
RTVSPost2010Prop52
140
1.0
102
RTVSPost2010PropOp52
 70
     0
102
RTVSPost2010Prop53
 90
        2
102
RTVSPost2010PropOp53
 70
     1
102
RTVSPost2010Prop54
  1
strokes_ogs.tif
102
RTVSPost2010PropOp54
 70
     1
102
RTVSPost2010Prop55
280
     0
102
RTVSPost2010PropOp55
 70
     1
102
RTVSPost2010Prop56
140
1.0
102
RTVSPost2010PropOp56
 70
     1
102
RTVSPost2010Prop57
140
1.0
102
RTVSPost2010PropOp57
 70
     1
102
RTVSPropertyOp0
 70
     1
102
RTVSPropertyOp1
 70
     1
102
RTVSPropertyOp2
 70
     1
102
RTVSPropertyOp3
 70
     1
102
RTVSPropertyOp4
 70
     1
102
RTVSPropertyOp5
 70
     1
102
RTVSPropertyOp6
 70
     1
102
RTVSPropertyOp7
 70
     1
102
RTVSPropertyOp8
 70
     1
102
RTVSPropertyOp9
 70
     1
102
RTVSPropertyOp10
 70
     1
102
RTVSPropertyOp11
 70
     1
102
RTVSPropertyOp12
 70
     1
102
RTVSPropertyOp13
 70
     1
102
RTVSPropertyOp14
 70
     1
102
RTVSPropertyOp15
 70
     1
102
RTVSPropertyOp16
 70
     1
102
RTVSPropertyOp17
 70
     1
102
RTVSPropertyOp18
 70
     1
102
RTVSPropertyOp19
 70
     1
102
RTVSPropertyOp20
 70
     1
102
RTVSPropertyOp21
 70
     1
102
RTVSPropertyOp22
 70
     1
102
RTVSPropertyOp23
 70
     1
102
RTVSPropertyOp24
 70
     1
102
RTVSPropertyOp25
 70
     1
102
RTVSPropertyOp26
 70
     1
102
RTVSPropertyOp27
 70
     1
102
RTVSPropertyOp28
 70
     1
102
RTVSPropertyOp29
 70
     1
102
RTVSPropertyOp30
 70
     1
102
RTVSPropertyOp31
 70
     1
102
RTVSPropertyOp32
 70
     1
102
RTVSPropertyOp33
 70
     1
102
RTVSPropertyOp34
 70
     1
102
RTVSPropertyOp35
 70
     1
102
RTVSPropertyOp36
 70
     1
102
RTVSPropertyOp37
 70
     1
102
RTVSPropertyOp38
 70
     1
102
RTVSPropertyOp39
 70
     1
102
RTVSPropertyOp40
 70
     1
102
RTVSPropertyOp41
 70
     1
102
RTVSPropertyOp42
 70
     1
102
RTVSPropertyOp43
 70
     1
102
RTVSPropertyOp44
 70
     1
102
RTVSPropertyOp45
 70
     1
102
RTVSPropertyOp46
 70
     1
102
RTVSPropertyOp47
 70
     1
102
RTVSPropertyOp48
 70
     1
102
RTVSPropertyOp49
 70
     1
102
RTVSPropertyOp50
 70
     1
102
RTVSPropertyOp51
 70
     0
102
RTVSPropertyOp52
 70
     0
102
RTVSPropertyOp53
 70
     1
102
RTVSPropertyOp54
 70
     1
102
RTVSPropertyOp55
 70
     1
102
RTVSPropertyOp56
 70
     1
102
RTVSPropertyOp57
 70
     1
102
RTVSPropertyOp58
 70
     1
102
RTVSPropertyOp59
 70
     1
102
RTVSPropertyOp60
 70
     1
102
RTVSPropertyOp61
 70
     1
102
RTVSPropertyOp62
 70
     1
  0
XRECORD
  5
2D36
102
{ACAD_REACTORS
330
2D35
102
}
330
2D35
100
AcDbXrecord
280
     1
102
RTVSPost2010Prop28
280
     0
102
RTVSPost2010PropOp28
 70
     1
102
RTVSPost2010Prop29
280
     1
102
RTVSPost2010PropOp29
 70
     1
102
RTVSPost2010Prop30
280
     1
102
RTVSPost2010PropOp30
 70
     1
102
RTVSPost2010Prop31
280
     0
102
RTVSPost2010PropOp31
 70
     1
102
RTVSPost2010Prop32
280
     0
102
RTVSPost2010PropOp32
 70
     1
102
RTVSPost2010Prop33
280
     0
102
RTVSPost2010PropOp33
 70
     1
102
RTVSPost2010Prop34
280
     0
102
RTVSPost2010PropOp34
 70
     1
102
RTVSPost2010Prop35
280
     0
102
RTVSPost2010PropOp35
 70
     1
102
RTVSPost2010Prop36
280
     0
102
RTVSPost2010PropOp36
 70
     1
102
RTVSPost2010Prop37
 90
       50
102
RTVSPost2010PropOp37
 70
     1
102
RTVSPost2010Prop38
140
0.0
102
RTVSPost2010PropOp38
 70
     1
102
RTVSPost2010Prop39
140
1.0
102
RTVSPost2010PropOp39
 70
     1
102
RTVSPost2010Prop40
 90
        0
102
RTVSPost2010PropOp40
 70
     1
102
RTVSPost2010Prop41ColorIndex
 90
       18
102
RTVSPost2010Prop41ColorRGB
 90
        0
102
RTVSPost2010PropOp41
 70
     1
102
RTVSPost2010Prop42
 90
       50
102
RTVSPost2010PropOp42
 70
     1
102
RTVSPost2010Prop43
 90
        3
102
RTVSPost2010PropOp43
 70
     1
102
RTVSPost2010Prop44ColorIndex
 90
        5
102
RTVSPost2010Prop44ColorRGB
 90
      255
102
RTVSPost2010PropOp44
 70
     1
102
RTVSPost2010Prop45
280
     0
102
RTVSPost2010PropOp45
 70
     1
102
RTVSPost2010Prop46
 90
       50
102
RTVSPost2010PropOp46
 70
     1
102
RTVSPost2010Prop47
 90
       50
102
RTVSPost2010PropOp47
 70
     1
102
RTVSPost2010Prop48
 90
       50
102
RTVSPost2010PropOp48
 70
     1
102
RTVSPost2010Prop49
280
     0
102
RTVSPost2010PropOp49
 70
     1
102
RTVSPost2010Prop50
 90
       50
102
RTVSPost2010PropOp50
 70
     1
102
RTVSPost2010Prop51ColorIndex
 90
      256
102
RTVSPost2010Prop51ColorRGB
 90
-16777216
102
RTVSPost2010PropOp51
 70
     0
102
RTVSPost2010Prop52
140
1.0
102
RTVSPost2010PropOp52
 70
     0
102
RTVSPost2010Prop53
 90
        2
102
RTVSPost2010PropOp53
 70
     1
102
RTVSPost2010Prop54
  1
strokes_ogs.tif
102
RTVSPost2010PropOp54
 70
     1
102
RTVSPost2010Prop55
280
     0
102
RTVSPost2010PropOp55
 70
     1
102
RTVSPost2010Prop56
140
1.0
102
RTVSPost2010PropOp56
 70
     1
102
RTVSPost2010Prop57
140
1.0
102
RTVSPost2010PropOp57
 70
     1
102
RTVSPropertyOp0
 70
     1
102
RTVSPropertyOp1
 70
     1
102
RTVSPropertyOp2
 70
     1
102
RTVSPropertyOp3
 70
     1
102
RTVSPropertyOp4
 70
     1
102
RTVSPropertyOp5
 70
     1
102
RTVSPropertyOp6
 70
     1
102
RTVSPropertyOp7
 70
     1
102
RTVSPropertyOp8
 70
     1
102
RTVSPropertyOp9
 70
     1
102
RTVSPropertyOp10
 70
     1
102
RTVSPropertyOp11
 70
     1
102
RTVSPropertyOp12
 70
     1
102
RTVSPropertyOp13
 70
     1
102
RTVSPropertyOp14
 70
     1
102
RTVSPropertyOp15
 70
     1
102
RTVSPropertyOp16
 70
     1
102
RTVSPropertyOp17
 70
     1
102
RTVSPropertyOp18
 70
     1
102
RTVSPropertyOp19
 70
     1
102
RTVSPropertyOp20
 70
     1
102
RTVSPropertyOp21
 70
     1
102
RTVSPropertyOp22
 70
     1
102
RTVSPropertyOp23
 70
     1
102
RTVSPropertyOp24
 70
     1
102
RTVSPropertyOp25
 70
     1
102
RTVSPropertyOp26
 70
     1
102
RTVSPropertyOp27
 70
     1
102
RTVSPropertyOp28
 70
     1
102
RTVSPropertyOp29
 70
     1
102
RTVSPropertyOp30
 70
     1
102
RTVSPropertyOp31
 70
     1
102
RTVSPropertyOp32
 70
     1
102
RTVSPropertyOp33
 70
     1
102
RTVSPropertyOp34
 70
     1
102
RTVSPropertyOp35
 70
     1
102
RTVSPropertyOp36
 70
     1
102
RTVSPropertyOp37
 70
     1
102
RTVSPropertyOp38
 70
     1
102
RTVSPropertyOp39
 70
     1
102
RTVSPropertyOp40
 70
     1
102
RTVSPropertyOp41
 70
     1
102
RTVSPropertyOp42
 70
     1
102
RTVSPropertyOp43
 70
     1
102
RTVSPropertyOp44
 70
     1
102
RTVSPropertyOp45
 70
     1
102
RTVSPropertyOp46
 70
     1
102
RTVSPropertyOp47
 70
     1
102
RTVSPropertyOp48
 70
     1
102
RTVSPropertyOp49
 70
     1
102
RTVSPropertyOp50
 70
     1
102
RTVSPropertyOp51
 70
     0
102
RTVSPropertyOp52
 70
     0
102
RTVSPropertyOp53
 70
     1
102
RTVSPropertyOp54
 70
     1
102
RTVSPropertyOp55
 70
     1
102
RTVSPropertyOp56
 70
     1
102
RTVSPropertyOp57
 70
     1
102
RTVSPropertyOp58
 70
     1
102
RTVSPropertyOp59
 70
     1
102
RTVSPropertyOp60
 70
     1
102
RTVSPropertyOp61
 70
     1
102
RTVSPropertyOp62
 70
     1
  0
XRECORD
  5
2D2C
102
{ACAD_REACTORS
330
2D2B
102
}
330
2D2B
100
AcDbXrecord
280
     1
102
RTVSPost2010Prop28
280
     0
102
RTVSPost2010PropOp28
 70
     1
102
RTVSPost2010Prop29
280
     1
102
RTVSPost2010PropOp29
 70
     1
102
RTVSPost2010Prop30
280
     1
102
RTVSPost2010PropOp30
 70
     1
102
RTVSPost2010Prop31
280
     0
102
RTVSPost2010PropOp31
 70
     1
102
RTVSPost2010Prop32
280
     0
102
RTVSPost2010PropOp32
 70
     1
102
RTVSPost2010Prop33
280
     0
102
RTVSPost2010PropOp33
 70
     1
102
RTVSPost2010Prop34
280
     0
102
RTVSPost2010PropOp34
 70
     1
102
RTVSPost2010Prop35
280
     0
102
RTVSPost2010PropOp35
 70
     1
102
RTVSPost2010Prop36
280
     0
102
RTVSPost2010PropOp36
 70
     1
102
RTVSPost2010Prop37
 90
       50
102
RTVSPost2010PropOp37
 70
     1
102
RTVSPost2010Prop38
140
0.0
102
RTVSPost2010PropOp38
 70
     1
102
RTVSPost2010Prop39
140
1.0
102
RTVSPost2010PropOp39
 70
     1
102
RTVSPost2010Prop40
 90
        0
102
RTVSPost2010PropOp40
 70
     1
102
RTVSPost2010Prop41ColorIndex
 90
       18
102
RTVSPost2010Prop41ColorRGB
 90
        0
102
RTVSPost2010PropOp41
 70
     1
102
RTVSPost2010Prop42
 90
       50
102
RTVSPost2010PropOp42
 70
     1
102
RTVSPost2010Prop43
 90
        3
102
RTVSPost2010PropOp43
 70
     1
102
RTVSPost2010Prop44ColorIndex
 90
        5
102
RTVSPost2010Prop44ColorRGB
 90
      255
102
RTVSPost2010PropOp44
 70
     1
102
RTVSPost2010Prop45
280
     0
102
RTVSPost2010PropOp45
 70
     1
102
RTVSPost2010Prop46
 90
       50
102
RTVSPost2010PropOp46
 70
     1
102
RTVSPost2010Prop47
 90
       50
102
RTVSPost2010PropOp47
 70
     1
102
RTVSPost2010Prop48
 90
       50
102
RTVSPost2010PropOp48
 70
     1
102
RTVSPost2010Prop49
280
     0
102
RTVSPost2010PropOp49
 70
     1
102
RTVSPost2010Prop50
 90
       50
102
RTVSPost2010PropOp50
 70
     1
102
RTVSPost2010Prop51ColorIndex
 90
      256
102
RTVSPost2010Prop51ColorRGB
 90
-16777216
102
RTVSPost2010PropOp51
 70
     0
102
RTVSPost2010Prop52
140
1.0
102
RTVSPost2010PropOp52
 70
     0
102
RTVSPost2010Prop53
 90
        2
102
RTVSPost2010PropOp53
 70
     1
102
RTVSPost2010Prop54
  1
strokes_ogs.tif
102
RTVSPost2010PropOp54
 70
     1
102
RTVSPost2010Prop55
280
     0
102
RTVSPost2010PropOp55
 70
     1
102
RTVSPost2010Prop56
140
1.0
102
RTVSPost2010PropOp56
 70
     1
102
RTVSPost2010Prop57
140
1.0
102
RTVSPost2010PropOp57
 70
     1
102
RTVSPropertyOp0
 70
     1
102
RTVSPropertyOp1
 70
     1
102
RTVSPropertyOp2
 70
     1
102
RTVSPropertyOp3
 70
     1
102
RTVSPropertyOp4
 70
     1
102
RTVSPropertyOp5
 70
     1
102
RTVSPropertyOp6
 70
     1
102
RTVSPropertyOp7
 70
     1
102
RTVSPropertyOp8
 70
     1
102
RTVSPropertyOp9
 70
     1
102
RTVSPropertyOp10
 70
     1
102
RTVSPropertyOp11
 70
     1
102
RTVSPropertyOp12
 70
     1
102
RTVSPropertyOp13
 70
     1
102
RTVSPropertyOp14
 70
     1
102
RTVSPropertyOp15
 70
     1
102
RTVSPropertyOp16
 70
     1
102
RTVSPropertyOp17
 70
     1
102
RTVSPropertyOp18
 70
     1
102
RTVSPropertyOp19
 70
     1
102
RTVSPropertyOp20
 70
     1
102
RTVSPropertyOp21
 70
     1
102
RTVSPropertyOp22
 70
     1
102
RTVSPropertyOp23
 70
     1
102
RTVSPropertyOp24
 70
     1
102
RTVSPropertyOp25
 70
     1
102
RTVSPropertyOp26
 70
     1
102
RTVSPropertyOp27
 70
     1
102
RTVSPropertyOp28
 70
     1
102
RTVSPropertyOp29
 70
     1
102
RTVSPropertyOp30
 70
     1
102
RTVSPropertyOp31
 70
     1
102
RTVSPropertyOp32
 70
     1
102
RTVSPropertyOp33
 70
     1
102
RTVSPropertyOp34
 70
     1
102
RTVSPropertyOp35
 70
     1
102
RTVSPropertyOp36
 70
     1
102
RTVSPropertyOp37
 70
     1
102
RTVSPropertyOp38
 70
     1
102
RTVSPropertyOp39
 70
     1
102
RTVSPropertyOp40
 70
     1
102
RTVSPropertyOp41
 70
     1
102
RTVSPropertyOp42
 70
     1
102
RTVSPropertyOp43
 70
     1
102
RTVSPropertyOp44
 70
     1
102
RTVSPropertyOp45
 70
     1
102
RTVSPropertyOp46
 70
     1
102
RTVSPropertyOp47
 70
     1
102
RTVSPropertyOp48
 70
     1
102
RTVSPropertyOp49
 70
     1
102
RTVSPropertyOp50
 70
     1
102
RTVSPropertyOp51
 70
     0
102
RTVSPropertyOp52
 70
     0
102
RTVSPropertyOp53
 70
     1
102
RTVSPropertyOp54
 70
     1
102
RTVSPropertyOp55
 70
     1
102
RTVSPropertyOp56
 70
     1
102
RTVSPropertyOp57
 70
     1
102
RTVSPropertyOp58
 70
     1
102
RTVSPropertyOp59
 70
     1
102
RTVSPropertyOp60
 70
     1
102
RTVSPropertyOp61
 70
     1
102
RTVSPropertyOp62
 70
     1
  0
XRECORD
  5
2D20
102
{ACAD_REACTORS
330
2D1F
102
}
330
2D1F
100
AcDbXrecord
280
     1
102
RTVSPost2010Prop28
280
     0
102
RTVSPost2010PropOp28
 70
     1
102
RTVSPost2010Prop29
280
     1
102
RTVSPost2010PropOp29
 70
     1
102
RTVSPost2010Prop30
280
     1
102
RTVSPost2010PropOp30
 70
     1
102
RTVSPost2010Prop31
280
     0
102
RTVSPost2010PropOp31
 70
     1
102
RTVSPost2010Prop32
280
     0
102
RTVSPost2010PropOp32
 70
     1
102
RTVSPost2010Prop33
280
     0
102
RTVSPost2010PropOp33
 70
     1
102
RTVSPost2010Prop34
280
     0
102
RTVSPost2010PropOp34
 70
     1
102
RTVSPost2010Prop35
280
     0
102
RTVSPost2010PropOp35
 70
     1
102
RTVSPost2010Prop36
280
     0
102
RTVSPost2010PropOp36
 70
     1
102
RTVSPost2010Prop37
 90
       50
102
RTVSPost2010PropOp37
 70
     1
102
RTVSPost2010Prop38
140
0.0
102
RTVSPost2010PropOp38
 70
     1
102
RTVSPost2010Prop39
140
1.0
102
RTVSPost2010PropOp39
 70
     1
102
RTVSPost2010Prop40
 90
        0
102
RTVSPost2010PropOp40
 70
     1
102
RTVSPost2010Prop41ColorIndex
 90
       18
102
RTVSPost2010Prop41ColorRGB
 90
        0
102
RTVSPost2010PropOp41
 70
     1
102
RTVSPost2010Prop42
 90
       50
102
RTVSPost2010PropOp42
 70
     1
102
RTVSPost2010Prop43
 90
        3
102
RTVSPost2010PropOp43
 70
     1
102
RTVSPost2010Prop44ColorIndex
 90
        5
102
RTVSPost2010Prop44ColorRGB
 90
      255
102
RTVSPost2010PropOp44
 70
     1
102
RTVSPost2010Prop45
280
     0
102
RTVSPost2010PropOp45
 70
     1
102
RTVSPost2010Prop46
 90
       50
102
RTVSPost2010PropOp46
 70
     1
102
RTVSPost2010Prop47
 90
       50
102
RTVSPost2010PropOp47
 70
     1
102
RTVSPost2010Prop48
 90
       50
102
RTVSPost2010PropOp48
 70
     1
102
RTVSPost2010Prop49
280
     0
102
RTVSPost2010PropOp49
 70
     1
102
RTVSPost2010Prop50
 90
       50
102
RTVSPost2010PropOp50
 70
     1
102
RTVSPost2010Prop51ColorIndex
 90
      256
102
RTVSPost2010Prop51ColorRGB
 90
-16777216
102
RTVSPost2010PropOp51
 70
     0
102
RTVSPost2010Prop52
140
1.0
102
RTVSPost2010PropOp52
 70
     0
102
RTVSPost2010Prop53
 90
        2
102
RTVSPost2010PropOp53
 70
     1
102
RTVSPost2010Prop54
  1
strokes_ogs.tif
102
RTVSPost2010PropOp54
 70
     1
102
RTVSPost2010Prop55
280
     0
102
RTVSPost2010PropOp55
 70
     1
102
RTVSPost2010Prop56
140
1.0
102
RTVSPost2010PropOp56
 70
     1
102
RTVSPost2010Prop57
140
1.0
102
RTVSPost2010PropOp57
 70
     1
102
RTVSPropertyOp0
 70
     1
102
RTVSPropertyOp1
 70
     1
102
RTVSPropertyOp2
 70
     1
102
RTVSPropertyOp3
 70
     1
102
RTVSPropertyOp4
 70
     1
102
RTVSPropertyOp5
 70
     1
102
RTVSPropertyOp6
 70
     1
102
RTVSPropertyOp7
 70
     1
102
RTVSPropertyOp8
 70
     1
102
RTVSPropertyOp9
 70
     1
102
RTVSPropertyOp10
 70
     1
102
RTVSPropertyOp11
 70
     1
102
RTVSPropertyOp12
 70
     1
102
RTVSPropertyOp13
 70
     1
102
RTVSPropertyOp14
 70
     1
102
RTVSPropertyOp15
 70
     1
102
RTVSPropertyOp16
 70
     1
102
RTVSPropertyOp17
 70
     1
102
RTVSPropertyOp18
 70
     1
102
RTVSPropertyOp19
 70
     1
102
RTVSPropertyOp20
 70
     1
102
RTVSPropertyOp21
 70
     1
102
RTVSPropertyOp22
 70
     1
102
RTVSPropertyOp23
 70
     1
102
RTVSPropertyOp24
 70
     1
102
RTVSPropertyOp25
 70
     1
102
RTVSPropertyOp26
 70
     1
102
RTVSPropertyOp27
 70
     1
102
RTVSPropertyOp28
 70
     1
102
RTVSPropertyOp29
 70
     1
102
RTVSPropertyOp30
 70
     1
102
RTVSPropertyOp31
 70
     1
102
RTVSPropertyOp32
 70
     1
102
RTVSPropertyOp33
 70
     1
102
RTVSPropertyOp34
 70
     1
102
RTVSPropertyOp35
 70
     1
102
RTVSPropertyOp36
 70
     1
102
RTVSPropertyOp37
 70
     1
102
RTVSPropertyOp38
 70
     1
102
RTVSPropertyOp39
 70
     1
102
RTVSPropertyOp40
 70
     1
102
RTVSPropertyOp41
 70
     1
102
RTVSPropertyOp42
 70
     1
102
RTVSPropertyOp43
 70
     1
102
RTVSPropertyOp44
 70
     1
102
RTVSPropertyOp45
 70
     1
102
RTVSPropertyOp46
 70
     1
102
RTVSPropertyOp47
 70
     1
102
RTVSPropertyOp48
 70
     1
102
RTVSPropertyOp49
 70
     1
102
RTVSPropertyOp50
 70
     1
102
RTVSPropertyOp51
 70
     0
102
RTVSPropertyOp52
 70
     0
102
RTVSPropertyOp53
 70
     1
102
RTVSPropertyOp54
 70
     1
102
RTVSPropertyOp55
 70
     1
102
RTVSPropertyOp56
 70
     1
102
RTVSPropertyOp57
 70
     1
102
RTVSPropertyOp58
 70
     1
102
RTVSPropertyOp59
 70
     1
102
RTVSPropertyOp60
 70
     1
102
RTVSPropertyOp61
 70
     1
102
RTVSPropertyOp62
 70
     1
  0
XRECORD
  5
2D38
102
{ACAD_REACTORS
330
2D37
102
}
330
2D37
100
AcDbXrecord
280
     1
102
RTVSPost2010Prop28
280
     0
102
RTVSPost2010PropOp28
 70
     1
102
RTVSPost2010Prop29
280
     1
102
RTVSPost2010PropOp29
 70
     1
102
RTVSPost2010Prop30
280
     1
102
RTVSPost2010PropOp30
 70
     1
102
RTVSPost2010Prop31
280
     0
102
RTVSPost2010PropOp31
 70
     1
102
RTVSPost2010Prop32
280
     0
102
RTVSPost2010PropOp32
 70
     1
102
RTVSPost2010Prop33
280
     0
102
RTVSPost2010PropOp33
 70
     1
102
RTVSPost2010Prop34
280
     0
102
RTVSPost2010PropOp34
 70
     1
102
RTVSPost2010Prop35
280
     0
102
RTVSPost2010PropOp35
 70
     1
102
RTVSPost2010Prop36
280
     0
102
RTVSPost2010PropOp36
 70
     1
102
RTVSPost2010Prop37
 90
       50
102
RTVSPost2010PropOp37
 70
     1
102
RTVSPost2010Prop38
140
0.0
102
RTVSPost2010PropOp38
 70
     1
102
RTVSPost2010Prop39
140
1.0
102
RTVSPost2010PropOp39
 70
     1
102
RTVSPost2010Prop40
 90
        0
102
RTVSPost2010PropOp40
 70
     1
102
RTVSPost2010Prop41ColorIndex
 90
       18
102
RTVSPost2010Prop41ColorRGB
 90
        0
102
RTVSPost2010PropOp41
 70
     1
102
RTVSPost2010Prop42
 90
       50
102
RTVSPost2010PropOp42
 70
     1
102
RTVSPost2010Prop43
 90
        3
102
RTVSPost2010PropOp43
 70
     1
102
RTVSPost2010Prop44ColorIndex
 90
        5
102
RTVSPost2010Prop44ColorRGB
 90
      255
102
RTVSPost2010PropOp44
 70
     1
102
RTVSPost2010Prop45
280
     0
102
RTVSPost2010PropOp45
 70
     1
102
RTVSPost2010Prop46
 90
       50
102
RTVSPost2010PropOp46
 70
     1
102
RTVSPost2010Prop47
 90
       50
102
RTVSPost2010PropOp47
 70
     1
102
RTVSPost2010Prop48
 90
       50
102
RTVSPost2010PropOp48
 70
     1
102
RTVSPost2010Prop49
280
     0
102
RTVSPost2010PropOp49
 70
     1
102
RTVSPost2010Prop50
 90
       50
102
RTVSPost2010PropOp50
 70
     1
102
RTVSPost2010Prop51ColorIndex
 90
      256
102
RTVSPost2010Prop51ColorRGB
 90
-16777216
102
RTVSPost2010PropOp51
 70
     0
102
RTVSPost2010Prop52
140
1.0
102
RTVSPost2010PropOp52
 70
     0
102
RTVSPost2010Prop53
 90
        2
102
RTVSPost2010PropOp53
 70
     1
102
RTVSPost2010Prop54
  1
strokes_ogs.tif
102
RTVSPost2010PropOp54
 70
     1
102
RTVSPost2010Prop55
280
     0
102
RTVSPost2010PropOp55
 70
     1
102
RTVSPost2010Prop56
140
1.0
102
RTVSPost2010PropOp56
 70
     1
102
RTVSPost2010Prop57
140
1.0
102
RTVSPost2010PropOp57
 70
     1
102
RTVSPropertyOp0
 70
     1
102
RTVSPropertyOp1
 70
     1
102
RTVSPropertyOp2
 70
     1
102
RTVSPropertyOp3
 70
     1
102
RTVSPropertyOp4
 70
     1
102
RTVSPropertyOp5
 70
     1
102
RTVSPropertyOp6
 70
     1
102
RTVSPropertyOp7
 70
     1
102
RTVSPropertyOp8
 70
     1
102
RTVSPropertyOp9
 70
     1
102
RTVSPropertyOp10
 70
     1
102
RTVSPropertyOp11
 70
     1
102
RTVSPropertyOp12
 70
     1
102
RTVSPropertyOp13
 70
     1
102
RTVSPropertyOp14
 70
     1
102
RTVSPropertyOp15
 70
     1
102
RTVSPropertyOp16
 70
     1
102
RTVSPropertyOp17
 70
     1
102
RTVSPropertyOp18
 70
     1
102
RTVSPropertyOp19
 70
     1
102
RTVSPropertyOp20
 70
     1
102
RTVSPropertyOp21
 70
     1
102
RTVSPropertyOp22
 70
     1
102
RTVSPropertyOp23
 70
     1
102
RTVSPropertyOp24
 70
     1
102
RTVSPropertyOp25
 70
     1
102
RTVSPropertyOp26
 70
     1
102
RTVSPropertyOp27
 70
     1
102
RTVSPropertyOp28
 70
     1
102
RTVSPropertyOp29
 70
     1
102
RTVSPropertyOp30
 70
     1
102
RTVSPropertyOp31
 70
     1
102
RTVSPropertyOp32
 70
     1
102
RTVSPropertyOp33
 70
     1
102
RTVSPropertyOp34
 70
     1
102
RTVSPropertyOp35
 70
     1
102
RTVSPropertyOp36
 70
     1
102
RTVSPropertyOp37
 70
     1
102
RTVSPropertyOp38
 70
     1
102
RTVSPropertyOp39
 70
     1
102
RTVSPropertyOp40
 70
     1
102
RTVSPropertyOp41
 70
     1
102
RTVSPropertyOp42
 70
     1
102
RTVSPropertyOp43
 70
     1
102
RTVSPropertyOp44
 70
     1
102
RTVSPropertyOp45
 70
     1
102
RTVSPropertyOp46
 70
     1
102
RTVSPropertyOp47
 70
     1
102
RTVSPropertyOp48
 70
     1
102
RTVSPropertyOp49
 70
     1
102
RTVSPropertyOp50
 70
     1
102
RTVSPropertyOp51
 70
     0
102
RTVSPropertyOp52
 70
     0
102
RTVSPropertyOp53
 70
     1
102
RTVSPropertyOp54
 70
     1
102
RTVSPropertyOp55
 70
     1
102
RTVSPropertyOp56
 70
     1
102
RTVSPropertyOp57
 70
     1
102
RTVSPropertyOp58
 70
     1
102
RTVSPropertyOp59
 70
     1
102
RTVSPropertyOp60
 70
     1
102
RTVSPropertyOp61
 70
     1
102
RTVSPropertyOp62
 70
     1
  0
ACDBASSOCARRAYACTIONBODY
  5
27AC
330
27AB
100
AcDbAssocActionBody
 90
        1
100
AcDbAssocParamBasedActionBody
 90
        0
 90
        0
 90
        3
360
27AD
360
27AE
360
27B2
 90
        0
 90
        9
 90
        0
  1
AlignItems
 90
        0
 90
        1
 90
        0
330
0
330
0
 90
        0
  1
AxesAngle
 90
        2
 90
        1
 40
1.570796326794896
330
0
330
0
 90
        0
  1
ItemSpacing
 90
        1
 90
        1
 40
12.56
330
0
330
0
 90
        0
  1
Items
 90
        0
 90
        1
 90
       77
330
0
330
0
 90
        0
  1
LevelSpacing
 90
        1
 90
        1
 40
1.0
330
0
330
0
 90
        0
  1
Levels
 90
        0
 90
        1
 90
        1
330
0
330
0
 90
        0
  1
RowElevation
 90
        1
 90
        1
 40
0.0
330
0
330
0
 90
        0
  1
RowSpacing
 90
        1
 90
        1
 40
48.0
330
0
330
0
 90
        0
  1
Rows
 90
        0
 90
        1
 90
        1
330
0
330
0
100
AcDbAssocArrayActionBody
 90
        1
  1
AcDbAssocArrayRectangularParameters
 90
        0
 90
       77
  1
AcDbAssocArrayItem
100
AcDbAssocArrayItem
 90
        0
 90
        0
 90
        0
 90
        0
 90
        8
 11
0.0
 21
0.0
 31
0.0
330
27B4
100
AcDbAssocArrayItem
 90
        0
 90
        1
 90
        0
 90
        0
 90
        8
 11
12.56
 21
0.0
 31
0.0
330
27B5
100
AcDbAssocArrayItem
 90
        0
 90
        2
 90
        0
 90
        0
 90
        8
 11
25.12
 21
0.0
 31
0.0
330
27B6
100
AcDbAssocArrayItem
 90
        0
 90
        3
 90
        0
 90
        0
 90
        8
 11
37.68
 21
0.0
 31
0.0
330
27B7
100
AcDbAssocArrayItem
 90
        0
 90
        4
 90
        0
 90
        0
 90
        8
 11
50.24
 21
0.0
 31
0.0
330
27B8
100
AcDbAssocArrayItem
 90
        0
 90
        5
 90
        0
 90
        0
 90
        8
 11
62.80000000000001
 21
0.0
 31
0.0
330
27B9
100
AcDbAssocArrayItem
 90
        0
 90
        6
 90
        0
 90
        0
 90
        8
 11
75.36
 21
0.0
 31
0.0
330
27BA
100
AcDbAssocArrayItem
 90
        0
 90
        7
 90
        0
 90
        0
 90
        8
 11
87.91999999999999
 21
0.0
 31
0.0
330
27BB
100
AcDbAssocArrayItem
 90
        0
 90
        8
 90
        0
 90
        0
 90
        8
 11
100.48
 21
0.0
 31
0.0
330
27BC
100
AcDbAssocArrayItem
 90
        0
 90
        9
 90
        0
 90
        0
 90
        8
 11
113.04
 21
0.0
 31
0.0
330
27BD
100
AcDbAssocArrayItem
 90
        0
 90
       10
 90
        0
 90
        0
 90
        8
 11
125.6
 21
0.0
 31
0.0
330
27BE
100
AcDbAssocArrayItem
 90
        0
 90
       11
 90
        0
 90
        0
 90
        8
 11
138.16
 21
0.0
 31
0.0
330
27BF
100
AcDbAssocArrayItem
 90
        0
 90
       12
 90
        0
 90
        0
 90
        8
 11
150.72
 21
0.0
 31
0.0
330
27C0
100
AcDbAssocArrayItem
 90
        0
 90
       13
 90
        0
 90
        0
 90
        8
 11
163.28
 21
0.0
 31
0.0
330
27C1
100
AcDbAssocArrayItem
 90
        0
 90
       14
 90
        0
 90
        0
 90
        8
 11
175.84
 21
0.0
 31
0.0
330
27C2
100
AcDbAssocArrayItem
 90
        0
 90
       15
 90
        0
 90
        0
 90
        8
 11
188.4
 21
0.0
 31
0.0
330
27C3
100
AcDbAssocArrayItem
 90
        0
 90
       16
 90
        0
 90
        0
 90
        8
 11
200.96
 21
0.0
 31
0.0
330
27C4
100
AcDbAssocArrayItem
 90
        0
 90
       17
 90
        0
 90
        0
 90
        8
 11
213.52
 21
0.0
 31
0.0
330
27C5
100
AcDbAssocArrayItem
 90
        0
 90
       18
 90
        0
 90
        0
 90
        8
 11
226.08
 21
0.0
 31
0.0
330
27C6
100
AcDbAssocArrayItem
 90
        0
 90
       19
 90
        0
 90
        0
 90
        8
 11
238.64
 21
0.0
 31
0.0
330
27C7
100
AcDbAssocArrayItem
 90
        0
 90
       20
 90
        0
 90
        0
 90
        8
 11
251.2
 21
0.0
 31
0.0
330
27C8
100
AcDbAssocArrayItem
 90
        0
 90
       21
 90
        0
 90
        0
 90
        8
 11
263.76
 21
0.0
 31
0.0
330
27C9
100
AcDbAssocArrayItem
 90
        0
 90
       22
 90
        0
 90
        0
 90
        8
 11
276.32
 21
0.0
 31
0.0
330
27CA
100
AcDbAssocArrayItem
 90
        0
 90
       23
 90
        0
 90
        0
 90
        8
 11
288.88
 21
0.0
 31
0.0
330
27CB
100
AcDbAssocArrayItem
 90
        0
 90
       24
 90
        0
 90
        0
 90
        8
 11
301.44
 21
0.0
 31
0.0
330
27CC
100
AcDbAssocArrayItem
 90
        0
 90
       25
 90
        0
 90
        0
 90
        8
 11
314.0
 21
0.0
 31
0.0
330
27CD
100
AcDbAssocArrayItem
 90
        0
 90
       26
 90
        0
 90
        0
 90
        8
 11
326.56
 21
0.0
 31
0.0
330
27CE
100
AcDbAssocArrayItem
 90
        0
 90
       27
 90
        0
 90
        0
 90
        8
 11
339.12
 21
0.0
 31
0.0
330
27CF
100
AcDbAssocArrayItem
 90
        0
 90
       28
 90
        0
 90
        0
 90
        8
 11
351.68
 21
0.0
 31
0.0
330
27D0
100
AcDbAssocArrayItem
 90
        0
 90
       29
 90
        0
 90
        0
 90
        8
 11
364.24
 21
0.0
 31
0.0
330
27D1
100
AcDbAssocArrayItem
 90
        0
 90
       30
 90
        0
 90
        0
 90
        8
 11
376.8
 21
0.0
 31
0.0
330
27D2
100
AcDbAssocArrayItem
 90
        0
 90
       31
 90
        0
 90
        0
 90
        8
 11
389.36
 21
0.0
 31
0.0
330
27D3
100
AcDbAssocArrayItem
 90
        0
 90
       32
 90
        0
 90
        0
 90
        8
 11
401.92
 21
0.0
 31
0.0
330
27D4
100
AcDbAssocArrayItem
 90
        0
 90
       33
 90
        0
 90
        0
 90
        8
 11
414.48
 21
0.0
 31
0.0
330
27D5
100
AcDbAssocArrayItem
 90
        0
 90
       34
 90
        0
 90
        0
 90
        8
 11
427.04
 21
0.0
 31
0.0
330
27D6
100
AcDbAssocArrayItem
 90
        0
 90
       35
 90
        0
 90
        0
 90
        8
 11
439.5999999999999
 21
0.0
 31
0.0
330
27D7
100
AcDbAssocArrayItem
 90
        0
 90
       36
 90
        0
 90
        0
 90
        8
 11
452.16
 21
0.0
 31
0.0
330
27D8
100
AcDbAssocArrayItem
 90
        0
 90
       37
 90
        0
 90
        0
 90
        8
 11
464.72
 21
0.0
 31
0.0
330
27D9
100
AcDbAssocArrayItem
 90
        0
 90
       38
 90
        0
 90
        0
 90
        8
 11
477.28
 21
0.0
 31
0.0
330
27DA
100
AcDbAssocArrayItem
 90
        0
 90
       39
 90
        0
 90
        0
 90
        8
 11
489.84
 21
0.0
 31
0.0
330
27DB
100
AcDbAssocArrayItem
 90
        0
 90
       40
 90
        0
 90
        0
 90
        8
 11
502.4
 21
0.0
 31
0.0
330
27DC
100
AcDbAssocArrayItem
 90
        0
 90
       41
 90
        0
 90
        0
 90
        8
 11
514.96
 21
0.0
 31
0.0
330
27DD
100
AcDbAssocArrayItem
 90
        0
 90
       42
 90
        0
 90
        0
 90
        8
 11
527.5199999999999
 21
0.0
 31
0.0
330
27DE
100
AcDbAssocArrayItem
 90
        0
 90
       43
 90
        0
 90
        0
 90
        8
 11
540.08
 21
0.0
 31
0.0
330
27DF
100
AcDbAssocArrayItem
 90
        0
 90
       44
 90
        0
 90
        0
 90
        8
 11
552.6399999999999
 21
0.0
 31
0.0
330
27E0
100
AcDbAssocArrayItem
 90
        0
 90
       45
 90
        0
 90
        0
 90
        8
 11
565.2
 21
0.0
 31
0.0
330
27E1
100
AcDbAssocArrayItem
 90
        0
 90
       46
 90
        0
 90
        0
 90
        8
 11
577.7599999999999
 21
0.0
 31
0.0
330
27E2
100
AcDbAssocArrayItem
 90
        0
 90
       47
 90
        0
 90
        0
 90
        8
 11
590.32
 21
0.0
 31
0.0
330
27E3
100
AcDbAssocArrayItem
 90
        0
 90
       48
 90
        0
 90
        0
 90
        8
 11
602.88
 21
0.0
 31
0.0
330
27E4
100
AcDbAssocArrayItem
 90
        0
 90
       49
 90
        0
 90
        0
 90
        8
 11
615.44
 21
0.0
 31
0.0
330
27E5
100
AcDbAssocArrayItem
 90
        0
 90
       50
 90
        0
 90
        0
 90
        8
 11
628.0
 21
0.0
 31
0.0
330
27E6
100
AcDbAssocArrayItem
 90
        0
 90
       51
 90
        0
 90
        0
 90
        8
 11
640.56
 21
0.0
 31
0.0
330
27E7
100
AcDbAssocArrayItem
 90
        0
 90
       52
 90
        0
 90
        0
 90
        8
 11
653.12
 21
0.0
 31
0.0
330
27E8
100
AcDbAssocArrayItem
 90
        0
 90
       53
 90
        0
 90
        0
 90
        8
 11
665.68
 21
0.0
 31
0.0
330
27E9
100
AcDbAssocArrayItem
 90
        0
 90
       54
 90
        0
 90
        0
 90
        8
 11
678.2399999999999
 21
0.0
 31
0.0
330
27EA
100
AcDbAssocArrayItem
 90
        0
 90
       55
 90
        0
 90
        0
 90
        8
 11
690.8000000000001
 21
0.0
 31
0.0
330
27EB
100
AcDbAssocArrayItem
 90
        0
 90
       56
 90
        0
 90
        0
 90
        8
 11
703.3599999999999
 21
0.0
 31
0.0
330
27EC
100
AcDbAssocArrayItem
 90
        0
 90
       57
 90
        0
 90
        0
 90
        8
 11
715.9200000000001
 21
0.0
 31
0.0
330
27ED
100
AcDbAssocArrayItem
 90
        0
 90
       58
 90
        0
 90
        0
 90
        8
 11
728.48
 21
0.0
 31
0.0
330
27EE
100
AcDbAssocArrayItem
 90
        0
 90
       59
 90
        0
 90
        0
 90
        8
 11
741.04
 21
0.0
 31
0.0
330
27EF
100
AcDbAssocArrayItem
 90
        0
 90
       60
 90
        0
 90
        0
 90
        8
 11
753.6
 21
0.0
 31
0.0
330
27F0
100
AcDbAssocArrayItem
 90
        0
 90
       61
 90
        0
 90
        0
 90
        8
 11
766.16
 21
0.0
 31
0.0
330
27F1
100
AcDbAssocArrayItem
 90
        0
 90
       62
 90
        0
 90
        0
 90
        8
 11
778.72
 21
0.0
 31
0.0
330
27F2
100
AcDbAssocArrayItem
 90
        0
 90
       63
 90
        0
 90
        0
 90
        8
 11
791.28
 21
0.0
 31
0.0
330
27F3
100
AcDbAssocArrayItem
 90
        0
 90
       64
 90
        0
 90
        0
 90
        8
 11
803.8400000000001
 21
0.0
 31
0.0
330
27F4
100
AcDbAssocArrayItem
 90
        0
 90
       65
 90
        0
 90
        0
 90
        8
 11
816.3999999999999
 21
0.0
 31
0.0
330
27F5
100
AcDbAssocArrayItem
 90
        0
 90
       66
 90
        0
 90
        0
 90
        8
 11
828.96
 21
0.0
 31
0.0
330
27F6
100
AcDbAssocArrayItem
 90
        0
 90
       67
 90
        0
 90
        0
 90
        8
 11
841.52
 21
0.0
 31
0.0
330
27F7
100
AcDbAssocArrayItem
 90
        0
 90
       68
 90
        0
 90
        0
 90
        8
 11
854.08
 21
0.0
 31
0.0
330
27F8
100
AcDbAssocArrayItem
 90
        0
 90
       69
 90
        0
 90
        0
 90
        8
 11
866.6399999999999
 21
0.0
 31
0.0
330
27F9
100
AcDbAssocArrayItem
 90
        0
 90
       70
 90
        0
 90
        0
 90
        8
 11
879.1999999999999
 21
0.0
 31
0.0
330
27FA
100
AcDbAssocArrayItem
 90
        0
 90
       71
 90
        0
 90
        0
 90
        8
 11
891.76
 21
0.0
 31
0.0
330
27FB
100
AcDbAssocArrayItem
 90
        0
 90
       72
 90
        0
 90
        0
 90
        8
 11
904.32
 21
0.0
 31
0.0
330
27FC
100
AcDbAssocArrayItem
 90
        0
 90
       73
 90
        0
 90
        0
 90
        8
 11
916.88
 21
0.0
 31
0.0
330
27FD
100
AcDbAssocArrayItem
 90
        0
 90
       74
 90
        0
 90
        0
 90
        8
 11
929.4400000000001
 21
0.0
 31
0.0
330
27FE
100
AcDbAssocArrayItem
 90
        0
 90
       75
 90
        0
 90
        0
 90
        8
 11
942.0
 21
0.0
 31
0.0
330
27FF
100
AcDbAssocArrayItem
 90
        0
 90
       76
 90
        0
 90
        0
 90
        8
 11
954.56
 21
0.0
 31
0.0
330
2800
 40
1.0
 40
0.0
 40
0.0
 40
373.2196626783323
 40
0.0
 40
1.0
 40
0.0
 40
665.0823688195982
 40
0.0
 40
0.0
 40
1.0
 40
0.0
 40
0.0
 40
0.0
 40
0.0
 40
1.0
  0
ACDBASSOCDEPENDENCY
  5
27AF
330
27AB
100
AcDbAssocDependency
 90
        2
 90
        1
290
     0
290
     1
290
     1
290
     1
 90
        0
330
279A
290
     0
330
0
330
0
360
0
 90
        1
  0
ACDBASSOCDEPENDENCY
  5
27B0
330
27AB
100
AcDbAssocDependency
 90
        2
 90
        1
290
     1
290
     0
290
     1
290
     1
 90
        0
330
2797
290
     0
330
0
330
0
360
0
 90
        2
  0
ACDBASSOCDEPENDENCY
  5
27B1
330
27AB
100
AcDbAssocDependency
 90
        2
 90
        0
290
     1
290
     1
290
     1
290
     1
 90
-2147483648
330
279D
290
     0
330
0
330
0
360
0
 90
        3
  0
ACDBASSOCARRAYACTIONBODY
  5
293B
330
293A
100
AcDbAssocActionBody
 90
        1
100
AcDbAssocParamBasedActionBody
 90
        0
 90
        0
 90
        3
360
293C
360
293D
360
2941
 90
        0
 90
        9
 90
        0
  1
AlignItems
 90
        0
 90
        1
 90
        0
330
0
330
0
 90
        0
  1
AxesAngle
 90
        2
 90
        1
 40
1.570796326794896
330
0
330
0
 90
        0
  1
ItemSpacing
 90
        1
 90
        1
 40
12.56
330
0
330
0
 90
        0
  1
Items
 90
        0
 90
        1
 90
       78
330
0
330
0
 90
        0
  1
LevelSpacing
 90
        1
 90
        1
 40
1.0
330
0
330
0
 90
        0
  1
Levels
 90
        0
 90
        1
 90
        1
330
0
330
0
 90
        0
  1
RowElevation
 90
        1
 90
        1
 40
0.0
330
0
330
0
 90
        0
  1
RowSpacing
 90
        1
 90
        1
 40
586.5
330
0
330
0
 90
        0
  1
Rows
 90
        0
 90
        1
 90
        1
330
0
330
0
100
AcDbAssocArrayActionBody
 90
        1
  1
AcDbAssocArrayRectangularParameters
 90
        0
 90
       78
  1
AcDbAssocArrayItem
100
AcDbAssocArrayItem
 90
        0
 90
        0
 90
        0
 90
        0
 90
        8
 11
0.0
 21
0.0
 31
0.0
330
2943
100
AcDbAssocArrayItem
 90
        0
 90
        1
 90
        0
 90
        0
 90
        8
 11
12.56
 21
0.0
 31
0.0
330
2944
100
AcDbAssocArrayItem
 90
        0
 90
        2
 90
        0
 90
        0
 90
        8
 11
25.12
 21
0.0
 31
0.0
330
2CBC
100
AcDbAssocArrayItem
 90
        0
 90
        3
 90
        0
 90
        0
 90
        8
 11
37.68
 21
0.0
 31
0.0
330
2946
100
AcDbAssocArrayItem
 90
        0
 90
        4
 90
        0
 90
        0
 90
        8
 11
50.24
 21
0.0
 31
0.0
330
2947
100
AcDbAssocArrayItem
 90
        0
 90
        5
 90
        0
 90
        0
 90
        8
 11
62.80000000000001
 21
0.0
 31
0.0
330
2948
100
AcDbAssocArrayItem
 90
        0
 90
        6
 90
        0
 90
        0
 90
        8
 11
75.36
 21
0.0
 31
0.0
330
2949
100
AcDbAssocArrayItem
 90
        0
 90
        7
 90
        0
 90
        0
 90
        8
 11
87.91999999999999
 21
0.0
 31
0.0
330
294A
100
AcDbAssocArrayItem
 90
        0
 90
        8
 90
        0
 90
        0
 90
        8
 11
100.48
 21
0.0
 31
0.0
330
294B
100
AcDbAssocArrayItem
 90
        0
 90
        9
 90
        0
 90
        0
 90
        8
 11
113.04
 21
0.0
 31
0.0
330
294C
100
AcDbAssocArrayItem
 90
        0
 90
       10
 90
        0
 90
        0
 90
        8
 11
125.6
 21
0.0
 31
0.0
330
294D
100
AcDbAssocArrayItem
 90
        0
 90
       11
 90
        0
 90
        0
 90
        8
 11
138.16
 21
0.0
 31
0.0
330
294E
100
AcDbAssocArrayItem
 90
        0
 90
       12
 90
        0
 90
        0
 90
        8
 11
150.72
 21
0.0
 31
0.0
330
294F
100
AcDbAssocArrayItem
 90
        0
 90
       13
 90
        0
 90
        0
 90
        8
 11
163.28
 21
0.0
 31
0.0
330
2950
100
AcDbAssocArrayItem
 90
        0
 90
       14
 90
        0
 90
        0
 90
        8
 11
175.84
 21
0.0
 31
0.0
330
2951
100
AcDbAssocArrayItem
 90
        0
 90
       15
 90
        0
 90
        0
 90
        8
 11
188.4
 21
0.0
 31
0.0
330
2952
100
AcDbAssocArrayItem
 90
        0
 90
       16
 90
        0
 90
        0
 90
        8
 11
200.96
 21
0.0
 31
0.0
330
2953
100
AcDbAssocArrayItem
 90
        0
 90
       17
 90
        0
 90
        0
 90
        8
 11
213.52
 21
0.0
 31
0.0
330
2954
100
AcDbAssocArrayItem
 90
        0
 90
       18
 90
        0
 90
        0
 90
        8
 11
226.08
 21
0.0
 31
0.0
330
2955
100
AcDbAssocArrayItem
 90
        0
 90
       19
 90
        0
 90
        0
 90
        8
 11
238.64
 21
0.0
 31
0.0
330
2956
100
AcDbAssocArrayItem
 90
        0
 90
       20
 90
        0
 90
        0
 90
        8
 11
251.2
 21
0.0
 31
0.0
330
2957
100
AcDbAssocArrayItem
 90
        0
 90
       21
 90
        0
 90
        0
 90
        8
 11
263.76
 21
0.0
 31
0.0
330
2958
100
AcDbAssocArrayItem
 90
        0
 90
       22
 90
        0
 90
        0
 90
        8
 11
276.32
 21
0.0
 31
0.0
330
2959
100
AcDbAssocArrayItem
 90
        0
 90
       23
 90
        0
 90
        0
 90
        8
 11
288.88
 21
0.0
 31
0.0
330
295A
100
AcDbAssocArrayItem
 90
        0
 90
       24
 90
        0
 90
        0
 90
        8
 11
301.44
 21
0.0
 31
0.0
330
295B
100
AcDbAssocArrayItem
 90
        0
 90
       25
 90
        0
 90
        0
 90
        8
 11
314.0
 21
0.0
 31
0.0
330
295C
100
AcDbAssocArrayItem
 90
        0
 90
       26
 90
        0
 90
        0
 90
        8
 11
326.56
 21
0.0
 31
0.0
330
295D
100
AcDbAssocArrayItem
 90
        0
 90
       27
 90
        0
 90
        0
 90
        8
 11
339.12
 21
0.0
 31
0.0
330
295E
100
AcDbAssocArrayItem
 90
        0
 90
       28
 90
        0
 90
        0
 90
        8
 11
351.68
 21
0.0
 31
0.0
330
295F
100
AcDbAssocArrayItem
 90
        0
 90
       29
 90
        0
 90
        0
 90
        8
 11
364.24
 21
0.0
 31
0.0
330
2960
100
AcDbAssocArrayItem
 90
        0
 90
       30
 90
        0
 90
        0
 90
        8
 11
376.8
 21
0.0
 31
0.0
330
2961
100
AcDbAssocArrayItem
 90
        0
 90
       31
 90
        0
 90
        0
 90
        8
 11
389.36
 21
0.0
 31
0.0
330
2962
100
AcDbAssocArrayItem
 90
        0
 90
       32
 90
        0
 90
        0
 90
        8
 11
401.92
 21
0.0
 31
0.0
330
2963
100
AcDbAssocArrayItem
 90
        0
 90
       33
 90
        0
 90
        0
 90
        8
 11
414.48
 21
0.0
 31
0.0
330
2964
100
AcDbAssocArrayItem
 90
        0
 90
       34
 90
        0
 90
        0
 90
        8
 11
427.04
 21
0.0
 31
0.0
330
2965
100
AcDbAssocArrayItem
 90
        0
 90
       35
 90
        0
 90
        0
 90
        8
 11
439.5999999999999
 21
0.0
 31
0.0
330
2966
100
AcDbAssocArrayItem
 90
        0
 90
       36
 90
        0
 90
        0
 90
        8
 11
452.16
 21
0.0
 31
0.0
330
2967
100
AcDbAssocArrayItem
 90
        0
 90
       37
 90
        0
 90
        0
 90
        8
 11
464.72
 21
0.0
 31
0.0
330
2968
100
AcDbAssocArrayItem
 90
        0
 90
       38
 90
        0
 90
        0
 90
        8
 11
477.28
 21
0.0
 31
0.0
330
2969
100
AcDbAssocArrayItem
 90
        0
 90
       39
 90
        0
 90
        0
 90
        8
 11
489.84
 21
0.0
 31
0.0
330
296A
100
AcDbAssocArrayItem
 90
        0
 90
       40
 90
        0
 90
        0
 90
        8
 11
502.4
 21
0.0
 31
0.0
330
296B
100
AcDbAssocArrayItem
 90
        0
 90
       41
 90
        0
 90
        0
 90
        8
 11
514.96
 21
0.0
 31
0.0
330
296C
100
AcDbAssocArrayItem
 90
        0
 90
       42
 90
        0
 90
        0
 90
        8
 11
527.5199999999999
 21
0.0
 31
0.0
330
296D
100
AcDbAssocArrayItem
 90
        0
 90
       43
 90
        0
 90
        0
 90
        8
 11
540.08
 21
0.0
 31
0.0
330
296E
100
AcDbAssocArrayItem
 90
        0
 90
       44
 90
        0
 90
        0
 90
        8
 11
552.6399999999999
 21
0.0
 31
0.0
330
296F
100
AcDbAssocArrayItem
 90
        0
 90
       45
 90
        0
 90
        0
 90
        8
 11
565.2
 21
0.0
 31
0.0
330
2970
100
AcDbAssocArrayItem
 90
        0
 90
       46
 90
        0
 90
        0
 90
        8
 11
577.7599999999999
 21
0.0
 31
0.0
330
2971
100
AcDbAssocArrayItem
 90
        0
 90
       47
 90
        0
 90
        0
 90
        8
 11
590.32
 21
0.0
 31
0.0
330
2972
100
AcDbAssocArrayItem
 90
        0
 90
       48
 90
        0
 90
        0
 90
        8
 11
602.88
 21
0.0
 31
0.0
330
2973
100
AcDbAssocArrayItem
 90
        0
 90
       49
 90
        0
 90
        0
 90
        8
 11
615.44
 21
0.0
 31
0.0
330
2974
100
AcDbAssocArrayItem
 90
        0
 90
       50
 90
        0
 90
        0
 90
        8
 11
628.0
 21
0.0
 31
0.0
330
2975
100
AcDbAssocArrayItem
 90
        0
 90
       51
 90
        0
 90
        0
 90
        8
 11
640.56
 21
0.0
 31
0.0
330
2976
100
AcDbAssocArrayItem
 90
        0
 90
       52
 90
        0
 90
        0
 90
        8
 11
653.12
 21
0.0
 31
0.0
330
2977
100
AcDbAssocArrayItem
 90
        0
 90
       53
 90
        0
 90
        0
 90
        8
 11
665.68
 21
0.0
 31
0.0
330
2978
100
AcDbAssocArrayItem
 90
        0
 90
       54
 90
        0
 90
        0
 90
        8
 11
678.2399999999999
 21
0.0
 31
0.0
330
2979
100
AcDbAssocArrayItem
 90
        0
 90
       55
 90
        0
 90
        0
 90
        8
 11
690.8000000000001
 21
0.0
 31
0.0
330
297A
100
AcDbAssocArrayItem
 90
        0
 90
       56
 90
        0
 90
        0
 90
        8
 11
703.3599999999999
 21
0.0
 31
0.0
330
297B
100
AcDbAssocArrayItem
 90
        0
 90
       57
 90
        0
 90
        0
 90
        8
 11
715.9200000000001
 21
0.0
 31
0.0
330
297C
100
AcDbAssocArrayItem
 90
        0
 90
       58
 90
        0
 90
        0
 90
        8
 11
728.48
 21
0.0
 31
0.0
330
297D
100
AcDbAssocArrayItem
 90
        0
 90
       59
 90
        0
 90
        0
 90
        8
 11
741.04
 21
0.0
 31
0.0
330
297E
100
AcDbAssocArrayItem
 90
        0
 90
       60
 90
        0
 90
        0
 90
        8
 11
753.6
 21
0.0
 31
0.0
330
297F
100
AcDbAssocArrayItem
 90
        0
 90
       61
 90
        0
 90
        0
 90
        8
 11
766.16
 21
0.0
 31
0.0
330
2980
100
AcDbAssocArrayItem
 90
        0
 90
       62
 90
        0
 90
        0
 90
        8
 11
778.72
 21
0.0
 31
0.0
330
2981
100
AcDbAssocArrayItem
 90
        0
 90
       63
 90
        0
 90
        0
 90
        8
 11
791.28
 21
0.0
 31
0.0
330
2982
100
AcDbAssocArrayItem
 90
        0
 90
       64
 90
        0
 90
        0
 90
        8
 11
803.8400000000001
 21
0.0
 31
0.0
330
2983
100
AcDbAssocArrayItem
 90
        0
 90
       65
 90
        0
 90
        0
 90
        8
 11
816.3999999999999
 21
0.0
 31
0.0
330
2984
100
AcDbAssocArrayItem
 90
        0
 90
       66
 90
        0
 90
        0
 90
        8
 11
828.96
 21
0.0
 31
0.0
330
2985
100
AcDbAssocArrayItem
 90
        0
 90
       67
 90
        0
 90
        0
 90
        8
 11
841.52
 21
0.0
 31
0.0
330
2986
100
AcDbAssocArrayItem
 90
        0
 90
       68
 90
        0
 90
        0
 90
        8
 11
854.08
 21
0.0
 31
0.0
330
2987
100
AcDbAssocArrayItem
 90
        0
 90
       69
 90
        0
 90
        0
 90
        8
 11
866.6399999999999
 21
0.0
 31
0.0
330
2988
100
AcDbAssocArrayItem
 90
        0
 90
       70
 90
        0
 90
        0
 90
        8
 11
879.1999999999999
 21
0.0
 31
0.0
330
2989
100
AcDbAssocArrayItem
 90
        0
 90
       71
 90
        0
 90
        0
 90
        8
 11
891.76
 21
0.0
 31
0.0
330
298A
100
AcDbAssocArrayItem
 90
        0
 90
       72
 90
        0
 90
        0
 90
        8
 11
904.32
 21
0.0
 31
0.0
330
298B
100
AcDbAssocArrayItem
 90
        0
 90
       73
 90
        0
 90
        0
 90
        8
 11
916.88
 21
0.0
 31
0.0
330
298C
100
AcDbAssocArrayItem
 90
        0
 90
       74
 90
        0
 90
        0
 90
        8
 11
929.4400000000001
 21
0.0
 31
0.0
330
298D
100
AcDbAssocArrayItem
 90
        0
 90
       75
 90
        0
 90
        0
 90
        8
 11
942.0
 21
0.0
 31
0.0
330
298E
100
AcDbAssocArrayItem
 90
        0
 90
       76
 90
        0
 90
        0
 90
        8
 11
954.56
 21
0.0
 31
0.0
330
298F
100
AcDbAssocArrayItem
 90
        0
 90
       77
 90
        0
 90
        0
 90
        8
 11
967.12
 21
0.0
 31
0.0
330
2990
 40
1.0
 40
0.0
 40
0.0
 40
359.1627012933325
 40
0.0
 40
1.0
 40
0.0
 40
1377.472907576634
 40
0.0
 40
0.0
 40
1.0
 40
0.0
 40
0.0
 40
0.0
 40
0.0
 40
1.0
  0
ACDBASSOCDEPENDENCY
  5
293E
330
293A
100
AcDbAssocDependency
 90
        2
 90
        1
290
     0
290
     1
290
     1
290
     1
 90
        0
330
28D2
290
     0
330
0
330
0
360
0
 90
        1
  0
ACDBASSOCDEPENDENCY
  5
293F
330
293A
100
AcDbAssocDependency
 90
        2
 90
        1
290
     1
290
     0
290
     1
290
     1
 90
        0
330
28CF
290
     0
330
0
330
0
360
0
 90
        2
  0
ACDBASSOCDEPENDENCY
  5
2940
330
293A
100
AcDbAssocDependency
 90
        2
 90
        0
290
     1
290
     1
290
     1
290
     1
 90
-2147483648
330
28D5
290
     0
330
0
330
0
360
0
 90
        3
  0
ACDBASSOCVERTEXACTIONPARAM
  5
27AD
330
27AC
100
AcDbAssocActionParam
 90
        0
  1
BaseNormal
100
AcDbAssocSingleDependencyActionParam
 90
        0
330
0
100
AcDbAssocVertexActionParam
 90
        0
 10
0.0
 20
0.0
 30
1.0
  0
ACDBASSOCVERTEXACTIONPARAM
  5
27AE
330
27AC
100
AcDbAssocActionParam
 90
        0
  1
Origin
100
AcDbAssocSingleDependencyActionParam
 90
        0
330
0
100
AcDbAssocVertexActionParam
 90
        0
 10
0.0
 20
0.0
 30
0.0
  0
ACDBASSOCVERTEXACTIONPARAM
  5
27B2
330
27AC
100
AcDbAssocActionParam
 90
        0
  1
basePoint
100
AcDbAssocSingleDependencyActionParam
 90
        0
330
0
100
AcDbAssocVertexActionParam
 90
        0
 10
0.0
 20
0.0
 30
0.0
  0
ACDBASSOCVERTEXACTIONPARAM
  5
293C
330
293B
100
AcDbAssocActionParam
 90
        0
  1
BaseNormal
100
AcDbAssocSingleDependencyActionParam
 90
        0
330
0
100
AcDbAssocVertexActionParam
 90
        0
 10
0.0
 20
0.0
 30
1.0
  0
ACDBASSOCVERTEXACTIONPARAM
  5
293D
330
293B
100
AcDbAssocActionParam
 90
        0
  1
Origin
100
AcDbAssocSingleDependencyActionParam
 90
        0
330
0
100
AcDbAssocVertexActionParam
 90
        0
 10
0.0
 20
0.0
 30
0.0
  0
ACDBASSOCVERTEXACTIONPARAM
  5
2941
330
293B
100
AcDbAssocActionParam
 90
        0
  1
basePoint
100
AcDbAssocSingleDependencyActionParam
 90
        0
330
0
100
AcDbAssocVertexActionParam
 90
        0
 10
0.0
 20
0.0
 30
0.0
  0
ENDSEC
  0
EOF
