  0
SECTION
  2
HEADER
  9
$ACADVER
  1
AC1015
  9
$ACADMAINTVER
 70
    20
  9
$DWGCODEPAGE
  3
ANSI_932
  9
$INSBASE
 10
0.0
 20
0.0
 30
0.0
  9
$EXTMIN
 10
-0.1702504555714768
 20
-0.1204332752135997
 30
-0.0000000349181948
  9
$EXTMAX
 10
2789.681437458783
 20
1973.389564148916
 30
0.0000000814935746
  9
$LIMMIN
 10
0.0
 20
0.0
  9
$LIMMAX
 10
297.0
 20
209.0
  9
$ORTHOMODE
 70
     1
  9
$REGENMODE
 70
     1
  9
$FILLMODE
 70
     1
  9
$QTEXTMODE
 70
     0
  9
$MIRRTEXT
 70
     1
  9
$LTSCALE
 40
1.0
  9
$ATTMODE
 70
     1
  9
$TEXTSIZE
 40
2.5
  9
$TRACEWID
 40
1.0
  9
$TEXTSTYLE
  7
Standard
  9
$CLAYER
  8
寸法線
  9
$CELTYPE
  6
ByLayer
  9
$CECOLOR
 62
   256
  9
$CELTSCALE
 40
3.0
  9
$DISPSILH
 70
     0
  9
$DIMSCALE
 40
10.0
  9
$DIMASZ
 40
1.5
  9
$DIMEXO
 40
2.0
  9
$DIMDLI
 40
3.75
  9
$DIMRND
 40
0.0
  9
$DIMDLE
 40
0.0
  9
$DIMEXE
 40
1.5
  9
$DIMTP
 40
0.0
  9
$DIMTM
 40
0.0
  9
$DIMTXT
 40
3.0
  9
$DIMCEN
 40
2.5
  9
$DIMTSZ
 40
0.0
  9
$DIMTOL
 70
     0
  9
$DIMLIM
 70
     0
  9
$DIMTIH
 70
     0
  9
$DIMTOH
 70
     0
  9
$DIMSE1
 70
     0
  9
$DIMSE2
 70
     0
  9
$DIMTAD
 70
     1
  9
$DIMZIN
 70
     8
  9
$DIMBLK
  1
Open30
  9
$DIMASO
 70
     1
  9
$DIMSHO
 70
     1
  9
$DIMPOST
  1

  9
$DIMAPOST
  1

  9
$DIMALT
 70
     0
  9
$DIMALTD
 70
     3
  9
$DIMALTF
 40
0.03937007874016
  9
$DIMLFAC
 40
1.0
  9
$DIMTOFL
 70
     1
  9
$DIMTVP
 40
0.0
  9
$DIMTIX
 70
     0
  9
$DIMSOXD
 70
     0
  9
$DIMSAH
 70
     0
  9
$DIMBLK1
  1

  9
$DIMBLK2
  1

  9
$DIMSTYLE
  2
ISO-25
  9
$DIMCLRD
 70
     0
  9
$DIMCLRE
 70
     0
  9
$DIMCLRT
 70
     0
  9
$DIMTFAC
 40
1.0
  9
$DIMGAP
 40
0.5
  9
$DIMJUST
 70
     0
  9
$DIMSD1
 70
     0
  9
$DIMSD2
 70
     0
  9
$DIMTOLJ
 70
     0
  9
$DIMTZIN
 70
     8
  9
$DIMALTZ
 70
     0
  9
$DIMALTTZ
 70
     0
  9
$DIMUPT
 70
     0
  9
$DIMDEC
 70
     2
  9
$DIMTDEC
 70
     2
  9
$DIMALTU
 70
     2
  9
$DIMALTTD
 70
     3
  9
$DIMTXSTY
  7
Standard
  9
$DIMAUNIT
 70
     0
  9
$DIMADEC
 70
     0
  9
$DIMALTRND
 40
0.0
  9
$DIMAZIN
 70
     0
  9
$DIMDSEP
 70
    46
  9
$DIMATFIT
 70
     0
  9
$DIMFRAC
 70
     0
  9
$DIMLDRBLK
  1
Open30
  9
$DIMLUNIT
 70
     2
  9
$DIMLWD
 70
    -2
  9
$DIMLWE
 70
    -2
  9
$DIMTMOVE
 70
     0
  9
$LUNITS
 70
     2
  9
$LUPREC
 70
     4
  9
$SKETCHINC
 40
1.0
  9
$FILLETRAD
 40
9.9
  9
$AUNITS
 70
     0
  9
$AUPREC
 70
     0
  9
$MENU
  1
.
  9
$ELEVATION
 40
0.0
  9
$PELEVATION
 40
0.0
  9
$THICKNESS
 40
0.0
  9
$LIMCHECK
 70
     0
  9
$CHAMFERA
 40
10.0
  9
$CHAMFERB
 40
10.0
  9
$CHAMFERC
 40
20.0
  9
$CHAMFERD
 40
0.0
  9
$SKPOLY
 70
     0
  9
$TDCREATE
 40
2453510.558637211
  9
$TDUCREATE
 40
2453510.183637211
  9
$TDUPDATE
 40
2457536.745481227
  9
$TDUUPDATE
 40
2457536.370481227
  9
$TDINDWG
 40
0.0365779861
  9
$TDUSRTIMER
 40
0.0365779861
  9
$USRTIMER
 70
     1
  9
$ANGBASE
 50
0.0
  9
$ANGDIR
 70
     0
  9
$PDMODE
 70
     0
  9
$PDSIZE
 40
0.0
  9
$PLINEWID
 40
0.0
  9
$SPLFRAME
 70
     0
  9
$SPLINETYPE
 70
     6
  9
$SPLINESEGS
 70
     8
  9
$HANDSEED
  5
13E2
  9
$SURFTAB1
 70
     6
  9
$SURFTAB2
 70
     6
  9
$SURFTYPE
 70
     6
  9
$SURFU
 70
     6
  9
$SURFV
 70
     6
  9
$UCSBASE
  2

  9
$UCSNAME
  2

  9
$UCSORG
 10
0.0
 20
0.0
 30
0.0
  9
$UCSXDIR
 10
1.0
 20
0.0
 30
0.0
  9
$UCSYDIR
 10
0.0
 20
1.0
 30
0.0
  9
$UCSORTHOREF
  2

  9
$UCSORTHOVIEW
 70
     0
  9
$UCSORGTOP
 10
0.0
 20
0.0
 30
0.0
  9
$UCSORGBOTTOM
 10
0.0
 20
0.0
 30
0.0
  9
$UCSORGLEFT
 10
0.0
 20
0.0
 30
0.0
  9
$UCSORGRIGHT
 10
0.0
 20
0.0
 30
0.0
  9
$UCSORGFRONT
 10
0.0
 20
0.0
 30
0.0
  9
$UCSORGBACK
 10
0.0
 20
0.0
 30
0.0
  9
$PUCSBASE
  2

  9
$PUCSNAME
  2

  9
$PUCSORG
 10
0.0
 20
0.0
 30
0.0
  9
$PUCSXDIR
 10
1.0
 20
0.0
 30
0.0
  9
$PUCSYDIR
 10
0.0
 20
1.0
 30
0.0
  9
$PUCSORTHOREF
  2

  9
$PUCSORTHOVIEW
 70
     0
  9
$PUCSORGTOP
 10
0.0
 20
0.0
 30
0.0
  9
$PUCSORGBOTTOM
 10
0.0
 20
0.0
 30
0.0
  9
$PUCSORGLEFT
 10
0.0
 20
0.0
 30
0.0
  9
$PUCSORGRIGHT
 10
0.0
 20
0.0
 30
0.0
  9
$PUCSORGFRONT
 10
0.0
 20
0.0
 30
0.0
  9
$PUCSORGBACK
 10
0.0
 20
0.0
 30
0.0
  9
$USERI1
 70
     0
  9
$USERI2
 70
     0
  9
$USERI3
 70
     0
  9
$USERI4
 70
     0
  9
$USERI5
 70
     0
  9
$USERR1
 40
0.0
  9
$USERR2
 40
0.0
  9
$USERR3
 40
0.0
  9
$USERR4
 40
0.0
  9
$USERR5
 40
0.0
  9
$WORLDVIEW
 70
     1
  9
$SHADEDGE
 70
     3
  9
$SHADEDIF
 70
    70
  9
$TILEMODE
 70
     1
  9
$MAXACTVP
 70
    48
  9
$PINSBASE
 10
0.0
 20
0.0
 30
0.0
  9
$PLIMCHECK
 70
     0
  9
$PEXTMIN
 10
0.0
 20
0.0
 30
0.0
  9
$PEXTMAX
 10
0.0
 20
0.0
 30
0.0
  9
$PLIMMIN
 10
0.0
 20
0.0
  9
$PLIMMAX
 10
12.0
 20
9.0
  9
$UNITMODE
 70
     0
  9
$VISRETAIN
 70
     1
  9
$PLINEGEN
 70
     0
  9
$PSLTSCALE
 70
     1
  9
$TREEDEPTH
 70
  3020
  9
$CMLSTYLE
  2
Standard
  9
$CMLJUST
 70
     0
  9
$CMLSCALE
 40
20.0
  9
$PROXYGRAPHICS
 70
     1
  9
$MEASUREMENT
 70
     1
  9
$CELWEIGHT
370
    -1
  9
$ENDCAPS
280
     0
  9
$JOINSTYLE
280
     0
  9
$LWDISPLAY
290
     0
  9
$INSUNITS
 70
     4
  9
$HYPERLINKBASE
  1

  9
$STYLESHEET
  1
monochrome.ctb
  9
$XEDIT
290
     1
  9
$CEPSNTYPE
380
     0
  9
$PSTYLEMODE
290
     1
  9
$FINGERPRINTGUID
  2

  9
$VERSIONGUID
  2
{18CC6EF0-4A77-4DED-B896-3F0914173B23}
  9
$EXTNAMES
290
     1
  9
$PSVPSCALE
 40
0.0
  9
$OLESTARTUP
290
     0
  0
ENDSEC
  0
SECTION
  2
CLASSES
  0
CLASS
  1
ACDBDICTIONARYWDFLT
  2
AcDbDictionaryWithDefault
  3
ObjectDBX Classes
 90
        0
280
     0
281
     0
  0
CLASS
  1
ACDBPLACEHOLDER
  2
AcDbPlaceHolder
  3
ObjectDBX Classes
 90
        0
280
     0
281
     0
  0
CLASS
  1
LAYOUT
  2
AcDbLayout
  3
ObjectDBX Classes
 90
        0
280
     0
281
     0
  0
CLASS
  1
DICTIONARYVAR
  2
AcDbDictionaryVar
  3
ObjectDBX Classes
 90
        0
280
     0
281
     0
  0
CLASS
  1
MATERIAL
  2
AcDbMaterial
  3
ObjectDBX Classes
 90
     1153
280
     0
281
     0
  0
CLASS
  1
VISUALSTYLE
  2
AcDbVisualStyle
  3
ObjectDBX Classes
 90
     4095
280
     0
281
     0
  0
CLASS
  1
TABLESTYLE
  2
AcDbTableStyle
  3
ObjectDBX Classes
 90
     4095
280
     0
281
     0
  0
CLASS
  1
SCALE
  2
AcDbScale
  3
ObjectDBX Classes
 90
     1153
280
     0
281
     0
  0
CLASS
  1
MLEADERSTYLE
  2
AcDbMLeaderStyle
  3
ACDB_MLEADERSTYLE_CLASS
 90
     4095
280
     0
281
     0
  0
CLASS
  1
ACDBSECTIONVIEWSTYLE
  2
AcDbSectionViewStyle
  3
ObjectDBX Classes
 90
     1025
280
     0
281
     0
  0
CLASS
  1
ACDBDETAILVIEWSTYLE
  2
AcDbDetailViewStyle
  3
ObjectDBX Classes
 90
     1025
280
     0
281
     0
  0
CLASS
  1
CELLSTYLEMAP
  2
AcDbCellStyleMap
  3
ObjectDBX Classes
 90
     1152
280
     0
281
     0
  0
CLASS
  1
SORTENTSTABLE
  2
AcDbSortentsTable
  3
ObjectDBX Classes
 90
        0
280
     0
281
     0
  0
CLASS
  1
ACARRAYJIGENTITY
  2
AcArrayJigEntity
  3
ACAD_ARRAY
 90
      129
280
     0
281
     1
  0
CLASS
  1
ACDBASSOCNETWORK
  2
AcDbAssocNetwork
  3
ObjectDBX Classes
 90
     1025
280
     0
281
     0
  0
CLASS
  1
ACDBASSOCACTION
  2
AcDbAssocAction
  3
ObjectDBX Classes
 90
     1025
280
     0
281
     0
  0
CLASS
  1
ACDBASSOCARRAYACTIONBODY
  2
AcDbAssocArrayActionBody
  3
ObjectDBX Classes
 90
     1025
280
     0
281
     0
  0
CLASS
  1
ACDBASSOCVERTEXACTIONPARAM
  2
AcDbAssocVertexActionParam
  3
ObjectDBX Classes
 90
     1025
280
     0
281
     0
  0
CLASS
  1
ACDBASSOCDEPENDENCY
  2
AcDbAssocDependency
  3
ObjectDBX Classes
 90
     1025
280
     0
281
     0
  0
CLASS
  1
ACDBASSOCARRAYRECTANGULARPARAMETERS
  2
AcDbAssocArrayRectangularParameters
  3
ObjectDBX Classes
 90
    33793
280
     0
281
     0
  0
ENDSEC
  0
SECTION
  2
TABLES
  0
TABLE
  2
VPORT
  5
83D
102
{ACAD_XDICTIONARY
360
1063
102
}
330
0
100
AcDbSymbolTable
 70
     1
  0
VPORT
  5
FF5
330
83D
100
AcDbSymbolTableRecord
100
AcDbViewportTableRecord
  2
*Active
 70
     0
 10
0.0
 20
0.0
 11
1.0
 21
1.0
 12
1394.755593501606
 22
986.6345654368513
 13
0.0
 23
0.0
 14
10.0
 24
10.0
 15
10.0
 25
10.0
 16
0.0
 26
0.0
 36
1.0
 17
0.0
 27
0.0
 37
0.0
 40
1992.48605509167
 41
2.97752808988764
 42
50.0
 43
0.0
 44
0.0
 50
0.0
 51
0.0
 71
     0
 72
   100
 73
     1
 74
     3
 75
     0
 76
     0
 77
     0
 78
     0
281
     0
 65
     1
110
0.0
120
0.0
130
0.0
111
1.0
121
0.0
131
0.0
112
0.0
122
1.0
132
0.0
 79
     0
146
0.0
1001
ACAD_NAV_VCDISPLAY
1070
     3
  0
ENDTAB
  0
TABLE
  2
LTYPE
  5
838
330
0
100
AcDbSymbolTable
 70
     7
  0
LTYPE
  5
839
330
838
100
AcDbSymbolTableRecord
100
AcDbLinetypeTableRecord
  2
ByBlock
 70
     0
  3

 72
    65
 73
     0
 40
0.0
  0
LTYPE
  5
83A
330
838
100
AcDbSymbolTableRecord
100
AcDbLinetypeTableRecord
  2
ByLayer
 70
     0
  3

 72
    65
 73
     0
 40
0.0
  0
LTYPE
  5
8
330
838
100
AcDbSymbolTableRecord
100
AcDbLinetypeTableRecord
  2
Continuous
 70
     0
  3
Solid line
 72
    65
 73
     0
 40
0.0
  0
LTYPE
  5
1B6
330
838
100
AcDbSymbolTableRecord
100
AcDbLinetypeTableRecord
  2
HIDDEN
 70
     0
  3
Hidden __ __ __ __ __ __ __ __ __ __ __ __ __ _
 72
    65
 73
     2
 40
9.524999999999998
 49
6.349999999999999
 74
     0
 49
-3.174999999999999
 74
     0
  0
LTYPE
  5
1C4
330
838
100
AcDbSymbolTableRecord
100
AcDbLinetypeTableRecord
  2
CENTER
 70
     0
  3
------ - ------ - ----
 72
    65
 73
     4
 40
10.0
 49
6.25
 74
     0
 49
-1.25
 74
     0
 49
1.25
 74
     0
 49
-1.25
 74
     0
  0
ENDTAB
  0
TABLE
  2
LAYER
  5
835
102
{ACAD_XDICTIONARY
360
11A0
102
}
330
0
100
AcDbSymbolTable
 70
    10
  0
LAYER
  5
65
102
{ACAD_XDICTIONARY
360
104A
102
}
330
835
100
AcDbSymbolTableRecord
100
AcDbLayerTableRecord
  2
0
 70
     0
 62
     7
  6
Continuous
370
    -3
390
5
  0
LAYER
  5
6B
102
{ACAD_XDICTIONARY
360
104C
102
}
330
835
100
AcDbSymbolTableRecord
100
AcDbLayerTableRecord
  2
本体
 70
     0
 62
     7
  6
Continuous
370
    13
390
5
  0
LAYER
  5
4
102
{ACAD_XDICTIONARY
360
104E
102
}
330
835
100
AcDbSymbolTableRecord
100
AcDbLayerTableRecord
  2
寸法線
 70
     0
 62
     2
  6
Continuous
370
     9
390
5
  0
LAYER
  5
68
102
{ACAD_XDICTIONARY
360
1052
102
}
330
835
100
AcDbSymbolTableRecord
100
AcDbLayerTableRecord
  2
エンボス
 70
     0
 62
     4
  6
Continuous
370
     5
390
5
  0
LAYER
  5
11
102
{ACAD_XDICTIONARY
360
1054
102
}
330
835
100
AcDbSymbolTableRecord
100
AcDbLayerTableRecord
  2
外枠
 70
     0
 62
     7
  6
Continuous
370
    -3
390
5
  0
LAYER
  5
1E0
330
835
100
AcDbSymbolTableRecord
100
AcDbLayerTableRecord
  2
Defpoints
 70
     0
 62
     7
  6
Continuous
290
     0
370
    -3
390
5
  0
LAYER
  5
1111
330
835
100
AcDbSymbolTableRecord
100
AcDbLayerTableRecord
  2
嵩上断面
 70
     0
 62
   112
  6
Continuous
370
    13
390
5
  0
LAYER
  5
119E
102
{ACAD_XDICTIONARY
360
119F
102
}
330
835
100
AcDbSymbolTableRecord
100
AcDbLayerTableRecord
  2
嵩上平面
 70
     0
 62
   112
  6
HIDDEN
370
    13
390
5
  0
ENDTAB
  0
TABLE
  2
STYLE
  5
836
330
0
100
AcDbSymbolTable
 70
     4
  0
STYLE
  5
9
330
836
100
AcDbSymbolTableRecord
100
AcDbTextStyleTableRecord
  2
Standard
 70
     0
 40
0.0
 41
1.0
 50
0.0
 71
     0
 42
2.5
  3

  4

1001
ACAD
1000
MS Gothic
1071
    32817
  0
ENDTAB
  0
TABLE
  2
VIEW
  5
83B
330
0
100
AcDbSymbolTable
 70
     0
  0
ENDTAB
  0
TABLE
  2
UCS
  5
83C
330
0
100
AcDbSymbolTable
 70
     0
  0
ENDTAB
  0
TABLE
  2
APPID
  5
83F
330
0
100
AcDbSymbolTable
 70
     5
  0
APPID
  5
A
330
83F
100
AcDbSymbolTableRecord
100
AcDbRegAppTableRecord
  2
ACAD
 70
     0
  0
APPID
  5
1058
330
83F
100
AcDbSymbolTableRecord
100
AcDbRegAppTableRecord
  2
ACAD_NAV_VCDISPLAY
 70
     0
  0
APPID
  5
1099
330
83F
100
AcDbSymbolTableRecord
100
AcDbRegAppTableRecord
  2
ACAD_MLEADERVER
 70
     0
  0
APPID
  5
114E
330
83F
100
AcDbSymbolTableRecord
100
AcDbRegAppTableRecord
  2
ACAD_EXEMPT_FROM_CAD_STANDARDS
 70
     0
  0
APPID
  5
125C
330
83F
100
AcDbSymbolTableRecord
100
AcDbRegAppTableRecord
  2
AcLayerTools
 70
     0
  0
ENDTAB
  0
TABLE
  2
DIMSTYLE
  5
840
330
0
100
AcDbSymbolTable
 70
     3
100
AcDbDimStyleTable
 71
     1
340
1D1
  0
DIMSTYLE
105
1D1
102
{ACAD_REACTORS
330
2BF
330
2CC
330
443
330
458
330
465
330
814
330
86F
330
112B
330
436
102
}
330
840
100
AcDbSymbolTableRecord
100
AcDbDimStyleTableRecord
  2
ISO-25
 70
     0
 40
10.0
 41
1.5
 42
2.0
 43
3.75
 44
1.5
 73
     0
 74
     0
 77
     1
 78
     8
140
3.0
141
2.5
143
0.03937007874016
147
0.5
171
     3
172
     1
271
     2
272
     2
274
     3
283
     0
284
     8
289
     0
340
9
341
1D2
342
1D2
  0
DIMSTYLE
105
1114
330
840
100
AcDbSymbolTableRecord
100
AcDbDimStyleTableRecord
  2
Standard
 70
     0
340
9
  0
ENDTAB
  0
TABLE
  2
BLOCK_RECORD
  5
1
330
0
100
AcDbSymbolTable
 70
    30
  0
BLOCK_RECORD
  5
2
102
{ACAD_XDICTIONARY
360
823
102
}
330
1
100
AcDbSymbolTableRecord
100
AcDbBlockTableRecord
  2
*Model_Space
340
827
  0
BLOCK_RECORD
  5
829
102
{ACAD_XDICTIONARY
360
82A
102
}
330
1
100
AcDbSymbolTableRecord
100
AcDbBlockTableRecord
  2
*Paper_Space
340
82E
  0
BLOCK_RECORD
  5
82F
102
{ACAD_XDICTIONARY
360
830
102
}
330
1
100
AcDbSymbolTableRecord
100
AcDbBlockTableRecord
  2
*Paper_Space0
340
834
  0
BLOCK_RECORD
  5
1D2
330
1
100
AcDbSymbolTableRecord
100
AcDbBlockTableRecord
  2
_Open30
340
0
102
{BLKREFS
331
1164
331
1165
331
1184
331
1185
331
118F
331
1190
331
1198
331
1199
331
860
331
861
331
87F
331
880
331
2D1
331
2D2
331
1336
331
1337
331
133F
331
1340
102
}
  0
BLOCK_RECORD
  5
66
330
1
100
AcDbSymbolTableRecord
100
AcDbBlockTableRecord
  2
GIB詳細
340
0
102
{BLKREFS
331
64
102
}
1001
ACAD
1000
DesignCenter Data
1002
{
1070
     1
1070
     4
1002
}
  0
BLOCK_RECORD
  5
1C1
330
1
100
AcDbSymbolTableRecord
100
AcDbBlockTableRecord
  2
TB8
340
0
102
{BLKREFS
331
86B
331
86C
331
86D
331
86E
331
1C0
331
1C9
331
1CA
331
1CB
331
29E
102
}
1001
ACAD
1000
DesignCenter Data
1002
{
1070
     1
1070
     4
1002
}
  0
BLOCK_RECORD
  5
2C0
330
1
100
AcDbSymbolTableRecord
100
AcDbBlockTableRecord
  2
*D4
340
0
  0
BLOCK_RECORD
  5
2CD
330
1
100
AcDbSymbolTableRecord
100
AcDbBlockTableRecord
  2
*D5
340
0
  0
BLOCK_RECORD
  5
437
330
1
100
AcDbSymbolTableRecord
100
AcDbBlockTableRecord
  2
*D6
340
0
  0
BLOCK_RECORD
  5
444
330
1
100
AcDbSymbolTableRecord
100
AcDbBlockTableRecord
  2
*D7
340
0
  0
BLOCK_RECORD
  5
459
330
1
100
AcDbSymbolTableRecord
100
AcDbBlockTableRecord
  2
*D8
340
0
  0
BLOCK_RECORD
  5
466
330
1
100
AcDbSymbolTableRecord
100
AcDbBlockTableRecord
  2
*D9
340
0
  0
BLOCK_RECORD
  5
815
330
1
100
AcDbSymbolTableRecord
100
AcDbBlockTableRecord
  2
*D10
340
0
  0
BLOCK_RECORD
  5
870
330
1
100
AcDbSymbolTableRecord
100
AcDbBlockTableRecord
  2
*D11
340
0
  0
BLOCK_RECORD
  5
FE5
330
1
100
AcDbSymbolTableRecord
100
AcDbBlockTableRecord
  2
清水
340
0
102
{BLKREFS
331
10C0
102
}
1001
ACAD
1000
DesignCenter Data
1002
{
1070
     1
1070
     4
1002
}
  0
BLOCK_RECORD
  5
10B0
102
{ACAD_XDICTIONARY
360
10B1
102
}
330
1
100
AcDbSymbolTableRecord
100
AcDbBlockTableRecord
  2
鎌下
340
0
102
{BLKREFS
331
10C2
102
}
1001
ACAD
1000
DesignCenter Data
1002
{
1070
     1
1070
     4
1002
}
  0
BLOCK_RECORD
  5
1117
330
1
100
AcDbSymbolTableRecord
100
AcDbBlockTableRecord
  2
P-H45
340
0
102
{BLKREFS
331
1125
331
1126
102
}
  0
BLOCK_RECORD
  5
112C
330
1
100
AcDbSymbolTableRecord
100
AcDbBlockTableRecord
  2
*D24
340
0
  0
BLOCK_RECORD
  5
1264
102
{ACAD_REACTORS
330
12CC
102
}
330
1
100
AcDbSymbolTableRecord
100
AcDbBlockTableRecord
  2
*U26
340
0
102
{BLKREFS
331
12D0
331
12D1
331
12D2
331
12D3
331
12D4
331
12D5
331
12D6
331
12D7
331
12D8
331
12D9
331
12DA
331
12DB
331
12DC
331
12DD
331
12DE
331
12DF
102
}
  0
BLOCK_RECORD
  5
1267
102
{ACAD_XDICTIONARY
360
13DC
102
}
102
{ACAD_REACTORS
330
12CB
102
}
330
1
100
AcDbSymbolTableRecord
100
AcDbBlockTableRecord
  2
*U27
340
0
102
{BLKREFS
331
126A
102
}
  0
BLOCK_RECORD
  5
12E1
102
{ACAD_REACTORS
330
12FE
102
}
330
1
100
AcDbSymbolTableRecord
100
AcDbBlockTableRecord
  2
*U28
340
0
102
{BLKREFS
331
1302
331
1303
331
1304
331
1305
331
1306
331
1307
331
1308
331
1309
331
130A
331
130B
331
130C
331
130D
331
130E
331
130F
331
1310
331
1311
102
}
  0
BLOCK_RECORD
  5
12E4
102
{ACAD_XDICTIONARY
360
13DF
102
}
102
{ACAD_REACTORS
330
12FD
102
}
330
1
100
AcDbSymbolTableRecord
100
AcDbBlockTableRecord
  2
*U29
340
0
102
{BLKREFS
331
12E7
102
}
  0
ENDTAB
  0
ENDSEC
  0
SECTION
  2
BLOCKS
  0
BLOCK
  5
825
330
2
100
AcDbEntity
  8
0
100
AcDbBlockBegin
  2
*Model_Space
 70
     0
 10
0.0
 20
0.0
 30
0.0
  3
*Model_Space
  1

  0
ENDBLK
  5
826
330
2
100
AcDbEntity
  8
0
100
AcDbBlockEnd
  0
BLOCK
  5
82C
330
829
100
AcDbEntity
 67
     1
  8
0
100
AcDbBlockBegin
  2
*Paper_Space
 70
     0
 10
0.0
 20
0.0
 30
0.0
  3
*Paper_Space
  1

  0
ENDBLK
  5
82D
330
829
100
AcDbEntity
 67
     1
  8
0
100
AcDbBlockEnd
  0
BLOCK
  5
832
330
82F
100
AcDbEntity
 67
     1
  8
0
100
AcDbBlockBegin
  2
*Paper_Space0
 70
     0
 10
0.0
 20
0.0
 30
0.0
  3
*Paper_Space0
  1

  0
ENDBLK
  5
833
330
82F
100
AcDbEntity
 67
     1
  8
0
100
AcDbBlockEnd
  0
BLOCK
  5
1D6
330
1D2
100
AcDbEntity
  8
0
100
AcDbBlockBegin
  2
_Open30
 70
     0
 10
0.0
 20
0.0
 30
0.0
  3
_Open30
  1

  0
LINE
  5
1D3
330
1D2
100
AcDbEntity
  8
0
  6
ByBlock
 62
     0
370
    -2
100
AcDbLine
 10
-1.0
 20
0.26794919
 30
0.0
 11
0.0
 21
0.0
 31
0.0
  0
LINE
  5
1D4
330
1D2
100
AcDbEntity
  8
0
  6
ByBlock
 62
     0
370
    -2
100
AcDbLine
 10
0.0
 20
0.0
 30
0.0
 11
-1.0
 21
-0.26794919
 31
0.0
  0
LINE
  5
1D5
330
1D2
100
AcDbEntity
  8
0
  6
ByBlock
 62
     0
370
    -2
100
AcDbLine
 10
0.0
 20
0.0
 30
0.0
 11
-1.0
 21
0.0
 31
0.0
  0
ENDBLK
  5
1D7
330
1D2
100
AcDbEntity
  8
0
100
AcDbBlockEnd
  0
BLOCK
  5
AA
330
66
100
AcDbEntity
  8
0
100
AcDbBlockBegin
  2
GIB詳細
 70
     0
 10
0.0
 20
0.0
 30
0.0
  3
GIB詳細
  1

  0
LINE
  5
67
330
66
100
AcDbEntity
  8
エンボス
  6
Continuous
370
     0
100
AcDbLine
 10
26.66967878750091
 20
-77.78386766485943
 30
0.0
 11
26.66967878750109
 21
-100.7518676648589
 31
0.0
  0
LINE
  5
69
330
66
100
AcDbEntity
  8
エンボス
  6
Continuous
370
     0
100
AcDbLine
 10
20.62167878750051
 20
-97.43986766485926
 30
0.0
 11
20.62167878750057
 21
-100.7518676648589
 31
0.0
  0
LINE
  5
6A
330
66
100
AcDbEntity
  8
本体
370
     0
100
AcDbLine
 10
37.90167878750151
 20
79.24813233514118
 30
0.0
 11
37.90167878750151
 21
-100.7518676648589
 31
0.0
  0
LINE
  5
6C
330
66
100
AcDbEntity
  8
エンボス
370
     0
100
AcDbLine
 10
26.66967878750091
 20
38.64013233514075
 30
0.0
 11
26.66967878750091
 21
12.93613233514055
 31
0.0
  0
LINE
  5
6D
330
66
100
AcDbEntity
  8
エンボス
370
     0
100
AcDbLine
 10
26.66967878750091
 20
40.15213233514034
 30
0.0
 11
26.66967878750091
 21
12.93613233514055
 31
0.0
  0
LINE
  5
6E
330
66
100
AcDbEntity
  8
エンボス
370
     0
100
AcDbLine
 10
20.62167878750051
 20
59.80813233514115
 30
0.0
 11
20.62167878750051
 21
32.59213233514036
 31
0.0
  0
LINE
  5
6F
330
66
100
AcDbEntity
  8
エンボス
  6
Continuous
370
     0
100
AcDbLine
 10
8.525678787500737
 20
26.54413233514095
 30
0.0
 11
20.62167878750051
 21
20.49613233514056
 31
0.0
  0
LINE
  5
70
330
66
100
AcDbEntity
  8
エンボス
  6
Continuous
370
     0
100
AcDbLine
 10
8.525678787500737
 20
26.54413233514095
 30
0.0
 11
20.62167878750051
 21
32.59213233514036
 31
0.0
  0
LINE
  5
71
330
66
100
AcDbEntity
  8
エンボス
  6
Continuous
370
     0
100
AcDbLine
 10
8.525678787500737
 20
-91.39186766485886
 30
0.0
 11
20.62167878750051
 21
-85.34386766485942
 31
0.0
  0
LINE
  5
72
330
66
100
AcDbEntity
  8
エンボス
  6
Continuous
370
     0
100
AcDbLine
 10
8.525678787500737
 20
-91.39186766485886
 30
0.0
 11
20.62167878750051
 21
-97.43986766485926
 31
0.0
  0
LINE
  5
73
330
66
100
AcDbEntity
  8
エンボス
  6
Continuous
370
     0
100
AcDbLine
 10
8.525678787500737
 20
-52.07986766485925
 30
0.0
 11
20.62167878750051
 21
-58.12786766485965
 31
0.0
  0
LINE
  5
74
330
66
100
AcDbEntity
  8
エンボス
  6
Continuous
370
     0
100
AcDbLine
 10
8.525678787500737
 20
-52.07986766485925
 30
0.0
 11
20.62167878750051
 21
-46.03186766485886
 31
0.0
  0
LINE
  5
75
330
66
100
AcDbEntity
  8
エンボス
  6
Continuous
370
     0
100
AcDbLine
 10
8.525678787500737
 20
-12.76786766485964
 30
0.0
 11
20.62167878750051
 21
-6.719867664859251
 31
0.0
  0
LINE
  5
76
330
66
100
AcDbEntity
  8
エンボス
  6
Continuous
370
     0
100
AcDbLine
 10
8.525678787500737
 20
-12.76786766485964
 30
0.0
 11
20.62167878750051
 21
-18.81586766485905
 31
0.0
  0
LINE
  5
77
330
66
100
AcDbEntity
  8
エンボス
  6
Continuous
370
     0
100
AcDbLine
 10
38.76567878750075
 20
6.888132335141136
 30
0.0
 11
26.66967878750091
 21
12.93613233514055
 31
0.0
  0
LINE
  5
78
330
66
100
AcDbEntity
  8
エンボス
  6
Continuous
370
     0
100
AcDbLine
 10
38.76567878750075
 20
-32.42386766485945
 30
0.0
 11
26.66967878750091
 21
-26.37586766485906
 31
0.0
  0
LINE
  5
79
330
66
100
AcDbEntity
  8
エンボス
  6
Continuous
370
     0
100
AcDbLine
 10
38.76567878750075
 20
-32.42386766485945
 30
0.0
 11
26.66967878750091
 21
-26.37586766485906
 31
0.0
  0
LINE
  5
7A
330
66
100
AcDbEntity
  8
エンボス
  6
Continuous
370
     0
100
AcDbLine
 10
38.76567878750075
 20
-71.73586766485906
 30
0.0
 11
26.66967878750091
 21
-77.78386766485943
 31
0.0
  0
LINE
  5
7B
330
66
100
AcDbEntity
  8
エンボス
  6
Continuous
370
     0
100
AcDbLine
 10
38.76567878750075
 20
-71.73586766485906
 30
0.0
 11
26.66967878750091
 21
-77.78386766485943
 31
0.0
  0
LINE
  5
7C
330
66
100
AcDbEntity
  8
エンボス
  6
Continuous
370
     0
100
AcDbLine
 10
38.76567878750075
 20
-71.73586766485906
 30
0.0
 11
26.66967878750091
 21
-77.78386766485943
 31
0.0
  0
LINE
  5
7D
330
66
100
AcDbEntity
  8
エンボス
  6
Continuous
370
     0
100
AcDbLine
 10
38.76567878750075
 20
-32.42386766485945
 30
0.0
 11
26.66967878750091
 21
-38.47186766485886
 31
0.0
  0
LINE
  5
7E
330
66
100
AcDbEntity
  8
エンボス
  6
Continuous
370
     0
100
AcDbLine
 10
38.76567878750075
 20
-32.42386766485945
 30
0.0
 11
26.66967878750091
 21
-38.47186766485886
 31
0.0
  0
LINE
  5
7F
330
66
100
AcDbEntity
  8
エンボス
  6
Continuous
370
     0
100
AcDbLine
 10
38.76567878750075
 20
-71.73586766485906
 30
0.0
 11
26.66967878750091
 21
-65.68786766485965
 31
0.0
  0
LINE
  5
80
330
66
100
AcDbEntity
  8
エンボス
  6
Continuous
370
     0
100
AcDbLine
 10
38.76567878750075
 20
-71.73586766485906
 30
0.0
 11
26.66967878750091
 21
-65.68786766485965
 31
0.0
  0
LINE
  5
81
330
66
100
AcDbEntity
  8
エンボス
  6
Continuous
370
     0
100
AcDbLine
 10
38.76567878750075
 20
-71.73586766485906
 30
0.0
 11
26.66967878750091
 21
-65.68786766485965
 31
0.0
  0
LINE
  5
82
330
66
100
AcDbEntity
  8
エンボス
  6
Continuous
370
     0
100
AcDbLine
 10
26.66967878750091
 20
-38.47186766485886
 30
0.0
 11
26.66967878750091
 21
-65.68786766485965
 31
0.0
  0
LINE
  5
83
330
66
100
AcDbEntity
  8
エンボス
  6
Continuous
370
     0
100
AcDbLine
 10
26.66967878750091
 20
0.8401323351407512
 30
0.0
 11
26.66967878750091
 21
-26.37586766485906
 31
0.0
  0
LINE
  5
84
330
66
100
AcDbEntity
  8
エンボス
  6
Continuous
370
     0
100
AcDbLine
 10
20.62167878750051
 20
-18.81586766485905
 30
0.0
 11
20.62167878750051
 21
-46.03186766485886
 31
0.0
  0
LINE
  5
85
330
66
100
AcDbEntity
  8
エンボス
  6
Continuous
370
     0
100
AcDbLine
 10
20.62167878750051
 20
-58.12786766485965
 30
0.0
 11
20.62167878750051
 21
-85.34386766485942
 31
0.0
  0
LINE
  5
86
330
66
100
AcDbEntity
  8
エンボス
  6
Continuous
370
     0
100
AcDbLine
 10
20.62167878750051
 20
20.49613233514056
 30
0.0
 11
20.62167878750051
 21
-6.719867664859251
 31
0.0
  0
LINE
  5
87
330
66
100
AcDbEntity
  8
エンボス
  6
Continuous
370
     0
100
AcDbLine
 10
38.76567878750075
 20
6.888132335141136
 30
0.0
 11
26.66967878750091
 21
0.8401323351407512
 31
0.0
  0
LINE
  5
88
330
66
100
AcDbEntity
  8
エンボス
  6
Continuous
370
     0
100
AcDbLine
 10
8.525678787500737
 20
73.20013233514075
 30
0.0
 11
20.62167878750051
 21
79.24813233514118
 31
0.0
  0
LINE
  5
89
330
66
100
AcDbEntity
  8
エンボス
  6
Continuous
370
     0
100
AcDbLine
 10
8.525678787500737
 20
73.20013233514075
 30
0.0
 11
20.62167878750051
 21
59.80813233514115
 31
0.0
  0
LINE
  5
8A
330
66
100
AcDbEntity
  8
エンボス
370
     0
100
AcDbLine
 10
26.66967878750091
 20
79.24813233514118
 30
0.0
 11
26.66967878750091
 21
52.24813233514115
 31
0.0
  0
LINE
  5
8B
330
66
100
AcDbEntity
  8
エンボス
  6
Continuous
370
     0
100
AcDbLine
 10
38.76567878750075
 20
46.20013233514074
 30
0.0
 11
26.66967878750091
 21
52.24813233514115
 31
0.0
  0
LINE
  5
8C
330
66
100
AcDbEntity
  8
エンボス
  6
Continuous
370
     0
100
AcDbLine
 10
38.76567878750075
 20
46.20013233514074
 30
0.0
 11
26.66967878750091
 21
40.15213233514034
 31
0.0
  0
LINE
  5
8D
330
66
100
AcDbEntity
  8
本体
370
     0
100
AcDbLine
 10
7.6616787875015
 20
79.24813233514118
 30
0.0
 11
7.6616787875015
 21
-100.7518676648589
 31
0.0
  0
MTEXT
  5
8E
330
66
100
AcDbEntity
  8
本体
  6
Continuous
370
     0
100
AcDbMText
 10
-96.91195000051369
 20
158.2682376554469
 30
0.0
 40
30.0
 41
252.8401
 71
     1
 72
     5
  1
GIB形状詳細
 73
     1
 44
1.0
1001
ACAD
1000
MTEXTBEGIN
1070
    73
1070
     1
1070
    44
1040
1.0
1070
    74
1070
     0
1000
MTEXTEND
  0
MTEXT
  5
8F
330
66
100
AcDbEntity
  8
寸法線
  6
Continuous
100
AcDbMText
 10
-147.3028652710904
 20
1772.180188660315
 30
0.0
 40
20.0
 41
17.2146
 71
     7
 72
     1
  1

 73
     1
 44
1.0
1001
ACAD
1000
MTEXTBEGIN
1070
    73
1070
     1
1070
    44
1040
1.0
1070
    74
1070
     0
1000
MTEXTEND
  0
MTEXT
  5
90
330
66
100
AcDbEntity
  8
寸法線
  6
Continuous
100
AcDbMText
 10
125.7829597280838
 20
3773.683923873501
 30
0.0
 40
30.0
 41
17.2146
 71
     7
 72
     1
  1

 73
     1
 44
1.0
1001
ACAD
1000
MTEXTBEGIN
1070
    73
1070
     1
1070
    44
1040
1.0
1070
    74
1070
     0
1000
MTEXTEND
  0
MTEXT
  5
91
330
66
100
AcDbEntity
  8
寸法線
  6
Continuous
100
AcDbMText
 10
-609.4758544225992
 20
3746.116575025764
 30
0.0
 40
20.0
 41
17.2146
 71
     7
 72
     1
  1

 73
     1
 44
1.0
1001
ACAD
1000
MTEXTBEGIN
1070
    73
1070
     1
1070
    44
1040
1.0
1070
    74
1070
     0
1000
MTEXTEND
  0
MTEXT
  5
92
330
66
100
AcDbEntity
  8
寸法線
  6
Continuous
100
AcDbMText
 10
-147.3028652710904
 20
1754.680188660315
 30
0.0
 40
20.0
 41
17.2146
 71
     7
 72
     1
  1

 73
     1
 44
1.0
1001
ACAD
1000
MTEXTBEGIN
1070
    73
1070
     1
1070
    44
1040
1.0
1070
    74
1070
     0
1000
MTEXTEND
  0
MTEXT
  5
93
330
66
100
AcDbEntity
  8
寸法線
  6
Continuous
100
AcDbMText
 10
125.7829597280838
 20
3756.183923873501
 30
0.0
 40
30.0
 41
17.2146
 71
     7
 72
     1
  1

 73
     1
 44
1.0
1001
ACAD
1000
MTEXTBEGIN
1070
    73
1070
     1
1070
    44
1040
1.0
1070
    74
1070
     0
1000
MTEXTEND
  0
MTEXT
  5
94
330
66
100
AcDbEntity
  8
寸法線
  6
Continuous
100
AcDbMText
 10
-609.4758544225992
 20
3728.616575025763
 30
0.0
 40
20.0
 41
17.2146
 71
     7
 72
     1
  1

 73
     1
 44
1.0
1001
ACAD
1000
MTEXTBEGIN
1070
    73
1070
     1
1070
    44
1040
1.0
1070
    74
1070
     0
1000
MTEXTEND
  0
MTEXT
  5
95
330
66
100
AcDbEntity
  8
寸法線
  6
Continuous
100
AcDbMText
 10
-147.3028652710904
 20
1704.680188660315
 30
0.0
 40
20.0
 41
17.2146
 71
     7
 72
     1
  1

 73
     1
 44
1.0
1001
ACAD
1000
MTEXTBEGIN
1070
    73
1070
     1
1070
    44
1040
1.0
1070
    74
1070
     0
1000
MTEXTEND
  0
MTEXT
  5
96
330
66
100
AcDbEntity
  8
寸法線
  6
Continuous
100
AcDbMText
 10
125.7829597280838
 20
3706.183923873501
 30
0.0
 40
30.0
 41
17.2146
 71
     7
 72
     1
  1

 73
     1
 44
1.0
1001
ACAD
1000
MTEXTBEGIN
1070
    73
1070
     1
1070
    44
1040
1.0
1070
    74
1070
     0
1000
MTEXTEND
  0
MTEXT
  5
97
330
66
100
AcDbEntity
  8
寸法線
  6
Continuous
100
AcDbMText
 10
-609.4758544225992
 20
3678.616575025763
 30
0.0
 40
20.0
 41
17.2146
 71
     7
 72
     1
  1

 73
     1
 44
1.0
1001
ACAD
1000
MTEXTBEGIN
1070
    73
1070
     1
1070
    44
1040
1.0
1070
    74
1070
     0
1000
MTEXTEND
  0
MTEXT
  5
98
330
66
100
AcDbEntity
  8
寸法線
  6
Continuous
100
AcDbMText
 10
-147.3028652710904
 20
1654.680188660315
 30
0.0
 40
20.0
 41
17.2146
 71
     7
 72
     1
  1

 73
     1
 44
1.0
1001
ACAD
1000
MTEXTBEGIN
1070
    73
1070
     1
1070
    44
1040
1.0
1070
    74
1070
     0
1000
MTEXTEND
  0
MTEXT
  5
99
330
66
100
AcDbEntity
  8
寸法線
  6
Continuous
100
AcDbMText
 10
125.7829597280838
 20
3656.183923873501
 30
0.0
 40
30.0
 41
17.2146
 71
     7
 72
     1
  1

 73
     1
 44
1.0
1001
ACAD
1000
MTEXTBEGIN
1070
    73
1070
     1
1070
    44
1040
1.0
1070
    74
1070
     0
1000
MTEXTEND
  0
MTEXT
  5
9A
330
66
100
AcDbEntity
  8
寸法線
  6
Continuous
100
AcDbMText
 10
-609.4758544225992
 20
3628.616575025763
 30
0.0
 40
20.0
 41
17.2146
 71
     7
 72
     1
  1

 73
     1
 44
1.0
1001
ACAD
1000
MTEXTBEGIN
1070
    73
1070
     1
1070
    44
1040
1.0
1070
    74
1070
     0
1000
MTEXTEND
  0
MTEXT
  5
9B
330
66
100
AcDbEntity
  8
寸法線
  6
Continuous
100
AcDbMText
 10
-147.3028652710904
 20
1604.680188660315
 30
0.0
 40
20.0
 41
17.2146
 71
     7
 72
     1
  1

 73
     1
 44
1.0
1001
ACAD
1000
MTEXTBEGIN
1070
    73
1070
     1
1070
    44
1040
1.0
1070
    74
1070
     0
1000
MTEXTEND
  0
MTEXT
  5
9C
330
66
100
AcDbEntity
  8
寸法線
  6
Continuous
100
AcDbMText
 10
125.7829597280838
 20
3606.183923873501
 30
0.0
 40
30.0
 41
17.2146
 71
     7
 72
     1
  1

 73
     1
 44
1.0
1001
ACAD
1000
MTEXTBEGIN
1070
    73
1070
     1
1070
    44
1040
1.0
1070
    74
1070
     0
1000
MTEXTEND
  0
MTEXT
  5
9D
330
66
100
AcDbEntity
  8
寸法線
  6
Continuous
100
AcDbMText
 10
-609.4758544225992
 20
3578.616575025763
 30
0.0
 40
20.0
 41
17.2146
 71
     7
 72
     1
  1

 73
     1
 44
1.0
1001
ACAD
1000
MTEXTBEGIN
1070
    73
1070
     1
1070
    44
1040
1.0
1070
    74
1070
     0
1000
MTEXTEND
  0
MTEXT
  5
9E
330
66
100
AcDbEntity
  8
寸法線
  6
Continuous
100
AcDbMText
 10
-147.3028652710904
 20
1554.680188660315
 30
0.0
 40
20.0
 41
17.2146
 71
     7
 72
     1
  1

 73
     1
 44
1.0
1001
ACAD
1000
MTEXTBEGIN
1070
    73
1070
     1
1070
    44
1040
1.0
1070
    74
1070
     0
1000
MTEXTEND
  0
MTEXT
  5
9F
330
66
100
AcDbEntity
  8
寸法線
  6
Continuous
100
AcDbMText
 10
125.7829597280838
 20
3556.183923873501
 30
0.0
 40
30.0
 41
17.2146
 71
     7
 72
     1
  1

 73
     1
 44
1.0
1001
ACAD
1000
MTEXTBEGIN
1070
    73
1070
     1
1070
    44
1040
1.0
1070
    74
1070
     0
1000
MTEXTEND
  0
MTEXT
  5
A0
330
66
100
AcDbEntity
  8
寸法線
  6
Continuous
100
AcDbMText
 10
-609.4758544225992
 20
3528.616575025763
 30
0.0
 40
20.0
 41
17.2146
 71
     7
 72
     1
  1

 73
     1
 44
1.0
1001
ACAD
1000
MTEXTBEGIN
1070
    73
1070
     1
1070
    44
1040
1.0
1070
    74
1070
     0
1000
MTEXTEND
  0
MTEXT
  5
A1
330
66
100
AcDbEntity
  8
寸法線
  6
Continuous
100
AcDbMText
 10
-147.3028652710904
 20
1504.680188660315
 30
0.0
 40
20.0
 41
17.2146
 71
     7
 72
     1
  1

 73
     1
 44
1.0
1001
ACAD
1000
MTEXTBEGIN
1070
    73
1070
     1
1070
    44
1040
1.0
1070
    74
1070
     0
1000
MTEXTEND
  0
MTEXT
  5
A2
330
66
100
AcDbEntity
  8
寸法線
  6
Continuous
100
AcDbMText
 10
125.7829597280838
 20
3506.183923873501
 30
0.0
 40
30.0
 41
17.2146
 71
     7
 72
     1
  1

 73
     1
 44
1.0
1001
ACAD
1000
MTEXTBEGIN
1070
    73
1070
     1
1070
    44
1040
1.0
1070
    74
1070
     0
1000
MTEXTEND
  0
MTEXT
  5
A3
330
66
100
AcDbEntity
  8
寸法線
  6
Continuous
100
AcDbMText
 10
-609.4758544225992
 20
3478.616575025763
 30
0.0
 40
20.0
 41
17.2146
 71
     7
 72
     1
  1

 73
     1
 44
1.0
1001
ACAD
1000
MTEXTBEGIN
1070
    73
1070
     1
1070
    44
1040
1.0
1070
    74
1070
     0
1000
MTEXTEND
  0
MTEXT
  5
A4
330
66
100
AcDbEntity
  8
寸法線
  6
Continuous
100
AcDbMText
 10
-147.3028652710904
 20
1454.680188660315
 30
0.0
 40
20.0
 41
17.2146
 71
     7
 72
     1
  1

 73
     1
 44
1.0
1001
ACAD
1000
MTEXTBEGIN
1070
    73
1070
     1
1070
    44
1040
1.0
1070
    74
1070
     0
1000
MTEXTEND
  0
MTEXT
  5
A5
330
66
100
AcDbEntity
  8
寸法線
  6
Continuous
100
AcDbMText
 10
125.7829597280838
 20
3456.183923873501
 30
0.0
 40
30.0
 41
17.2146
 71
     7
 72
     1
  1

 73
     1
 44
1.0
1001
ACAD
1000
MTEXTBEGIN
1070
    73
1070
     1
1070
    44
1040
1.0
1070
    74
1070
     0
1000
MTEXTEND
  0
MTEXT
  5
A6
330
66
100
AcDbEntity
  8
寸法線
  6
Continuous
100
AcDbMText
 10
-609.4758544225992
 20
3428.616575025763
 30
0.0
 40
20.0
 41
17.2146
 71
     7
 72
     1
  1

 73
     1
 44
1.0
1001
ACAD
1000
MTEXTBEGIN
1070
    73
1070
     1
1070
    44
1040
1.0
1070
    74
1070
     0
1000
MTEXTEND
  0
LWPOLYLINE
  5
A7
330
66
100
AcDbEntity
  8
本体
  6
Continuous
100
AcDbPolyline
 90
        4
 70
     1
 43
0.0
 10
-139.6145379512674
 20
168.6157088891093
 10
194.701175139303
 20
168.6157088891093
 10
194.701175139303
 20
-117.6274822929807
 10
-139.6145379512674
 20
-117.6274822929807
  0
HATCH
  5
A8
330
66
100
AcDbEntity
  8
エンボス
  6
Continuous
100
AcDbHatch
 10
0.0
 20
0.0
 30
0.0
210
0.0
220
0.0
230
1.0
  2
ANSI31
 70
     0
 71
     0
 91
        1
 92
        7
 72
     0
 73
     1
 93
       34
 10
26.66967878750092
 20
40.15213233514035
 10
37.90167878750151
 20
45.76813233514108
 10
37.90167878750151
 20
46.63213233514041
 10
26.66967878750092
 20
52.24813233514115
 10
26.66967878750091
 20
79.24813233514116
 10
20.62167878750047
 20
79.24813233514116
 10
8.525678787500744
 20
73.20013233514076
 10
20.62167878750051
 20
59.80813233514115
 10
20.62167878750051
 20
32.59213233514036
 10
8.525678787500737
 20
26.54413233514094
 10
20.62167878750051
 20
20.49613233514056
 10
20.62167878750051
 20
-6.719867664859251
 10
8.525678787500737
 20
-12.76786766485964
 10
20.62167878750051
 20
-18.81586766485905
 10
20.62167878750051
 20
-46.03186766485887
 10
8.525678787500737
 20
-52.07986766485925
 10
20.62167878750051
 20
-58.12786766485965
 10
20.62167878750051
 20
-85.34386766485944
 10
8.525678787500737
 20
-91.39186766485885
 10
20.62167878750051
 20
-97.43986766485924
 10
20.62167878750057
 20
-100.7518676648588
 10
26.66967878750109
 20
-100.7518676648589
 10
26.66967878750091
 20
-77.78386766485944
 10
37.90167878750151
 20
-72.16786766485872
 10
37.90167878750151
 20
-71.30386766485948
 10
26.66967878750091
 20
-65.68786766485963
 10
26.66967878750091
 20
-38.47186766485886
 10
37.90167878750151
 20
-32.85586766485902
 10
37.90167878750151
 20
-31.99186766485979
 10
26.66967878750091
 20
-26.37586766485906
 10
26.66967878750091
 20
0.8401323351407494
 10
37.90167878750151
 20
6.456132335141482
 10
37.90167878750151
 20
7.320132335140719
 10
26.66967878750091
 20
12.93613233514056
 97
        0
 75
     0
 76
     1
 52
0.0
 41
0.5
 77
     0
 78
     1
 53
45.0
 43
8.525678787500737
 44
-12.76786766485964
 45
-1.122532015133643
 46
1.122532015133644
 79
     0
 47
0.5074757335946297
 98
        1
 10
23.11907519037527
 20
30.63971558616095
  0
MTEXT
  5
A9
330
66
100
AcDbEntity
  8
本体
  6
Continuous
100
AcDbMText
 10
-79.8847425412946
 20
110.9530386434795
 30
0.0
 40
15.0
 41
230.6957
 71
     1
 72
     5
  1
※塗りつぶし部分突起
 73
     1
 44
1.0
1001
ACAD
1000
MTEXTBEGIN
1070
    73
1070
     1
1070
    44
1040
1.0
1070
    74
1070
     0
1000
MTEXTEND
  0
ENDBLK
  5
AB
330
66
100
AcDbEntity
  8
0
100
AcDbBlockEnd
  0
BLOCK
  5
1C7
330
1C1
100
AcDbEntity
  8
0
100
AcDbBlockBegin
  2
TB8
 70
     0
 10
0.0
 20
0.0
 30
0.0
  3
TB8
  1

  0
MTEXT
  5
1C2
330
1C1
100
AcDbEntity
  8
寸法線
  6
Continuous
100
AcDbMText
 10
917.3216494432054
 20
235.349302881973
 30
0.0
 40
20.0
 41
17.2146
 71
     7
 72
     1
  1

 73
     1
 44
1.0
1001
ACAD
1000
MTEXTBEGIN
1070
    73
1070
     1
1070
    44
1040
1.0
1070
    74
1070
     0
1000
MTEXTEND
  0
LINE
  5
1C3
330
1C1
100
AcDbEntity
  8
本体
  6
CENTER
 62
     1
 48
0.3
100
AcDbLine
 10
10.0
 20
0.0
 30
0.0
 11
-2.0
 21
0.0
 31
0.0
  0
LINE
  5
1C5
330
1C1
100
AcDbEntity
  8
本体
  6
CENTER
 62
     1
 48
0.3
100
AcDbLine
 10
4.0
 20
6.0
 30
0.0
 11
4.0
 21
-6.0
 31
0.0
  0
CIRCLE
  5
1C6
330
1C1
100
AcDbEntity
  8
本体
  6
Continuous
 62
     0
100
AcDbCircle
 10
4.0
 20
0.0
 30
0.0
 40
4.0
  0
ENDBLK
  5
1C8
330
1C1
100
AcDbEntity
  8
0
100
AcDbBlockEnd
  0
BLOCK
  5
2CA
330
2C0
100
AcDbEntity
  8
0
 48
3.0
100
AcDbBlockBegin
  2
*D4
 70
     1
 10
0.0
 20
0.0
 30
0.0
  3
*D4
  1

  0
LINE
  5
85D
330
2C0
100
AcDbEntity
  8
寸法線
  6
Continuous
 62
     0
 48
3.0
370
    -2
100
AcDbLine
 10
1984.475079972855
 20
1593.428242482563
 30
0.0
 11
2084.365643054704
 21
1593.428242482563
 31
0.0
  0
LINE
  5
85E
330
2C0
100
AcDbEntity
  8
寸法線
  6
Continuous
 62
     0
 48
3.0
370
    -2
100
AcDbLine
 10
1984.475079972855
 20
1123.428238482563
 30
0.0
 11
2084.365643054704
 21
1123.428238482563
 31
0.0
  0
LINE
  5
85F
330
2C0
100
AcDbEntity
  8
寸法線
  6
Continuous
 62
     0
 48
3.0
370
    -2
100
AcDbLine
 10
2069.365643054704
 20
1578.428242482563
 30
0.0
 11
2069.365643054704
 21
1138.428238482563
 31
0.0
  0
INSERT
  5
860
330
2C0
100
AcDbEntity
  8
寸法線
  6
Continuous
 62
     0
 48
3.0
370
    -2
100
AcDbBlockReference
  2
_Open30
 10
2069.365643054704
 20
1593.428242482563
 30
0.0
 41
15.0
 42
15.0
 43
15.0
 50
90.0
  0
INSERT
  5
861
330
2C0
100
AcDbEntity
  8
寸法線
  6
Continuous
 62
     0
 48
3.0
370
    -2
100
AcDbBlockReference
  2
_Open30
 10
2069.365643054704
 20
1123.428238482563
 30
0.0
 41
15.0
 42
15.0
 43
15.0
 50
270.0
  0
MTEXT
  5
862
330
2C0
100
AcDbEntity
  8
寸法線
  6
Continuous
 62
     0
 48
3.0
100
AcDbMText
 10
2049.365643054704
 20
1358.428240482563
 30
0.0
 40
30.0
 41
0.0
 71
     5
 72
     1
  1
470
 11
0.0000000000000001
 21
1.0
 31
0.0
 73
     1
 44
1.0
1001
ACAD
1000
MTEXTBEGIN
1070
    73
1070
     1
1070
    44
1040
1.0
1070
    74
1070
     0
1000
MTEXTEND
  0
POINT
  5
863
330
2C0
100
AcDbEntity
  8
Defpoints
  6
Continuous
 62
     0
 48
3.0
100
AcDbPoint
 10
1964.475079972855
 20
1593.428242482563
 30
0.0
  0
POINT
  5
864
330
2C0
100
AcDbEntity
  8
Defpoints
  6
Continuous
 62
     0
 48
3.0
100
AcDbPoint
 10
1964.475079972855
 20
1123.428238482563
 30
0.0
  0
POINT
  5
865
330
2C0
100
AcDbEntity
  8
Defpoints
  6
Continuous
 62
     0
 48
3.0
100
AcDbPoint
 10
2069.365643054704
 20
1123.428238482563
 30
0.0
  0
ENDBLK
  5
2CB
330
2C0
100
AcDbEntity
  8
0
 48
3.0
100
AcDbBlockEnd
  0
BLOCK
  5
2D7
330
2CD
100
AcDbEntity
  8
0
 48
3.0
100
AcDbBlockBegin
  2
*D5
 70
     1
 10
0.0
 20
0.0
 30
0.0
  3
*D5
  1

  0
LINE
  5
2CE
330
2CD
100
AcDbEntity
  8
寸法線
  6
Continuous
 62
     0
 48
3.0
370
    -2
100
AcDbLine
 10
1846.975082972855
 20
1603.428240482563
 30
0.0
 11
1652.001420123498
 21
1603.428240482563
 31
0.0
  0
LINE
  5
2CF
330
2CD
100
AcDbEntity
  8
寸法線
  6
Continuous
 62
     0
 48
3.0
370
    -2
100
AcDbLine
 10
1846.975082972855
 20
1113.428240482563
 30
0.0
 11
1652.001420123498
 21
1113.428240482563
 31
0.0
  0
LINE
  5
2D0
330
2CD
100
AcDbEntity
  8
寸法線
  6
Continuous
 62
     0
 48
3.0
370
    -2
100
AcDbLine
 10
1667.001420123498
 20
1588.428240482563
 30
0.0
 11
1667.001420123498
 21
1128.428240482563
 31
0.0
  0
INSERT
  5
2D1
330
2CD
100
AcDbEntity
  8
寸法線
  6
Continuous
 62
     0
 48
3.0
370
    -2
100
AcDbBlockReference
  2
_Open30
 10
1667.001420123498
 20
1603.428240482563
 30
0.0
 41
15.0
 42
15.0
 43
15.0
 50
90.0
  0
INSERT
  5
2D2
330
2CD
100
AcDbEntity
  8
寸法線
  6
Continuous
 62
     0
 48
3.0
370
    -2
100
AcDbBlockReference
  2
_Open30
 10
1667.001420123498
 20
1113.428240482563
 30
0.0
 41
15.0
 42
15.0
 43
15.0
 50
270.0
  0
MTEXT
  5
2D3
330
2CD
100
AcDbEntity
  8
寸法線
  6
Continuous
 62
     0
 48
3.0
100
AcDbMText
 10
1647.001420123498
 20
1358.428240482563
 30
0.0
 40
30.0
 41
0.0
 71
     5
 72
     1
  1
490
 11
0.0000000000000001
 21
1.0
 31
0.0
 73
     1
 44
1.0
1001
ACAD
1000
MTEXTBEGIN
1070
    73
1070
     1
1070
    44
1040
1.0
1070
    74
1070
     0
1000
MTEXTEND
  0
POINT
  5
2D4
330
2CD
100
AcDbEntity
  8
Defpoints
  6
Continuous
 62
     0
 48
3.0
100
AcDbPoint
 10
1866.975082972856
 20
1603.428240482563
 30
0.0
  0
POINT
  5
2D5
330
2CD
100
AcDbEntity
  8
Defpoints
  6
Continuous
 62
     0
 48
3.0
100
AcDbPoint
 10
1866.975082972856
 20
1113.428240482563
 30
0.0
  0
POINT
  5
2D6
330
2CD
100
AcDbEntity
  8
Defpoints
  6
Continuous
 62
     0
 48
3.0
100
AcDbPoint
 10
1667.001420123498
 20
1113.428240482563
 30
0.0
  0
ENDBLK
  5
2D8
330
2CD
100
AcDbEntity
  8
0
 48
3.0
100
AcDbBlockEnd
  0
BLOCK
  5
441
330
437
100
AcDbEntity
  8
0
 48
3.0
100
AcDbBlockBegin
  2
*D6
 70
     1
 10
0.0
 20
0.0
 30
0.0
  3
*D6
  1

  0
LINE
  5
133C
330
437
100
AcDbEntity
  8
寸法線
  6
Continuous
 62
     0
370
    -2
100
AcDbLine
 10
428.0451284152368
 20
689.3441617594151
 30
0.0
 11
428.0451284152368
 21
844.3441617594153
 31
0.0
  0
LINE
  5
133D
330
437
100
AcDbEntity
  8
寸法線
  6
Continuous
 62
     0
370
    -2
100
AcDbLine
 10
1035.045128415237
 20
689.3441617594151
 30
0.0
 11
1035.045128415237
 21
844.3441617594153
 31
0.0
  0
LINE
  5
133E
330
437
100
AcDbEntity
  8
寸法線
  6
Continuous
 62
     0
370
    -2
100
AcDbLine
 10
443.0451284152367
 20
829.3441617594153
 30
0.0
 11
1020.045128415237
 21
829.3441617594153
 31
0.0
  0
INSERT
  5
133F
330
437
100
AcDbEntity
  8
寸法線
  6
Continuous
 62
     0
370
    -2
100
AcDbBlockReference
  2
_Open30
 10
428.0451284152368
 20
829.3441617594153
 30
0.0
 41
15.0
 42
15.0
 43
15.0
 50
180.0
  0
INSERT
  5
1340
330
437
100
AcDbEntity
  8
寸法線
  6
Continuous
 62
     0
370
    -2
100
AcDbBlockReference
  2
_Open30
 10
1035.045128415237
 20
829.3441617594153
 30
0.0
 41
15.0
 42
15.0
 43
15.0
  0
MTEXT
  5
1341
330
437
100
AcDbEntity
  8
寸法線
  6
Continuous
 62
     0
370
     9
100
AcDbMText
 10
731.5451284152368
 20
849.3441617594154
 30
0.0
 40
30.0
 41
0.0
 71
     5
 72
     1
  1
607
 73
     1
 44
1.0
1001
ACAD
1000
MTEXTBEGIN
1070
    73
1070
     1
1070
    44
1040
1.0
1070
    74
1070
     0
1000
MTEXTEND
  0
POINT
  5
1342
330
437
100
AcDbEntity
  8
Defpoints
  6
Continuous
 62
     0
100
AcDbPoint
 10
428.0451284152368
 20
669.3441617594152
 30
0.0
  0
POINT
  5
1343
330
437
100
AcDbEntity
  8
Defpoints
  6
Continuous
 62
     0
100
AcDbPoint
 10
1035.045128415237
 20
669.3441617594152
 30
0.0
  0
POINT
  5
1344
330
437
100
AcDbEntity
  8
Defpoints
  6
Continuous
 62
     0
100
AcDbPoint
 10
1035.045128415237
 20
829.3441617594153
 30
0.0
  0
ENDBLK
  5
442
330
437
100
AcDbEntity
  8
0
 48
3.0
100
AcDbBlockEnd
  0
BLOCK
  5
450
330
444
100
AcDbEntity
  8
0
 48
3.0
100
AcDbBlockBegin
  2
*D7
 70
     1
 10
0.0
 20
0.0
 30
0.0
  3
*D7
  1

  0
LINE
  5
1331
330
444
100
AcDbEntity
  8
寸法線
  6
Continuous
 62
     0
370
    -2
100
AcDbLine
 10
819.8451284152369
 20
689.3441617594151
 30
0.0
 11
819.8451284152369
 21
764.3441617594153
 31
0.0
  0
LINE
  5
1332
330
444
100
AcDbEntity
  8
寸法線
  6
Continuous
 62
     0
370
    -2
100
AcDbLine
 10
855.1451284152372
 20
689.3441617594151
 30
0.0
 11
855.1451284152372
 21
764.3441617594153
 31
0.0
  0
LINE
  5
1333
330
444
100
AcDbEntity
  8
寸法線
  6
Continuous
 62
     0
370
    -2
100
AcDbLine
 10
804.845128415237
 20
749.3441617594153
 30
0.0
 11
789.845128415237
 21
749.3441617594153
 31
0.0
  0
LINE
  5
1334
330
444
100
AcDbEntity
  8
寸法線
  6
Continuous
 62
     0
370
    -2
100
AcDbLine
 10
870.1451284152371
 20
749.3441617594153
 30
0.0
 11
969.1552806995012
 21
749.3441617594153
 31
0.0
  0
LINE
  5
1335
330
444
100
AcDbEntity
  8
寸法線
  6
Continuous
 62
     0
370
    -2
100
AcDbLine
 10
819.8451284152369
 20
749.3441617594153
 30
0.0
 11
855.1451284152372
 21
749.3441617594153
 31
0.0
  0
INSERT
  5
1336
330
444
100
AcDbEntity
  8
寸法線
  6
Continuous
 62
     0
370
    -2
100
AcDbBlockReference
  2
_Open30
 10
819.8451284152369
 20
749.3441617594153
 30
0.0
 41
15.0
 42
15.0
 43
15.0
  0
INSERT
  5
1337
330
444
100
AcDbEntity
  8
寸法線
  6
Continuous
 62
     0
370
    -2
100
AcDbBlockReference
  2
_Open30
 10
855.1451284152372
 20
749.3441617594153
 30
0.0
 41
15.0
 42
15.0
 43
15.0
 50
180.0
  0
MTEXT
  5
1338
330
444
100
AcDbEntity
  8
寸法線
  6
Continuous
 62
     0
100
AcDbMText
 10
927.1502045573692
 20
769.3441617594153
 30
0.0
 40
30.0
 41
0.0
 71
     5
 72
     1
  1
35.3
 73
     1
 44
1.0
1001
ACAD
1000
MTEXTBEGIN
1070
    73
1070
     1
1070
    44
1040
1.0
1070
    74
1070
     0
1000
MTEXTEND
  0
POINT
  5
1339
330
444
100
AcDbEntity
  8
Defpoints
  6
Continuous
 62
     0
100
AcDbPoint
 10
819.8451284152369
 20
669.3441617594152
 30
0.0
  0
POINT
  5
133A
330
444
100
AcDbEntity
  8
Defpoints
  6
Continuous
 62
     0
100
AcDbPoint
 10
855.1451284152372
 20
669.3441617594152
 30
0.0
  0
POINT
  5
133B
330
444
100
AcDbEntity
  8
Defpoints
  6
Continuous
 62
     0
100
AcDbPoint
 10
855.1451284152372
 20
749.3441617594153
 30
0.0
  0
ENDBLK
  5
451
330
444
100
AcDbEntity
  8
0
 48
3.0
100
AcDbBlockEnd
  0
BLOCK
  5
463
330
459
100
AcDbEntity
  8
0
 48
3.0
100
AcDbBlockBegin
  2
*D8
 70
     1
 10
0.0
 20
0.0
 30
0.0
  3
*D8
  1

  0
LINE
  5
1181
330
459
100
AcDbEntity
  8
寸法線
  6
Continuous
 62
     0
370
    -2
100
AcDbLine
 10
1055.045128415237
 20
669.3441617594152
 30
0.0
 11
1160.045128415237
 21
669.3441617594152
 31
0.0
  0
LINE
  5
1182
330
459
100
AcDbEntity
  8
寸法線
  6
Continuous
 62
     0
370
    -2
100
AcDbLine
 10
1055.045128415237
 20
614.3441617594151
 30
0.0
 11
1160.045128415237
 21
614.3441617594151
 31
0.0
  0
LINE
  5
1183
330
459
100
AcDbEntity
  8
寸法線
  6
Continuous
 62
     0
370
    -2
100
AcDbLine
 10
1145.045128415237
 20
654.3441617594152
 30
0.0
 11
1145.045128415237
 21
629.3441617594152
 31
0.0
  0
INSERT
  5
1184
330
459
100
AcDbEntity
  8
寸法線
  6
Continuous
 62
     0
370
    -2
100
AcDbBlockReference
  2
_Open30
 10
1145.045128415237
 20
669.3441617594152
 30
0.0
 41
15.0
 42
15.0
 43
15.0
 50
90.0
  0
INSERT
  5
1185
330
459
100
AcDbEntity
  8
寸法線
  6
Continuous
 62
     0
370
    -2
100
AcDbBlockReference
  2
_Open30
 10
1145.045128415237
 20
614.3441617594151
 30
0.0
 41
15.0
 42
15.0
 43
15.0
 50
270.0
  0
MTEXT
  5
1186
330
459
100
AcDbEntity
  8
寸法線
  6
Continuous
 62
     0
100
AcDbMText
 10
1125.045128415236
 20
641.8441617594153
 30
0.0
 40
30.0
 41
0.0
 71
     5
 72
     1
  1
55
 11
0.0000000000000001
 21
1.0
 31
0.0
 73
     1
 44
1.0
1001
ACAD
1000
MTEXTBEGIN
1070
    73
1070
     1
1070
    44
1040
1.0
1070
    74
1070
     0
1000
MTEXTEND
  0
POINT
  5
1187
330
459
100
AcDbEntity
  8
Defpoints
  6
Continuous
 62
     0
100
AcDbPoint
 10
1035.045128415237
 20
669.3441617594152
 30
0.0
  0
POINT
  5
1188
330
459
100
AcDbEntity
  8
Defpoints
  6
Continuous
 62
     0
100
AcDbPoint
 10
1035.045128415237
 20
614.3441617594151
 30
0.0
  0
POINT
  5
1189
330
459
100
AcDbEntity
  8
Defpoints
  6
Continuous
 62
     0
100
AcDbPoint
 10
1145.045128415237
 20
614.3441617594151
 30
0.0
  0
ENDBLK
  5
464
330
459
100
AcDbEntity
  8
0
 48
3.0
100
AcDbBlockEnd
  0
BLOCK
  5
470
330
466
100
AcDbEntity
  8
0
 48
3.0
100
AcDbBlockBegin
  2
*D9
 70
     1
 10
0.0
 20
0.0
 30
0.0
  3
*D9
  1

  0
LINE
  5
1195
330
466
100
AcDbEntity
  8
寸法線
  6
Continuous
 62
     0
370
    -2
100
AcDbLine
 10
1055.045128415237
 20
669.3441617594152
 30
0.0
 11
1240.045128415237
 21
669.3441617594152
 31
0.0
  0
LINE
  5
1196
330
466
100
AcDbEntity
  8
寸法線
  6
Continuous
 62
     0
370
    -2
100
AcDbLine
 10
1051.545128415237
 20
569.3441617594149
 30
0.0
 11
1240.045128415237
 21
569.3441617594149
 31
0.0
  0
LINE
  5
1197
330
466
100
AcDbEntity
  8
寸法線
  6
Continuous
 62
     0
370
    -2
100
AcDbLine
 10
1225.045128415237
 20
654.3441617594152
 30
0.0
 11
1225.045128415237
 21
584.3441617594148
 31
0.0
  0
INSERT
  5
1198
330
466
100
AcDbEntity
  8
寸法線
  6
Continuous
 62
     0
370
    -2
100
AcDbBlockReference
  2
_Open30
 10
1225.045128415237
 20
669.3441617594152
 30
0.0
 41
15.0
 42
15.0
 43
15.0
 50
90.0
  0
INSERT
  5
1199
330
466
100
AcDbEntity
  8
寸法線
  6
Continuous
 62
     0
370
    -2
100
AcDbBlockReference
  2
_Open30
 10
1225.045128415237
 20
569.3441617594149
 30
0.0
 41
15.0
 42
15.0
 43
15.0
 50
270.0
  0
MTEXT
  5
119A
330
466
100
AcDbEntity
  8
寸法線
  6
Continuous
 62
     0
100
AcDbMText
 10
1205.045128415237
 20
619.3441617594152
 30
0.0
 40
30.0
 41
0.0
 71
     5
 72
     1
  1
100
 11
0.0000000000000001
 21
1.0
 31
0.0
 73
     1
 44
1.0
1001
ACAD
1000
MTEXTBEGIN
1070
    73
1070
     1
1070
    44
1040
1.0
1070
    74
1070
     0
1000
MTEXTEND
  0
POINT
  5
119B
330
466
100
AcDbEntity
  8
Defpoints
  6
Continuous
 62
     0
100
AcDbPoint
 10
1035.045128415237
 20
669.3441617594152
 30
0.0
  0
POINT
  5
119C
330
466
100
AcDbEntity
  8
Defpoints
  6
Continuous
 62
     0
100
AcDbPoint
 10
1031.545128415237
 20
569.3441617594149
 30
0.0
  0
POINT
  5
119D
330
466
100
AcDbEntity
  8
Defpoints
  6
Continuous
 62
     0
100
AcDbPoint
 10
1225.045128415237
 20
569.3441617594149
 30
0.0
  0
ENDBLK
  5
471
330
466
100
AcDbEntity
  8
0
 48
3.0
100
AcDbBlockEnd
  0
BLOCK
  5
821
330
815
100
AcDbEntity
  8
0
 48
3.0
100
AcDbBlockBegin
  2
*D10
 70
     1
 10
0.0
 20
0.0
 30
0.0
  3
*D10
  1

  0
LINE
  5
118A
330
815
100
AcDbEntity
  8
寸法線
 62
     0
 48
3.0
370
    -2
100
AcDbLine
 10
1055.045128415237
 20
614.3441617594153
 30
0.0
 11
1160.045128415237
 21
614.3441617594153
 31
0.0
  0
LINE
  5
118B
330
815
100
AcDbEntity
  8
寸法線
 62
     0
 48
3.0
370
    -2
100
AcDbLine
 10
1051.545128415237
 20
569.3441617594149
 30
0.0
 11
1160.045128415237
 21
569.3441617594149
 31
0.0
  0
LINE
  5
118C
330
815
100
AcDbEntity
  8
寸法線
 62
     0
 48
3.0
370
    -2
100
AcDbLine
 10
1145.045128415237
 20
629.3441617594153
 30
0.0
 11
1145.045128415237
 21
644.3441617594153
 31
0.0
  0
LINE
  5
118D
330
815
100
AcDbEntity
  8
寸法線
 62
     0
 48
3.0
370
    -2
100
AcDbLine
 10
1145.045128415237
 20
554.3441617594148
 30
0.0
 11
1145.045128415236
 21
493.8619282568768
 31
0.0
  0
LINE
  5
118E
330
815
100
AcDbEntity
  8
寸法線
 62
     0
 48
3.0
370
    -2
100
AcDbLine
 10
1145.045128415237
 20
614.3441617594153
 30
0.0
 11
1145.045128415237
 21
569.3441617594149
 31
0.0
  0
INSERT
  5
118F
330
815
100
AcDbEntity
  8
寸法線
 62
     0
 48
3.0
370
    -2
100
AcDbBlockReference
  2
_Open30
 10
1145.045128415237
 20
614.3441617594153
 30
0.0
 41
15.0
 42
15.0
 43
15.0
 50
270.0
  0
INSERT
  5
1190
330
815
100
AcDbEntity
  8
寸法線
 62
     0
 48
3.0
370
    -2
100
AcDbBlockReference
  2
_Open30
 10
1145.045128415237
 20
569.3441617594149
 30
0.0
 41
15.0
 42
15.0
 43
15.0
 50
90.0
  0
MTEXT
  5
1191
330
815
100
AcDbEntity
  8
寸法線
 62
     0
 48
3.0
100
AcDbMText
 10
1125.045128415236
 20
516.6030450081459
 30
0.0
 40
30.0
 41
0.0
 71
     5
 72
     1
  1
45
 11
0.0000000000000001
 21
1.0
 31
0.0
 73
     1
 44
1.0
1001
ACAD
1000
MTEXTBEGIN
1070
    73
1070
     1
1070
    44
1040
1.0
1070
    74
1070
     0
1000
MTEXTEND
  0
POINT
  5
1192
330
815
100
AcDbEntity
  8
Defpoints
 62
     0
 48
3.0
100
AcDbPoint
 10
1035.045128415237
 20
614.3441617594153
 30
0.0
  0
POINT
  5
1193
330
815
100
AcDbEntity
  8
Defpoints
 62
     0
 48
3.0
100
AcDbPoint
 10
1031.545128415237
 20
569.3441617594149
 30
0.0
  0
POINT
  5
1194
330
815
100
AcDbEntity
  8
Defpoints
 62
     0
 48
3.0
100
AcDbPoint
 10
1145.045128415237
 20
569.3441617594149
 30
0.0
  0
ENDBLK
  5
822
330
815
100
AcDbEntity
  8
0
 48
3.0
100
AcDbBlockEnd
  0
BLOCK
  5
87A
330
870
100
AcDbEntity
  8
0
 48
3.0
100
AcDbBlockBegin
  2
*D11
 70
     1
 10
0.0
 20
0.0
 30
0.0
  3
*D11
  1

  0
LINE
  5
87C
330
870
100
AcDbEntity
  8
寸法線
 62
     0
 48
3.0
370
    -2
100
AcDbLine
 10
1844.975082972855
 20
1558.428240482563
 30
0.0
 11
1775.318442300555
 21
1558.428240482563
 31
0.0
  0
LINE
  5
87D
330
870
100
AcDbEntity
  8
寸法線
 62
     0
 48
3.0
370
    -2
100
AcDbLine
 10
1844.975082972855
 20
1508.428240482563
 30
0.0
 11
1775.318442300555
 21
1508.428240482563
 31
0.0
  0
LINE
  5
87E
330
870
100
AcDbEntity
  8
寸法線
 62
     0
 48
3.0
370
    -2
100
AcDbLine
 10
1790.318442300555
 20
1543.428240482563
 30
0.0
 11
1790.318442300555
 21
1523.428240482563
 31
0.0
  0
INSERT
  5
87F
330
870
100
AcDbEntity
  8
寸法線
 62
     0
 48
3.0
370
    -2
100
AcDbBlockReference
  2
_Open30
 10
1790.318442300555
 20
1558.428240482563
 30
0.0
 41
15.0
 42
15.0
 43
15.0
 50
90.0
  0
INSERT
  5
880
330
870
100
AcDbEntity
  8
寸法線
 62
     0
 48
3.0
370
    -2
100
AcDbBlockReference
  2
_Open30
 10
1790.318442300555
 20
1508.428240482563
 30
0.0
 41
15.0
 42
15.0
 43
15.0
 50
270.0
  0
MTEXT
  5
881
330
870
100
AcDbEntity
  8
寸法線
 62
     0
 48
3.0
100
AcDbMText
 10
1770.318442300555
 20
1533.428240482563
 30
0.0
 40
30.0
 41
0.0
 71
     5
 72
     1
  1
50
 11
0.0000000000000001
 21
1.0
 31
0.0
 73
     1
 44
1.0
1001
ACAD
1000
MTEXTBEGIN
1070
    73
1070
     1
1070
    44
1040
1.0
1070
    74
1070
     0
1000
MTEXTEND
  0
POINT
  5
882
330
870
100
AcDbEntity
  8
Defpoints
 62
     0
 48
3.0
100
AcDbPoint
 10
1864.975082972856
 20
1558.428240482563
 30
0.0
  0
POINT
  5
883
330
870
100
AcDbEntity
  8
Defpoints
 62
     0
 48
3.0
100
AcDbPoint
 10
1864.975082972856
 20
1508.428240482563
 30
0.0
  0
POINT
  5
884
330
870
100
AcDbEntity
  8
Defpoints
 62
     0
 48
3.0
100
AcDbPoint
 10
1790.318442300555
 20
1508.428240482563
 30
0.0
  0
ENDBLK
  5
87B
330
870
100
AcDbEntity
  8
0
 48
3.0
100
AcDbBlockEnd
  0
BLOCK
  5
FE9
330
FE5
100
AcDbEntity
  8
0
 48
3.0
100
AcDbBlockBegin
  2
清水
 70
     0
 10
0.0
 20
0.0
 30
0.0
  3
清水
  1

  0
ELLIPSE
  5
FE6
330
FE5
100
AcDbEntity
  8
外枠
  6
Continuous
100
AcDbEllipse
 10
61.95950207238002
 20
-84.98104152054944
 30
0.0
 11
0.0
 21
-48.07578326062735
 31
0.0
210
0.0
220
0.0
230
1.0
 40
0.7999999999999857
 41
0.0
 42
6.283185307179586
  0
MTEXT
  5
FE7
330
FE5
100
AcDbEntity
  8
外枠
  6
Continuous
100
AcDbMText
 10
43.62136371980841
 20
-91.25020745848743
 30
0.0
 40
25.0
 41
38.0342
 71
     1
 72
     5
  1
{\fHG正楷書体-PRO|b0|i0|c128|p65;水}
 73
     1
 44
1.0
1001
ACAD
1000
MTEXTBEGIN
1070
    73
1070
     1
1070
    44
1040
1.0
1070
    74
1070
     0
1000
MTEXTEND
  0
MTEXT
  5
FE8
330
FE5
100
AcDbEntity
  8
外枠
  6
Continuous
100
AcDbMText
 10
44.0164673811646
 20
-47.73028505679667
 30
0.0
 40
25.0
 41
37.8613
 71
     1
 72
     5
  1
{\fHG正楷書体-PRO|b0|i0|c128|p65;清}
 73
     1
 44
1.0
1001
ACAD
1000
MTEXTBEGIN
1070
    73
1070
     1
1070
    44
1040
1.0
1070
    74
1070
     0
1000
MTEXTEND
  0
ENDBLK
  5
FEA
330
FE5
100
AcDbEntity
  8
0
 48
3.0
100
AcDbBlockEnd
  0
BLOCK
  5
10B2
330
10B0
100
AcDbEntity
  8
0
 48
3.0
100
AcDbBlockBegin
  2
鎌下
 70
     0
 10
0.0
 20
0.0
 30
0.0
  3
鎌下
  1

  0
MTEXT
  5
10B3
330
10B0
100
AcDbEntity
  8
外枠
  6
Continuous
100
AcDbMText
 10
40.55333581259037
 20
-88.14888116777728
 30
0.0
 40
28.17460800000001
 41
43.8527
 71
     1
 72
     5
  1
{\fHGSeikaishotaiPRO|b0|i0|c128|p65;下}
 73
     1
 44
1.0
1001
ACAD
1000
MTEXTBEGIN
1070
    73
1070
     1
1070
    44
1040
1.0
1070
    74
1070
     0
1000
MTEXTEND
  0
MTEXT
  5
10B4
330
10B0
100
AcDbEntity
  8
外枠
  6
Continuous
100
AcDbMText
 10
40.55333581259037
 20
-45.61885629864991
 30
0.0
 40
28.17460800000001
 41
43.8527
 71
     1
 72
     5
  1
{\fHGSeikaishotaiPRO|b0|i0|c128|p65;鎌}
 73
     1
 44
1.0
1001
ACAD
1000
MTEXTBEGIN
1070
    73
1070
     1
1070
    44
1040
1.0
1070
    74
1070
     0
1000
MTEXTEND
  0
ELLIPSE
  5
10B5
330
10B0
100
AcDbEntity
  8
外枠
  6
Continuous
100
AcDbEllipse
 10
61.68068686355036
 20
-84.59863033186412
 30
0.0
 11
0.0
 21
-47.8594442149426
 31
0.0
210
0.0
220
0.0
230
1.0
 40
0.7999999999999857
 41
0.0
 42
6.283185307179586
  0
ENDBLK
  5
10B6
330
10B0
100
AcDbEntity
  8
0
 48
3.0
100
AcDbBlockEnd
  0
BLOCK
  5
1121
330
1117
100
AcDbEntity
  8
0
 48
3.0
100
AcDbBlockBegin
  2
P-H45
 70
     0
 10
0.0
 20
0.0
 30
0.0
  3
P-H45
  1

  0
LINE
  5
1118
330
1117
100
AcDbEntity
  8
嵩上断面
100
AcDbLine
 10
2.999997
 20
0.000001
 30
0.0
 11
41.999997
 21
0.000001
 31
0.0
  0
LINE
  5
1119
330
1117
100
AcDbEntity
  8
嵩上断面
100
AcDbLine
 10
-0.000003
 20
-2.999999
 30
0.0
 11
-0.000003
 21
-36.999999
 31
0.0
  0
LINE
  5
111A
330
1117
100
AcDbEntity
  8
嵩上断面
100
AcDbLine
 10
2.999997
 20
-39.999999
 30
0.0
 11
41.999997
 21
-39.999999
 31
0.0
  0
ARC
  5
111B
330
1117
100
AcDbEntity
  8
嵩上断面
100
AcDbCircle
 10
2.999997
 20
-36.999999
 30
0.0
 40
3.0
100
AcDbArc
 50
180.0
 51
270.0
  0
ARC
  5
111C
330
1117
100
AcDbEntity
  8
嵩上断面
100
AcDbCircle
 10
2.999997
 20
-2.999999
 30
0.0
 40
3.0
100
AcDbArc
 50
90.0
 51
180.0
  0
LINE
  5
111D
330
1117
100
AcDbEntity
  8
嵩上断面
100
AcDbLine
 10
44.999997
 20
-36.999999
 30
0.0
 11
44.999997
 21
-2.999999
 31
0.0
  0
ARC
  5
111E
330
1117
100
AcDbEntity
  8
嵩上断面
100
AcDbCircle
 10
41.999997
 20
-2.999999
 30
0.0
 40
3.0
100
AcDbArc
 50
0.0
 51
90.0
  0
ARC
  5
111F
330
1117
100
AcDbEntity
  8
嵩上断面
100
AcDbCircle
 10
41.999997
 20
-36.999999
 30
0.0
 40
3.0
100
AcDbArc
 50
270.0
 51
0.0
  0
LWPOLYLINE
  5
1120
330
1117
100
AcDbEntity
  8
嵩上断面
  6
Continuous
100
AcDbPolyline
 90
        4
 70
     1
 43
0.0
 10
2.299996999999999
 20
-37.69999900000001
 10
42.699997
 20
-37.69999900000001
 10
42.699997
 20
-2.299998999999999
 10
2.299996999999999
 20
-2.299998999999999
  0
ENDBLK
  5
1122
330
1117
100
AcDbEntity
  8
0
 48
3.0
100
AcDbBlockEnd
  0
BLOCK
  5
112D
330
112C
100
AcDbEntity
  8
0
 48
3.0
100
AcDbBlockBegin
  2
*D24
 70
     1
 10
0.0
 20
0.0
 30
0.0
  3
*D24
  1

  0
LINE
  5
1161
330
112C
100
AcDbEntity
  8
寸法線
 62
     0
 48
3.0
370
    -2
100
AcDbLine
 10
431.5451284152368
 20
549.3441617594153
 30
0.0
 11
431.5451284152368
 21
474.3441617594153
 31
0.0
  0
LINE
  5
1162
330
112C
100
AcDbEntity
  8
寸法線
 62
     0
 48
3.0
370
    -2
100
AcDbLine
 10
1031.545128415237
 20
549.3441617594148
 30
0.0
 11
1031.545128415237
 21
474.3441617594153
 31
0.0
  0
LINE
  5
1163
330
112C
100
AcDbEntity
  8
寸法線
 62
     0
 48
3.0
370
    -2
100
AcDbLine
 10
446.5451284152368
 20
489.3441617594153
 30
0.0
 11
1016.545128415237
 21
489.3441617594153
 31
0.0
  0
INSERT
  5
1164
330
112C
100
AcDbEntity
  8
寸法線
 62
     0
 48
3.0
370
    -2
100
AcDbBlockReference
  2
_Open30
 10
431.5451284152368
 20
489.3441617594153
 30
0.0
 41
15.0
 42
15.0
 43
15.0
 50
180.0
  0
INSERT
  5
1165
330
112C
100
AcDbEntity
  8
寸法線
 62
     0
 48
3.0
370
    -2
100
AcDbBlockReference
  2
_Open30
 10
1031.545128415237
 20
489.3441617594153
 30
0.0
 41
15.0
 42
15.0
 43
15.0
  0
MTEXT
  5
1166
330
112C
100
AcDbEntity
  8
寸法線
 62
     0
 48
3.0
100
AcDbMText
 10
731.5451284152368
 20
509.3441617594153
 30
0.0
 40
30.0
 41
0.0
 71
     5
 72
     1
  1
600
 73
     1
 44
1.0
1001
ACAD
1000
MTEXTBEGIN
1070
    73
1070
     1
1070
    44
1040
1.0
1070
    74
1070
     0
1000
MTEXTEND
  0
POINT
  5
1167
330
112C
100
AcDbEntity
  8
Defpoints
 62
     0
 48
3.0
100
AcDbPoint
 10
431.5451284152368
 20
569.3441617594153
 30
0.0
  0
POINT
  5
1168
330
112C
100
AcDbEntity
  8
Defpoints
 62
     0
 48
3.0
100
AcDbPoint
 10
1031.545128415237
 20
569.3441617594149
 30
0.0
  0
POINT
  5
1169
330
112C
100
AcDbEntity
  8
Defpoints
 62
     0
 48
3.0
100
AcDbPoint
 10
1031.545128415237
 20
489.3441617594153
 30
0.0
  0
ENDBLK
  5
112E
330
112C
100
AcDbEntity
  8
0
 48
3.0
100
AcDbBlockEnd
  0
BLOCK
  5
1265
330
1264
100
AcDbEntity
  8
0
 48
3.0
100
AcDbBlockBegin
  2
*U26
 70
     1
 10
0.0
 20
0.0
 30
0.0
  3
*U26
  1

  0
LINE
  5
126B
330
1264
100
AcDbEntity
  8
本体
  6
Continuous
100
AcDbLine
 10
21.15000000000009
 20
240.5
 30
0.0
 11
21.15000000000009
 21
203.0
 31
0.0
  0
LINE
  5
126C
330
1264
100
AcDbEntity
  8
本体
  6
Continuous
100
AcDbLine
 10
14.15000000000009
 20
240.5
 30
0.0
 11
14.15000000000009
 21
203.0
 31
0.0
  0
LINE
  5
126D
330
1264
100
AcDbEntity
  8
本体
  6
Continuous
100
AcDbLine
 10
21.15000000000009
 20
197.0
 30
0.0
 11
21.15000000000009
 21
153.0
 31
0.0
  0
LINE
  5
126E
330
1264
100
AcDbEntity
  8
本体
  6
Continuous
100
AcDbLine
 10
14.15000000000009
 20
197.0
 30
0.0
 11
14.15000000000009
 21
153.0
 31
0.0
  0
LINE
  5
126F
330
1264
100
AcDbEntity
  8
本体
  6
Continuous
100
AcDbLine
 10
14.15000000000009
 20
-240.5
 30
0.0
 11
14.15000000000009
 21
-203.0
 31
0.0
  0
LINE
  5
1270
330
1264
100
AcDbEntity
  8
本体
  6
Continuous
100
AcDbLine
 10
21.15000000000009
 20
-240.5
 30
0.0
 11
21.15000000000009
 21
-203.0
 31
0.0
  0
LINE
  5
1271
330
1264
100
AcDbEntity
  8
本体
  6
Continuous
100
AcDbLine
 10
-21.15000000000009
 20
197.0
 30
0.0
 11
14.15000000000009
 21
203.0
 31
0.0
  0
LINE
  5
1272
330
1264
100
AcDbEntity
  8
エンボス
  6
Continuous
100
AcDbLine
 10
21.15000000000009
 20
-237.864094
 30
0.0
 11
14.15000000000009
 21
-235.864094
 31
0.0
  0
LINE
  5
1273
330
1264
100
AcDbEntity
  8
エンボス
  6
Continuous
100
AcDbLine
 10
14.15000000000009
 20
-226.864094
 30
0.0
 11
21.15000000000009
 21
-228.864094
 31
0.0
  0
LINE
  5
1274
330
1264
100
AcDbEntity
  8
エンボス
  6
Continuous
100
AcDbLine
 10
21.15000000000009
 20
-221.864094
 30
0.0
 11
14.15000000000009
 21
-223.864094
 31
0.0
  0
LINE
  5
1275
330
1264
100
AcDbEntity
  8
エンボス
  6
Continuous
100
AcDbLine
 10
14.15000000000009
 20
-214.864094
 30
0.0
 11
21.15000000000009
 21
-212.864094
 31
0.0
  0
LINE
  5
1276
330
1264
100
AcDbEntity
  8
エンボス
  6
Continuous
100
AcDbLine
 10
21.15000000000009
 20
-209.864094
 30
0.0
 11
14.15000000000009
 21
-207.864094
 31
0.0
  0
LINE
  5
1277
330
1264
100
AcDbEntity
  8
エンボス
  6
Continuous
100
AcDbLine
 10
14.15000000000009
 20
175.5
 30
0.0
 11
21.15000000000009
 21
173.5
 31
0.0
  0
LINE
  5
1278
330
1264
100
AcDbEntity
  8
エンボス
  6
Continuous
100
AcDbLine
 10
14.15000000000009
 20
156.5
 30
0.0
 11
21.15000000000009
 21
154.5
 31
0.0
  0
LINE
  5
1279
330
1264
100
AcDbEntity
  8
エンボス
  6
Continuous
100
AcDbLine
 10
21.15000000000009
 20
161.5
 30
0.0
 11
14.15000000000009
 21
159.5
 31
0.0
  0
LINE
  5
127A
330
1264
100
AcDbEntity
  8
エンボス
  6
Continuous
100
AcDbLine
 10
21.15000000000009
 20
170.5
 30
0.0
 11
14.15000000000009
 21
168.5
 31
0.0
  0
LINE
  5
127B
330
1264
100
AcDbEntity
  8
エンボス
  6
Continuous
100
AcDbLine
 10
14.15000000000009
 20
184.5
 30
0.0
 11
21.15000000000009
 21
182.5
 31
0.0
  0
LINE
  5
127C
330
1264
100
AcDbEntity
  8
エンボス
  6
Continuous
100
AcDbLine
 10
21.15000000000009
 20
189.5
 30
0.0
 11
14.15000000000009
 21
187.5
 31
0.0
  0
LINE
  5
127D
330
1264
100
AcDbEntity
  8
エンボス
  6
Continuous
100
AcDbLine
 10
21.15000000000009
 20
209.864094
 30
0.0
 11
14.15000000000009
 21
207.864094
 31
0.0
  0
LINE
  5
127E
330
1264
100
AcDbEntity
  8
エンボス
  6
Continuous
100
AcDbLine
 10
14.15000000000009
 20
214.864094
 30
0.0
 11
21.15000000000009
 21
212.864094
 31
0.0
  0
LINE
  5
127F
330
1264
100
AcDbEntity
  8
エンボス
  6
Continuous
100
AcDbLine
 10
21.15000000000009
 20
221.864094
 30
0.0
 11
14.15000000000009
 21
223.864094
 31
0.0
  0
LINE
  5
1280
330
1264
100
AcDbEntity
  8
エンボス
  6
Continuous
100
AcDbLine
 10
14.15000000000009
 20
226.864094
 30
0.0
 11
21.15000000000009
 21
228.864094
 31
0.0
  0
LINE
  5
1281
330
1264
100
AcDbEntity
  8
エンボス
  6
Continuous
100
AcDbLine
 10
21.15000000000009
 20
237.864094
 30
0.0
 11
14.15000000000009
 21
235.864094
 31
0.0
  0
LINE
  5
1282
330
1264
100
AcDbEntity
  8
本体
  6
Continuous
100
AcDbLine
 10
21.15000000000009
 20
147.0
 30
0.0
 11
21.15000000000009
 21
103.0
 31
0.0
  0
LINE
  5
1283
330
1264
100
AcDbEntity
  8
本体
  6
Continuous
100
AcDbLine
 10
14.15000000000009
 20
147.0
 30
0.0
 11
14.15000000000009
 21
103.0
 31
0.0
  0
LINE
  5
1284
330
1264
100
AcDbEntity
  8
エンボス
  6
Continuous
100
AcDbLine
 10
21.15000000000009
 20
111.5
 30
0.0
 11
14.15000000000009
 21
109.5
 31
0.0
  0
LINE
  5
1285
330
1264
100
AcDbEntity
  8
エンボス
  6
Continuous
100
AcDbLine
 10
14.15000000000009
 20
106.5
 30
0.0
 11
21.15000000000009
 21
104.5
 31
0.0
  0
LINE
  5
1286
330
1264
100
AcDbEntity
  8
エンボス
  6
Continuous
100
AcDbLine
 10
21.15000000000009
 20
139.5
 30
0.0
 11
14.15000000000009
 21
137.5
 31
0.0
  0
LINE
  5
1287
330
1264
100
AcDbEntity
  8
エンボス
  6
Continuous
100
AcDbLine
 10
14.15000000000009
 20
134.5
 30
0.0
 11
21.15000000000009
 21
132.5
 31
0.0
  0
LINE
  5
1288
330
1264
100
AcDbEntity
  8
エンボス
  6
Continuous
100
AcDbLine
 10
21.15000000000009
 20
120.5
 30
0.0
 11
14.15000000000009
 21
118.5
 31
0.0
  0
LINE
  5
1289
330
1264
100
AcDbEntity
  8
エンボス
  6
Continuous
100
AcDbLine
 10
14.15000000000009
 20
125.5
 30
0.0
 11
21.15000000000009
 21
123.5
 31
0.0
  0
LINE
  5
128A
330
1264
100
AcDbEntity
  8
本体
  6
Continuous
100
AcDbLine
 10
-21.15000000000009
 20
147.0
 30
0.0
 11
14.15000000000009
 21
153.0
 31
0.0
  0
LINE
  5
128B
330
1264
100
AcDbEntity
  8
本体
  6
Continuous
100
AcDbLine
 10
21.15000000000009
 20
97.0
 30
0.0
 11
21.15000000000009
 21
53.0
 31
0.0
  0
LINE
  5
128C
330
1264
100
AcDbEntity
  8
本体
  6
Continuous
100
AcDbLine
 10
14.15000000000009
 20
97.0
 30
0.0
 11
14.15000000000009
 21
53.0
 31
0.0
  0
LINE
  5
128D
330
1264
100
AcDbEntity
  8
エンボス
  6
Continuous
100
AcDbLine
 10
21.15000000000009
 20
61.5
 30
0.0
 11
14.15000000000009
 21
59.5
 31
0.0
  0
LINE
  5
128E
330
1264
100
AcDbEntity
  8
エンボス
  6
Continuous
100
AcDbLine
 10
14.15000000000009
 20
56.5
 30
0.0
 11
21.15000000000009
 21
54.5
 31
0.0
  0
LINE
  5
128F
330
1264
100
AcDbEntity
  8
エンボス
  6
Continuous
100
AcDbLine
 10
21.15000000000009
 20
89.50000000000001
 30
0.0
 11
14.15000000000009
 21
87.5
 31
0.0
  0
LINE
  5
1290
330
1264
100
AcDbEntity
  8
エンボス
  6
Continuous
100
AcDbLine
 10
14.15000000000009
 20
84.50000000000001
 30
0.0
 11
21.15000000000009
 21
82.5
 31
0.0
  0
LINE
  5
1291
330
1264
100
AcDbEntity
  8
エンボス
  6
Continuous
100
AcDbLine
 10
21.15000000000009
 20
70.5
 30
0.0
 11
14.15000000000009
 21
68.5
 31
0.0
  0
LINE
  5
1292
330
1264
100
AcDbEntity
  8
エンボス
  6
Continuous
100
AcDbLine
 10
14.15000000000009
 20
75.5
 30
0.0
 11
21.15000000000009
 21
73.5
 31
0.0
  0
LINE
  5
1293
330
1264
100
AcDbEntity
  8
本体
  6
Continuous
100
AcDbLine
 10
-21.15000000000009
 20
97.0
 30
0.0
 11
14.15000000000009
 21
103.0
 31
0.0
  0
LINE
  5
1294
330
1264
100
AcDbEntity
  8
本体
  6
Continuous
100
AcDbLine
 10
21.15000000000009
 20
47.0
 30
0.0
 11
21.15000000000009
 21
3.0
 31
0.0
  0
LINE
  5
1295
330
1264
100
AcDbEntity
  8
本体
  6
Continuous
100
AcDbLine
 10
14.15000000000009
 20
47.0
 30
0.0
 11
14.15000000000009
 21
3.0
 31
0.0
  0
LINE
  5
1296
330
1264
100
AcDbEntity
  8
エンボス
  6
Continuous
100
AcDbLine
 10
21.15000000000009
 20
11.5
 30
0.0
 11
14.15000000000009
 21
9.5
 31
0.0
  0
LINE
  5
1297
330
1264
100
AcDbEntity
  8
エンボス
  6
Continuous
100
AcDbLine
 10
14.15000000000009
 20
6.5
 30
0.0
 11
21.15000000000009
 21
4.5
 31
0.0
  0
LINE
  5
1298
330
1264
100
AcDbEntity
  8
エンボス
  6
Continuous
100
AcDbLine
 10
21.15000000000009
 20
39.5
 30
0.0
 11
14.15000000000009
 21
37.5
 31
0.0
  0
LINE
  5
1299
330
1264
100
AcDbEntity
  8
エンボス
  6
Continuous
100
AcDbLine
 10
14.15000000000009
 20
34.5
 30
0.0
 11
21.15000000000009
 21
32.5
 31
0.0
  0
LINE
  5
129A
330
1264
100
AcDbEntity
  8
エンボス
  6
Continuous
100
AcDbLine
 10
21.15000000000009
 20
20.5
 30
0.0
 11
14.15000000000009
 21
18.5
 31
0.0
  0
LINE
  5
129B
330
1264
100
AcDbEntity
  8
エンボス
  6
Continuous
100
AcDbLine
 10
14.15000000000009
 20
25.5
 30
0.0
 11
21.15000000000009
 21
23.5
 31
0.0
  0
LINE
  5
129C
330
1264
100
AcDbEntity
  8
本体
  6
Continuous
100
AcDbLine
 10
-21.15000000000009
 20
47.0
 30
0.0
 11
14.15000000000009
 21
53.0
 31
0.0
  0
LINE
  5
129D
330
1264
100
AcDbEntity
  8
本体
  6
Continuous
100
AcDbLine
 10
21.15000000000009
 20
-3.0
 30
0.0
 11
21.15000000000009
 21
-47.0
 31
0.0
  0
LINE
  5
129E
330
1264
100
AcDbEntity
  8
本体
  6
Continuous
100
AcDbLine
 10
14.15000000000009
 20
-3.0
 30
0.0
 11
14.15000000000009
 21
-47.0
 31
0.0
  0
LINE
  5
129F
330
1264
100
AcDbEntity
  8
エンボス
  6
Continuous
100
AcDbLine
 10
21.15000000000009
 20
-38.5
 30
0.0
 11
14.15000000000009
 21
-40.49999999999999
 31
0.0
  0
LINE
  5
12A0
330
1264
100
AcDbEntity
  8
エンボス
  6
Continuous
100
AcDbLine
 10
14.15000000000009
 20
-43.5
 30
0.0
 11
21.15000000000009
 21
-45.49999999999999
 31
0.0
  0
LINE
  5
12A1
330
1264
100
AcDbEntity
  8
エンボス
  6
Continuous
100
AcDbLine
 10
21.15000000000009
 20
-10.5
 30
0.0
 11
14.15000000000009
 21
-12.5
 31
0.0
  0
LINE
  5
12A2
330
1264
100
AcDbEntity
  8
エンボス
  6
Continuous
100
AcDbLine
 10
14.15000000000009
 20
-15.5
 30
0.0
 11
21.15000000000009
 21
-17.5
 31
0.0
  0
LINE
  5
12A3
330
1264
100
AcDbEntity
  8
エンボス
  6
Continuous
100
AcDbLine
 10
21.15000000000009
 20
-29.5
 30
0.0
 11
14.15000000000009
 21
-31.5
 31
0.0
  0
LINE
  5
12A4
330
1264
100
AcDbEntity
  8
エンボス
  6
Continuous
100
AcDbLine
 10
14.15000000000009
 20
-24.5
 30
0.0
 11
21.15000000000009
 21
-26.5
 31
0.0
  0
LINE
  5
12A5
330
1264
100
AcDbEntity
  8
本体
  6
Continuous
100
AcDbLine
 10
-21.15000000000009
 20
-3.0
 30
0.0
 11
14.15000000000009
 21
3.0
 31
0.0
  0
LINE
  5
12A6
330
1264
100
AcDbEntity
  8
本体
  6
Continuous
100
AcDbLine
 10
21.15000000000009
 20
-53.0
 30
0.0
 11
21.15000000000009
 21
-97.0
 31
0.0
  0
LINE
  5
12A7
330
1264
100
AcDbEntity
  8
本体
  6
Continuous
100
AcDbLine
 10
14.15000000000009
 20
-53.0
 30
0.0
 11
14.15000000000009
 21
-97.0
 31
0.0
  0
LINE
  5
12A8
330
1264
100
AcDbEntity
  8
エンボス
  6
Continuous
100
AcDbLine
 10
21.15000000000009
 20
-88.49999999999999
 30
0.0
 11
14.15000000000009
 21
-90.5
 31
0.0
  0
LINE
  5
12A9
330
1264
100
AcDbEntity
  8
エンボス
  6
Continuous
100
AcDbLine
 10
14.15000000000009
 20
-93.49999999999999
 30
0.0
 11
21.15000000000009
 21
-95.5
 31
0.0
  0
LINE
  5
12AA
330
1264
100
AcDbEntity
  8
エンボス
  6
Continuous
100
AcDbLine
 10
21.15000000000009
 20
-60.5
 30
0.0
 11
14.15000000000009
 21
-62.5
 31
0.0
  0
LINE
  5
12AB
330
1264
100
AcDbEntity
  8
エンボス
  6
Continuous
100
AcDbLine
 10
14.15000000000009
 20
-65.5
 30
0.0
 11
21.15000000000009
 21
-67.5
 31
0.0
  0
LINE
  5
12AC
330
1264
100
AcDbEntity
  8
エンボス
  6
Continuous
100
AcDbLine
 10
21.15000000000009
 20
-79.5
 30
0.0
 11
14.15000000000009
 21
-81.5
 31
0.0
  0
LINE
  5
12AD
330
1264
100
AcDbEntity
  8
エンボス
  6
Continuous
100
AcDbLine
 10
14.15000000000009
 20
-74.5
 30
0.0
 11
21.15000000000009
 21
-76.5
 31
0.0
  0
LINE
  5
12AE
330
1264
100
AcDbEntity
  8
本体
  6
Continuous
100
AcDbLine
 10
-21.15000000000009
 20
-53.0
 30
0.0
 11
14.15000000000009
 21
-47.0
 31
0.0
  0
LINE
  5
12AF
330
1264
100
AcDbEntity
  8
本体
  6
Continuous
100
AcDbLine
 10
21.15000000000009
 20
-103.0
 30
0.0
 11
21.15000000000009
 21
-147.0
 31
0.0
  0
LINE
  5
12B0
330
1264
100
AcDbEntity
  8
本体
  6
Continuous
100
AcDbLine
 10
14.15000000000009
 20
-103.0
 30
0.0
 11
14.15000000000009
 21
-147.0
 31
0.0
  0
LINE
  5
12B1
330
1264
100
AcDbEntity
  8
エンボス
  6
Continuous
100
AcDbLine
 10
21.15000000000009
 20
-138.5
 30
0.0
 11
14.15000000000009
 21
-140.5
 31
0.0
  0
LINE
  5
12B2
330
1264
100
AcDbEntity
  8
エンボス
  6
Continuous
100
AcDbLine
 10
14.15000000000009
 20
-143.5
 30
0.0
 11
21.15000000000009
 21
-145.5
 31
0.0
  0
LINE
  5
12B3
330
1264
100
AcDbEntity
  8
エンボス
  6
Continuous
100
AcDbLine
 10
21.15000000000009
 20
-110.5
 30
0.0
 11
14.15000000000009
 21
-112.5
 31
0.0
  0
LINE
  5
12B4
330
1264
100
AcDbEntity
  8
エンボス
  6
Continuous
100
AcDbLine
 10
14.15000000000009
 20
-115.5
 30
0.0
 11
21.15000000000009
 21
-117.5
 31
0.0
  0
LINE
  5
12B5
330
1264
100
AcDbEntity
  8
エンボス
  6
Continuous
100
AcDbLine
 10
21.15000000000009
 20
-129.5
 30
0.0
 11
14.15000000000009
 21
-131.5
 31
0.0
  0
LINE
  5
12B6
330
1264
100
AcDbEntity
  8
エンボス
  6
Continuous
100
AcDbLine
 10
14.15000000000009
 20
-124.5
 30
0.0
 11
21.15000000000009
 21
-126.5
 31
0.0
  0
LINE
  5
12B7
330
1264
100
AcDbEntity
  8
本体
  6
Continuous
100
AcDbLine
 10
-21.15000000000009
 20
-103.0
 30
0.0
 11
14.15000000000009
 21
-97.0
 31
0.0
  0
LINE
  5
12B8
330
1264
100
AcDbEntity
  8
本体
  6
Continuous
100
AcDbLine
 10
21.15000000000009
 20
-153.0
 30
0.0
 11
21.15000000000009
 21
-197.0
 31
0.0
  0
LINE
  5
12B9
330
1264
100
AcDbEntity
  8
本体
  6
Continuous
100
AcDbLine
 10
14.15000000000009
 20
-153.0
 30
0.0
 11
14.15000000000009
 21
-197.0
 31
0.0
  0
LINE
  5
12BA
330
1264
100
AcDbEntity
  8
エンボス
  6
Continuous
100
AcDbLine
 10
21.15000000000009
 20
-188.5
 30
0.0
 11
14.15000000000009
 21
-190.5
 31
0.0
  0
LINE
  5
12BB
330
1264
100
AcDbEntity
  8
エンボス
  6
Continuous
100
AcDbLine
 10
14.15000000000009
 20
-193.5
 30
0.0
 11
21.15000000000009
 21
-195.5
 31
0.0
  0
LINE
  5
12BC
330
1264
100
AcDbEntity
  8
エンボス
  6
Continuous
100
AcDbLine
 10
21.15000000000009
 20
-160.5
 30
0.0
 11
14.15000000000009
 21
-162.5
 31
0.0
  0
LINE
  5
12BD
330
1264
100
AcDbEntity
  8
エンボス
  6
Continuous
100
AcDbLine
 10
14.15000000000009
 20
-165.5
 30
0.0
 11
21.15000000000009
 21
-167.5
 31
0.0
  0
LINE
  5
12BE
330
1264
100
AcDbEntity
  8
エンボス
  6
Continuous
100
AcDbLine
 10
21.15000000000009
 20
-179.5
 30
0.0
 11
14.15000000000009
 21
-181.5
 31
0.0
  0
LINE
  5
12BF
330
1264
100
AcDbEntity
  8
エンボス
  6
Continuous
100
AcDbLine
 10
14.15000000000009
 20
-174.5
 30
0.0
 11
21.15000000000009
 21
-176.5
 31
0.0
  0
LINE
  5
12C0
330
1264
100
AcDbEntity
  8
本体
  6
Continuous
100
AcDbLine
 10
-21.15000000000009
 20
-153.0
 30
0.0
 11
14.15000000000009
 21
-147.0
 31
0.0
  0
LINE
  5
12C1
330
1264
100
AcDbEntity
  8
本体
  6
Continuous
100
AcDbLine
 10
-21.15000000000009
 20
-203.0
 30
0.0
 11
14.15000000000009
 21
-197.0
 31
0.0
  0
ENDBLK
  5
1266
330
1264
100
AcDbEntity
  8
0
 48
3.0
100
AcDbBlockEnd
  0
BLOCK
  5
1268
330
1267
100
AcDbEntity
  8
0
 48
3.0
100
AcDbBlockBegin
  2
*U27
 70
     1
 10
0.0
 20
0.0
 30
0.0
  3
*U27
  1

  0
INSERT
  5
12D0
330
1267
100
AcDbEntity
  8
本体
  6
ByBlock
 62
     0
370
    -2
380
     1
100
AcDbBlockReference
  2
*U26
 10
0.0
 20
0.0
 30
0.0
  0
INSERT
  5
12D1
330
1267
100
AcDbEntity
  8
本体
  6
ByBlock
 62
     0
370
    -2
380
     1
100
AcDbBlockReference
  2
*U26
 10
35.3
 20
0.0
 30
0.0
  0
INSERT
  5
12D2
330
1267
100
AcDbEntity
  8
本体
  6
ByBlock
 62
     0
370
    -2
380
     1
100
AcDbBlockReference
  2
*U26
 10
70.59999999999999
 20
0.0
 30
0.0
  0
INSERT
  5
12D3
330
1267
100
AcDbEntity
  8
本体
  6
ByBlock
 62
     0
370
    -2
380
     1
100
AcDbBlockReference
  2
*U26
 10
105.9
 20
0.0
 30
0.0
  0
INSERT
  5
12D4
330
1267
100
AcDbEntity
  8
本体
  6
ByBlock
 62
     0
370
    -2
380
     1
100
AcDbBlockReference
  2
*U26
 10
141.2
 20
0.0
 30
0.0
  0
INSERT
  5
12D5
330
1267
100
AcDbEntity
  8
本体
  6
ByBlock
 62
     0
370
    -2
380
     1
100
AcDbBlockReference
  2
*U26
 10
176.5
 20
0.0
 30
0.0
  0
INSERT
  5
12D6
330
1267
100
AcDbEntity
  8
本体
  6
ByBlock
 62
     0
370
    -2
380
     1
100
AcDbBlockReference
  2
*U26
 10
211.8
 20
0.0
 30
0.0
  0
INSERT
  5
12D7
330
1267
100
AcDbEntity
  8
本体
  6
ByBlock
 62
     0
370
    -2
380
     1
100
AcDbBlockReference
  2
*U26
 10
247.1
 20
0.0
 30
0.0
  0
INSERT
  5
12D8
330
1267
100
AcDbEntity
  8
本体
  6
ByBlock
 62
     0
370
    -2
380
     1
100
AcDbBlockReference
  2
*U26
 10
282.4
 20
0.0
 30
0.0
  0
INSERT
  5
12D9
330
1267
100
AcDbEntity
  8
本体
  6
ByBlock
 62
     0
370
    -2
380
     1
100
AcDbBlockReference
  2
*U26
 10
317.7
 20
0.0
 30
0.0
  0
INSERT
  5
12DA
330
1267
100
AcDbEntity
  8
本体
  6
ByBlock
 62
     0
370
    -2
380
     1
100
AcDbBlockReference
  2
*U26
 10
353.0
 20
0.0
 30
0.0
  0
INSERT
  5
12DB
330
1267
100
AcDbEntity
  8
本体
  6
ByBlock
 62
     0
370
    -2
380
     1
100
AcDbBlockReference
  2
*U26
 10
388.3
 20
0.0
 30
0.0
  0
INSERT
  5
12DC
330
1267
100
AcDbEntity
  8
本体
  6
ByBlock
 62
     0
370
    -2
380
     1
100
AcDbBlockReference
  2
*U26
 10
423.5999999999999
 20
0.0
 30
0.0
  0
INSERT
  5
12DD
330
1267
100
AcDbEntity
  8
本体
  6
ByBlock
 62
     0
370
    -2
380
     1
100
AcDbBlockReference
  2
*U26
 10
458.8999999999999
 20
0.0
 30
0.0
  0
INSERT
  5
12DE
330
1267
100
AcDbEntity
  8
本体
  6
ByBlock
 62
     0
370
    -2
380
     1
100
AcDbBlockReference
  2
*U26
 10
494.1999999999999
 20
0.0
 30
0.0
  0
INSERT
  5
12DF
330
1267
100
AcDbEntity
  8
本体
  6
ByBlock
 62
     0
370
    -2
380
     1
100
AcDbBlockReference
  2
*U26
 10
529.4999999999999
 20
0.0
 30
0.0
  0
ENDBLK
  5
1269
330
1267
100
AcDbEntity
  8
0
 48
3.0
100
AcDbBlockEnd
  0
BLOCK
  5
12E2
330
12E1
100
AcDbEntity
  8
0
 48
3.0
100
AcDbBlockBegin
  2
*U28
 70
     1
 10
0.0
 20
0.0
 30
0.0
  3
*U28
  1

  0
LINE
  5
12E8
330
12E1
100
AcDbEntity
  8
本体
  6
Continuous
100
AcDbLine
 10
-16.90000000000009
 20
27.5
 30
0.0
 11
11.40000000000009
 21
27.5
 31
0.0
  0
LINE
  5
12E9
330
12E1
100
AcDbEntity
  8
本体
  6
Continuous
100
AcDbLine
 10
-16.90000000000009
 20
19.5
 30
0.0
 11
11.40000000000009
 21
19.5
 31
0.0
  0
LINE
  5
12EA
330
12E1
100
AcDbEntity
  8
本体
  6
Continuous
100
AcDbLine
 10
-16.90000000000009
 20
19.5
 30
0.0
 11
11.40000000000009
 21
27.5
 31
0.0
  0
LINE
  5
12EB
330
12E1
100
AcDbEntity
  8
本体
100
AcDbLine
 10
11.40000000000009
 20
27.5
 30
0.0
 11
18.40000000000009
 21
27.5
 31
0.0
  0
LINE
  5
12EC
330
12E1
100
AcDbEntity
  8
本体
100
AcDbLine
 10
11.40000000000009
 20
27.5
 30
0.0
 11
11.40000000000009
 21
17.5
 31
0.0
  0
LINE
  5
12ED
330
12E1
100
AcDbEntity
  8
本体
100
AcDbLine
 10
11.40000000000009
 20
17.5
 30
0.0
 11
12.90000000000009
 21
16.5
 31
0.0
  0
LINE
  5
12EE
330
12E1
100
AcDbEntity
  8
本体
100
AcDbLine
 10
18.40000000000009
 20
27.5
 30
0.0
 11
18.40000000000009
 21
17.5
 31
0.0
  0
LINE
  5
12EF
330
12E1
100
AcDbEntity
  8
本体
100
AcDbLine
 10
18.40000000000009
 20
17.5
 30
0.0
 11
16.90000000000009
 21
16.5
 31
0.0
  0
LINE
  5
12F0
330
12E1
100
AcDbEntity
  8
本体
100
AcDbLine
 10
11.40000000000009
 20
-27.5
 30
0.0
 11
18.40000000000009
 21
-27.5
 31
0.0
  0
LINE
  5
12F1
330
12E1
100
AcDbEntity
  8
本体
100
AcDbLine
 10
11.40000000000009
 20
-27.5
 30
0.0
 11
11.40000000000009
 21
-17.5
 31
0.0
  0
LINE
  5
12F2
330
12E1
100
AcDbEntity
  8
本体
100
AcDbLine
 10
11.40000000000009
 20
-17.5
 30
0.0
 11
12.90000000000009
 21
-16.5
 31
0.0
  0
LINE
  5
12F3
330
12E1
100
AcDbEntity
  8
本体
100
AcDbLine
 10
18.40000000000009
 20
-27.5
 30
0.0
 11
18.40000000000009
 21
-17.5
 31
0.0
  0
LINE
  5
12F4
330
12E1
100
AcDbEntity
  8
本体
100
AcDbLine
 10
18.40000000000009
 20
-17.5
 30
0.0
 11
16.90000000000009
 21
-16.5
 31
0.0
  0
LINE
  5
12F5
330
12E1
100
AcDbEntity
  8
本体
100
AcDbLine
 10
12.90000000000009
 20
16.5
 30
0.0
 11
12.90000000000009
 21
-16.5
 31
0.0
  0
LINE
  5
12F6
330
12E1
100
AcDbEntity
  8
本体
100
AcDbLine
 10
16.90000000000009
 20
16.5
 30
0.0
 11
16.90000000000009
 21
-16.5
 31
0.0
  0
LINE
  5
12F7
330
12E1
100
AcDbEntity
  8
本体
  6
Continuous
100
AcDbLine
 10
-18.40000000000015
 20
-10.5
 30
0.0
 11
12.90000000000003
 21
-10.5
 31
0.0
  0
ENDBLK
  5
12E3
330
12E1
100
AcDbEntity
  8
0
 48
3.0
100
AcDbBlockEnd
  0
BLOCK
  5
12E5
330
12E4
100
AcDbEntity
  8
0
 48
3.0
100
AcDbBlockBegin
  2
*U29
 70
     1
 10
0.0
 20
0.0
 30
0.0
  3
*U29
  1

  0
INSERT
  5
1302
330
12E4
100
AcDbEntity
  8
本体
  6
ByBlock
 62
     0
370
    -2
380
     1
100
AcDbBlockReference
  2
*U28
 10
0.0
 20
0.0
 30
0.0
  0
INSERT
  5
1303
330
12E4
100
AcDbEntity
  8
本体
  6
ByBlock
 62
     0
370
    -2
380
     1
100
AcDbBlockReference
  2
*U28
 10
35.3
 20
0.0
 30
0.0
  0
INSERT
  5
1304
330
12E4
100
AcDbEntity
  8
本体
  6
ByBlock
 62
     0
370
    -2
380
     1
100
AcDbBlockReference
  2
*U28
 10
70.59999999999999
 20
0.0
 30
0.0
  0
INSERT
  5
1305
330
12E4
100
AcDbEntity
  8
本体
  6
ByBlock
 62
     0
370
    -2
380
     1
100
AcDbBlockReference
  2
*U28
 10
105.9
 20
0.0
 30
0.0
  0
INSERT
  5
1306
330
12E4
100
AcDbEntity
  8
本体
  6
ByBlock
 62
     0
370
    -2
380
     1
100
AcDbBlockReference
  2
*U28
 10
141.2
 20
0.0
 30
0.0
  0
INSERT
  5
1307
330
12E4
100
AcDbEntity
  8
本体
  6
ByBlock
 62
     0
370
    -2
380
     1
100
AcDbBlockReference
  2
*U28
 10
176.5
 20
0.0
 30
0.0
  0
INSERT
  5
1308
330
12E4
100
AcDbEntity
  8
本体
  6
ByBlock
 62
     0
370
    -2
380
     1
100
AcDbBlockReference
  2
*U28
 10
211.8
 20
0.0
 30
0.0
  0
INSERT
  5
1309
330
12E4
100
AcDbEntity
  8
本体
  6
ByBlock
 62
     0
370
    -2
380
     1
100
AcDbBlockReference
  2
*U28
 10
247.1
 20
0.0
 30
0.0
  0
INSERT
  5
130A
330
12E4
100
AcDbEntity
  8
本体
  6
ByBlock
 62
     0
370
    -2
380
     1
100
AcDbBlockReference
  2
*U28
 10
282.4
 20
0.0
 30
0.0
  0
INSERT
  5
130B
330
12E4
100
AcDbEntity
  8
本体
  6
ByBlock
 62
     0
370
    -2
380
     1
100
AcDbBlockReference
  2
*U28
 10
317.7
 20
0.0
 30
0.0
  0
INSERT
  5
130C
330
12E4
100
AcDbEntity
  8
本体
  6
ByBlock
 62
     0
370
    -2
380
     1
100
AcDbBlockReference
  2
*U28
 10
353.0
 20
0.0
 30
0.0
  0
INSERT
  5
130D
330
12E4
100
AcDbEntity
  8
本体
  6
ByBlock
 62
     0
370
    -2
380
     1
100
AcDbBlockReference
  2
*U28
 10
388.3
 20
0.0
 30
0.0
  0
INSERT
  5
130E
330
12E4
100
AcDbEntity
  8
本体
  6
ByBlock
 62
     0
370
    -2
380
     1
100
AcDbBlockReference
  2
*U28
 10
423.5999999999999
 20
0.0
 30
0.0
  0
INSERT
  5
130F
330
12E4
100
AcDbEntity
  8
本体
  6
ByBlock
 62
     0
370
    -2
380
     1
100
AcDbBlockReference
  2
*U28
 10
458.8999999999999
 20
0.0
 30
0.0
  0
INSERT
  5
1310
330
12E4
100
AcDbEntity
  8
本体
  6
ByBlock
 62
     0
370
    -2
380
     1
100
AcDbBlockReference
  2
*U28
 10
494.1999999999999
 20
0.0
 30
0.0
  0
INSERT
  5
1311
330
12E4
100
AcDbEntity
  8
本体
  6
ByBlock
 62
     0
370
    -2
380
     1
100
AcDbBlockReference
  2
*U28
 10
529.4999999999999
 20
0.0
 30
0.0
  0
ENDBLK
  5
12E6
330
12E4
100
AcDbEntity
  8
0
 48
3.0
100
AcDbBlockEnd
  0
ENDSEC
  0
SECTION
  2
ENTITIES
  0
LINE
  5
12
330
2
100
AcDbEntity
  8
外枠
 48
80.0
370
     9
100
AcDbLine
 10
0.0
 20
0.0
 30
0.0
 11
2789.511161023067
 21
0.0
 31
0.0
  0
LINE
  5
13
330
2
100
AcDbEntity
  8
外枠
 48
80.0
370
     9
100
AcDbLine
 10
2789.511161023071
 20
1973.26911249564
 30
0.0
 11
0.0
 21
1973.26911249564
 31
0.0
  0
LINE
  5
14
330
2
100
AcDbEntity
  8
外枠
 48
100.0
370
     9
100
AcDbLine
 10
10.0
 20
10.0
 30
0.0
 11
2780.119625023061
 21
10.0
 31
0.0
  0
LINE
  5
17
330
2
100
AcDbEntity
  8
外枠
  6
Continuous
 48
100.0
370
     9
100
AcDbLine
 10
9.999999999996362
 20
155.3992728208031
 30
0.0
 11
2780.119625023061
 21
155.3992728207995
 31
0.0
  0
LINE
  5
18
330
2
100
AcDbEntity
  8
外枠
  6
Continuous
 48
100.0
370
     9
100
AcDbLine
 10
9.999999999996362
 20
160.0950408208045
 30
0.0
 11
2780.119625023061
 21
160.0950408207973
 31
0.0
  0
LINE
  5
19
330
2
100
AcDbEntity
  8
外枠
 48
100.0
370
     9
100
AcDbLine
 10
10.0
 20
1963.877576495633
 30
0.0
 11
2780.119625023053
 21
1963.877576495637
 31
0.0
  0
LINE
  5
1A
330
2
100
AcDbEntity
  8
外枠
 48
80.0
370
     9
100
AcDbLine
 10
0.0
 20
0.0
 30
0.0
 11
0.0
 21
1973.26911249564
 31
0.0
  0
LINE
  5
1B
330
2
100
AcDbEntity
  8
外枠
 48
100.0
370
     9
100
AcDbLine
 10
10.0
 20
1963.877576495633
 30
0.0
 11
10.0
 21
10.0
 31
0.0
  0
LINE
  5
1C
330
2
100
AcDbEntity
  8
外枠
  6
Continuous
 48
100.0
370
     9
100
AcDbLine
 10
10.0
 20
82.69963641040158
 30
0.0
 11
1153.530108552004
 21
82.69963641039794
 31
0.0
  0
MTEXT
  5
1D
330
2
100
AcDbEntity
  8
外枠
  6
Continuous
 48
100.0
370
     9
100
AcDbMText
 10
532.8934032018532
 20
136.1535564242149
 30
0.0
 40
30.0
 41
664.6118999999999
 71
     1
 72
     5
  1
一般側溝用かさあげグレーチング
 73
     1
 44
1.0
1001
ACAD
1000
MTEXTBEGIN
1070
    73
1070
     1
1070
    44
1040
1.0
1070
    74
1070
     0
1000
MTEXTEND
  0
MTEXT
  5
1E
330
2
100
AcDbEntity
  8
外枠
  6
Continuous
 48
100.0
370
     9
100
AcDbMText
 10
246.8574963386418
 20
64.81814764649607
 30
0.0
 40
35.0
 41
532.9183
 71
     1
 72
     5
  1
490\U+00D7607\U+00D755/100
 73
     1
 44
1.0
1001
ACAD
1000
MTEXTBEGIN
1070
    73
1070
     1
1070
    44
1040
1.0
1070
    74
1070
     0
1000
MTEXTEND
  0
MTEXT
  5
1F
330
2
100
AcDbEntity
  8
外枠
  6
Continuous
 48
100.0
370
     9
100
AcDbMText
 10
76.61659604009765
 20
137.3760680266387
 30
0.0
 40
30.0
 41
126.3036
 71
     1
 72
     5
  1
T-20
 73
     1
 44
1.0
1001
ACAD
1000
MTEXTBEGIN
1070
    73
1070
     1
1070
    44
1040
1.0
1070
    74
1070
     0
1000
MTEXTEND
  0
MTEXT
  5
20
330
2
100
AcDbEntity
  8
外枠
  6
Continuous
 48
100.0
370
     9
100
AcDbMText
 10
72.93258377064922
 20
59.95966632915224
 30
0.0
 40
35.0
 41
88.86979999999999
 71
     1
 72
     5
  1
TGFP
 73
     1
 44
1.0
1001
ACAD
1000
MTEXTBEGIN
1070
    73
1070
     1
1070
    44
1040
1.0
1070
    74
1070
     0
1000
MTEXTEND
  0
LINE
  5
21
330
2
100
AcDbEntity
  8
外枠
 48
100.0
370
     9
100
AcDbLine
 10
45.0
 20
155.3992728208031
 30
0.0
 11
45.0
 21
10.0
 31
0.0
  0
MTEXT
  5
22
330
2
100
AcDbEntity
  8
外枠
  6
Continuous
 48
100.0
370
     9
100
AcDbMText
 10
15.05670849094895
 20
75.82038473524153
 30
0.0
 40
20.0
 41
23.52947333656417
 71
     1
 72
     5
  1
品\P番
 73
     1
 44
1.0
1001
ACAD
1000
MTEXTBEGIN
1070
    73
1070
     1
1070
    44
1040
1.0
1070
    74
1070
     0
1000
MTEXTEND
  0
MTEXT
  5
23
330
2
100
AcDbEntity
  8
外枠
  6
Continuous
 48
100.0
370
     9
100
AcDbMText
 10
14.92010060012399
 20
149.3317229429121
 30
0.0
 40
20.0
 41
30.07989939987533
 71
     1
 72
     5
  1
荷\P重
 73
     1
 44
1.0
1001
ACAD
1000
MTEXTBEGIN
1070
    73
1070
     1
1070
    44
1040
1.0
1070
    74
1070
     0
1000
MTEXTEND
  0
LINE
  5
24
330
2
100
AcDbEntity
  8
外枠
 48
100.0
370
     9
100
AcDbLine
 10
179.1040495562847
 20
155.3992728208031
 30
0.0
 11
179.1040495562847
 21
10.0
 31
0.0
  0
MTEXT
  5
25
330
2
100
AcDbEntity
  8
外枠
  6
Continuous
 48
100.0
370
     9
100
AcDbMText
 10
271.7517807368968
 20
133.8572910967996
 30
0.0
 40
30.0
 41
271.6208
 71
     1
 72
     5
  1
400用
 73
     1
 44
1.0
1001
ACAD
1000
MTEXTBEGIN
1070
    73
1070
     1
1070
    44
1040
1.0
1070
    74
1070
     0
1000
MTEXTEND
  0
MTEXT
  5
26
330
2
100
AcDbEntity
  8
外枠
  6
Continuous
 48
100.0
370
     9
100
AcDbMText
 10
184.4346535744698
 20
149.3074501239389
 30
0.0
 40
20.0
 41
29.6694
 71
     1
 72
     5
  1
溝幅
 73
     1
 44
1.0
1001
ACAD
1000
MTEXTBEGIN
1070
    73
1070
     1
1070
    44
1040
1.0
1070
    74
1070
     0
1000
MTEXTEND
  0
LINE
  5
27
330
2
100
AcDbEntity
  8
外枠
 48
100.0
370
     9
100
AcDbLine
 10
214.1040495562847
 20
155.3992728208031
 30
0.0
 11
214.1040495562847
 21
82.69963641040158
 31
0.0
  0
MTEXT
  5
28
330
2
100
AcDbEntity
  8
外枠
  6
Continuous
 48
100.0
370
     9
100
AcDbMText
 10
477.8955451146976
 20
149.3074501239389
 30
0.0
 40
20.0
 41
29.6694
 71
     1
 72
     5
  1
品名
 73
     1
 44
1.0
1001
ACAD
1000
MTEXTBEGIN
1070
    73
1070
     1
1070
    44
1040
1.0
1070
    74
1070
     0
1000
MTEXTEND
  0
LINE
  5
29
330
2
100
AcDbEntity
  8
外枠
 48
100.0
370
     9
100
AcDbLine
 10
472.5649410965124
 20
155.3992728208031
 30
0.0
 11
472.5649410965124
 21
82.69963641040158
 31
0.0
  0
LINE
  5
2A
330
2
100
AcDbEntity
  8
外枠
 48
100.0
370
     9
100
AcDbLine
 10
507.5649410965125
 20
155.3992728208031
 30
0.0
 11
507.5649410965125
 21
82.69963641040158
 31
0.0
  0
MTEXT
  5
2B
330
2
100
AcDbEntity
  8
外枠
  6
Continuous
 48
100.0
370
     9
100
AcDbMText
 10
728.477887653953
 20
76.92551173516403
 30
0.0
 40
20.0
 41
664.6118999999999
 71
     1
 72
     5
  1
摘\P要
 73
     1
 44
1.0
1001
ACAD
1000
MTEXTBEGIN
1070
    73
1070
     1
1070
    44
1040
1.0
1070
    74
1070
     0
1000
MTEXTEND
  0
LINE
  5
2C
330
2
100
AcDbEntity
  8
外枠
 48
100.0
370
     9
100
AcDbLine
 10
723.8282373115871
 20
82.6996364103943
 30
0.0
 11
723.8282373115871
 21
9.999999999992724
 31
0.0
  0
LINE
  5
2F
330
2
100
AcDbEntity
  8
外枠
 48
100.0
370
     9
100
AcDbLine
 10
758.8282373115871
 20
82.6996364103943
 30
0.0
 11
758.8282373115871
 21
9.999999999992724
 31
0.0
  0
LINE
  5
31
330
2
100
AcDbEntity
  8
外枠
 48
100.0
370
     9
100
AcDbLine
 10
974.9513069700951
 20
82.6996364103943
 30
0.0
 11
974.9513069700951
 21
9.999999999992724
 31
0.0
  0
MTEXT
  5
32
330
2
100
AcDbEntity
  8
外枠
  6
Continuous
 48
100.0
370
     9
100
AcDbMText
 10
979.7329598959768
 20
74.84825461820583
 30
0.0
 40
20.0
 41
31.38947761565365
 71
     1
 72
     5
  1
材\P質
 73
     1
 44
1.0
1001
ACAD
1000
MTEXTBEGIN
1070
    73
1070
     1
1070
    44
1040
1.0
1070
    74
1070
     0
1000
MTEXTEND
  0
LINE
  5
33
330
2
100
AcDbEntity
  8
外枠
 48
100.0
370
     9
100
AcDbLine
 10
1009.951306970095
 20
82.6996364103943
 30
0.0
 11
1009.951306970095
 21
9.999999999992724
 31
0.0
  0
LINE
  5
38
330
2
100
AcDbEntity
  8
外枠
 48
80.0
370
     9
100
AcDbLine
 10
2789.511161023067
 20
0.0
 30
0.0
 11
2789.511161023071
 21
1973.26911249564
 31
0.0
  0
LINE
  5
39
330
2
100
AcDbEntity
  8
外枠
 48
100.0
370
     9
100
AcDbLine
 10
2780.119625023053
 20
1963.877576495637
 30
0.0
 11
2780.119625023061
 21
10.0
 31
0.0
  0
LINE
  5
3B
330
2
100
AcDbEntity
  8
外枠
 48
3.0
100
AcDbLine
 10
1607.072254912545
 20
61.67068719952067
 30
0.0
 11
2262.173600934632
 21
61.67068719952067
 31
0.0
  0
MTEXT
  5
3C
330
2
100
AcDbEntity
  8
外枠
  6
Continuous
 48
100.0
370
     9
100
AcDbMText
 10
1683.622173868318
 20
50.71504764095289
 30
0.0
 40
30.00024
 41
539.4827578564582
 71
     1
 72
     5
  1
T A K A R A   G R A T I N G
 73
     1
 44
1.0
1001
ACAD
1000
MTEXTBEGIN
1070
    73
1070
     1
1070
    44
1040
1.0
1070
    74
1070
     0
1000
MTEXTEND
  0
MTEXT
  5
3D
330
2
100
AcDbEntity
  8
外枠
  6
Continuous
 48
100.0
370
     9
100
AcDbMText
 10
1728.02061463669
 20
127.1672938476838
 30
0.0
 40
30.0
 41
282.8297
 71
     1
 72
     5
  1
株 式 会 社
 73
     1
 44
1.0
1001
ACAD
1000
MTEXTBEGIN
1070
    73
1070
     1
1070
    44
1040
1.0
1070
    74
1070
     0
1000
MTEXTEND
  0
LINE
  5
3E
330
2
100
AcDbEntity
  8
外枠
  6
Continuous
 48
100.0
370
     9
100
AcDbLine
 10
1508.680137877982
 20
155.3992728208068
 30
0.0
 11
1508.680137877982
 21
10.00000000000364
 31
0.0
  0
LINE
  5
3F
330
2
100
AcDbEntity
  8
外枠
  6
Continuous
 48
100.0
370
     9
100
AcDbLine
 10
1593.95141853916
 20
155.3992728207995
 30
0.0
 11
1593.95141853916
 21
9.999999999996362
 31
0.0
  0
LINE
  5
40
330
2
100
AcDbEntity
  8
外枠
  6
Continuous
 48
100.0
370
     9
100
AcDbLine
 10
1616.777813337499
 20
106.634063069062
 30
0.0
 11
1612.463999974505
 21
110.08511375945
 31
0.0
  0
LINE
  5
41
330
2
100
AcDbEntity
  8
外枠
  6
Continuous
 48
100.0
370
     9
100
AcDbLine
 10
1616.777813337499
 20
106.634063069062
 30
0.0
 11
1612.463999974505
 21
103.183012378663
 31
0.0
  0
LINE
  5
42
330
2
100
AcDbEntity
  8
外枠
  6
Continuous
 48
100.0
370
     9
100
AcDbLine
 10
1616.777813337505
 20
113.5361644498489
 30
0.0
 11
1612.463999974505
 21
110.08511375945
 31
0.0
  0
LINE
  5
43
330
2
100
AcDbEntity
  8
外枠
  6
Continuous
 48
100.0
370
     9
100
AcDbLine
 10
1616.777813337499
 20
99.73196168827508
 30
0.0
 11
1612.463999974505
 21
103.183012378663
 31
0.0
  0
MTEXT
  5
44
330
2
100
AcDbEntity
  8
外枠
  6
Continuous
 48
100.0
370
     9
100
AcDbMText
 10
1520.476936402745
 20
137.4995509975779
 30
0.0
 40
20.0
 41
1015.1375
 71
     1
 72
     5
  1
26.3
 73
     1
 44
1.0
1001
ACAD
1000
MTEXTBEGIN
1070
    73
1070
     1
1070
    44
1040
1.0
1070
    74
1070
     0
1000
MTEXTEND
  0
MTEXT
  5
45
330
2
100
AcDbEntity
  8
外枠
  6
Continuous
 48
100.0
370
     9
100
AcDbMText
 10
1568.464698185987
 20
108.4136993179927
 30
0.0
 40
18.0
 41
25.456
 71
     1
 72
     5
  1
kg
 73
     1
 44
1.0
1001
ACAD
1000
MTEXTBEGIN
1070
    73
1070
     1
1070
    44
1040
1.0
1070
    74
1070
     0
1000
MTEXTEND
  0
LINE
  5
46
330
2
100
AcDbEntity
  8
外枠
  6
Continuous
 48
100.0
370
     9
100
AcDbLine
 10
1649.122643507042
 20
139.4120285854742
 30
0.0
 11
1653.436456870031
 21
135.9609778950862
 31
0.0
  0
LINE
  5
47
330
2
100
AcDbEntity
  8
外枠
  6
Continuous
 48
100.0
370
     9
100
AcDbLine
 10
1666.377896959009
 20
139.4120285854742
 30
0.0
 11
1662.06408359602
 21
135.9609778950862
 31
0.0
  0
MTEXT
  5
48
330
2
100
AcDbEntity
  8
外枠
  6
Continuous
 48
100.0
370
     9
100
AcDbMText
 10
1642.840555134189
 20
120.8184913847756
 30
0.0
 40
23.95393639053264
 41
23.85059431815661
 71
     1
 72
     5
  1
{\fＭＳ ゴシック|b0|i0|c128|p49;宝}
 73
     1
 44
1.0
1001
ACAD
1000
MTEXTBEGIN
1070
    73
1070
     1
1070
    44
1040
1.0
1070
    74
1070
     0
1000
MTEXTEND
  0
LINE
  5
49
330
2
100
AcDbEntity
  8
外枠
  6
Continuous
 48
100.0
370
     9
100
AcDbLine
 10
1662.06408359602
 20
135.9609778950862
 30
0.0
 11
1694.408913765557
 21
110.08511375945
 31
0.0
  0
LINE
  5
4A
330
2
100
AcDbEntity
  8
外枠
  6
Continuous
 48
100.0
370
     9
100
AcDbLine
 10
1657.750270233026
 20
132.5099272046927
 30
0.0
 11
1690.095100402563
 21
106.634063069062
 31
0.0
  0
LINE
  5
4B
330
2
100
AcDbEntity
  8
外枠
  6
Continuous
 48
100.0
370
     9
100
AcDbLine
 10
1690.095100402563
 20
106.634063069062
 30
0.0
 11
1657.750270233026
 21
80.75819893343123
 31
0.0
  0
LINE
  5
4C
330
2
100
AcDbEntity
  8
外枠
  6
Continuous
 48
100.0
370
     9
100
AcDbLine
 10
1694.408913765557
 20
103.183012378663
 30
0.0
 11
1662.06408359602
 21
77.30714824303777
 31
0.0
  0
LINE
  5
4D
330
2
100
AcDbEntity
  8
外枠
  6
Continuous
 48
100.0
370
     9
100
AcDbLine
 10
1657.750270233026
 20
80.75819893342577
 30
0.0
 11
1625.405440063488
 21
106.634063069062
 31
0.0
  0
LINE
  5
4E
330
2
100
AcDbEntity
  8
外枠
  6
Continuous
 48
100.0
370
     9
100
AcDbLine
 10
1653.436456870031
 20
77.30714824303777
 30
0.0
 11
1621.0916267005
 21
103.183012378663
 31
0.0
  0
LINE
  5
4F
330
2
100
AcDbEntity
  8
外枠
  6
Continuous
 48
100.0
370
     9
100
AcDbLine
 10
1621.0916267005
 20
103.183012378663
 30
0.0
 11
1616.777813337505
 21
99.73196168827508
 31
0.0
  0
LINE
  5
50
330
2
100
AcDbEntity
  8
外枠
  6
Continuous
 48
100.0
370
     9
100
AcDbLine
 10
1653.436456870031
 20
77.30714824303777
 30
0.0
 11
1649.122643507042
 21
73.85609755263885
 31
0.0
  0
LINE
  5
51
330
2
100
AcDbEntity
  8
外枠
  6
Continuous
 48
100.0
370
     9
100
AcDbLine
 10
1653.436456870031
 20
70.4050468622454
 30
0.0
 11
1649.122643507042
 21
73.85609755263885
 31
0.0
  0
LINE
  5
52
330
2
100
AcDbEntity
  8
外枠
  6
Continuous
 48
100.0
370
     9
100
AcDbLine
 10
1657.750270233026
 20
73.85609755263885
 30
0.0
 11
1653.436456870031
 21
70.4050468622454
 31
0.0
  0
LINE
  5
53
330
2
100
AcDbEntity
  8
外枠
  6
Continuous
 48
100.0
370
     9
100
AcDbLine
 10
1666.377896959009
 20
73.85609755263885
 30
0.0
 11
1662.06408359602
 21
70.4050468622454
 31
0.0
  0
LINE
  5
54
330
2
100
AcDbEntity
  8
外枠
  6
Continuous
 48
100.0
370
     9
100
AcDbLine
 10
1662.06408359602
 20
70.4050468622454
 30
0.0
 11
1657.750270233026
 21
73.85609755263885
 31
0.0
  0
LINE
  5
55
330
2
100
AcDbEntity
  8
外枠
  6
Continuous
 48
100.0
370
     9
100
AcDbLine
 10
1666.377896959009
 20
73.85609755263885
 30
0.0
 11
1662.06408359602
 21
77.30714824303777
 31
0.0
  0
LINE
  5
56
330
2
100
AcDbEntity
  8
外枠
  6
Continuous
 48
100.0
370
     9
100
AcDbLine
 10
1657.750270233026
 20
132.5099272046927
 30
0.0
 11
1625.405440063483
 21
106.634063069062
 31
0.0
  0
LINE
  5
57
330
2
100
AcDbEntity
  8
外枠
  6
Continuous
 48
100.0
370
     9
100
AcDbLine
 10
1653.436456870031
 20
135.9609778950862
 30
0.0
 11
1621.0916267005
 21
110.08511375945
 31
0.0
  0
LINE
  5
58
330
2
100
AcDbEntity
  8
外枠
  6
Continuous
 48
100.0
370
     9
100
AcDbLine
 10
1621.0916267005
 20
110.08511375945
 30
0.0
 11
1616.777813337505
 21
113.5361644498489
 31
0.0
  0
LINE
  5
59
330
2
100
AcDbEntity
  8
外枠
  6
Continuous
 48
100.0
370
     9
100
AcDbLine
 10
1694.408913765557
 20
103.183012378663
 30
0.0
 11
1698.722727128541
 21
99.73196168827508
 31
0.0
  0
LINE
  5
5A
330
2
100
AcDbEntity
  8
外枠
  6
Continuous
 48
100.0
370
     9
100
AcDbLine
 10
1703.036540491541
 20
103.183012378663
 30
0.0
 11
1698.722727128541
 21
99.73196168827508
 31
0.0
  0
LINE
  5
5B
330
2
100
AcDbEntity
  8
外枠
  6
Continuous
 48
100.0
370
     9
100
AcDbLine
 10
1698.722727128541
 20
113.5361644498489
 30
0.0
 11
1694.408913765557
 21
110.08511375945
 31
0.0
  0
LINE
  5
5C
330
2
100
AcDbEntity
  8
外枠
  6
Continuous
 48
100.0
370
     9
100
AcDbLine
 10
1698.722727128541
 20
106.634063069062
 30
0.0
 11
1703.036540491541
 21
103.183012378663
 31
0.0
  0
LINE
  5
5D
330
2
100
AcDbEntity
  8
外枠
  6
Continuous
 48
100.0
370
     9
100
AcDbLine
 10
1698.722727128541
 20
113.5361644498489
 30
0.0
 11
1703.036540491541
 21
110.08511375945
 31
0.0
  0
LINE
  5
5E
330
2
100
AcDbEntity
  8
外枠
  6
Continuous
 48
100.0
370
     9
100
AcDbLine
 10
1703.036540491541
 20
110.08511375945
 30
0.0
 11
1698.722727128541
 21
106.634063069062
 31
0.0
  0
LINE
  5
5F
330
2
100
AcDbEntity
  8
外枠
  6
Continuous
 48
100.0
370
     9
100
AcDbLine
 10
1653.436456870031
 20
142.8630792758676
 30
0.0
 11
1649.122643507042
 21
139.4120285854742
 31
0.0
  0
LINE
  5
60
330
2
100
AcDbEntity
  8
外枠
  6
Continuous
 48
100.0
370
     9
100
AcDbLine
 10
1662.06408359602
 20
142.8630792758676
 30
0.0
 11
1666.377896959009
 21
139.4120285854742
 31
0.0
  0
LINE
  5
61
330
2
100
AcDbEntity
  8
外枠
  6
Continuous
 48
100.0
370
     9
100
AcDbLine
 10
1653.436456870031
 20
142.8630792758676
 30
0.0
 11
1657.750270233026
 21
139.4120285854742
 31
0.0
  0
LINE
  5
62
330
2
100
AcDbEntity
  8
外枠
  6
Continuous
 48
100.0
370
     9
100
AcDbLine
 10
1662.06408359602
 20
142.8630792758676
 30
0.0
 11
1657.750270233026
 21
139.4120285854742
 31
0.0
  0
MTEXT
  5
63
330
2
100
AcDbEntity
  8
外枠
  6
Continuous
 48
100.0
370
     9
100
AcDbMText
 10
1982.246612759803
 20
141.5312822365363
 30
0.0
 40
50.0
 41
269.1378
 71
     1
 72
     5
  1
宝 機 材
 73
     1
 44
1.0
1001
ACAD
1000
MTEXTBEGIN
1070
    73
1070
     1
1070
    44
1040
1.0
1070
    74
1070
     0
1000
MTEXTEND
  0
INSERT
  5
64
330
2
100
AcDbEntity
  8
0
100
AcDbBlockReference
  2
GIB詳細
 10
2565.418449883758
 20
297.722523113778
 30
0.0
  0
LINE
  5
AC
330
2
100
AcDbEntity
  8
外枠
  6
Continuous
 48
100.0
370
     9
100
AcDbLine
 10
2694.775480668144
 20
78.59726492113622
 30
0.0
 11
2729.639779322774
 21
43.73296626650699
 31
0.0
  0
LINE
  5
AD
330
2
100
AcDbEntity
  8
外枠
  6
Continuous
 48
100.0
370
     9
100
AcDbLine
 10
2729.639779322774
 20
113.4615635757691
 30
0.0
 11
2694.775480668144
 21
78.59726492113622
 31
0.0
  0
LINE
  5
AF
330
2
100
AcDbEntity
  8
外枠
  6
Continuous
 48
100.0
370
     9
100
AcDbLine
 10
2271.730765417811
 20
155.3992728207995
 30
0.0
 11
2271.730765417811
 21
10.0
 31
0.0
  0
LINE
  5
B0
330
2
100
AcDbEntity
  8
外枠
  6
Continuous
 48
100.0
370
     9
100
AcDbLine
 10
2387.385592047314
 20
155.3992728207995
 30
0.0
 11
2387.385592047314
 21
9.999999999996362
 31
0.0
  0
MTEXT
  5
B1
330
2
100
AcDbEntity
  8
外枠
  6
Continuous
 48
100.0
370
     9
100
AcDbMText
 10
2518.897970034654
 20
80.52451510381798
 30
0.0
 40
16.435188
 41
274.138099993296
 71
     1
 72
     5
  1
縮尺（A4用紙)
 73
     1
 44
1.0
1001
ACAD
1000
MTEXTBEGIN
1070
    73
1070
     1
1070
    44
1040
1.0
1070
    74
1070
     0
1000
MTEXTEND
  0
LINE
  5
B2
330
2
100
AcDbEntity
  8
外枠
  6
Continuous
 48
100.0
370
     9
100
AcDbLine
 10
2503.04041867681
 20
155.3992728207995
 30
0.0
 11
2503.04041867681
 21
9.999999999996362
 31
0.0
  0
LINE
  5
B3
330
2
100
AcDbEntity
  8
外枠
  6
Continuous
 48
100.0
370
     9
100
AcDbLine
 10
2676.662359028593
 20
155.3992728207995
 30
0.0
 11
2676.662359028593
 21
10.0
 31
0.0
  0
MTEXT
  5
B4
330
2
100
AcDbEntity
  8
外枠
  6
Continuous
 48
100.0
370
     9
100
AcDbMText
 10
2557.587330290393
 20
42.24161905183791
 30
0.0
 40
23.47884
 41
274.138099993296
 71
     1
 72
     5
  1
1：10
 73
     1
 44
1.0
1001
ACAD
1000
MTEXTBEGIN
1070
    73
1070
     1
1070
    44
1040
1.0
1070
    74
1070
     0
1000
MTEXTEND
  0
MTEXT
  5
B5
330
2
100
AcDbEntity
  8
外枠
  6
Continuous
 48
100.0
370
     9
100
AcDbMText
 10
2280.290404386422
 20
149.5129012429788
 30
0.0
 40
18.783072
 41
274.13809060176
 71
     1
 72
     5
  1
Check
 73
     1
 44
1.0
1001
ACAD
1000
MTEXTBEGIN
1070
    73
1070
     1
1070
    44
1040
1.0
1070
    74
1070
     0
1000
MTEXTEND
  0
MTEXT
  5
B6
330
2
100
AcDbEntity
  8
外枠
  6
Continuous
 48
100.0
370
     9
100
AcDbMText
 10
2398.03460165154
 20
149.5129012429788
 30
0.0
 40
18.783072
 41
274.13809060176
 71
     1
 72
     5
  1
Draw
 73
     1
 44
1.0
1001
ACAD
1000
MTEXTBEGIN
1070
    73
1070
     1
1070
    44
1040
1.0
1070
    74
1070
     0
1000
MTEXTEND
  0
LINE
  5
B8
330
2
100
AcDbEntity
  8
外枠
  6
Continuous
 48
100.0
370
     9
100
AcDbLine
 10
2676.662359028593
 20
85.04752041039683
 30
0.0
 11
2503.04041867681
 21
85.04752041039683
 31
0.0
  0
MTEXT
  5
B9
330
2
100
AcDbEntity
  8
外枠
  6
Continuous
 48
100.0
370
     9
100
AcDbMText
 10
2518.897970034654
 20
153.7304166203976
 30
0.0
 40
16.435188
 41
274.138099993296
 71
     1
 72
     5
  1
図面作成日
 73
     1
 44
1.0
1001
ACAD
1000
MTEXTBEGIN
1070
    73
1070
     1
1070
    44
1040
1.0
1070
    74
1070
     0
1000
MTEXTEND
  0
LINE
  5
BB
330
2
100
AcDbEntity
  8
外枠
  6
Continuous
 48
100.0
370
     9
100
AcDbLine
 10
2729.639779322774
 20
43.73296626650699
 30
0.0
 11
2764.504077977396
 21
78.59726492113622
 31
0.0
  0
LINE
  5
BC
330
2
100
AcDbEntity
  8
外枠
  6
Continuous
 48
100.0
370
     9
100
AcDbLine
 10
2764.504077977396
 20
78.59726492113622
 30
0.0
 11
2729.639779322774
 21
113.4615635757691
 31
0.0
  0
LINE
  5
BE
330
2
100
AcDbEntity
  8
本体
  6
Continuous
100
AcDbLine
 10
428.0451284152368
 20
1561.428240482563
 30
0.0
 11
1035.045128415237
 21
1561.428240482563
 31
0.0
  0
LINE
  5
BF
330
2
100
AcDbEntity
  8
本体
  6
Continuous
100
AcDbLine
 10
428.0451284152368
 20
1555.428240482563
 30
0.0
 11
1035.045128415237
 21
1555.428240482563
 31
0.0
  0
LINE
  5
C3
330
2
100
AcDbEntity
  8
本体
  6
Continuous
100
AcDbLine
 10
428.0451284152368
 20
1598.928240482563
 30
0.0
 11
428.0451284152368
 21
1561.428240482563
 31
0.0
  0
LINE
  5
C4
330
2
100
AcDbEntity
  8
本体
  6
Continuous
100
AcDbLine
 10
428.0451284152368
 20
1603.428240482563
 30
0.0
 11
428.0451284152368
 21
1113.428240482563
 31
0.0
  0
LINE
  5
C5
330
2
100
AcDbEntity
  8
本体
  6
Continuous
100
AcDbLine
 10
428.0451284152368
 20
1555.428240482563
 30
0.0
 11
428.0451284152368
 21
1511.428240482563
 31
0.0
  0
LINE
  5
C7
330
2
100
AcDbEntity
  8
本体
  6
Continuous
100
AcDbLine
 10
435.0451284152368
 20
1598.928240482563
 30
0.0
 11
435.0451284152368
 21
1561.428240482563
 31
0.0
  0
LINE
  5
C8
330
2
100
AcDbEntity
  8
本体
  6
Continuous
100
AcDbLine
 10
435.0451284152368
 20
1555.428240482563
 30
0.0
 11
435.0451284152368
 21
1511.428240482563
 31
0.0
  0
LINE
  5
109
330
2
100
AcDbEntity
  8
本体
  6
Continuous
100
AcDbLine
 10
1035.045128415237
 20
1598.928240482563
 30
0.0
 11
1035.045128415237
 21
1561.428240482563
 31
0.0
  0
LINE
  5
10A
330
2
100
AcDbEntity
  8
本体
  6
Continuous
100
AcDbLine
 10
1028.045128415237
 20
1598.928240482563
 30
0.0
 11
1028.045128415237
 21
1561.428240482563
 31
0.0
  0
LINE
  5
10B
330
2
100
AcDbEntity
  8
本体
  6
Continuous
100
AcDbLine
 10
1035.045128415237
 20
1555.428240482563
 30
0.0
 11
1035.045128415237
 21
1511.428240482563
 31
0.0
  0
LINE
  5
10C
330
2
100
AcDbEntity
  8
本体
  6
Continuous
100
AcDbLine
 10
1028.045128415237
 20
1555.428240482563
 30
0.0
 11
1028.045128415237
 21
1511.428240482563
 31
0.0
  0
LINE
  5
15B
330
2
100
AcDbEntity
  8
本体
  6
Continuous
100
AcDbLine
 10
1028.045128415237
 20
1117.928240482563
 30
0.0
 11
1028.045128415237
 21
1155.428240482563
 31
0.0
  0
LINE
  5
15C
330
2
100
AcDbEntity
  8
本体
  6
Continuous
100
AcDbLine
 10
1035.045128415237
 20
1117.928240482563
 30
0.0
 11
1035.045128415237
 21
1155.428240482563
 31
0.0
  0
LINE
  5
15E
330
2
100
AcDbEntity
  8
本体
  6
Continuous
100
AcDbLine
 10
435.0451284152368
 20
1117.928240482563
 30
0.0
 11
435.0451284152368
 21
1155.428240482563
 31
0.0
  0
LINE
  5
160
330
2
100
AcDbEntity
  8
本体
  6
Continuous
100
AcDbLine
 10
428.0451284152368
 20
1117.928240482563
 30
0.0
 11
428.0451284152368
 21
1155.428240482563
 31
0.0
  0
LINE
  5
1B0
330
2
100
AcDbEntity
  8
本体
  6
Continuous
100
AcDbLine
 10
999.845128415237
 20
661.3441617594153
 30
0.0
 11
1028.045128415237
 21
669.3158932081785
 31
0.0
  0
LINE
  5
1B1
330
2
100
AcDbEntity
  8
本体
  6
Continuous
100
AcDbLine
 10
999.845128415237
 20
661.3441617594153
 30
0.0
 11
1028.045128415237
 21
661.3441617594153
 31
0.0
  0
LINE
  5
1B2
330
2
100
AcDbEntity
  8
本体
  6
Continuous
100
AcDbLine
 10
999.845128415237
 20
669.3441617594153
 30
0.0
 11
1028.145128415237
 21
669.3441617594153
 31
0.0
  0
LINE
  5
1B3
330
2
100
AcDbEntity
  8
嵩上断面
  6
Continuous
100
AcDbLine
 10
431.5451284152368
 20
569.3441617594153
 30
0.0
 11
431.5451284152368
 21
614.3441617594153
 31
0.0
  0
LINE
  5
1B4
330
2
100
AcDbEntity
  8
嵩上断面
  6
Continuous
100
AcDbLine
 10
431.5451284152368
 20
614.3441617594153
 30
0.0
 11
1035.045128415237
 21
614.3441617594153
 31
0.0
  0
LINE
  5
1B5
330
2
100
AcDbEntity
  8
嵩上断面
  6
HIDDEN
 48
3.0
100
AcDbLine
 10
431.5451284152368
 20
612.044161759415
 30
0.0
 11
1031.545128415237
 21
612.044161759415
 31
0.0
  0
LINE
  5
1B7
330
2
100
AcDbEntity
  8
嵩上断面
  6
HIDDEN
 48
3.0
100
AcDbLine
 10
431.5451284152368
 20
571.6441617594151
 30
0.0
 11
1031.545128415237
 21
571.6441617594151
 31
0.0
  0
LINE
  5
1B8
330
2
100
AcDbEntity
  8
本体
  6
Continuous
100
AcDbLine
 10
1866.975082972856
 20
1603.428240482563
 30
0.0
 11
1866.975082972856
 21
1113.428240482563
 31
0.0
  0
LINE
  5
1B9
330
2
100
AcDbEntity
  8
本体
  6
Continuous
100
AcDbLine
 10
1874.975082972855
 20
1598.928240482563
 30
0.0
 11
1874.975082972855
 21
1117.928240482563
 31
0.0
  0
LINE
  5
1BA
330
2
100
AcDbEntity
  8
本体
  6
Continuous
100
AcDbLine
 10
1921.975082972855
 20
1598.928240482563
 30
0.0
 11
1921.975082972855
 21
1117.928240482563
 31
0.0
  0
LINE
  5
1BB
330
2
100
AcDbEntity
  8
本体
  6
Continuous
100
AcDbLine
 10
1913.975082972855
 20
1598.928240482563
 30
0.0
 11
1913.975082972855
 21
1117.928240482563
 31
0.0
  0
LINE
  5
1BC
330
2
100
AcDbEntity
  8
本体
  6
Continuous
100
AcDbLine
 10
1866.975082972856
 20
1603.428240482563
 30
0.0
 11
1904.975082972856
 21
1603.428240482563
 31
0.0
  0
LINE
  5
1BD
330
2
100
AcDbEntity
  8
本体
  6
Continuous
100
AcDbLine
 10
1866.975082972856
 20
1598.928240482563
 30
0.0
 11
1921.975082972855
 21
1598.928240482563
 31
0.0
  0
LINE
  5
1BE
330
2
100
AcDbEntity
  8
本体
  6
Continuous
100
AcDbLine
 10
1866.975082972856
 20
1117.928240482563
 30
0.0
 11
1921.975082972855
 21
1117.928240482563
 31
0.0
  0
LINE
  5
1BF
330
2
100
AcDbEntity
  8
本体
  6
Continuous
100
AcDbLine
 10
1866.975082972856
 20
1113.428240482563
 30
0.0
 11
1904.975082972856
 21
1113.428240482563
 31
0.0
  0
INSERT
  5
1C0
330
2
100
AcDbEntity
  8
本体
  6
Continuous
100
AcDbBlockReference
  2
TB8
 10
1866.975082972856
 20
1558.428240482563
 30
0.0
  0
INSERT
  5
1C9
330
2
100
AcDbEntity
  8
本体
  6
Continuous
100
AcDbBlockReference
  2
TB8
 10
1866.975082972856
 20
1458.428240482563
 30
0.0
  0
INSERT
  5
1CA
330
2
100
AcDbEntity
  8
本体
  6
Continuous
100
AcDbBlockReference
  2
TB8
 10
1866.975082972856
 20
1358.428240482563
 30
0.0
  0
INSERT
  5
1CB
330
2
100
AcDbEntity
  8
本体
  6
Continuous
100
AcDbBlockReference
  2
TB8
 10
1866.975082972856
 20
1158.428240482563
 30
0.0
  0
LINE
  5
1CC
330
2
100
AcDbEntity
  8
本体
  6
Continuous
100
AcDbLine
 10
428.0451284152368
 20
1603.428240482563
 30
0.0
 11
1035.045128415237
 21
1603.428240482563
 31
0.0
  0
LINE
  5
1CD
330
2
100
AcDbEntity
  8
本体
  6
Continuous
100
AcDbLine
 10
428.0451284152368
 20
1598.928240482563
 30
0.0
 11
1035.045128415237
 21
1598.928240482563
 31
0.0
  0
LINE
  5
1CE
330
2
100
AcDbEntity
  8
本体
  6
Continuous
100
AcDbLine
 10
428.0451284152368
 20
1113.428240482563
 30
0.0
 11
1035.045128415237
 21
1113.428240482563
 31
0.0
  0
LINE
  5
1CF
330
2
100
AcDbEntity
  8
本体
  6
Continuous
100
AcDbLine
 10
428.0451284152368
 20
1117.928240482563
 30
0.0
 11
1035.045128415237
 21
1117.928240482563
 31
0.0
  0
LINE
  5
1E9
330
2
100
AcDbEntity
  8
本体
100
AcDbLine
 10
428.0451284152368
 20
669.3441617594153
 30
0.0
 11
435.0451284152368
 21
669.3441617594153
 31
0.0
  0
LINE
  5
1EA
330
2
100
AcDbEntity
  8
本体
100
AcDbLine
 10
428.0451284152368
 20
669.3441617594153
 30
0.0
 11
428.0451284152368
 21
659.3441617594153
 31
0.0
  0
LINE
  5
1EB
330
2
100
AcDbEntity
  8
本体
100
AcDbLine
 10
428.0451284152368
 20
659.3441617594153
 30
0.0
 11
429.5451284152368
 21
658.3441617594153
 31
0.0
  0
LINE
  5
1EC
330
2
100
AcDbEntity
  8
本体
100
AcDbLine
 10
435.0451284152368
 20
669.3441617594153
 30
0.0
 11
435.0451284152368
 21
659.3441617594153
 31
0.0
  0
LINE
  5
1ED
330
2
100
AcDbEntity
  8
本体
100
AcDbLine
 10
435.0451284152368
 20
659.3441617594153
 30
0.0
 11
433.5451284152368
 21
658.3441617594153
 31
0.0
  0
LINE
  5
1EE
330
2
100
AcDbEntity
  8
本体
100
AcDbLine
 10
428.0451284152368
 20
614.3441617594153
 30
0.0
 11
435.0451284152368
 21
614.3441617594153
 31
0.0
  0
LINE
  5
1EF
330
2
100
AcDbEntity
  8
本体
100
AcDbLine
 10
428.0451284152368
 20
614.3441617594153
 30
0.0
 11
428.0451284152368
 21
624.3441617594153
 31
0.0
  0
LINE
  5
1F0
330
2
100
AcDbEntity
  8
本体
100
AcDbLine
 10
428.0451284152368
 20
624.3441617594153
 30
0.0
 11
429.5451284152368
 21
625.3441617594153
 31
0.0
  0
LINE
  5
1F1
330
2
100
AcDbEntity
  8
本体
100
AcDbLine
 10
435.0451284152368
 20
614.3441617594153
 30
0.0
 11
435.0451284152368
 21
624.3441617594153
 31
0.0
  0
LINE
  5
1F2
330
2
100
AcDbEntity
  8
本体
100
AcDbLine
 10
435.0451284152368
 20
624.3441617594153
 30
0.0
 11
433.5451284152368
 21
625.3441617594153
 31
0.0
  0
LINE
  5
1F3
330
2
100
AcDbEntity
  8
本体
100
AcDbLine
 10
429.5451284152368
 20
658.3441617594153
 30
0.0
 11
429.5451284152368
 21
625.3441617594153
 31
0.0
  0
LINE
  5
1F4
330
2
100
AcDbEntity
  8
本体
100
AcDbLine
 10
433.5451284152368
 20
658.3441617594153
 30
0.0
 11
433.5451284152368
 21
625.3441617594153
 31
0.0
  0
LEADER
  5
1F5
330
2
100
AcDbEntity
  8
寸法線
  6
Continuous
100
AcDbLeader
  3
ISO-25
 73
     0
 74
     0
 75
     1
 40
30.0
 41
171.472081218274
 76
     3
 10
1033.290238282874
 20
1603.428240482563
 30
0.0
 10
1089.000916401529
 20
1674.138918601218
 30
0.0
 10
1104.000916401529
 20
1674.138918601218
 30
0.0
340
1F6
1001
ACAD
1000
DSTYLE
1002
{
1070
     5
1000
OPEN30
1070
    77
1070
     1
1070
   147
1040
0.5
1070
   342
1005
1D2
1002
}
  0
MTEXT
  5
1F6
102
{ACAD_REACTORS
330
1F5
102
}
330
2
100
AcDbEntity
  8
寸法線
  6
Continuous
100
AcDbMText
 10
1109.000916401529
 20
1679.138918601218
 30
0.0
 40
30.0
 41
0.0
 71
     7
 72
     1
  1
FB4.5\U+00D738
 73
     1
 44
1.0
1001
ACAD
1000
MTEXTBEGIN
1070
    73
1070
     1
1070
    44
1040
1.0
1070
    74
1070
     0
1000
MTEXTEND
  0
LEADER
  5
21B
330
2
100
AcDbEntity
  8
寸法線
  6
Continuous
100
AcDbLeader
  3
ISO-25
 73
     0
 74
     0
 75
     1
 40
30.0
 41
230.2538071065989
 76
     3
 10
1941.975079972855
 20
1593.428241482563
 30
0.0
 10
2002.68575809151
 20
1669.138919601218
 30
0.0
 10
2017.685758091511
 20
1669.138919601218
 30
0.0
340
21C
1001
ACAD
1000
DSTYLE
1002
{
1070
     5
1000
OPEN30
1070
    77
1070
     1
1070
   147
1040
0.5
1070
   342
1005
1D2
1002
}
  0
MTEXT
  5
21C
102
{ACAD_REACTORS
330
21B
102
}
330
2
100
AcDbEntity
  8
寸法線
  6
Continuous
100
AcDbMText
 10
2022.68575809151
 20
1674.138919601218
 30
0.0
 40
30.0
 41
0.0
 71
     7
 72
     1
  1
P2.3\U+00D745\U+00D740
 73
     1
 44
1.0
1001
ACAD
1000
MTEXTBEGIN
1070
    73
1070
     1
1070
    44
1040
1.0
1070
    74
1070
     0
1000
MTEXTEND
  0
LINE
  5
260
330
2
100
AcDbEntity
  8
本体
  6
Continuous
100
AcDbLine
 10
992.8451284152369
 20
1555.428240482563
 30
0.0
 11
1028.145128415237
 21
1561.428240482563
 31
0.0
  0
LINE
  5
264
330
2
100
AcDbEntity
  8
本体
  6
Continuous
100
AcDbLine
 10
1028.145128415237
 20
1555.428240482563
 30
0.0
 11
1035.045128415237
 21
1556.601045015141
 31
0.0
  0
INSERT
  5
29E
330
2
100
AcDbEntity
  8
本体
  6
Continuous
100
AcDbBlockReference
  2
TB8
 10
1866.975082972856
 20
1258.428240482563
 30
0.0
  0
DIMENSION
  5
2BF
330
2
100
AcDbEntity
  8
寸法線
  6
Continuous
100
AcDbDimension
  2
*D4
 10
2069.365643054704
 20
1123.428238482563
 30
0.0
 11
2049.365643054704
 21
1358.428240482563
 31
0.0
 70
    32
 71
     5
 42
-1.0
  3
ISO-25
100
AcDbAlignedDimension
 13
1964.475079972855
 23
1593.428242482563
 33
0.0
 14
1964.475079972855
 24
1123.428238482563
 34
0.0
 50
90.0
100
AcDbRotatedDimension
  0
DIMENSION
  5
2CC
330
2
100
AcDbEntity
  8
寸法線
  6
Continuous
100
AcDbDimension
  2
*D5
 10
1667.001420123498
 20
1113.428240482563
 30
0.0
 11
1647.001420123498
 21
1358.428240482563
 31
0.0
 70
    32
 71
     5
 42
-1.0
  3
ISO-25
100
AcDbAlignedDimension
 13
1866.975082972856
 23
1603.428240482563
 33
0.0
 14
1866.975082972856
 24
1113.428240482563
 34
0.0
 50
90.0
100
AcDbRotatedDimension
  0
LINE
  5
399
330
2
100
AcDbEntity
  8
本体
100
AcDbLine
 10
1028.045128415237
 20
669.3441617594153
 30
0.0
 11
1035.045128415237
 21
669.3441617594153
 31
0.0
  0
LINE
  5
39A
330
2
100
AcDbEntity
  8
本体
100
AcDbLine
 10
1028.045128415237
 20
669.3441617594153
 30
0.0
 11
1028.045128415237
 21
659.3441617594153
 31
0.0
  0
LINE
  5
39B
330
2
100
AcDbEntity
  8
本体
100
AcDbLine
 10
1028.045128415237
 20
659.3441617594153
 30
0.0
 11
1029.545128415237
 21
658.3441617594153
 31
0.0
  0
LINE
  5
39C
330
2
100
AcDbEntity
  8
本体
100
AcDbLine
 10
1035.045128415237
 20
669.3441617594153
 30
0.0
 11
1035.045128415237
 21
659.3441617594153
 31
0.0
  0
LINE
  5
39D
330
2
100
AcDbEntity
  8
本体
100
AcDbLine
 10
1035.045128415237
 20
659.3441617594153
 30
0.0
 11
1033.545128415237
 21
658.3441617594153
 31
0.0
  0
LINE
  5
39E
330
2
100
AcDbEntity
  8
本体
100
AcDbLine
 10
1028.045128415237
 20
614.3441617594153
 30
0.0
 11
1035.045128415237
 21
614.3441617594153
 31
0.0
  0
LINE
  5
39F
330
2
100
AcDbEntity
  8
本体
100
AcDbLine
 10
1028.045128415237
 20
614.3441617594153
 30
0.0
 11
1028.045128415237
 21
624.3441617594153
 31
0.0
  0
LINE
  5
3A0
330
2
100
AcDbEntity
  8
本体
100
AcDbLine
 10
1028.045128415237
 20
624.3441617594153
 30
0.0
 11
1029.545128415237
 21
625.3441617594153
 31
0.0
  0
LINE
  5
3A1
330
2
100
AcDbEntity
  8
本体
100
AcDbLine
 10
1035.045128415237
 20
614.3441617594153
 30
0.0
 11
1035.045128415237
 21
624.3441617594153
 31
0.0
  0
LINE
  5
3A2
330
2
100
AcDbEntity
  8
本体
100
AcDbLine
 10
1035.045128415237
 20
624.3441617594153
 30
0.0
 11
1033.545128415237
 21
625.3441617594153
 31
0.0
  0
LINE
  5
3A3
330
2
100
AcDbEntity
  8
本体
100
AcDbLine
 10
1029.545128415237
 20
658.3441617594153
 30
0.0
 11
1029.545128415237
 21
625.3441617594153
 31
0.0
  0
LINE
  5
3A4
330
2
100
AcDbEntity
  8
本体
100
AcDbLine
 10
1033.545128415237
 20
658.3441617594153
 30
0.0
 11
1033.545128415237
 21
625.3441617594153
 31
0.0
  0
LINE
  5
3A5
330
2
100
AcDbEntity
  8
本体
  6
Continuous
100
AcDbLine
 10
1904.975082972856
 20
1603.428240482563
 30
0.0
 11
1904.975082972856
 21
1598.928240482563
 31
0.0
  0
LINE
  5
3A6
330
2
100
AcDbEntity
  8
本体
  6
Continuous
100
AcDbLine
 10
1904.975082972856
 20
1117.928240482563
 30
0.0
 11
1904.975082972856
 21
1113.428240482563
 31
0.0
  0
LINE
  5
3B8
330
2
100
AcDbEntity
  8
エンボス
  6
Continuous
100
AcDbLine
 10
435.0451284152368
 20
1596.292334482563
 30
0.0
 11
428.0451284152368
 21
1594.292334482563
 31
0.0
  0
LINE
  5
3B9
330
2
100
AcDbEntity
  8
エンボス
  6
Continuous
100
AcDbLine
 10
428.0451284152368
 20
1585.292334482563
 30
0.0
 11
435.0451284152368
 21
1587.292334482563
 31
0.0
  0
LINE
  5
3BA
330
2
100
AcDbEntity
  8
エンボス
  6
Continuous
100
AcDbLine
 10
435.0451284152368
 20
1580.292334482563
 30
0.0
 11
428.0451284152368
 21
1582.292334482563
 31
0.0
  0
LINE
  5
3BB
330
2
100
AcDbEntity
  8
エンボス
  6
Continuous
100
AcDbLine
 10
435.0451284152368
 20
1568.292334482563
 30
0.0
 11
428.0451284152368
 21
1566.292334482563
 31
0.0
  0
LINE
  5
3BC
330
2
100
AcDbEntity
  8
エンボス
  6
Continuous
100
AcDbLine
 10
428.0451284152368
 20
1573.292334482563
 30
0.0
 11
435.0451284152368
 21
1571.292334482563
 31
0.0
  0
LINE
  5
3BD
330
2
100
AcDbEntity
  8
エンボス
  6
Continuous
100
AcDbLine
 10
435.0451284152368
 20
1547.928240482563
 30
0.0
 11
428.0451284152368
 21
1545.928240482563
 31
0.0
  0
LINE
  5
3BE
330
2
100
AcDbEntity
  8
エンボス
  6
Continuous
100
AcDbLine
 10
428.0451284152368
 20
1542.928240482563
 30
0.0
 11
435.0451284152368
 21
1540.928240482563
 31
0.0
  0
LINE
  5
3BF
330
2
100
AcDbEntity
  8
エンボス
  6
Continuous
100
AcDbLine
 10
428.0451284152368
 20
1533.928240482563
 30
0.0
 11
435.0451284152368
 21
1531.928240482563
 31
0.0
  0
LINE
  5
3C0
330
2
100
AcDbEntity
  8
エンボス
  6
Continuous
100
AcDbLine
 10
435.0451284152368
 20
1528.928240482563
 30
0.0
 11
428.0451284152368
 21
1526.928240482563
 31
0.0
  0
LINE
  5
3C1
330
2
100
AcDbEntity
  8
エンボス
  6
Continuous
100
AcDbLine
 10
435.0451284152368
 20
1519.928240482563
 30
0.0
 11
428.0451284152368
 21
1517.928240482563
 31
0.0
  0
LINE
  5
3C2
330
2
100
AcDbEntity
  8
エンボス
  6
Continuous
100
AcDbLine
 10
428.0451284152368
 20
1514.928240482563
 30
0.0
 11
435.0451284152368
 21
1512.928240482563
 31
0.0
  0
LINE
  5
3E1
330
2
100
AcDbEntity
  8
エンボス
  6
Continuous
100
AcDbLine
 10
1028.045128415237
 20
1533.928240482563
 30
0.0
 11
1035.045128415237
 21
1531.928240482563
 31
0.0
  0
LINE
  5
3E8
330
2
100
AcDbEntity
  8
エンボス
  6
Continuous
100
AcDbLine
 10
1028.045128415237
 20
1514.928240482563
 30
0.0
 11
1035.045128415237
 21
1512.928240482563
 31
0.0
  0
LINE
  5
3E9
330
2
100
AcDbEntity
  8
エンボス
  6
Continuous
100
AcDbLine
 10
1035.045128415237
 20
1519.928240482563
 30
0.0
 11
1028.045128415237
 21
1517.928240482563
 31
0.0
  0
LINE
  5
3EA
330
2
100
AcDbEntity
  8
エンボス
  6
Continuous
100
AcDbLine
 10
1035.045128415237
 20
1528.928240482563
 30
0.0
 11
1028.045128415237
 21
1526.928240482563
 31
0.0
  0
LINE
  5
3EB
330
2
100
AcDbEntity
  8
エンボス
  6
Continuous
100
AcDbLine
 10
1028.045128415237
 20
1542.928240482563
 30
0.0
 11
1035.045128415237
 21
1540.928240482563
 31
0.0
  0
LINE
  5
3EC
330
2
100
AcDbEntity
  8
エンボス
  6
Continuous
100
AcDbLine
 10
1035.045128415237
 20
1547.928240482563
 30
0.0
 11
1028.045128415237
 21
1545.928240482563
 31
0.0
  0
LINE
  5
405
330
2
100
AcDbEntity
  8
エンボス
  6
Continuous
100
AcDbLine
 10
1035.045128415237
 20
1568.292334482563
 30
0.0
 11
1028.045128415237
 21
1566.292334482563
 31
0.0
  0
LINE
  5
406
330
2
100
AcDbEntity
  8
エンボス
  6
Continuous
100
AcDbLine
 10
1028.045128415237
 20
1573.292334482563
 30
0.0
 11
1035.045128415237
 21
1571.292334482563
 31
0.0
  0
LINE
  5
407
330
2
100
AcDbEntity
  8
エンボス
  6
Continuous
100
AcDbLine
 10
1035.045128415237
 20
1580.292334482563
 30
0.0
 11
1028.045128415237
 21
1582.292334482563
 31
0.0
  0
LINE
  5
408
330
2
100
AcDbEntity
  8
エンボス
  6
Continuous
100
AcDbLine
 10
1028.045128415237
 20
1585.292334482563
 30
0.0
 11
1035.045128415237
 21
1587.292334482563
 31
0.0
  0
LINE
  5
409
330
2
100
AcDbEntity
  8
エンボス
  6
Continuous
100
AcDbLine
 10
1035.045128415237
 20
1596.292334482563
 30
0.0
 11
1028.045128415237
 21
1594.292334482563
 31
0.0
  0
LINE
  5
422
330
2
100
AcDbEntity
  8
エンボス
  6
Continuous
100
AcDbLine
 10
435.0451284152368
 20
1148.564146482563
 30
0.0
 11
428.0451284152368
 21
1150.564146482563
 31
0.0
  0
LINE
  5
423
330
2
100
AcDbEntity
  8
エンボス
  6
Continuous
100
AcDbLine
 10
428.0451284152368
 20
1143.564146482563
 30
0.0
 11
435.0451284152368
 21
1145.564146482563
 31
0.0
  0
LINE
  5
424
330
2
100
AcDbEntity
  8
エンボス
  6
Continuous
100
AcDbLine
 10
435.0451284152368
 20
1136.564146482563
 30
0.0
 11
428.0451284152368
 21
1134.564146482563
 31
0.0
  0
LINE
  5
425
330
2
100
AcDbEntity
  8
エンボス
  6
Continuous
100
AcDbLine
 10
428.0451284152368
 20
1131.564146482563
 30
0.0
 11
435.0451284152368
 21
1129.564146482563
 31
0.0
  0
LINE
  5
426
330
2
100
AcDbEntity
  8
エンボス
  6
Continuous
100
AcDbLine
 10
435.0451284152368
 20
1120.564146482563
 30
0.0
 11
428.0451284152368
 21
1122.564146482563
 31
0.0
  0
LINE
  5
427
330
2
100
AcDbEntity
  8
エンボス
  6
Continuous
100
AcDbLine
 10
1035.045128415237
 20
1148.564146482563
 30
0.0
 11
1028.045128415237
 21
1150.564146482563
 31
0.0
  0
LINE
  5
428
330
2
100
AcDbEntity
  8
エンボス
  6
Continuous
100
AcDbLine
 10
1035.045128415237
 20
1120.564146482563
 30
0.0
 11
1028.045128415237
 21
1122.564146482563
 31
0.0
  0
LINE
  5
429
330
2
100
AcDbEntity
  8
エンボス
  6
Continuous
100
AcDbLine
 10
1028.045128415237
 20
1131.564146482563
 30
0.0
 11
1035.045128415237
 21
1129.564146482563
 31
0.0
  0
LINE
  5
42A
330
2
100
AcDbEntity
  8
エンボス
  6
Continuous
100
AcDbLine
 10
1035.045128415237
 20
1136.564146482563
 30
0.0
 11
1028.045128415237
 21
1134.564146482563
 31
0.0
  0
LINE
  5
42B
330
2
100
AcDbEntity
  8
エンボス
  6
Continuous
100
AcDbLine
 10
1028.045128415237
 20
1143.564146482563
 30
0.0
 11
1035.045128415237
 21
1145.564146482563
 31
0.0
  0
LINE
  5
42C
330
2
100
AcDbEntity
  8
嵩上断面
  6
Continuous
100
AcDbLine
 10
431.5451284152368
 20
569.3441617594153
 30
0.0
 11
1031.545128415237
 21
569.3441617594149
 31
0.0
  0
LINE
  5
42D
330
2
100
AcDbEntity
  8
本体
  6
Continuous
100
AcDbLine
 10
1035.045128415237
 20
614.3441617594153
 30
0.0
 11
1031.545128415237
 21
614.3441617594153
 31
0.0
  0
LINE
  5
42E
330
2
100
AcDbEntity
  8
嵩上断面
  6
Continuous
100
AcDbLine
 10
1031.545128415237
 20
614.3441617594153
 30
0.0
 11
1031.545128415237
 21
569.3441617594149
 31
0.0
  0
LINE
  5
42F
330
2
100
AcDbEntity
  8
本体
  6
Continuous
100
AcDbLine
 10
1035.045128415237
 20
1113.428240482563
 30
0.0
 11
1035.045128415237
 21
1603.428240482563
 31
0.0
  0
DIMENSION
  5
436
330
2
100
AcDbEntity
  8
寸法線
  6
Continuous
370
     9
100
AcDbDimension
  2
*D6
 10
1035.045128415237
 20
829.3441617594153
 30
0.0
 11
731.5451284152368
 21
829.3441617594153
 31
0.0
 70
   160
 71
     5
 42
607.0
  3
ISO-25
100
AcDbAlignedDimension
 13
428.0451284152368
 23
669.3441617594152
 33
0.0
 14
1035.045128415237
 24
669.3441617594152
 34
0.0
100
AcDbRotatedDimension
1001
ACAD
1000
DSTYLE
1002
{
1070
   279
1070
     0
1002
}
  0
DIMENSION
  5
443
330
2
100
AcDbEntity
  8
寸法線
  6
Continuous
100
AcDbDimension
  2
*D7
 10
855.1451284152372
 20
749.3441617594153
 30
0.0
 11
927.1502045573692
 21
769.3441617594153
 31
0.0
 70
    32
 71
     5
 42
35.30000000000018
  3
ISO-25
100
AcDbAlignedDimension
 13
819.8451284152369
 23
669.3441617594152
 33
0.0
 14
855.1451284152372
 24
669.3441617594152
 34
0.0
100
AcDbRotatedDimension
1001
ACAD
1000
DSTYLE
1002
{
1070
   279
1070
     0
1002
}
  0
DIMENSION
  5
458
330
2
100
AcDbEntity
  8
寸法線
  6
Continuous
100
AcDbDimension
  2
*D8
 10
1145.045128415237
 20
614.3441617594151
 30
0.0
 11
1125.045128415236
 21
641.8441617594153
 31
0.0
 70
    32
 71
     5
 42
55.0
  3
ISO-25
100
AcDbAlignedDimension
 13
1035.045128415237
 23
669.3441617594152
 33
0.0
 14
1035.045128415237
 24
614.3441617594151
 34
0.0
 50
90.0
100
AcDbRotatedDimension
  0
DIMENSION
  5
465
330
2
100
AcDbEntity
  8
寸法線
  6
Continuous
100
AcDbDimension
  2
*D9
 10
1225.045128415237
 20
569.3441617594149
 30
0.0
 11
1205.045128415237
 21
619.3441617594152
 31
0.0
 70
    32
 71
     5
 42
100.0000000000003
  3
ISO-25
100
AcDbAlignedDimension
 13
1035.045128415237
 23
669.3441617594152
 33
0.0
 14
1031.545128415237
 24
569.3441617594149
 34
0.0
 50
90.0
100
AcDbRotatedDimension
  0
LINE
  5
472
330
2
100
AcDbEntity
  8
寸法線
  6
Continuous
100
AcDbLine
 10
819.8451284152369
 20
677.3441617594153
 30
0.0
 11
819.8451284152369
 21
606.3441617594153
 31
0.0
  0
LINE
  5
473
330
2
100
AcDbEntity
  8
寸法線
  6
Continuous
100
AcDbLine
 10
855.1451284152372
 20
677.344161759415
 30
0.0
 11
855.1451284152372
 21
606.3441617594153
 31
0.0
  0
DIMENSION
  5
814
330
2
100
AcDbEntity
  8
寸法線
 48
3.0
100
AcDbDimension
  2
*D10
 10
1145.045128415237
 20
569.3441617594149
 30
0.0
 11
1125.045128415236
 21
516.6030450081459
 31
0.0
 70
    32
 71
     5
 42
45.00000000000045
  3
ISO-25
100
AcDbAlignedDimension
 13
1035.045128415237
 23
614.3441617594153
 33
0.0
 14
1031.545128415237
 24
569.3441617594149
 34
0.0
 50
90.0
100
AcDbRotatedDimension
  0
LINE
  5
84F
330
2
100
AcDbEntity
  8
嵩上平面
  6
HIDDEN
 48
3.0
370
     9
100
AcDbLine
 10
1032.545128415237
 20
1593.428242482563
 30
0.0
 11
430.5451284152367
 21
1593.428242482563
 31
0.0
  0
LINE
  5
852
330
2
100
AcDbEntity
  8
嵩上平面
  6
HIDDEN
 48
3.0
370
     9
100
AcDbLine
 10
1032.545128415237
 20
1123.428238482563
 30
0.0
 11
430.5451284152367
 21
1123.428238482563
 31
0.0
  0
LINE
  5
854
330
2
100
AcDbEntity
  8
嵩上平面
  6
HIDDEN
 48
3.0
370
     9
100
AcDbLine
 10
430.5451284152367
 20
1593.428242482563
 30
0.0
 11
430.5451284152367
 21
1553.428242482563
 31
0.0
  0
LINE
  5
855
330
2
100
AcDbEntity
  8
嵩上平面
  6
HIDDEN
 48
3.0
370
     9
100
AcDbLine
 10
1032.545128415237
 20
1593.428242482563
 30
0.0
 11
1032.545128415236
 21
1553.428242482563
 31
0.0
  0
LINE
  5
856
330
2
100
AcDbEntity
  8
嵩上平面
  6
HIDDEN
 48
3.0
370
     9
100
AcDbLine
 10
1032.545128415236
 20
1163.428238482563
 30
0.0
 11
1032.545128415237
 21
1123.428238482563
 31
0.0
  0
LINE
  5
857
330
2
100
AcDbEntity
  8
嵩上平面
  6
HIDDEN
 48
3.0
370
     9
100
AcDbLine
 10
430.5451284152367
 20
1163.428238482563
 30
0.0
 11
430.5451284152367
 21
1123.428238482563
 31
0.0
  0
INSERT
  5
86B
330
2
100
AcDbEntity
  8
本体
  6
Continuous
100
AcDbBlockReference
  2
TB8
 10
1866.975082972856
 20
1208.428240482563
 30
0.0
  0
INSERT
  5
86C
330
2
100
AcDbEntity
  8
本体
  6
Continuous
100
AcDbBlockReference
  2
TB8
 10
1866.975082972856
 20
1308.428240482563
 30
0.0
  0
INSERT
  5
86D
330
2
100
AcDbEntity
  8
本体
  6
Continuous
100
AcDbBlockReference
  2
TB8
 10
1866.975082972856
 20
1408.428240482563
 30
0.0
  0
INSERT
  5
86E
330
2
100
AcDbEntity
  8
本体
  6
Continuous
100
AcDbBlockReference
  2
TB8
 10
1866.975082972856
 20
1508.428240482563
 30
0.0
  0
DIMENSION
  5
86F
330
2
100
AcDbEntity
  8
寸法線
 48
3.0
100
AcDbDimension
  2
*D11
 10
1790.318442300555
 20
1508.428240482563
 30
0.0
 11
1770.318442300555
 21
1533.428240482563
 31
0.0
 70
    32
 71
     5
 42
-1.0
  3
ISO-25
100
AcDbAlignedDimension
 13
1864.975082972856
 23
1558.428240482563
 33
0.0
 14
1864.975082972856
 24
1508.428240482563
 34
0.0
 50
90.0
100
AcDbRotatedDimension
  0
LINE
  5
886
330
2
100
AcDbEntity
  8
本体
  6
Continuous
100
AcDbLine
 10
428.0451284152368
 20
1505.428240482563
 30
0.0
 11
1035.045128415237
 21
1505.428240482563
 31
0.0
  0
LINE
  5
887
330
2
100
AcDbEntity
  8
本体
  6
Continuous
100
AcDbLine
 10
428.0451284152368
 20
1511.428240482563
 30
0.0
 11
1035.045128415237
 21
1511.428240482563
 31
0.0
  0
LINE
  5
888
330
2
100
AcDbEntity
  8
本体
  6
Continuous
100
AcDbLine
 10
428.0451284152368
 20
1505.428240482563
 30
0.0
 11
428.0451284152368
 21
1461.428240482563
 31
0.0
  0
LINE
  5
889
330
2
100
AcDbEntity
  8
本体
  6
Continuous
100
AcDbLine
 10
435.0451284152368
 20
1505.428240482563
 30
0.0
 11
435.0451284152368
 21
1461.428240482563
 31
0.0
  0
LINE
  5
890
330
2
100
AcDbEntity
  8
エンボス
  6
Continuous
100
AcDbLine
 10
428.0451284152368
 20
1464.928240482563
 30
0.0
 11
435.0451284152368
 21
1462.928240482563
 31
0.0
  0
LINE
  5
891
330
2
100
AcDbEntity
  8
エンボス
  6
Continuous
100
AcDbLine
 10
435.0451284152368
 20
1469.928240482563
 30
0.0
 11
428.0451284152368
 21
1467.928240482563
 31
0.0
  0
LINE
  5
89A
330
2
100
AcDbEntity
  8
エンボス
  6
Continuous
100
AcDbLine
 10
435.0451284152368
 20
1478.928240482563
 30
0.0
 11
428.0451284152368
 21
1476.928240482563
 31
0.0
  0
LINE
  5
89B
330
2
100
AcDbEntity
  8
エンボス
  6
Continuous
100
AcDbLine
 10
428.0451284152368
 20
1483.928240482563
 30
0.0
 11
435.0451284152368
 21
1481.928240482563
 31
0.0
  0
LINE
  5
89C
330
2
100
AcDbEntity
  8
エンボス
  6
Continuous
100
AcDbLine
 10
428.0451284152368
 20
1492.928240482563
 30
0.0
 11
435.0451284152368
 21
1490.928240482563
 31
0.0
  0
LINE
  5
89D
330
2
100
AcDbEntity
  8
エンボス
  6
Continuous
100
AcDbLine
 10
435.0451284152368
 20
1497.928240482563
 30
0.0
 11
428.0451284152368
 21
1495.928240482563
 31
0.0
  0
LINE
  5
91A
330
2
100
AcDbEntity
  8
本体
  6
Continuous
100
AcDbLine
 10
1035.045128415237
 20
1505.428240482563
 30
0.0
 11
1035.045128415237
 21
1461.428240482563
 31
0.0
  0
LINE
  5
91B
330
2
100
AcDbEntity
  8
本体
  6
Continuous
100
AcDbLine
 10
1028.045128415237
 20
1505.428240482563
 30
0.0
 11
1028.045128415237
 21
1461.428240482563
 31
0.0
  0
LINE
  5
91E
330
2
100
AcDbEntity
  8
エンボス
  6
Continuous
100
AcDbLine
 10
1035.045128415237
 20
1469.928240482563
 30
0.0
 11
1028.045128415237
 21
1467.928240482563
 31
0.0
  0
LINE
  5
91F
330
2
100
AcDbEntity
  8
エンボス
  6
Continuous
100
AcDbLine
 10
1028.045128415237
 20
1464.928240482563
 30
0.0
 11
1035.045128415237
 21
1462.928240482563
 31
0.0
  0
LINE
  5
920
330
2
100
AcDbEntity
  8
本体
  6
Continuous
100
AcDbLine
 10
992.8451284152369
 20
1505.428240482563
 30
0.0
 11
1028.145128415237
 21
1511.428240482563
 31
0.0
  0
LINE
  5
926
330
2
100
AcDbEntity
  8
エンボス
  6
Continuous
100
AcDbLine
 10
1035.045128415237
 20
1497.928240482563
 30
0.0
 11
1028.045128415237
 21
1495.928240482563
 31
0.0
  0
LINE
  5
927
330
2
100
AcDbEntity
  8
エンボス
  6
Continuous
100
AcDbLine
 10
1028.045128415237
 20
1492.928240482563
 30
0.0
 11
1035.045128415237
 21
1490.928240482563
 31
0.0
  0
LINE
  5
928
330
2
100
AcDbEntity
  8
エンボス
  6
Continuous
100
AcDbLine
 10
1035.045128415237
 20
1478.928240482563
 30
0.0
 11
1028.045128415237
 21
1476.928240482563
 31
0.0
  0
LINE
  5
929
330
2
100
AcDbEntity
  8
エンボス
  6
Continuous
100
AcDbLine
 10
1028.045128415237
 20
1483.928240482563
 30
0.0
 11
1035.045128415237
 21
1481.928240482563
 31
0.0
  0
LINE
  5
92A
330
2
100
AcDbEntity
  8
本体
  6
Continuous
100
AcDbLine
 10
1028.145128415237
 20
1505.428240482563
 30
0.0
 11
1035.045128415237
 21
1506.601045015141
 31
0.0
  0
LINE
  5
92C
330
2
100
AcDbEntity
  8
本体
  6
Continuous
100
AcDbLine
 10
428.0451284152368
 20
1455.428240482563
 30
0.0
 11
1035.045128415237
 21
1455.428240482563
 31
0.0
  0
LINE
  5
92D
330
2
100
AcDbEntity
  8
本体
  6
Continuous
100
AcDbLine
 10
428.0451284152368
 20
1461.428240482563
 30
0.0
 11
1035.045128415237
 21
1461.428240482563
 31
0.0
  0
LINE
  5
92E
330
2
100
AcDbEntity
  8
本体
  6
Continuous
100
AcDbLine
 10
428.0451284152368
 20
1455.428240482563
 30
0.0
 11
428.0451284152368
 21
1411.428240482563
 31
0.0
  0
LINE
  5
92F
330
2
100
AcDbEntity
  8
本体
  6
Continuous
100
AcDbLine
 10
435.0451284152368
 20
1455.428240482563
 30
0.0
 11
435.0451284152368
 21
1411.428240482563
 31
0.0
  0
LINE
  5
936
330
2
100
AcDbEntity
  8
エンボス
  6
Continuous
100
AcDbLine
 10
428.0451284152368
 20
1414.928240482563
 30
0.0
 11
435.0451284152368
 21
1412.928240482563
 31
0.0
  0
LINE
  5
937
330
2
100
AcDbEntity
  8
エンボス
  6
Continuous
100
AcDbLine
 10
435.0451284152368
 20
1419.928240482563
 30
0.0
 11
428.0451284152368
 21
1417.928240482563
 31
0.0
  0
LINE
  5
940
330
2
100
AcDbEntity
  8
エンボス
  6
Continuous
100
AcDbLine
 10
435.0451284152368
 20
1428.928240482563
 30
0.0
 11
428.0451284152368
 21
1426.928240482563
 31
0.0
  0
LINE
  5
941
330
2
100
AcDbEntity
  8
エンボス
  6
Continuous
100
AcDbLine
 10
428.0451284152368
 20
1433.928240482563
 30
0.0
 11
435.0451284152368
 21
1431.928240482563
 31
0.0
  0
LINE
  5
942
330
2
100
AcDbEntity
  8
エンボス
  6
Continuous
100
AcDbLine
 10
428.0451284152368
 20
1442.928240482563
 30
0.0
 11
435.0451284152368
 21
1440.928240482563
 31
0.0
  0
LINE
  5
943
330
2
100
AcDbEntity
  8
エンボス
  6
Continuous
100
AcDbLine
 10
435.0451284152368
 20
1447.928240482563
 30
0.0
 11
428.0451284152368
 21
1445.928240482563
 31
0.0
  0
LINE
  5
9C0
330
2
100
AcDbEntity
  8
本体
  6
Continuous
100
AcDbLine
 10
1035.045128415237
 20
1455.428240482563
 30
0.0
 11
1035.045128415237
 21
1411.428240482563
 31
0.0
  0
LINE
  5
9C1
330
2
100
AcDbEntity
  8
本体
  6
Continuous
100
AcDbLine
 10
1028.045128415237
 20
1455.428240482563
 30
0.0
 11
1028.045128415237
 21
1411.428240482563
 31
0.0
  0
LINE
  5
9C4
330
2
100
AcDbEntity
  8
エンボス
  6
Continuous
100
AcDbLine
 10
1035.045128415237
 20
1419.928240482563
 30
0.0
 11
1028.045128415237
 21
1417.928240482563
 31
0.0
  0
LINE
  5
9C5
330
2
100
AcDbEntity
  8
エンボス
  6
Continuous
100
AcDbLine
 10
1028.045128415237
 20
1414.928240482563
 30
0.0
 11
1035.045128415237
 21
1412.928240482563
 31
0.0
  0
LINE
  5
9C6
330
2
100
AcDbEntity
  8
本体
  6
Continuous
100
AcDbLine
 10
992.8451284152369
 20
1455.428240482563
 30
0.0
 11
1028.145128415237
 21
1461.428240482563
 31
0.0
  0
LINE
  5
9CC
330
2
100
AcDbEntity
  8
エンボス
  6
Continuous
100
AcDbLine
 10
1035.045128415237
 20
1447.928240482563
 30
0.0
 11
1028.045128415237
 21
1445.928240482563
 31
0.0
  0
LINE
  5
9CD
330
2
100
AcDbEntity
  8
エンボス
  6
Continuous
100
AcDbLine
 10
1028.045128415237
 20
1442.928240482563
 30
0.0
 11
1035.045128415237
 21
1440.928240482563
 31
0.0
  0
LINE
  5
9CE
330
2
100
AcDbEntity
  8
エンボス
  6
Continuous
100
AcDbLine
 10
1035.045128415237
 20
1428.928240482563
 30
0.0
 11
1028.045128415237
 21
1426.928240482563
 31
0.0
  0
LINE
  5
9CF
330
2
100
AcDbEntity
  8
エンボス
  6
Continuous
100
AcDbLine
 10
1028.045128415237
 20
1433.928240482563
 30
0.0
 11
1035.045128415237
 21
1431.928240482563
 31
0.0
  0
LINE
  5
9D0
330
2
100
AcDbEntity
  8
本体
  6
Continuous
100
AcDbLine
 10
1028.145128415237
 20
1455.428240482563
 30
0.0
 11
1035.045128415237
 21
1456.601045015141
 31
0.0
  0
LINE
  5
9D2
330
2
100
AcDbEntity
  8
本体
  6
Continuous
100
AcDbLine
 10
428.0451284152368
 20
1405.428240482563
 30
0.0
 11
1035.045128415237
 21
1405.428240482563
 31
0.0
  0
LINE
  5
9D3
330
2
100
AcDbEntity
  8
本体
  6
Continuous
100
AcDbLine
 10
428.0451284152368
 20
1411.428240482563
 30
0.0
 11
1035.045128415237
 21
1411.428240482563
 31
0.0
  0
LINE
  5
9D4
330
2
100
AcDbEntity
  8
本体
  6
Continuous
100
AcDbLine
 10
428.0451284152368
 20
1405.428240482563
 30
0.0
 11
428.0451284152368
 21
1361.428240482563
 31
0.0
  0
LINE
  5
9D5
330
2
100
AcDbEntity
  8
本体
  6
Continuous
100
AcDbLine
 10
435.0451284152368
 20
1405.428240482563
 30
0.0
 11
435.0451284152368
 21
1361.428240482563
 31
0.0
  0
LINE
  5
9DC
330
2
100
AcDbEntity
  8
エンボス
  6
Continuous
100
AcDbLine
 10
428.0451284152368
 20
1364.928240482563
 30
0.0
 11
435.0451284152368
 21
1362.928240482563
 31
0.0
  0
LINE
  5
9DD
330
2
100
AcDbEntity
  8
エンボス
  6
Continuous
100
AcDbLine
 10
435.0451284152368
 20
1369.928240482563
 30
0.0
 11
428.0451284152368
 21
1367.928240482563
 31
0.0
  0
LINE
  5
9E6
330
2
100
AcDbEntity
  8
エンボス
  6
Continuous
100
AcDbLine
 10
435.0451284152368
 20
1378.928240482563
 30
0.0
 11
428.0451284152368
 21
1376.928240482563
 31
0.0
  0
LINE
  5
9E7
330
2
100
AcDbEntity
  8
エンボス
  6
Continuous
100
AcDbLine
 10
428.0451284152368
 20
1383.928240482563
 30
0.0
 11
435.0451284152368
 21
1381.928240482563
 31
0.0
  0
LINE
  5
9E8
330
2
100
AcDbEntity
  8
エンボス
  6
Continuous
100
AcDbLine
 10
428.0451284152368
 20
1392.928240482563
 30
0.0
 11
435.0451284152368
 21
1390.928240482563
 31
0.0
  0
LINE
  5
9E9
330
2
100
AcDbEntity
  8
エンボス
  6
Continuous
100
AcDbLine
 10
435.0451284152368
 20
1397.928240482563
 30
0.0
 11
428.0451284152368
 21
1395.928240482563
 31
0.0
  0
LINE
  5
A66
330
2
100
AcDbEntity
  8
本体
  6
Continuous
100
AcDbLine
 10
1035.045128415237
 20
1405.428240482563
 30
0.0
 11
1035.045128415237
 21
1361.428240482563
 31
0.0
  0
LINE
  5
A67
330
2
100
AcDbEntity
  8
本体
  6
Continuous
100
AcDbLine
 10
1028.045128415237
 20
1405.428240482563
 30
0.0
 11
1028.045128415237
 21
1361.428240482563
 31
0.0
  0
LINE
  5
A6A
330
2
100
AcDbEntity
  8
エンボス
  6
Continuous
100
AcDbLine
 10
1035.045128415237
 20
1369.928240482563
 30
0.0
 11
1028.045128415237
 21
1367.928240482563
 31
0.0
  0
LINE
  5
A6B
330
2
100
AcDbEntity
  8
エンボス
  6
Continuous
100
AcDbLine
 10
1028.045128415237
 20
1364.928240482563
 30
0.0
 11
1035.045128415237
 21
1362.928240482563
 31
0.0
  0
LINE
  5
A6C
330
2
100
AcDbEntity
  8
本体
  6
Continuous
100
AcDbLine
 10
992.8451284152369
 20
1405.428240482563
 30
0.0
 11
1028.145128415237
 21
1411.428240482563
 31
0.0
  0
LINE
  5
A72
330
2
100
AcDbEntity
  8
エンボス
  6
Continuous
100
AcDbLine
 10
1035.045128415237
 20
1397.928240482563
 30
0.0
 11
1028.045128415237
 21
1395.928240482563
 31
0.0
  0
LINE
  5
A73
330
2
100
AcDbEntity
  8
エンボス
  6
Continuous
100
AcDbLine
 10
1028.045128415237
 20
1392.928240482563
 30
0.0
 11
1035.045128415237
 21
1390.928240482563
 31
0.0
  0
LINE
  5
A74
330
2
100
AcDbEntity
  8
エンボス
  6
Continuous
100
AcDbLine
 10
1035.045128415237
 20
1378.928240482563
 30
0.0
 11
1028.045128415237
 21
1376.928240482563
 31
0.0
  0
LINE
  5
A75
330
2
100
AcDbEntity
  8
エンボス
  6
Continuous
100
AcDbLine
 10
1028.045128415237
 20
1383.928240482563
 30
0.0
 11
1035.045128415237
 21
1381.928240482563
 31
0.0
  0
LINE
  5
A76
330
2
100
AcDbEntity
  8
本体
  6
Continuous
100
AcDbLine
 10
1028.145128415237
 20
1405.428240482563
 30
0.0
 11
1035.045128415237
 21
1406.601045015141
 31
0.0
  0
LINE
  5
A78
330
2
100
AcDbEntity
  8
本体
  6
Continuous
100
AcDbLine
 10
428.0451284152368
 20
1355.428240482563
 30
0.0
 11
1035.045128415237
 21
1355.428240482563
 31
0.0
  0
LINE
  5
A79
330
2
100
AcDbEntity
  8
本体
  6
Continuous
100
AcDbLine
 10
428.0451284152368
 20
1361.428240482563
 30
0.0
 11
1035.045128415237
 21
1361.428240482563
 31
0.0
  0
LINE
  5
A7A
330
2
100
AcDbEntity
  8
本体
  6
Continuous
100
AcDbLine
 10
428.0451284152368
 20
1355.428240482563
 30
0.0
 11
428.0451284152368
 21
1311.428240482563
 31
0.0
  0
LINE
  5
A7B
330
2
100
AcDbEntity
  8
本体
  6
Continuous
100
AcDbLine
 10
435.0451284152368
 20
1355.428240482563
 30
0.0
 11
435.0451284152368
 21
1311.428240482563
 31
0.0
  0
LINE
  5
A82
330
2
100
AcDbEntity
  8
エンボス
  6
Continuous
100
AcDbLine
 10
428.0451284152368
 20
1314.928240482563
 30
0.0
 11
435.0451284152368
 21
1312.928240482563
 31
0.0
  0
LINE
  5
A83
330
2
100
AcDbEntity
  8
エンボス
  6
Continuous
100
AcDbLine
 10
435.0451284152368
 20
1319.928240482563
 30
0.0
 11
428.0451284152368
 21
1317.928240482563
 31
0.0
  0
LINE
  5
A8C
330
2
100
AcDbEntity
  8
エンボス
  6
Continuous
100
AcDbLine
 10
435.0451284152368
 20
1328.928240482563
 30
0.0
 11
428.0451284152368
 21
1326.928240482563
 31
0.0
  0
LINE
  5
A8D
330
2
100
AcDbEntity
  8
エンボス
  6
Continuous
100
AcDbLine
 10
428.0451284152368
 20
1333.928240482563
 30
0.0
 11
435.0451284152368
 21
1331.928240482563
 31
0.0
  0
LINE
  5
A8E
330
2
100
AcDbEntity
  8
エンボス
  6
Continuous
100
AcDbLine
 10
428.0451284152368
 20
1342.928240482563
 30
0.0
 11
435.0451284152368
 21
1340.928240482563
 31
0.0
  0
LINE
  5
A8F
330
2
100
AcDbEntity
  8
エンボス
  6
Continuous
100
AcDbLine
 10
435.0451284152368
 20
1347.928240482563
 30
0.0
 11
428.0451284152368
 21
1345.928240482563
 31
0.0
  0
LINE
  5
B0C
330
2
100
AcDbEntity
  8
本体
  6
Continuous
100
AcDbLine
 10
1035.045128415237
 20
1355.428240482563
 30
0.0
 11
1035.045128415237
 21
1311.428240482563
 31
0.0
  0
LINE
  5
B0D
330
2
100
AcDbEntity
  8
本体
  6
Continuous
100
AcDbLine
 10
1028.045128415237
 20
1355.428240482563
 30
0.0
 11
1028.045128415237
 21
1311.428240482563
 31
0.0
  0
LINE
  5
B10
330
2
100
AcDbEntity
  8
エンボス
  6
Continuous
100
AcDbLine
 10
1035.045128415237
 20
1319.928240482563
 30
0.0
 11
1028.045128415237
 21
1317.928240482563
 31
0.0
  0
LINE
  5
B11
330
2
100
AcDbEntity
  8
エンボス
  6
Continuous
100
AcDbLine
 10
1028.045128415237
 20
1314.928240482563
 30
0.0
 11
1035.045128415237
 21
1312.928240482563
 31
0.0
  0
LINE
  5
B12
330
2
100
AcDbEntity
  8
本体
  6
Continuous
100
AcDbLine
 10
992.8451284152369
 20
1355.428240482563
 30
0.0
 11
1028.145128415237
 21
1361.428240482563
 31
0.0
  0
LINE
  5
B18
330
2
100
AcDbEntity
  8
エンボス
  6
Continuous
100
AcDbLine
 10
1035.045128415237
 20
1347.928240482563
 30
0.0
 11
1028.045128415237
 21
1345.928240482563
 31
0.0
  0
LINE
  5
B19
330
2
100
AcDbEntity
  8
エンボス
  6
Continuous
100
AcDbLine
 10
1028.045128415237
 20
1342.928240482563
 30
0.0
 11
1035.045128415237
 21
1340.928240482563
 31
0.0
  0
LINE
  5
B1A
330
2
100
AcDbEntity
  8
エンボス
  6
Continuous
100
AcDbLine
 10
1035.045128415237
 20
1328.928240482563
 30
0.0
 11
1028.045128415237
 21
1326.928240482563
 31
0.0
  0
LINE
  5
B1B
330
2
100
AcDbEntity
  8
エンボス
  6
Continuous
100
AcDbLine
 10
1028.045128415237
 20
1333.928240482563
 30
0.0
 11
1035.045128415237
 21
1331.928240482563
 31
0.0
  0
LINE
  5
B1C
330
2
100
AcDbEntity
  8
本体
  6
Continuous
100
AcDbLine
 10
1028.145128415237
 20
1355.428240482563
 30
0.0
 11
1035.045128415237
 21
1356.601045015141
 31
0.0
  0
LINE
  5
B1E
330
2
100
AcDbEntity
  8
本体
  6
Continuous
100
AcDbLine
 10
428.0451284152368
 20
1305.428240482563
 30
0.0
 11
1035.045128415237
 21
1305.428240482563
 31
0.0
  0
LINE
  5
B1F
330
2
100
AcDbEntity
  8
本体
  6
Continuous
100
AcDbLine
 10
428.0451284152368
 20
1311.428240482563
 30
0.0
 11
1035.045128415237
 21
1311.428240482563
 31
0.0
  0
LINE
  5
B20
330
2
100
AcDbEntity
  8
本体
  6
Continuous
100
AcDbLine
 10
428.0451284152368
 20
1305.428240482563
 30
0.0
 11
428.0451284152368
 21
1261.428240482563
 31
0.0
  0
LINE
  5
B21
330
2
100
AcDbEntity
  8
本体
  6
Continuous
100
AcDbLine
 10
435.0451284152368
 20
1305.428240482563
 30
0.0
 11
435.0451284152368
 21
1261.428240482563
 31
0.0
  0
LINE
  5
B28
330
2
100
AcDbEntity
  8
エンボス
  6
Continuous
100
AcDbLine
 10
428.0451284152368
 20
1264.928240482563
 30
0.0
 11
435.0451284152368
 21
1262.928240482563
 31
0.0
  0
LINE
  5
B29
330
2
100
AcDbEntity
  8
エンボス
  6
Continuous
100
AcDbLine
 10
435.0451284152368
 20
1269.928240482563
 30
0.0
 11
428.0451284152368
 21
1267.928240482563
 31
0.0
  0
LINE
  5
B32
330
2
100
AcDbEntity
  8
エンボス
  6
Continuous
100
AcDbLine
 10
435.0451284152368
 20
1278.928240482563
 30
0.0
 11
428.0451284152368
 21
1276.928240482563
 31
0.0
  0
LINE
  5
B33
330
2
100
AcDbEntity
  8
エンボス
  6
Continuous
100
AcDbLine
 10
428.0451284152368
 20
1283.928240482563
 30
0.0
 11
435.0451284152368
 21
1281.928240482563
 31
0.0
  0
LINE
  5
B34
330
2
100
AcDbEntity
  8
エンボス
  6
Continuous
100
AcDbLine
 10
428.0451284152368
 20
1292.928240482563
 30
0.0
 11
435.0451284152368
 21
1290.928240482563
 31
0.0
  0
LINE
  5
B35
330
2
100
AcDbEntity
  8
エンボス
  6
Continuous
100
AcDbLine
 10
435.0451284152368
 20
1297.928240482563
 30
0.0
 11
428.0451284152368
 21
1295.928240482563
 31
0.0
  0
LINE
  5
BB2
330
2
100
AcDbEntity
  8
本体
  6
Continuous
100
AcDbLine
 10
1035.045128415237
 20
1305.428240482563
 30
0.0
 11
1035.045128415237
 21
1261.428240482563
 31
0.0
  0
LINE
  5
BB3
330
2
100
AcDbEntity
  8
本体
  6
Continuous
100
AcDbLine
 10
1028.045128415237
 20
1305.428240482563
 30
0.0
 11
1028.045128415237
 21
1261.428240482563
 31
0.0
  0
LINE
  5
BB6
330
2
100
AcDbEntity
  8
エンボス
  6
Continuous
100
AcDbLine
 10
1035.045128415237
 20
1269.928240482563
 30
0.0
 11
1028.045128415237
 21
1267.928240482563
 31
0.0
  0
LINE
  5
BB7
330
2
100
AcDbEntity
  8
エンボス
  6
Continuous
100
AcDbLine
 10
1028.045128415237
 20
1264.928240482563
 30
0.0
 11
1035.045128415237
 21
1262.928240482563
 31
0.0
  0
LINE
  5
BB8
330
2
100
AcDbEntity
  8
本体
  6
Continuous
100
AcDbLine
 10
992.8451284152369
 20
1305.428240482563
 30
0.0
 11
1028.145128415237
 21
1311.428240482563
 31
0.0
  0
LINE
  5
BBE
330
2
100
AcDbEntity
  8
エンボス
  6
Continuous
100
AcDbLine
 10
1035.045128415237
 20
1297.928240482563
 30
0.0
 11
1028.045128415237
 21
1295.928240482563
 31
0.0
  0
LINE
  5
BBF
330
2
100
AcDbEntity
  8
エンボス
  6
Continuous
100
AcDbLine
 10
1028.045128415237
 20
1292.928240482563
 30
0.0
 11
1035.045128415237
 21
1290.928240482563
 31
0.0
  0
LINE
  5
BC0
330
2
100
AcDbEntity
  8
エンボス
  6
Continuous
100
AcDbLine
 10
1035.045128415237
 20
1278.928240482563
 30
0.0
 11
1028.045128415237
 21
1276.928240482563
 31
0.0
  0
LINE
  5
BC1
330
2
100
AcDbEntity
  8
エンボス
  6
Continuous
100
AcDbLine
 10
1028.045128415237
 20
1283.928240482563
 30
0.0
 11
1035.045128415237
 21
1281.928240482563
 31
0.0
  0
LINE
  5
BC2
330
2
100
AcDbEntity
  8
本体
  6
Continuous
100
AcDbLine
 10
1028.145128415237
 20
1305.428240482563
 30
0.0
 11
1035.045128415237
 21
1306.601045015141
 31
0.0
  0
LINE
  5
BC4
330
2
100
AcDbEntity
  8
本体
  6
Continuous
100
AcDbLine
 10
428.0451284152368
 20
1255.428240482563
 30
0.0
 11
1035.045128415237
 21
1255.428240482563
 31
0.0
  0
LINE
  5
BC5
330
2
100
AcDbEntity
  8
本体
  6
Continuous
100
AcDbLine
 10
428.0451284152368
 20
1261.428240482563
 30
0.0
 11
1035.045128415237
 21
1261.428240482563
 31
0.0
  0
LINE
  5
BC6
330
2
100
AcDbEntity
  8
本体
  6
Continuous
100
AcDbLine
 10
428.0451284152368
 20
1255.428240482563
 30
0.0
 11
428.0451284152368
 21
1211.428240482563
 31
0.0
  0
LINE
  5
BC7
330
2
100
AcDbEntity
  8
本体
  6
Continuous
100
AcDbLine
 10
435.0451284152368
 20
1255.428240482563
 30
0.0
 11
435.0451284152368
 21
1211.428240482563
 31
0.0
  0
LINE
  5
BCE
330
2
100
AcDbEntity
  8
エンボス
  6
Continuous
100
AcDbLine
 10
428.0451284152368
 20
1214.928240482563
 30
0.0
 11
435.0451284152368
 21
1212.928240482563
 31
0.0
  0
LINE
  5
BCF
330
2
100
AcDbEntity
  8
エンボス
  6
Continuous
100
AcDbLine
 10
435.0451284152368
 20
1219.928240482563
 30
0.0
 11
428.0451284152368
 21
1217.928240482563
 31
0.0
  0
LINE
  5
BD8
330
2
100
AcDbEntity
  8
エンボス
  6
Continuous
100
AcDbLine
 10
435.0451284152368
 20
1228.928240482563
 30
0.0
 11
428.0451284152368
 21
1226.928240482563
 31
0.0
  0
LINE
  5
BD9
330
2
100
AcDbEntity
  8
エンボス
  6
Continuous
100
AcDbLine
 10
428.0451284152368
 20
1233.928240482563
 30
0.0
 11
435.0451284152368
 21
1231.928240482563
 31
0.0
  0
LINE
  5
BDA
330
2
100
AcDbEntity
  8
エンボス
  6
Continuous
100
AcDbLine
 10
428.0451284152368
 20
1242.928240482563
 30
0.0
 11
435.0451284152368
 21
1240.928240482563
 31
0.0
  0
LINE
  5
BDB
330
2
100
AcDbEntity
  8
エンボス
  6
Continuous
100
AcDbLine
 10
435.0451284152368
 20
1247.928240482563
 30
0.0
 11
428.0451284152368
 21
1245.928240482563
 31
0.0
  0
LINE
  5
C58
330
2
100
AcDbEntity
  8
本体
  6
Continuous
100
AcDbLine
 10
1035.045128415237
 20
1255.428240482563
 30
0.0
 11
1035.045128415237
 21
1211.428240482563
 31
0.0
  0
LINE
  5
C59
330
2
100
AcDbEntity
  8
本体
  6
Continuous
100
AcDbLine
 10
1028.045128415237
 20
1255.428240482563
 30
0.0
 11
1028.045128415237
 21
1211.428240482563
 31
0.0
  0
LINE
  5
C5C
330
2
100
AcDbEntity
  8
エンボス
  6
Continuous
100
AcDbLine
 10
1035.045128415237
 20
1219.928240482563
 30
0.0
 11
1028.045128415237
 21
1217.928240482563
 31
0.0
  0
LINE
  5
C5D
330
2
100
AcDbEntity
  8
エンボス
  6
Continuous
100
AcDbLine
 10
1028.045128415237
 20
1214.928240482563
 30
0.0
 11
1035.045128415237
 21
1212.928240482563
 31
0.0
  0
LINE
  5
C5E
330
2
100
AcDbEntity
  8
本体
  6
Continuous
100
AcDbLine
 10
992.8451284152369
 20
1255.428240482563
 30
0.0
 11
1028.145128415237
 21
1261.428240482563
 31
0.0
  0
LINE
  5
C64
330
2
100
AcDbEntity
  8
エンボス
  6
Continuous
100
AcDbLine
 10
1035.045128415237
 20
1247.928240482563
 30
0.0
 11
1028.045128415237
 21
1245.928240482563
 31
0.0
  0
LINE
  5
C65
330
2
100
AcDbEntity
  8
エンボス
  6
Continuous
100
AcDbLine
 10
1028.045128415237
 20
1242.928240482563
 30
0.0
 11
1035.045128415237
 21
1240.928240482563
 31
0.0
  0
LINE
  5
C66
330
2
100
AcDbEntity
  8
エンボス
  6
Continuous
100
AcDbLine
 10
1035.045128415237
 20
1228.928240482563
 30
0.0
 11
1028.045128415237
 21
1226.928240482563
 31
0.0
  0
LINE
  5
C67
330
2
100
AcDbEntity
  8
エンボス
  6
Continuous
100
AcDbLine
 10
1028.045128415237
 20
1233.928240482563
 30
0.0
 11
1035.045128415237
 21
1231.928240482563
 31
0.0
  0
LINE
  5
C68
330
2
100
AcDbEntity
  8
本体
  6
Continuous
100
AcDbLine
 10
1028.145128415237
 20
1255.428240482563
 30
0.0
 11
1035.045128415237
 21
1256.601045015141
 31
0.0
  0
LINE
  5
C6A
330
2
100
AcDbEntity
  8
本体
  6
Continuous
100
AcDbLine
 10
428.0451284152368
 20
1205.428240482563
 30
0.0
 11
1035.045128415237
 21
1205.428240482563
 31
0.0
  0
LINE
  5
C6B
330
2
100
AcDbEntity
  8
本体
  6
Continuous
100
AcDbLine
 10
428.0451284152368
 20
1211.428240482563
 30
0.0
 11
1035.045128415237
 21
1211.428240482563
 31
0.0
  0
LINE
  5
C6C
330
2
100
AcDbEntity
  8
本体
  6
Continuous
100
AcDbLine
 10
428.0451284152368
 20
1205.428240482563
 30
0.0
 11
428.0451284152368
 21
1161.428240482563
 31
0.0
  0
LINE
  5
C6D
330
2
100
AcDbEntity
  8
本体
  6
Continuous
100
AcDbLine
 10
435.0451284152368
 20
1205.428240482563
 30
0.0
 11
435.0451284152368
 21
1161.428240482563
 31
0.0
  0
LINE
  5
C74
330
2
100
AcDbEntity
  8
エンボス
  6
Continuous
100
AcDbLine
 10
428.0451284152368
 20
1164.928240482563
 30
0.0
 11
435.0451284152368
 21
1162.928240482563
 31
0.0
  0
LINE
  5
C75
330
2
100
AcDbEntity
  8
エンボス
  6
Continuous
100
AcDbLine
 10
435.0451284152368
 20
1169.928240482563
 30
0.0
 11
428.0451284152368
 21
1167.928240482563
 31
0.0
  0
LINE
  5
C7E
330
2
100
AcDbEntity
  8
エンボス
  6
Continuous
100
AcDbLine
 10
435.0451284152368
 20
1178.928240482563
 30
0.0
 11
428.0451284152368
 21
1176.928240482563
 31
0.0
  0
LINE
  5
C7F
330
2
100
AcDbEntity
  8
エンボス
  6
Continuous
100
AcDbLine
 10
428.0451284152368
 20
1183.928240482563
 30
0.0
 11
435.0451284152368
 21
1181.928240482563
 31
0.0
  0
LINE
  5
C80
330
2
100
AcDbEntity
  8
エンボス
  6
Continuous
100
AcDbLine
 10
428.0451284152368
 20
1192.928240482563
 30
0.0
 11
435.0451284152368
 21
1190.928240482563
 31
0.0
  0
LINE
  5
C81
330
2
100
AcDbEntity
  8
エンボス
  6
Continuous
100
AcDbLine
 10
435.0451284152368
 20
1197.928240482563
 30
0.0
 11
428.0451284152368
 21
1195.928240482563
 31
0.0
  0
LINE
  5
CFE
330
2
100
AcDbEntity
  8
本体
  6
Continuous
100
AcDbLine
 10
1035.045128415237
 20
1205.428240482563
 30
0.0
 11
1035.045128415237
 21
1161.428240482563
 31
0.0
  0
LINE
  5
CFF
330
2
100
AcDbEntity
  8
本体
  6
Continuous
100
AcDbLine
 10
1028.045128415237
 20
1205.428240482563
 30
0.0
 11
1028.045128415237
 21
1161.428240482563
 31
0.0
  0
LINE
  5
D02
330
2
100
AcDbEntity
  8
エンボス
  6
Continuous
100
AcDbLine
 10
1035.045128415237
 20
1169.928240482563
 30
0.0
 11
1028.045128415237
 21
1167.928240482563
 31
0.0
  0
LINE
  5
D03
330
2
100
AcDbEntity
  8
エンボス
  6
Continuous
100
AcDbLine
 10
1028.045128415237
 20
1164.928240482563
 30
0.0
 11
1035.045128415237
 21
1162.928240482563
 31
0.0
  0
LINE
  5
D04
330
2
100
AcDbEntity
  8
本体
  6
Continuous
100
AcDbLine
 10
992.8451284152369
 20
1205.428240482563
 30
0.0
 11
1028.145128415237
 21
1211.428240482563
 31
0.0
  0
LINE
  5
D0A
330
2
100
AcDbEntity
  8
エンボス
  6
Continuous
100
AcDbLine
 10
1035.045128415237
 20
1197.928240482563
 30
0.0
 11
1028.045128415237
 21
1195.928240482563
 31
0.0
  0
LINE
  5
D0B
330
2
100
AcDbEntity
  8
エンボス
  6
Continuous
100
AcDbLine
 10
1028.045128415237
 20
1192.928240482563
 30
0.0
 11
1035.045128415237
 21
1190.928240482563
 31
0.0
  0
LINE
  5
D0C
330
2
100
AcDbEntity
  8
エンボス
  6
Continuous
100
AcDbLine
 10
1035.045128415237
 20
1178.928240482563
 30
0.0
 11
1028.045128415237
 21
1176.928240482563
 31
0.0
  0
LINE
  5
D0D
330
2
100
AcDbEntity
  8
エンボス
  6
Continuous
100
AcDbLine
 10
1028.045128415237
 20
1183.928240482563
 30
0.0
 11
1035.045128415237
 21
1181.928240482563
 31
0.0
  0
LINE
  5
D0E
330
2
100
AcDbEntity
  8
本体
  6
Continuous
100
AcDbLine
 10
1028.145128415237
 20
1205.428240482563
 30
0.0
 11
1035.045128415237
 21
1206.601045015141
 31
0.0
  0
LINE
  5
D0F
330
2
100
AcDbEntity
  8
本体
  6
Continuous
100
AcDbLine
 10
428.0451284152368
 20
1161.428240482563
 30
0.0
 11
1035.045128415237
 21
1161.428240482563
 31
0.0
  0
LINE
  5
D10
330
2
100
AcDbEntity
  8
本体
  6
Continuous
100
AcDbLine
 10
428.0451284152368
 20
1155.428240482563
 30
0.0
 11
1035.045128415237
 21
1155.428240482563
 31
0.0
  0
LINE
  5
D22
330
2
100
AcDbEntity
  8
本体
  6
Continuous
100
AcDbLine
 10
992.8451284152369
 20
1155.428240482563
 30
0.0
 11
1028.145128415237
 21
1161.428240482563
 31
0.0
  0
LINE
  5
D23
330
2
100
AcDbEntity
  8
本体
  6
Continuous
100
AcDbLine
 10
1028.145128415237
 20
1155.428240482563
 30
0.0
 11
1035.045128415237
 21
1156.601045015141
 31
0.0
  0
LINE
  5
D25
330
2
100
AcDbEntity
  8
嵩上平面
  6
HIDDEN
 48
3.0
370
     9
100
AcDbLine
 10
1032.545128415237
 20
1163.428238482563
 30
0.0
 11
430.5451284152367
 21
1163.428238482563
 31
0.0
  0
LINE
  5
D26
330
2
100
AcDbEntity
  8
嵩上平面
  6
HIDDEN
 48
3.0
370
     9
100
AcDbLine
 10
1032.545128415237
 20
1553.428242482563
 30
0.0
 11
430.5451284152367
 21
1553.428242482563
 31
0.0
  0
MTEXT
  5
E9A
330
2
100
AcDbEntity
  8
外枠
  6
Continuous
 48
100.0
370
     9
100
AcDbMText
 10
1022.193186254242
 20
77.61017986570414
 30
0.0
 40
18.0
 41
122.0406
 71
     1
 72
     5
  1
【主部材】
 73
     1
 44
1.0
1001
ACAD
1000
MTEXTBEGIN
1070
    73
1070
     1
1070
    44
1040
1.0
1070
    74
1070
     0
1000
MTEXTEND
  0
MTEXT
  5
E9B
330
2
100
AcDbEntity
  8
外枠
  6
Continuous
 48
100.0
370
     9
100
AcDbMText
 10
1038.975343934131
 20
43.7816999552947
 30
0.0
 40
25.0
 41
122.0406
 71
     1
 72
     5
  1
SS400
 73
     1
 44
1.0
1001
ACAD
1000
MTEXTBEGIN
1070
    73
1070
     1
1070
    44
1040
1.0
1070
    74
1070
     0
1000
MTEXTEND
  0
MTEXT
  5
E9D
330
2
100
AcDbEntity
  8
外枠
  6
Continuous
 48
100.0
370
     9
100
AcDbMText
 10
1199.761738767627
 20
151.0819879350654
 30
0.0
 40
18.0
 41
301.8661
 71
     1
 72
     5
  1
【グレーチング】JIS　H8641
 73
     1
 44
1.0
1001
ACAD
1000
MTEXTBEGIN
1070
    73
1070
     1
1070
    44
1040
1.0
1070
    74
1070
     0
1000
MTEXTEND
  0
MTEXT
  5
E9E
330
2
100
AcDbEntity
  8
外枠
  6
Continuous
 48
100.0
370
     9
100
AcDbMText
 10
1159.385398923399
 20
148.6111115828503
 30
0.0
 40
20.0
 41
1015.1375
 71
     1
 72
     5
  1
表\P面\P処\P理
 73
     1
 44
1.0
1001
ACAD
1000
MTEXTBEGIN
1070
    73
1070
     1
1070
    44
1040
1.0
1070
    74
1070
     0
1000
MTEXTEND
  0
LINE
  5
E9F
330
2
100
AcDbEntity
  8
外枠
  6
Continuous
 48
100.0
370
     9
100
AcDbLine
 10
1188.531791166651
 20
155.3992728207999
 30
0.0
 11
1188.531791166651
 21
9.999999999996816
 31
0.0
  0
LINE
  5
EA0
330
2
100
AcDbEntity
  8
外枠
  6
Continuous
 48
100.0
370
     9
100
AcDbLine
 10
1153.531306970095
 20
155.3992728207999
 30
0.0
 11
1153.531306970095
 21
9.999999999996816
 31
0.0
  0
LINE
  5
EA1
330
2
100
AcDbEntity
  8
外枠
 48
3.0
100
AcDbLine
 10
1188.531791166651
 20
82.6996364103984
 30
0.0
 11
1593.951336296073
 21
82.6996364103984
 31
0.0
  0
LINE
  5
EBA
330
2
100
AcDbEntity
  8
本体
  6
Continuous
100
AcDbLine
 10
998.3451284152367
 20
631.3441617594153
 30
0.0
 11
1029.645128415237
 21
631.3441617594153
 31
0.0
  0
MTEXT
  5
FF4
330
2
100
AcDbEntity
  8
外枠
  6
Continuous
 48
100.0
370
     9
100
AcDbMText
 10
1202.677957061338
 20
120.1377642323818
 30
0.0
 40
25.0
 41
1015.1375
 71
     1
 72
     5
  1
溶融亜鉛めっき仕上
 73
     1
 44
1.0
1001
ACAD
1000
MTEXTBEGIN
1070
    73
1070
     1
1070
    44
1040
1.0
1070
    74
1070
     0
1000
MTEXTEND
  0
INSERT
  5
10C0
330
2
100
AcDbEntity
  8
本体
 48
3.0
100
AcDbBlockReference
  2
清水
 10
2387.385592047314
 20
155.3992728208
 30
0.0
  0
MTEXT
  5
10C1
330
2
100
AcDbEntity
  8
外枠
  6
Continuous
 48
100.0
370
     9
100
AcDbMText
 10
2509.985545378613
 20
121.2206105686568
 30
0.0
 40
23.47884
 41
274.1381
 71
     1
 72
     5
  1
'14・09・01
 73
     1
 44
1.0
1001
ACAD
1000
MTEXTBEGIN
1070
    73
1070
     1
1070
    44
1040
1.0
1070
    74
1070
     0
1000
MTEXTEND
  0
INSERT
  5
10C2
330
2
100
AcDbEntity
  8
外枠
 48
3.0
100
AcDbBlockReference
  2
鎌下
 10
2271.730765417811
 20
155.3992728207995
 30
0.0
  0
INSERT
  5
1125
330
2
100
AcDbEntity
  8
本体
 48
3.0
100
AcDbBlockReference
  2
P-H45
 10
1921.975082972855
 20
1593.428242482563
 30
0.0
  0
INSERT
  5
1126
330
2
100
AcDbEntity
  8
本体
 48
3.0
100
AcDbBlockReference
  2
P-H45
 10
1921.975082972855
 20
1123.428238482563
 30
0.0
 41
-1.0
 50
180.0
  0
DIMENSION
  5
112B
330
2
100
AcDbEntity
  8
寸法線
 48
3.0
100
AcDbDimension
  2
*D24
 10
1031.545128415237
 20
489.3441617594153
 30
0.0
 11
731.5451284152368
 21
509.3441617594153
 31
0.0
 70
    32
 71
     5
 42
600.0
  3
ISO-25
100
AcDbAlignedDimension
 13
431.5451284152368
 23
569.3441617594153
 33
0.0
 14
1031.545128415237
 24
569.3441617594149
 34
0.0
100
AcDbRotatedDimension
  0
INSERT
  5
126A
102
{ACAD_REACTORS
330
12CD
102
}
330
2
100
AcDbEntity
  8
本体
100
AcDbBlockReference
  2
*U27
 10
449.1951284152369
 20
1358.428240482563
 30
0.0
  0
INSERT
  5
12E7
102
{ACAD_REACTORS
330
12FF
102
}
330
2
100
AcDbEntity
  8
本体
100
AcDbBlockReference
  2
*U29
 10
451.9451284152369
 20
641.8441617594153
 30
0.0
  0
LEADER
  5
132C
330
2
100
AcDbEntity
  8
寸法線
  6
Continuous
100
AcDbLeader
  3
ISO-25
 73
     0
 74
     0
 75
     1
 40
30.0
 41
210.6091370558376
 76
     3
 10
1033.290238282874
 20
1474.920559108818
 30
0.0
 10
1089.000916401529
 20
1545.631237227473
 30
0.0
 10
1104.000916401529
 20
1545.631237227473
 30
0.0
340
132D
1001
ACAD
1000
DSTYLE
1002
{
1070
     5
1000
OPEN30
1070
    77
1070
     1
1070
   147
1040
0.5
1070
   342
1005
1D2
1002
}
  0
MTEXT
  5
132D
102
{ACAD_REACTORS
330
132C
102
}
330
2
100
AcDbEntity
  8
寸法線
  6
Continuous
100
AcDbMText
 10
1109.000916401529
 20
1550.631237227473
 30
0.0
 40
30.0
 41
0.0
 71
     7
 72
     1
  1
GIB7\U+00D74\U+00D755
 73
     1
 44
1.0
1001
ACAD
1000
MTEXTBEGIN
1070
    73
1070
     1
1070
    44
1040
1.0
1070
    74
1070
     0
1000
MTEXTEND
  0
LEADER
  5
132E
330
2
100
AcDbEntity
  8
寸法線
  6
Continuous
100
AcDbLeader
  3
ISO-25
 73
     0
 74
     0
 75
     1
 40
30.0
 41
35.78680203045685
 76
     3
 10
1033.290238282874
 20
1360.566105907638
 30
0.0
 10
1089.000916401529
 20
1431.276784026293
 30
0.0
 10
1104.000916401529
 20
1431.276784026293
 30
0.0
340
132F
1001
ACAD
1000
DSTYLE
1002
{
1070
     5
1000
OPEN30
1070
    77
1070
     1
1070
   147
1040
0.5
1070
   342
1005
1D2
1002
}
  0
MTEXT
  5
132F
102
{ACAD_REACTORS
330
132E
102
}
330
2
100
AcDbEntity
  8
寸法線
  6
Continuous
100
AcDbMText
 10
1109.000916401529
 20
1436.276784026293
 30
0.0
 40
30.0
 41
0.0
 71
     7
 72
     1
  1
TB
 73
     1
 44
1.0
1001
ACAD
1000
MTEXTBEGIN
1070
    73
1070
     1
1070
    44
1040
1.0
1070
    74
1070
     0
1000
MTEXTEND
  0
ENDSEC
  0
SECTION
  2
OBJECTS
  0
DICTIONARY
  5
7
330
0
100
AcDbDictionary
281
     1
  3
ACAD_ASSOCNETWORK
350
12C5
  3
ACAD_CIP_PREVIOUS_PRODUCT_INFO
350
1049
  3
ACAD_COLOR
350
1029
  3
ACAD_DETAILVIEWSTYLE
350
1042
  3
ACAD_GROUP
350
842
  3
ACAD_LAYOUT
350
828
  3
ACAD_MATERIAL
350
FF7
  3
ACAD_MLEADERSTYLE
350
103E
  3
ACAD_MLINESTYLE
350
843
  3
ACAD_PLOTSETTINGS
350
844
  3
ACAD_PLOTSTYLENAME
350
6
  3
ACAD_SCALELIST
350
102C
  3
ACAD_SECTIONVIEWSTYLE
350
1040
  3
ACAD_TABLESTYLE
350
102A
  3
ACAD_VISUALSTYLE
350
1010
  3
ACDB_RECOMPOSE_DATA
350
1396
  3
AcDbVariableDictionary
350
10A0
  3
DWGPROPS
350
1397
  0
DICTIONARY
  5
1063
330
83D
100
AcDbDictionary
280
     1
281
     1
  0
DICTIONARY
  5
11A0
330
835
100
AcDbDictionary
280
     1
281
     1
  3
ACAD_LAYERSTATES
360
11A1
  0
DICTIONARY
  5
104A
330
65
100
AcDbDictionary
280
     1
281
     1
  3
ADSK_XREC_LAYER_RECONCILED
360
104B
  0
DICTIONARY
  5
104C
330
6B
100
AcDbDictionary
280
     1
281
     1
  3
ADSK_XREC_LAYER_RECONCILED
360
104D
  0
DICTIONARY
  5
104E
330
4
100
AcDbDictionary
280
     1
281
     1
  3
ADSK_XREC_LAYER_RECONCILED
360
104F
  0
DICTIONARY
  5
1052
330
68
100
AcDbDictionary
280
     1
281
     1
  3
ADSK_XREC_LAYER_RECONCILED
360
1053
  0
DICTIONARY
  5
1054
330
11
100
AcDbDictionary
280
     1
281
     1
  3
ADSK_XREC_LAYER_RECONCILED
360
1055
  0
DICTIONARY
  5
119F
330
119E
100
AcDbDictionary
280
     1
281
     1
  0
DICTIONARY
  5
823
330
2
100
AcDbDictionary
280
     1
281
     1
  3
ACAD_ASSOCNETWORK
360
12C3
  3
ACAD_LAYOUTSELFREF
360
FA9
  3
ACAD_SORTENTS
360
1156
  0
DICTIONARY
  5
82A
330
829
100
AcDbDictionary
280
     1
281
     1
  3
ACAD_LAYOUTSELFREF
360
FB6
  0
DICTIONARY
  5
830
330
82F
100
AcDbDictionary
280
     1
281
     1
  3
ACAD_LAYOUTSELFREF
360
FB7
  0
DICTIONARY
  5
10B1
330
10B0
100
AcDbDictionary
280
     1
281
     1
  0
DICTIONARY
  5
13DC
330
1267
100
AcDbDictionary
280
     1
281
     1
  3
AcDbBlockTableRecordData
360
13DD
  0
DICTIONARY
  5
13DF
330
12E4
100
AcDbDictionary
280
     1
281
     1
  3
AcDbBlockTableRecordData
360
13E0
  0
DICTIONARY
  5
12C5
102
{ACAD_REACTORS
330
7
102
}
330
7
100
AcDbDictionary
281
     1
  3
ACAD_ASSOCNETWORK
350
12C6
  0
XRECORD
  5
1049
102
{ACAD_REACTORS
330
7
102
}
330
7
100
AcDbXrecord
280
     1
300
ACDLT
300
2014
300
ACDLT_F_S
  0
DICTIONARY
  5
1029
102
{ACAD_REACTORS
330
7
102
}
330
7
100
AcDbDictionary
281
     1
  0
DICTIONARY
  5
1042
102
{ACAD_REACTORS
330
7
102
}
330
7
100
AcDbDictionary
281
     1
  3
Imperial24
350
1116
  3
Metric50
350
1043
  0
DICTIONARY
  5
842
102
{ACAD_REACTORS
330
7
102
}
330
7
100
AcDbDictionary
281
     1
  0
DICTIONARY
  5
828
102
{ACAD_REACTORS
330
7
102
}
330
7
100
AcDbDictionary
281
     1
  3
Layout1
350
82E
  3
Layout2
350
834
  3
Model
350
827
  0
DICTIONARY
  5
FF7
102
{ACAD_REACTORS
330
7
102
}
330
7
100
AcDbDictionary
281
     1
  3
ByBlock
350
1000
  3
ByLayer
350
FF8
  3
Global
350
1008
  0
DICTIONARY
  5
103E
102
{ACAD_REACTORS
330
7
102
}
330
7
100
AcDbDictionary
281
     1
  3
Standard
350
103F
  0
DICTIONARY
  5
843
102
{ACAD_REACTORS
330
7
102
}
330
7
100
AcDbDictionary
281
     1
  3
Standard
350
845
  0
DICTIONARY
  5
844
102
{ACAD_REACTORS
330
7
102
}
330
7
100
AcDbDictionary
281
     1
  0
ACDBDICTIONARYWDFLT
  5
6
102
{ACAD_REACTORS
330
7
102
}
330
7
100
AcDbDictionary
281
     1
  3
Normal
350
5
100
AcDbDictionaryWithDefault
340
5
  0
DICTIONARY
  5
102C
102
{ACAD_REACTORS
330
7
102
}
330
7
100
AcDbDictionary
281
     1
  3
A0
350
102D
  3
A1
350
102E
  3
A2
350
102F
  3
A3
350
1030
  3
A4
350
1031
  3
A5
350
1032
  3
A6
350
1033
  3
A7
350
1034
  3
A8
350
1035
  3
A9
350
1036
  3
B0
350
1037
  3
B1
350
1038
  3
B2
350
1039
  3
B3
350
103A
  3
B4
350
103B
  3
B5
350
103C
  3
B6
350
103D
  0
DICTIONARY
  5
1040
102
{ACAD_REACTORS
330
7
102
}
330
7
100
AcDbDictionary
281
     1
  3
Imperial24
350
1115
  3
Metric50
350
1041
  0
DICTIONARY
  5
102A
102
{ACAD_REACTORS
330
7
102
}
330
7
100
AcDbDictionary
281
     1
  3
Standard
350
102B
  0
DICTIONARY
  5
1010
102
{ACAD_REACTORS
330
7
102
}
330
7
100
AcDbDictionary
281
     1
  3
2dWireframe
350
1016
  3
Basic
350
1015
  3
Brighten
350
101C
  3
ColorChange
350
1020
  3
Conceptual
350
1019
  3
Dim
350
101B
  3
EdgeColorOff
350
1028
  3
Facepattern
350
101F
  3
Flat
350
1011
  3
FlatWithEdges
350
1012
  3
Gouraud
350
1013
  3
GouraudWithEdges
350
1014
  3
Hidden
350
1018
  3
JitterOff
350
1026
  3
Linepattern
350
101E
  3
OverhangOff
350
1027
  3
Realistic
350
101A
  3
Shaded
350
1025
  3
Shaded with edges
350
1024
  3
Shades of Gray
350
1021
  3
Sketchy
350
1022
  3
Thicken
350
101D
  3
Wireframe
350
1017
  3
X-Ray
350
1023
  0
XRECORD
  5
1396
102
{ACAD_REACTORS
330
7
102
}
330
7
100
AcDbXrecord
280
     1
 90
        1
330
102B
  0
DICTIONARY
  5
10A0
102
{ACAD_REACTORS
330
7
102
}
330
7
100
AcDbDictionary
281
     1
  3
CANNOSCALE
350
10A5
  3
CMLEADERSTYLE
350
10A2
  3
CTABLESTYLE
350
10A1
  3
CVIEWDETAILSTYLE
350
10A3
  3
CVIEWSECTIONSTYLE
350
10A4
  3
DIMASSOC
350
10A8
  3
INDEXCTL
350
10A7
  3
SORTENTS
350
10A6
  3
XCLIPFRAME
350
1394
  0
XRECORD
  5
1397
102
{ACAD_REACTORS
330
7
102
}
330
7
100
AcDbXrecord
280
     1
  1
DWGPROPS COOKIE
  2

  3

  4

  6

  7

  8
takara
  9

300
=
301
=
302
=
303
=
304
=
305
=
306
=
307
=
308
=
309
=
 40
0.0365754513888889
 41
2453510.558637211
 42
2457536.745481227
  1

 90
        0
  0
DICTIONARY
  5
11A1
102
{ACAD_REACTORS
330
11A0
102
}
330
11A0
100
AcDbDictionary
281
     1
  3
_LAYISO_STATE
350
1259
1001
AcLayerTools
1000
827
1000
0
  0
XRECORD
  5
104B
102
{ACAD_REACTORS
330
104A
102
}
330
104A
100
AcDbXrecord
280
     1
290
     1
  0
XRECORD
  5
104D
102
{ACAD_REACTORS
330
104C
102
}
330
104C
100
AcDbXrecord
280
     1
290
     1
  0
XRECORD
  5
104F
102
{ACAD_REACTORS
330
104E
102
}
330
104E
100
AcDbXrecord
280
     1
290
     1
  0
XRECORD
  5
1053
102
{ACAD_REACTORS
330
1052
102
}
330
1052
100
AcDbXrecord
280
     1
290
     1
  0
XRECORD
  5
1055
102
{ACAD_REACTORS
330
1054
102
}
330
1054
100
AcDbXrecord
280
     1
290
     1
  0
DICTIONARY
  5
12C3
102
{ACAD_REACTORS
330
823
102
}
330
823
100
AcDbDictionary
281
     1
  3
ACAD_ASSOCNETWORK
350
12C4
  0
XRECORD
  5
FA9
102
{ACAD_REACTORS
330
823
102
}
330
823
100
AcDbXrecord
280
     1
340
2
  0
SORTENTSTABLE
  5
1156
102
{ACAD_REACTORS
330
823
102
}
330
823
100
AcDbSortentsTable
330
2
331
AC
  5
AC
331
428
  5
428
331
4F
  5
4F
331
C7
  5
C7
331
852
  5
852
331
9C5
  5
9C5
331
1F0
  5
1F0
331
29E
  5
29E
331
41
  5
41
331
B9
  5
B9
331
5C
  5
5C
331
BC1
  5
BC1
331
1F
  5
1F
331
427
  5
427
331
3A2
  5
3A2
331
A8C
  5
A8C
331
D22
  5
D22
331
260
  5
260
331
1B8
  5
1B8
331
BCE
  5
BCE
331
2C
  5
2C
331
3BF
  5
3BF
331
15C
  5
15C
331
BDB
  5
BDB
331
39
  5
39
331
C59
  5
C59
331
B1
  5
B1
331
42D
  5
42D
331
B18
  5
B18
331
857
  5
857
331
1126
  5
1126
331
1F5
  5
1F5
331
46
  5
46
331
C66
  5
C66
331
BE
  5
BE
331
BC6
  5
BC6
331
465
  5
465
331
A76
  5
A76
331
1BD
  5
1BD
331
937
  5
937
331
53
  5
53
331
BB8
  5
BB8
331
10C
  5
10C
331
E9A
  5
E9A
331
399
  5
399
331
A83
  5
A83
331
B10
  5
B10
331
D0E
  5
D0E
331
929
  5
929
331
1CA
  5
1CA
331
60
  5
60
331
23
  5
23
331
C80
  5
C80
331
3E
  5
3E
331
C5E
  5
C5E
331
B6
  5
B6
331
3E9
  5
3E9
331
21C
  5
21C
331
4B
  5
4B
331
C6B
  5
C6B
331
C3
  5
C3
331
406
  5
406
331
A7B
  5
A7B
331
9C1
  5
9C1
331
1EC
  5
1EC
331
58
  5
58
331
1B
  5
1B
331
E9F
  5
E9F
331
423
  5
423
331
39E
  5
39E
331
89C
  5
89C
331
9CD
  5
9CD
331
1B4
  5
1B4
331
2BF
  5
2BF
331
92E
  5
92E
331
1CF
  5
1CF
331
28
  5
28
331
3BB
  5
3BB
331
86C
  5
86C
331
2CC
  5
2CC
331
AD
  5
AD
331
429
  5
429
331
9C6
  5
9C6
331
1F1
  5
1F1
331
926
  5
926
331
42
  5
42
331
5D
  5
5D
331
BC2
  5
BC2
331
886
  5
886
331
3A3
  5
3A3
331
A72
  5
A72
331
9D2
  5
9D2
331
A8D
  5
A8D
331
D23
  5
D23
331
1B9
  5
1B9
331
12
  5
12
331
BCF
  5
BCF
331
3C0
  5
3C0
331
B32
  5
B32
331
B0C
  5
B0C
331
D0A
  5
D0A
331
940
  5
940
331
B2
  5
B2
331
42E
  5
42E
331
B19
  5
B19
331
A6A
  5
A6A
331
FF4
  5
FF4
331
1F6
  5
1F6
331
47
  5
47
331
C67
  5
C67
331
BF
  5
BF
331
443
  5
443
331
BC7
  5
BC7
331
D02
  5
D02
331
1BE
  5
1BE
331
54
  5
54
331
17
  5
17
331
C74
  5
C74
331
458
  5
458
331
E9B
  5
E9B
331
39A
  5
39A
331
B11
  5
B11
331
D0F
  5
D0F
331
1B0
  5
1B0
331
92A
  5
92A
331
1CB
  5
1CB
331
61
  5
61
331
24
  5
24
331
C81
  5
C81
331
3F
  5
3F
331
3EA
  5
3EA
331
B1E
  5
B1E
331
31
  5
31
331
4C
  5
4C
331
C6C
  5
C6C
331
C4
  5
C4
331
407
  5
407
331
84F
  5
84F
331
1ED
  5
1ED
331
59
  5
59
331
BBE
  5
BBE
331
1C
  5
1C
331
EA0
  5
EA0
331
424
  5
424
331
39F
  5
39F
331
89D
  5
89D
331
9CE
  5
9CE
331
112B
  5
112B
331
1B5
  5
1B5
331
92F
  5
92F
331
29
  5
29
331
472
  5
472
331
3BC
  5
3BC
331
86D
  5
86D
331
BD8
  5
BD8
331
BB6
  5
BB6
331
42A
  5
42A
331
EBA
  5
EBA
331
3E1
  5
3E1
331
854
  5
854
331
A66
  5
A66
331
9E8
  5
9E8
331
1F2
  5
1F2
331
927
  5
927
331
43
  5
43
331
BB
  5
BB
331
5E
  5
5E
331
C7E
  5
C7E
331
887
  5
887
331
3A4
  5
3A4
331
A73
  5
A73
331
9D3
  5
9D3
331
A8E
  5
A8E
331
CFE
  5
CFE
331
1BA
  5
1BA
331
50
  5
50
331
13
  5
13
331
109
  5
109
331
C8
  5
C8
331
3C1
  5
3C1
331
B33
  5
B33
331
B0D
  5
B0D
331
D0B
  5
D0B
331
10C0
  5
10C0
331
941
  5
941
331
20
  5
20
331
15E
  5
15E
331
3B
  5
3B
331
B3
  5
B3
331
42F
  5
42F
331
B1A
  5
B1A
331
A6B
  5
A6B
331
48
  5
48
331
C68
  5
C68
331
A78
  5
A78
331
D03
  5
D03
331
1E9
  5
1E9
331
91E
  5
91E
331
1BF
  5
1BF
331
55
  5
55
331
18
  5
18
331
C75
  5
C75
331
39B
  5
39B
331
B12
  5
B12
331
1B1
  5
1B1
331
1CC
  5
1CC
331
62
  5
62
331
25
  5
25
331
3B8
  5
3B8
331
3EB
  5
3EB
331
B1F
  5
B1F
331
32
  5
32
331
4D
  5
4D
331
C6D
  5
C6D
331
BB2
  5
BB2
331
C5
  5
C5
331
408
  5
408
331
1EE
  5
1EE
331
5A
  5
5A
331
BBF
  5
BBF
331
1D
  5
1D
331
EA1
  5
EA1
331
425
  5
425
331
3A0
  5
3A0
331
9CF
  5
9CF
331
2A
  5
2A
331
473
  5
473
331
890
  5
890
331
3BD
  5
3BD
331
86E
  5
86E
331
9DC
  5
9DC
331
BD9
  5
BD9
331
AF
  5
AF
331
BB7
  5
BB7
331
42B
  5
42B
331
855
  5
855
331
A67
  5
A67
331
9E9
  5
9E9
331
1F3
  5
1F3
331
44
  5
44
331
C64
  5
C64
331
BC
  5
BC
331
5F
  5
5F
331
C7F
  5
C7F
331
BC4
  5
BC4
331
888
  5
888
331
3A5
  5
3A5
331
A74
  5
A74
331
9D4
  5
9D4
331
A8F
  5
A8F
331
D25
  5
D25
331
CFF
  5
CFF
331
91A
  5
91A
331
1BB
  5
1BB
331
51
  5
51
331
14
  5
14
331
10A
  5
10A
331
2F
  5
2F
331
3C2
  5
3C2
331
B34
  5
B34
331
D0C
  5
D0C
331
10C1
  5
10C1
331
942
  5
942
331
21
  5
21
331
3C
  5
3C
331
C5C
  5
C5C
331
B4
  5
B4
331
B1B
  5
B1B
331
A6C
  5
A6C
331
49
  5
49
331
B28
  5
B28
331
A79
  5
A79
331
D04
  5
D04
331
1EA
  5
1EA
331
91F
  5
91F
331
56
  5
56
331
19
  5
19
331
E9D
  5
E9D
331
39C
  5
39C
331
89A
  5
89A
331
814
  5
814
331
9E6
  5
9E6
331
1B2
  5
1B2
331
92C
  5
92C
331
1CD
  5
1CD
331
26
  5
26
331
63
  5
63
331
3B9
  5
3B9
331
3EC
  5
3EC
331
B20
  5
B20
331
33
  5
33
331
BB3
  5
BB3
331
4E
  5
4E
331
409
  5
409
331
9C4
  5
9C4
331
1EF
  5
1EF
331
40
  5
40
331
B8
  5
B8
331
BC0
  5
BC0
331
5B
  5
5B
331
1E
  5
1E
331
426
  5
426
331
3A1
  5
3A1
331
9D0
  5
9D0
331
1B7
  5
1B7
331
2B
  5
2B
331
891
  5
891
331
3BE
  5
3BE
331
86F
  5
86F
331
9DD
  5
9DD
331
15B
  5
15B
331
BDA
  5
BDA
331
C58
  5
C58
331
38
  5
38
331
B0
  5
B0
331
42C
  5
42C
331
856
  5
856
331
1125
  5
1125
331
1F4
  5
1F4
331
C65
  5
C65
331
45
  5
45
331
BC5
  5
BC5
331
889
  5
889
331
3A6
  5
3A6
331
A75
  5
A75
331
9D5
  5
9D5
331
D26
  5
D26
331
264
  5
264
331
91B
  5
91B
331
1BC
  5
1BC
331
936
  5
936
331
52
  5
52
331
10B
  5
10B
331
A82
  5
A82
331
B35
  5
B35
331
D0D
  5
D0D
331
10C2
  5
10C2
331
928
  5
928
331
1C9
  5
1C9
331
943
  5
943
331
22
  5
22
331
160
  5
160
331
C5D
  5
C5D
331
3D
  5
3D
331
B5
  5
B5
331
3E8
  5
3E8
331
B1C
  5
B1C
331
21B
  5
21B
331
C6A
  5
C6A
331
4A
  5
4A
331
405
  5
405
331
B29
  5
B29
331
A7A
  5
A7A
331
D10
  5
D10
331
9C0
  5
9C0
331
1EB
  5
1EB
331
920
  5
920
331
57
  5
57
331
1A
  5
1A
331
E9E
  5
E9E
331
422
  5
422
331
39D
  5
39D
331
89B
  5
89B
331
9CC
  5
9CC
331
9E7
  5
9E7
331
1B3
  5
1B3
331
92D
  5
92D
331
1CE
  5
1CE
331
64
  5
64
331
27
  5
27
331
436
  5
436
331
3BA
  5
3BA
331
86B
  5
86B
331
B21
  5
B21
331
1C0
  5
1C0
  0
XRECORD
  5
FB6
102
{ACAD_REACTORS
330
82A
102
}
330
82A
100
AcDbXrecord
280
     1
340
829
  0
XRECORD
  5
FB7
102
{ACAD_REACTORS
330
830
102
}
330
830
100
AcDbXrecord
280
     1
340
82F
  0
DICTIONARY
  5
13DD
102
{ACAD_REACTORS
330
13DC
102
}
330
13DC
100
AcDbDictionary
280
     1
281
     1
  3
Edit
360
13DE
  0
DICTIONARY
  5
13E0
102
{ACAD_REACTORS
330
13DF
102
}
330
13DF
100
AcDbDictionary
280
     1
281
     1
  3
Edit
360
13E1
  0
ACDBASSOCNETWORK
  5
12C6
102
{ACAD_REACTORS
330
12C5
102
}
330
12C5
100
AcDbAssocAction
 90
        1
 90
        1
330
0
360
0
 90
        0
 90
        0
 90
        0
100
AcDbAssocNetwork
 90
        0
 90
        1
 90
        1
330
12C4
 90
        1
330
12C4
  0
ACDBDETAILVIEWSTYLE
  5
1116
102
{ACAD_XDICTIONARY
360
13DA
102
}
102
{ACAD_REACTORS
330
1042
102
}
330
1042
100
AcDbModelDocViewStyle
 70
     0
  3
Imperial24
290
     0
100
AcDbDetailViewStyle
 70
     0
 71
     0
 90
        3
 71
     1
340
9
 40
0.24
340
0
 40
0.24
300

 40
0.36
280
     3
 71
     2
340
8
 90
       25
 71
     3
340
9
 40
0.24
 90
        1
 40
0.75
 90
        1
300
%<\AcVar ViewType \f "%tc1">% %<\AcVar ViewDetailId>%\PSCALE %<\AcVar ViewScale \f "%sn">%
 71
     4
340
8
 90
       25
340
8
 90
       25
280
     0
  0
ACDBDETAILVIEWSTYLE
  5
1043
102
{ACAD_XDICTIONARY
360
13D6
102
}
102
{ACAD_REACTORS
330
1042
102
}
330
1042
100
AcDbModelDocViewStyle
 70
     0
  3
Metric50
290
     0
100
AcDbDetailViewStyle
 70
     0
 71
     0
 90
        3
 71
     1
340
9
 40
5.0
340
0
 40
5.0
300

 40
0.0
280
     1
 71
     2
340
8
 90
       25
 71
     3
340
9
 40
5.0
 90
        0
 40
15.0
 90
        1
300
%<\AcVar ViewDetailId>% (%<\AcVar ViewScale \f "%sn">%)
 71
     4
340
8
 90
       25
340
8
 90
       25
280
     0
  0
LAYOUT
  5
82E
102
{ACAD_XDICTIONARY
360
139A
102
}
102
{ACAD_REACTORS
330
828
102
}
330
828
100
AcDbPlotSettings
  1

  2
None
  4

  6

 40
0.0
 41
0.0
 42
0.0
 43
0.0
 44
0.0
 45
0.0
 46
0.0
 47
0.0
 48
0.0
 49
0.0
140
0.0
141
0.0
142
1.0
143
1.0
 70
   688
 72
     0
 73
     0
 74
     5
  7
monochrome.ctb
 75
    16
147
1.0
148
0.0
149
0.0
100
AcDbLayout
  1
Layout1
 70
     1
 71
     1
 10
0.0
 20
0.0
 11
12.0
 21
9.0
 12
0.0
 22
0.0
 32
0.0
 14
0.0
 24
0.0
 34
0.0
 15
0.0
 25
0.0
 35
0.0
146
0.0
 13
0.0
 23
0.0
 33
0.0
 16
1.0
 26
0.0
 36
0.0
 17
0.0
 27
1.0
 37
0.0
 76
     0
330
829
  0
LAYOUT
  5
834
102
{ACAD_XDICTIONARY
360
139C
102
}
102
{ACAD_REACTORS
330
828
102
}
330
828
100
AcDbPlotSettings
  1

  2
None
  4

  6

 40
0.0
 41
0.0
 42
0.0
 43
0.0
 44
0.0
 45
0.0
 46
0.0
 47
0.0
 48
0.0
 49
0.0
140
0.0
141
0.0
142
1.0
143
1.0
 70
   688
 72
     0
 73
     0
 74
     5
  7
monochrome.ctb
 75
    16
147
1.0
148
0.0
149
0.0
100
AcDbLayout
  1
Layout2
 70
     1
 71
     2
 10
0.0
 20
0.0
 11
12.0
 21
9.0
 12
0.0
 22
0.0
 32
0.0
 14
0.0
 24
0.0
 34
0.0
 15
0.0
 25
0.0
 35
0.0
146
0.0
 13
0.0
 23
0.0
 33
0.0
 16
1.0
 26
0.0
 36
0.0
 17
0.0
 27
1.0
 37
0.0
 76
     0
330
82F
  0
LAYOUT
  5
827
102
{ACAD_XDICTIONARY
360
1398
102
}
102
{ACAD_REACTORS
330
828
102
}
330
828
100
AcDbPlotSettings
  1

  2
EPSON LP-9400
  4
A4
  6

 40
5.873749732971191
 41
5.873747825622558
 42
5.873748779296875
 43
5.873748779296875
 44
209.9733276367187
 45
297.0106506347656
 46
2.339999999999999
 47
0.0
 48
0.0
 49
0.0
140
0.0
141
0.0
142
1.0
143
9.816891609963194
 70
 11956
 72
     1
 73
     1
 74
     1
  7
monochrome.ctb
 75
     0
147
0.1018652379725877
148
1264.94917075748
149
959.6633564695521
100
AcDbLayout
  1
Model
 70
     1
 71
     0
 10
0.0
 20
0.0
 11
12.0
 21
9.0
 12
0.0
 22
0.0
 32
0.0
 14
0.0
 24
0.0
 34
0.0
 15
0.0
 25
0.0
 35
0.0
146
0.0
 13
0.0
 23
0.0
 33
0.0
 16
1.0
 26
0.0
 36
0.0
 17
0.0
 27
1.0
 37
0.0
 76
     0
330
2
331
FF5
  0
MATERIAL
  5
1000
102
{ACAD_XDICTIONARY
360
1001
102
}
102
{ACAD_REACTORS
330
FF7
102
}
330
FF7
100
AcDbMaterial
  1
ByBlock
 72
     0
 43
0.0008202099737533
 43
0.0
 43
0.0
 43
0.0
 43
0.0
 43
0.0008202099737533
 43
0.0
 43
0.0
 43
0.0
 43
0.0
 43
1.0
 43
0.0
 43
0.0
 43
0.0
 43
0.0
 43
1.0
 77
     0
 47
0.0008202099737533
 47
0.0
 47
0.0
 47
0.0
 47
0.0
 47
0.0008202099737533
 47
0.0
 47
0.0
 47
0.0
 47
0.0
 47
1.0
 47
0.0
 47
0.0
 47
0.0
 47
0.0
 47
1.0
171
     0
 49
0.0008202099737533
 49
0.0
 49
0.0
 49
0.0
 49
0.0
 49
0.0008202099737533
 49
0.0
 49
0.0
 49
0.0
 49
0.0
 49
1.0
 49
0.0
 49
0.0
 49
0.0
 49
0.0
 49
1.0
175
     0
142
0.0008202099737533
142
0.0
142
0.0
142
0.0
142
0.0
142
0.0008202099737533
142
0.0
142
0.0
142
0.0
142
0.0
142
1.0
142
0.0
142
0.0
142
0.0
142
0.0
142
1.0
179
     0
144
0.0008202099737533
144
0.0
144
0.0
144
0.0
144
0.0
144
0.0008202099737533
144
0.0
144
0.0
144
0.0
144
0.0
144
1.0
144
0.0
144
0.0
144
0.0
144
0.0
144
1.0
147
0.0008202099737533
147
0.0
147
0.0
147
0.0
147
0.0
147
0.0008202099737533
147
0.0
147
0.0
147
0.0
147
0.0
147
1.0
147
0.0
147
0.0
147
0.0
147
0.0
147
1.0
  0
MATERIAL
  5
FF8
102
{ACAD_XDICTIONARY
360
FF9
102
}
102
{ACAD_REACTORS
330
FF7
102
}
330
FF7
100
AcDbMaterial
  1
ByLayer
 72
     0
 43
0.0008202099737533
 43
0.0
 43
0.0
 43
0.0
 43
0.0
 43
0.0008202099737533
 43
0.0
 43
0.0
 43
0.0
 43
0.0
 43
1.0
 43
0.0
 43
0.0
 43
0.0
 43
0.0
 43
1.0
 77
     0
 47
0.0008202099737533
 47
0.0
 47
0.0
 47
0.0
 47
0.0
 47
0.0008202099737533
 47
0.0
 47
0.0
 47
0.0
 47
0.0
 47
1.0
 47
0.0
 47
0.0
 47
0.0
 47
0.0
 47
1.0
171
     0
 49
0.0008202099737533
 49
0.0
 49
0.0
 49
0.0
 49
0.0
 49
0.0008202099737533
 49
0.0
 49
0.0
 49
0.0
 49
0.0
 49
1.0
 49
0.0
 49
0.0
 49
0.0
 49
0.0
 49
1.0
175
     0
142
0.0008202099737533
142
0.0
142
0.0
142
0.0
142
0.0
142
0.0008202099737533
142
0.0
142
0.0
142
0.0
142
0.0
142
1.0
142
0.0
142
0.0
142
0.0
142
0.0
142
1.0
179
     0
144
0.0008202099737533
144
0.0
144
0.0
144
0.0
144
0.0
144
0.0008202099737533
144
0.0
144
0.0
144
0.0
144
0.0
144
1.0
144
0.0
144
0.0
144
0.0
144
0.0
144
1.0
147
0.0008202099737533
147
0.0
147
0.0
147
0.0
147
0.0
147
0.0008202099737533
147
0.0
147
0.0
147
0.0
147
0.0
147
1.0
147
0.0
147
0.0
147
0.0
147
0.0
147
1.0
  0
MATERIAL
  5
1008
102
{ACAD_XDICTIONARY
360
1009
102
}
102
{ACAD_REACTORS
330
FF7
102
}
330
FF7
100
AcDbMaterial
  1
Global
 72
     0
 43
0.0008202099737533
 43
0.0
 43
0.0
 43
0.0
 43
0.0
 43
0.0008202099737533
 43
0.0
 43
0.0
 43
0.0
 43
0.0
 43
1.0
 43
0.0
 43
0.0
 43
0.0
 43
0.0
 43
1.0
 77
     0
 47
0.0008202099737533
 47
0.0
 47
0.0
 47
0.0
 47
0.0
 47
0.0008202099737533
 47
0.0
 47
0.0
 47
0.0
 47
0.0
 47
1.0
 47
0.0
 47
0.0
 47
0.0
 47
0.0
 47
1.0
171
     0
 49
0.0008202099737533
 49
0.0
 49
0.0
 49
0.0
 49
0.0
 49
0.0008202099737533
 49
0.0
 49
0.0
 49
0.0
 49
0.0
 49
1.0
 49
0.0
 49
0.0
 49
0.0
 49
0.0
 49
1.0
175
     0
142
0.0008202099737533
142
0.0
142
0.0
142
0.0
142
0.0
142
0.0008202099737533
142
0.0
142
0.0
142
0.0
142
0.0
142
1.0
142
0.0
142
0.0
142
0.0
142
0.0
142
1.0
179
     0
144
0.0008202099737533
144
0.0
144
0.0
144
0.0
144
0.0
144
0.0008202099737533
144
0.0
144
0.0
144
0.0
144
0.0
144
1.0
144
0.0
144
0.0
144
0.0
144
0.0
144
1.0
147
0.0008202099737533
147
0.0
147
0.0
147
0.0
147
0.0
147
0.0008202099737533
147
0.0
147
0.0
147
0.0
147
0.0
147
1.0
147
0.0
147
0.0
147
0.0
147
0.0
147
1.0
  0
MLEADERSTYLE
  5
103F
102
{ACAD_XDICTIONARY
360
13D2
102
}
102
{ACAD_REACTORS
330
103E
102
}
330
103E
100
AcDbMLeaderStyle
170
     2
171
     1
172
     0
 90
        2
 40
0.0
 41
0.0
173
     1
 91
-1056964608
340
839
 92
       -2
290
     1
 42
2.0
291
     1
 43
0.36
  3
Standard
 44
4.0
300

342
9
174
     1
178
     6
175
     1
176
     0
 93
-1056964608
 45
4.0
292
     0
297
     0
 46
4.0
 94
-1056964608
 47
1.0
 49
1.0
140
1.0
293
     1
141
0.0
294
     1
177
     0
142
1.0
295
     0
296
     0
143
0.125
1001
ACAD_MLEADERVER
1070
     2
  0
MLINESTYLE
  5
845
102
{ACAD_REACTORS
330
843
102
}
330
843
100
AcDbMlineStyle
  2
STANDARD
 70
     0
  3

 62
   256
 51
90.0
 52
90.0
 71
     2
 49
0.5
 62
   256
  6
BYLAYER
 49
-0.5
 62
   256
  6
BYLAYER
  0
ACDBPLACEHOLDER
  5
5
102
{ACAD_REACTORS
330
6
102
}
330
6
  0
SCALE
  5
102D
102
{ACAD_REACTORS
330
102C
102
}
330
102C
100
AcDbScale
 70
     0
300
1:1
140
1.0
141
1.0
290
     1
  0
SCALE
  5
102E
102
{ACAD_REACTORS
330
102C
102
}
330
102C
100
AcDbScale
 70
     0
300
1:2
140
1.0
141
2.0
290
     0
  0
SCALE
  5
102F
102
{ACAD_REACTORS
330
102C
102
}
330
102C
100
AcDbScale
 70
     0
300
1:4
140
1.0
141
4.0
290
     0
  0
SCALE
  5
1030
102
{ACAD_REACTORS
330
102C
102
}
330
102C
100
AcDbScale
 70
     0
300
1:5
140
1.0
141
5.0
290
     0
  0
SCALE
  5
1031
102
{ACAD_REACTORS
330
102C
102
}
330
102C
100
AcDbScale
 70
     0
300
1:8
140
1.0
141
8.0
290
     0
  0
SCALE
  5
1032
102
{ACAD_REACTORS
330
102C
102
}
330
102C
100
AcDbScale
 70
     0
300
1:10
140
1.0
141
10.0
290
     0
  0
SCALE
  5
1033
102
{ACAD_REACTORS
330
102C
102
}
330
102C
100
AcDbScale
 70
     0
300
1:16
140
1.0
141
16.0
290
     0
  0
SCALE
  5
1034
102
{ACAD_REACTORS
330
102C
102
}
330
102C
100
AcDbScale
 70
     0
300
1:20
140
1.0
141
20.0
290
     0
  0
SCALE
  5
1035
102
{ACAD_REACTORS
330
102C
102
}
330
102C
100
AcDbScale
 70
     0
300
1:30
140
1.0
141
30.0
290
     0
  0
SCALE
  5
1036
102
{ACAD_REACTORS
330
102C
102
}
330
102C
100
AcDbScale
 70
     0
300
1:40
140
1.0
141
40.0
290
     0
  0
SCALE
  5
1037
102
{ACAD_REACTORS
330
102C
102
}
330
102C
100
AcDbScale
 70
     0
300
1:50
140
1.0
141
50.0
290
     0
  0
SCALE
  5
1038
102
{ACAD_REACTORS
330
102C
102
}
330
102C
100
AcDbScale
 70
     0
300
1:100
140
1.0
141
100.0
290
     0
  0
SCALE
  5
1039
102
{ACAD_REACTORS
330
102C
102
}
330
102C
100
AcDbScale
 70
     0
300
2:1
140
2.0
141
1.0
290
     0
  0
SCALE
  5
103A
102
{ACAD_REACTORS
330
102C
102
}
330
102C
100
AcDbScale
 70
     0
300
4:1
140
4.0
141
1.0
290
     0
  0
SCALE
  5
103B
102
{ACAD_REACTORS
330
102C
102
}
330
102C
100
AcDbScale
 70
     0
300
8:1
140
8.0
141
1.0
290
     0
  0
SCALE
  5
103C
102
{ACAD_REACTORS
330
102C
102
}
330
102C
100
AcDbScale
 70
     0
300
10:1
140
10.0
141
1.0
290
     0
  0
SCALE
  5
103D
102
{ACAD_REACTORS
330
102C
102
}
330
102C
100
AcDbScale
 70
     0
300
100:1
140
100.0
141
1.0
290
     0
  0
ACDBSECTIONVIEWSTYLE
  5
1115
102
{ACAD_XDICTIONARY
360
13D8
102
}
102
{ACAD_REACTORS
330
1040
102
}
330
1040
100
AcDbModelDocViewStyle
 70
     0
  3
Imperial24
290
     0
100
AcDbSectionViewStyle
 70
     0
 71
     0
 90
       78
 71
     1
340
9
 40
0.24
340
0
340
0
 40
0.24
300
I, O, Q, S, X, Z
 40
0.48
 90
        3
 40
0.18
 90
        1
 71
     2
340
8
 90
       25
340
8
 90
       50
 40
0.24
 40
0.0
 40
0.24
 71
     3
340
9
 40
0.24
 90
        1
 40
0.75
 90
        1
300
%<\AcVar ViewType \f "%tc1">% %<\AcVar ViewSectionStartId>%-%<\AcVar ViewSectionEndId>%\PSCALE %<\AcVar ViewScale \f "%sn">%
 71
     4
300
ANSI31
 40
1.0
 90
        0
290
     0
290
     0
 90
        6
 40
0.0
 40
1.570796326794896
 40
0.2617993877991494
 40
1.308996938995747
 40
-0.2617993877991494
 40
1.832595714594046
  0
ACDBSECTIONVIEWSTYLE
  5
1041
102
{ACAD_XDICTIONARY
360
13D4
102
}
102
{ACAD_REACTORS
330
1040
102
}
330
1040
100
AcDbModelDocViewStyle
 70
     0
  3
Metric50
290
     0
100
AcDbSectionViewStyle
 70
     0
 71
     0
 90
      102
 71
     1
340
9
 40
5.0
340
0
340
0
 40
5.0
300
I, O, Q, S, X, Z
 40
10.0
 90
        0
 40
2.5
 90
        0
 71
     2
340
8
 90
       25
340
8
 90
       50
 40
5.0
 40
2.5
 40
5.0
 71
     3
340
9
 40
5.0
 90
        0
 40
15.0
 90
        1
300
%<\AcVar ViewSectionStartId>%-%<\AcVar ViewSectionEndId>% (%<\AcVar ViewScale \f "%sn">%)
 71
     4
300
ANSI31
 40
1.0
 90
        0
290
     0
290
     0
 90
        6
 40
0.0
 40
1.570796326794896
 40
0.2617993877991494
 40
1.308996938995747
 40
-0.2617993877991494
 40
1.832595714594046
  0
TABLESTYLE
  5
102B
102
{ACAD_XDICTIONARY
360
1059
102
}
102
{ACAD_REACTORS
330
102A
102
}
330
102A
100
AcDbTableStyle
  3
Standard
 70
     0
 71
     0
 40
1.5
 41
1.5
280
     0
281
     0
  7
Standard
140
4.5
170
     2
 62
     0
 63
     7
283
     0
274
    -2
284
     1
 64
     0
275
    -2
285
     1
 65
     0
276
    -2
286
     1
 66
     0
277
    -2
287
     1
 67
     0
278
    -2
288
     1
 68
     0
279
    -2
289
     1
 69
     0
  7
Standard
140
6.0
170
     5
 62
     0
 63
     7
283
     0
274
    -2
284
     1
 64
     0
275
    -2
285
     1
 65
     0
276
    -2
286
     1
 66
     0
277
    -2
287
     1
 67
     0
278
    -2
288
     1
 68
     0
279
    -2
289
     1
 69
     0
  7
Standard
140
4.5
170
     5
 62
     0
 63
     7
283
     0
274
    -2
284
     1
 64
     0
275
    -2
285
     1
 65
     0
276
    -2
286
     1
 66
     0
277
    -2
287
     1
 67
     0
278
    -2
288
     1
 68
     0
279
    -2
289
     1
 69
     0
  0
VISUALSTYLE
  5
1016
102
{ACAD_XDICTIONARY
360
13AB
102
}
102
{ACAD_REACTORS
330
1010
102
}
330
1010
100
AcDbVisualStyle
  2
2dWireframe
 70
     4
 71
     0
 72
     2
 73
     0
 90
        0
 40
-0.6
 41
-30.0
 62
     5
 63
     7
 74
     1
 91
        4
 64
     7
 65
   257
 75
     1
175
     1
 42
1.0
 92
        0
 66
   257
 43
1.0
 76
     1
 77
     6
 78
     2
 67
     7
 79
     5
170
     0
171
     0
290
     0
174
     0
 93
        1
 44
0.0
173
     0
291
     0
 45
0.0
1001
ACAD
1000
AcDbSavedByObjectVersion
1070
     0
  0
VISUALSTYLE
  5
1015
102
{ACAD_XDICTIONARY
360
13A9
102
}
102
{ACAD_REACTORS
330
1010
102
}
330
1010
100
AcDbVisualStyle
  2
Basic
 70
     7
 71
     1
 72
     0
 73
     1
 90
        0
 40
-0.6
 41
-30.0
 62
     5
 63
     7
 74
     0
 91
        4
 64
     7
 65
   257
 75
     1
175
     1
 42
1.0
 92
        8
 66
     7
 43
1.0
 76
     1
 77
     6
 78
     2
 67
     7
 79
     5
170
     0
171
     0
290
     0
174
     0
 93
        1
 44
0.0
173
     0
291
     1
 45
0.0
1001
ACAD
1000
AcDbSavedByObjectVersion
1070
     0
  0
VISUALSTYLE
  5
101C
102
{ACAD_XDICTIONARY
360
13B7
102
}
102
{ACAD_REACTORS
330
1010
102
}
330
1010
100
AcDbVisualStyle
  2
Brighten
 70
    12
 71
     2
 72
     2
 73
     0
 90
        0
 40
-0.6
 41
-30.0
 62
     5
 63
     7
 74
     1
 91
        4
 64
     7
 65
   257
 75
     1
175
     1
 42
1.0
 92
        8
 66
     7
 43
1.0
 76
     1
 77
     6
 78
     2
 67
     7
 79
     5
170
     0
171
     0
290
     0
174
     0
 93
        1
 44
50.0
173
     0
291
     1
 45
0.0
1001
ACAD
1000
AcDbSavedByObjectVersion
1070
     0
  0
VISUALSTYLE
  5
1020
102
{ACAD_XDICTIONARY
360
13BF
102
}
102
{ACAD_REACTORS
330
1010
102
}
330
1010
100
AcDbVisualStyle
  2
ColorChange
 70
    16
 71
     2
 72
     2
 73
     3
 90
        0
 40
-0.6
 41
-30.0
 62
     5
 63
     8
 74
     1
 91
        4
 64
     7
 65
   257
 75
     1
175
     1
 42
1.0
 92
        8
 66
     8
 43
1.0
 76
     1
 77
     6
 78
     2
 67
     7
 79
     5
170
     0
171
     0
290
     0
174
     0
 93
        1
 44
0.0
173
     0
291
     1
 45
0.0
1001
ACAD
1000
AcDbSavedByObjectVersion
1070
     0
  0
VISUALSTYLE
  5
1019
102
{ACAD_XDICTIONARY
360
13B1
102
}
102
{ACAD_REACTORS
330
1010
102
}
330
1010
100
AcDbVisualStyle
  2
Conceptual
 70
     9
 71
     3
 72
     2
 73
     0
 90
        0
 40
-0.6
 41
-30.0
 62
     5
 63
     7
 74
     2
 91
        2
 64
     7
 65
   257
 75
     1
175
     1
 42
179.0
 92
        8
 66
     7
 43
1.0
 76
     1
 77
     6
 78
     2
 67
     7
 79
     3
170
     0
171
     0
290
     0
174
     0
 93
        1
 44
0.0
173
     0
291
     0
 45
0.0
1001
ACAD
1000
AcDbSavedByObjectVersion
1070
     0
  0
VISUALSTYLE
  5
101B
102
{ACAD_XDICTIONARY
360
13B5
102
}
102
{ACAD_REACTORS
330
1010
102
}
330
1010
100
AcDbVisualStyle
  2
Dim
 70
    11
 71
     2
 72
     2
 73
     0
 90
        0
 40
-0.6
 41
-30.0
 62
     5
 63
     7
 74
     1
 91
        4
 64
     7
 65
   257
 75
     1
175
     1
 42
1.0
 92
        8
 66
     7
 43
1.0
 76
     1
 77
     6
 78
     2
 67
     7
 79
     5
170
     0
171
     0
290
     0
174
     0
 93
        1
 44
-50.0
173
     0
291
     1
 45
0.0
1001
ACAD
1000
AcDbSavedByObjectVersion
1070
     0
  0
VISUALSTYLE
  5
1028
102
{ACAD_XDICTIONARY
360
13CF
102
}
102
{ACAD_REACTORS
330
1010
102
}
330
1010
100
AcDbVisualStyle
  2
EdgeColorOff
 70
    22
 71
     2
 72
     2
 73
     0
 90
        0
 40
-0.6
 41
-30.0
 62
     5
 63
     7
 74
     1
 91
        4
 64
     7
 65
   257
 75
     1
175
     1
 42
1.0
 92
        8
 66
     7
 43
1.0
 76
     1
 77
     6
 78
     2
 67
     7
 79
     5
170
     0
171
     0
290
     0
174
     0
 93
        1
 44
0.0
173
     0
291
     1
 45
0.0
1001
ACAD
1000
AcDbSavedByObjectVersion
1070
     0
  0
VISUALSTYLE
  5
101F
102
{ACAD_XDICTIONARY
360
13BD
102
}
102
{ACAD_REACTORS
330
1010
102
}
330
1010
100
AcDbVisualStyle
  2
Facepattern
 70
    15
 71
     2
 72
     2
 73
     0
 90
        0
 40
-0.6
 41
-30.0
 62
     5
 63
     7
 74
     1
 91
        4
 64
     7
 65
   257
 75
     1
175
     1
 42
1.0
 92
        8
 66
     7
 43
1.0
 76
     1
 77
     6
 78
     2
 67
     7
 79
     5
170
     0
171
     0
290
     0
174
     0
 93
        1
 44
0.0
173
     0
291
     1
 45
0.0
1001
ACAD
1000
AcDbSavedByObjectVersion
1070
     0
  0
VISUALSTYLE
  5
1011
102
{ACAD_XDICTIONARY
360
13A1
102
}
102
{ACAD_REACTORS
330
1010
102
}
330
1010
100
AcDbVisualStyle
  2
Flat
 70
     0
 71
     2
 72
     1
 73
     1
 90
        2
 40
-0.6
 41
30.0
 62
     5
 63
     7
 74
     0
 91
        0
 64
     7
 65
   257
 75
     1
175
     1
 42
1.0
 92
        8
 66
     7
 43
1.0
 76
     1
 77
     6
 78
     2
 67
     7
 79
     5
170
     0
171
     0
290
     0
174
     0
 93
       13
 44
0.0
173
     0
291
     1
 45
0.0
1001
ACAD
1000
AcDbSavedByObjectVersion
1070
     0
  0
VISUALSTYLE
  5
1012
102
{ACAD_XDICTIONARY
360
13A3
102
}
102
{ACAD_REACTORS
330
1010
102
}
330
1010
100
AcDbVisualStyle
  2
FlatWithEdges
 70
     1
 71
     2
 72
     1
 73
     1
 90
        2
 40
-0.6
 41
30.0
 62
     5
 63
     7
 74
     1
 91
        0
 64
     7
 65
   257
 75
     1
175
     1
 42
1.0
 92
        0
 66
   257
 43
1.0
 76
     1
 77
     6
 78
     2
 67
     7
 79
     5
170
     0
171
     0
290
     0
174
     0
 93
       13
 44
0.0
173
     0
291
     1
 45
0.0
1001
ACAD
1000
AcDbSavedByObjectVersion
1070
     0
  0
VISUALSTYLE
  5
1013
102
{ACAD_XDICTIONARY
360
13A5
102
}
102
{ACAD_REACTORS
330
1010
102
}
330
1010
100
AcDbVisualStyle
  2
Gouraud
 70
     2
 71
     2
 72
     2
 73
     1
 90
        2
 40
-0.6
 41
30.0
 62
     5
 63
     7
 74
     0
 91
        0
 64
     7
 65
   257
 75
     1
175
     1
 42
1.0
 92
        0
 66
     7
 43
1.0
 76
     1
 77
     6
 78
     2
 67
     7
 79
     5
170
     0
171
     0
290
     0
174
     0
 93
       13
 44
0.0
173
     0
291
     1
 45
0.0
1001
ACAD
1000
AcDbSavedByObjectVersion
1070
     0
  0
VISUALSTYLE
  5
1014
102
{ACAD_XDICTIONARY
360
13A7
102
}
102
{ACAD_REACTORS
330
1010
102
}
330
1010
100
AcDbVisualStyle
  2
GouraudWithEdges
 70
     3
 71
     2
 72
     2
 73
     1
 90
        2
 40
-0.6
 41
30.0
 62
     5
 63
     7
 74
     1
 91
        0
 64
     7
 65
   257
 75
     1
175
     1
 42
1.0
 92
        0
 66
   257
 43
1.0
 76
     1
 77
     6
 78
     2
 67
     7
 79
     5
170
     0
171
     0
290
     0
174
     0
 93
       13
 44
0.0
173
     0
291
     1
 45
0.0
1001
ACAD
1000
AcDbSavedByObjectVersion
1070
     0
  0
VISUALSTYLE
  5
1018
102
{ACAD_XDICTIONARY
360
13AF
102
}
102
{ACAD_REACTORS
330
1010
102
}
330
1010
100
AcDbVisualStyle
  2
Hidden
 70
     6
 71
     1
 72
     2
 73
     2
 90
        0
 40
-0.6
 41
-30.0
 62
     5
 63
     7
 74
     2
 91
        2
 64
     7
 65
   257
 75
     2
175
     1
 42
40.0
 92
        0
 66
   257
 43
1.0
 76
     1
 77
     6
 78
     2
 67
     7
 79
     3
170
     0
171
     0
290
     0
174
     0
 93
        1
 44
0.0
173
     0
291
     0
 45
0.0
1001
ACAD
1000
AcDbSavedByObjectVersion
1070
     0
  0
VISUALSTYLE
  5
1026
102
{ACAD_XDICTIONARY
360
13CB
102
}
102
{ACAD_REACTORS
330
1010
102
}
330
1010
100
AcDbVisualStyle
  2
JitterOff
 70
    20
 71
     2
 72
     2
 73
     0
 90
        0
 40
-0.6
 41
-30.0
 62
     5
 63
     7
 74
     1
 91
        4
 64
     7
 65
   257
 75
     1
175
     1
 42
1.0
 92
       10
 66
     7
 43
1.0
 76
     1
 77
     6
 78
     2
 67
     7
 79
     5
170
     0
171
     0
290
     0
174
     0
 93
        1
 44
0.0
173
     0
291
     1
 45
0.0
1001
ACAD
1000
AcDbSavedByObjectVersion
1070
     0
  0
VISUALSTYLE
  5
101E
102
{ACAD_XDICTIONARY
360
13BB
102
}
102
{ACAD_REACTORS
330
1010
102
}
330
1010
100
AcDbVisualStyle
  2
Linepattern
 70
    14
 71
     2
 72
     2
 73
     0
 90
        0
 40
-0.6
 41
-30.0
 62
     5
 63
     7
 74
     1
 91
        4
 64
     7
 65
   257
 75
     7
175
     7
 42
1.0
 92
        8
 66
     7
 43
1.0
 76
     1
 77
     6
 78
     2
 67
     7
 79
     5
170
     0
171
     0
290
     0
174
     0
 93
        1
 44
0.0
173
     0
291
     1
 45
0.0
1001
ACAD
1000
AcDbSavedByObjectVersion
1070
     0
  0
VISUALSTYLE
  5
1027
102
{ACAD_XDICTIONARY
360
13CD
102
}
102
{ACAD_REACTORS
330
1010
102
}
330
1010
100
AcDbVisualStyle
  2
OverhangOff
 70
    21
 71
     2
 72
     2
 73
     0
 90
        0
 40
-0.6
 41
-30.0
 62
     5
 63
     7
 74
     1
 91
        4
 64
     7
 65
   257
 75
     1
175
     1
 42
1.0
 92
        9
 66
     7
 43
1.0
 76
     1
 77
     6
 78
     2
 67
     7
 79
     5
170
     0
171
     0
290
     0
174
     0
 93
        1
 44
0.0
173
     0
291
     1
 45
0.0
1001
ACAD
1000
AcDbSavedByObjectVersion
1070
     0
  0
VISUALSTYLE
  5
101A
102
{ACAD_XDICTIONARY
360
13B3
102
}
102
{ACAD_REACTORS
330
1010
102
}
330
1010
100
AcDbVisualStyle
  2
Realistic
 70
     8
 71
     2
 72
     2
 73
     0
 90
        2
 40
-0.6
 41
30.0
 62
     5
 63
     7
 74
     0
 91
        0
 64
     7
 65
   257
 75
     1
175
     1
 42
1.0
 92
        8
 66
   257
 43
1.0
 76
     1
 77
     6
 78
     2
 67
     7
 79
     3
170
     0
171
     0
290
     0
174
     0
 93
       13
 44
0.0
173
     0
291
     0
 45
0.0
1001
ACAD
1000
AcDbSavedByObjectVersion
1070
     0
  0
VISUALSTYLE
  5
1025
102
{ACAD_XDICTIONARY
360
13C9
102
}
102
{ACAD_REACTORS
330
1010
102
}
330
1010
100
AcDbVisualStyle
  2
Shaded
 70
    27
 71
     2
 72
     2
 73
     1
 90
        2
 40
-0.6
 41
30.0
 62
     5
 63
     7
 74
     0
 91
        4
 64
     7
 65
   257
 75
     1
175
     1
 42
1.0
 92
        8
 66
   257
 43
1.0
 76
     1
 77
     6
 78
     2
 67
     8
 79
     3
170
     0
171
     0
290
     0
174
     0
 93
        5
 44
0.0
173
     0
291
     0
 45
0.0
1001
ACAD
1000
AcDbSavedByObjectVersion
1070
     0
  0
VISUALSTYLE
  5
1024
102
{ACAD_XDICTIONARY
360
13C7
102
}
102
{ACAD_REACTORS
330
1010
102
}
330
1010
100
AcDbVisualStyle
  2
Shaded with edges
 70
    26
 71
     2
 72
     2
 73
     1
 90
        2
 40
-0.6
 41
30.0
 62
     5
 63
     7
 74
     1
 91
       10
 64
     7
 65
   257
 75
     2
175
     1
 42
1.0
 92
        8
 66
   257
 43
1.0
 76
     1
 77
     6
 78
     2
 67
     7
 79
     3
170
     0
171
     0
290
     0
174
     0
 93
        5
 44
0.0
173
     0
291
     0
 45
0.0
1001
ACAD
1000
AcDbSavedByObjectVersion
1070
     0
  0
VISUALSTYLE
  5
1021
102
{ACAD_XDICTIONARY
360
13C1
102
}
102
{ACAD_REACTORS
330
1010
102
}
330
1010
100
AcDbVisualStyle
  2
Shades of Gray
 70
    23
 71
     2
 72
     2
 73
     3
 90
        0
 40
-0.6
 41
-30.0
 62
     5
 63
     7
 74
     2
 91
        2
 64
     7
 65
     7
 75
     1
175
     1
 42
40.0
 92
        8
 66
     7
 43
1.0
 76
     1
 77
     6
 78
     2
 67
     7
 79
     3
170
     0
171
     0
290
     0
174
     0
 93
        1
 44
0.0
173
     0
291
     0
 45
0.0
1001
ACAD
1000
AcDbSavedByObjectVersion
1070
     0
  0
VISUALSTYLE
  5
1022
102
{ACAD_XDICTIONARY
360
13C3
102
}
102
{ACAD_REACTORS
330
1010
102
}
330
1010
100
AcDbVisualStyle
  2
Sketchy
 70
    24
 71
     1
 72
     2
 73
     2
 90
        0
 40
-0.6
 41
-30.0
 62
     5
 63
     7
 74
     2
 91
        2
 64
     7
 65
     7
 75
     1
175
     1
 42
40.0
 92
       11
 66
     7
 43
1.0
 76
     1
 77
     6
 78
     2
 67
     7
 79
     6
170
     0
171
     0
290
     0
174
     0
 93
        1
 44
0.0
173
     0
291
     0
 45
0.0
1001
ACAD
1000
AcDbSavedByObjectVersion
1070
     0
  0
VISUALSTYLE
  5
101D
102
{ACAD_XDICTIONARY
360
13B9
102
}
102
{ACAD_REACTORS
330
1010
102
}
330
1010
100
AcDbVisualStyle
  2
Thicken
 70
    13
 71
     2
 72
     2
 73
     0
 90
        0
 40
-0.6
 41
-30.0
 62
     5
 63
     7
 74
     1
 91
        4
 64
     7
 65
   257
 75
     1
175
     1
 42
1.0
 92
       12
 66
     7
 43
1.0
 76
     1
 77
     6
 78
     2
 67
     7
 79
     5
170
     0
171
     0
290
     0
174
     0
 93
        1
 44
0.0
173
     0
291
     1
 45
0.0
1001
ACAD
1000
AcDbSavedByObjectVersion
1070
     0
  0
VISUALSTYLE
  5
1017
102
{ACAD_XDICTIONARY
360
13AD
102
}
102
{ACAD_REACTORS
330
1010
102
}
330
1010
100
AcDbVisualStyle
  2
Wireframe
 70
     5
 71
     0
 72
     2
 73
     0
 90
        0
 40
-0.6
 41
-30.0
 62
     5
 63
     7
 74
     1
 91
        4
 64
     7
 65
   257
 75
     1
175
     1
 42
1.0
 92
        0
 66
   257
 43
1.0
 76
     1
 77
     6
 78
     2
 67
     7
 79
     3
170
     0
171
     0
290
     0
174
     0
 93
        1
 44
0.0
173
     0
291
     0
 45
0.0
1001
ACAD
1000
AcDbSavedByObjectVersion
1070
     0
  0
VISUALSTYLE
  5
1023
102
{ACAD_XDICTIONARY
360
13C5
102
}
102
{ACAD_REACTORS
330
1010
102
}
330
1010
100
AcDbVisualStyle
  2
X-Ray
 70
    25
 71
     2
 72
     2
 73
     1
 90
        1
 40
0.5
 41
-30.0
 62
     5
 63
     7
 74
     1
 91
        0
 64
     7
 65
   257
 75
     1
175
     1
 42
1.0
 92
        8
 66
     7
 43
1.0
 76
     1
 77
     6
 78
     2
 67
     7
 79
     3
170
     0
171
     0
290
     0
174
     0
 93
       13
 44
0.0
173
     0
291
     0
 45
0.0
1001
ACAD
1000
AcDbSavedByObjectVersion
1070
     0
  0
DICTIONARYVAR
  5
10A5
102
{ACAD_REACTORS
330
10A0
102
}
330
10A0
100
DictionaryVariables
280
     0
  1
1:1
  0
DICTIONARYVAR
  5
10A2
102
{ACAD_REACTORS
330
10A0
102
}
330
10A0
100
DictionaryVariables
280
     0
  1
STANDARD
  0
DICTIONARYVAR
  5
10A1
102
{ACAD_REACTORS
330
10A0
102
}
330
10A0
100
DictionaryVariables
280
     0
  1
STANDARD
  0
DICTIONARYVAR
  5
10A3
102
{ACAD_REACTORS
330
10A0
102
}
330
10A0
100
DictionaryVariables
280
     0
  1
Metric50
  0
DICTIONARYVAR
  5
10A4
102
{ACAD_REACTORS
330
10A0
102
}
330
10A0
100
DictionaryVariables
280
     0
  1
Metric50
  0
DICTIONARYVAR
  5
10A8
102
{ACAD_REACTORS
330
10A0
102
}
330
10A0
100
DictionaryVariables
280
     0
  1
1
  0
DICTIONARYVAR
  5
10A7
102
{ACAD_REACTORS
330
10A0
102
}
330
10A0
100
DictionaryVariables
280
     0
  1
0
  0
DICTIONARYVAR
  5
10A6
102
{ACAD_REACTORS
330
10A0
102
}
330
10A0
100
DictionaryVariables
280
     0
  1
127
  0
DICTIONARYVAR
  5
1394
102
{ACAD_REACTORS
330
10A0
102
}
330
10A0
100
DictionaryVariables
280
     0
  1
2
  0
XRECORD
  5
1259
102
{ACAD_XDICTIONARY
360
125A
102
}
102
{ACAD_REACTORS
330
11A1
102
}
330
11A1
100
AcDbXrecord
280
     1
 91
      535
301

290
     0
302
寸法線
330
119E
 90
        8
 62
   112
370
    13
331
1B6
  1
色_112
440
        0
330
1111
 90
        8
 62
   112
370
    13
331
8
  1
色_112
440
        0
330
DE4
 90
        8
 62
     3
370
     9
331
8
  1
色_3
440
        0
330
1E0
 90
        0
 62
     7
370
    -3
331
8
  1
色_7
440
        0
330
11
 90
        8
 62
     7
370
    -3
331
8
  1
色_7
440
        0
330
68
 90
        8
 62
     4
370
     5
331
8
  1
色_4
440
        0
330
2E
 90
        8
 62
    31
370
     9
331
8
  1
色_31
440
        0
330
4
 90
        8
 62
     2
370
     9
331
8
  1
色_2
440
        0
330
6B
 90
        8
 62
     7
370
    13
331
8
  1
色_7
440
        0
330
65
 90
        8
 62
     7
370
    -3
331
8
  1
色_7
440
        0
  0
ACDBASSOCNETWORK
  5
12C4
102
{ACAD_REACTORS
330
12C3
102
}
330
12C3
100
AcDbAssocAction
 90
        1
 90
        1
330
12C6
360
0
 90
        1
 90
        0
 90
        0
100
AcDbAssocNetwork
 90
        0
 90
        2
 90
        2
360
12C7
360
12F9
 90
        2
330
12C7
330
12F9
  0
XRECORD
  5
13DE
102
{ACAD_REACTORS
330
13DD
102
}
330
13DD
100
AcDbXrecord
280
     1
1070
     0
1070
     1
1070
     1
  0
XRECORD
  5
13E1
102
{ACAD_REACTORS
330
13E0
102
}
330
13E0
100
AcDbXrecord
280
     1
1070
     0
1070
     1
1070
     1
  0
DICTIONARY
  5
13DA
330
1116
100
AcDbDictionary
280
     1
281
     1
  3
ACAD_XREC_ROUNDTRIP
360
13DB
  0
DICTIONARY
  5
13D6
330
1043
100
AcDbDictionary
280
     1
281
     1
  3
ACAD_XREC_ROUNDTRIP
360
13D7
  0
DICTIONARY
  5
139A
330
82E
100
AcDbDictionary
280
     1
281
     1
  3
ACAD_XREC_ROUNDTRIP
360
139B
  0
DICTIONARY
  5
139C
330
834
100
AcDbDictionary
280
     1
281
     1
  3
ACAD_XREC_ROUNDTRIP
360
139D
  0
DICTIONARY
  5
1398
330
827
100
AcDbDictionary
280
     1
281
     1
  3
ACAD_XREC_ROUNDTRIP
360
1399
  0
DICTIONARY
  5
1001
330
1000
100
AcDbDictionary
280
     1
281
     1
  3
ACAD_XREC_ROUNDTRIP
360
139F
  3
BUMPTILE
360
1003
  3
DIFFUSETILE
360
1002
  3
OPACITYTILE
360
1006
  3
REFLECTIONTILE
360
1005
  3
REFRACTIONTILE
360
1007
  3
SPECULARTILE
360
1004
  0
DICTIONARY
  5
FF9
330
FF8
100
AcDbDictionary
280
     1
281
     1
  3
ACAD_XREC_ROUNDTRIP
360
139E
  3
BUMPTILE
360
FFB
  3
DIFFUSETILE
360
FFA
  3
OPACITYTILE
360
FFE
  3
REFLECTIONTILE
360
FFD
  3
REFRACTIONTILE
360
FFF
  3
SPECULARTILE
360
FFC
  0
DICTIONARY
  5
1009
330
1008
100
AcDbDictionary
280
     1
281
     1
  3
ACAD_XREC_ROUNDTRIP
360
13A0
  3
BUMPTILE
360
100B
  3
DIFFUSETILE
360
100A
  3
OPACITYTILE
360
100E
  3
REFLECTIONTILE
360
100D
  3
REFRACTIONTILE
360
100F
  3
SPECULARTILE
360
100C
  0
DICTIONARY
  5
13D2
330
103F
100
AcDbDictionary
280
     1
281
     1
  3
ACAD_XREC_ROUNDTRIP
360
13D3
  0
DICTIONARY
  5
13D8
330
1115
100
AcDbDictionary
280
     1
281
     1
  3
ACAD_XREC_ROUNDTRIP
360
13D9
  0
DICTIONARY
  5
13D4
330
1041
100
AcDbDictionary
280
     1
281
     1
  3
ACAD_XREC_ROUNDTRIP
360
13D5
  0
DICTIONARY
  5
1059
330
102B
100
AcDbDictionary
280
     1
281
     1
  3
ACAD_ROUNDTRIP_2008_TABLESTYLE_CELLSTYLEMAP
360
1395
  3
ACAD_XREC_ROUNDTRIP
360
13D1
  0
DICTIONARY
  5
13AB
330
1016
100
AcDbDictionary
280
     1
281
     1
  3
ACAD_XREC_ROUNDTRIP
360
13AC
  0
DICTIONARY
  5
13A9
330
1015
100
AcDbDictionary
280
     1
281
     1
  3
ACAD_XREC_ROUNDTRIP
360
13AA
  0
DICTIONARY
  5
13B7
330
101C
100
AcDbDictionary
280
     1
281
     1
  3
ACAD_XREC_ROUNDTRIP
360
13B8
  0
DICTIONARY
  5
13BF
330
1020
100
AcDbDictionary
280
     1
281
     1
  3
ACAD_XREC_ROUNDTRIP
360
13C0
  0
DICTIONARY
  5
13B1
330
1019
100
AcDbDictionary
280
     1
281
     1
  3
ACAD_XREC_ROUNDTRIP
360
13B2
  0
DICTIONARY
  5
13B5
330
101B
100
AcDbDictionary
280
     1
281
     1
  3
ACAD_XREC_ROUNDTRIP
360
13B6
  0
DICTIONARY
  5
13CF
330
1028
100
AcDbDictionary
280
     1
281
     1
  3
ACAD_XREC_ROUNDTRIP
360
13D0
  0
DICTIONARY
  5
13BD
330
101F
100
AcDbDictionary
280
     1
281
     1
  3
ACAD_XREC_ROUNDTRIP
360
13BE
  0
DICTIONARY
  5
13A1
330
1011
100
AcDbDictionary
280
     1
281
     1
  3
ACAD_XREC_ROUNDTRIP
360
13A2
  0
DICTIONARY
  5
13A3
330
1012
100
AcDbDictionary
280
     1
281
     1
  3
ACAD_XREC_ROUNDTRIP
360
13A4
  0
DICTIONARY
  5
13A5
330
1013
100
AcDbDictionary
280
     1
281
     1
  3
ACAD_XREC_ROUNDTRIP
360
13A6
  0
DICTIONARY
  5
13A7
330
1014
100
AcDbDictionary
280
     1
281
     1
  3
ACAD_XREC_ROUNDTRIP
360
13A8
  0
DICTIONARY
  5
13AF
330
1018
100
AcDbDictionary
280
     1
281
     1
  3
ACAD_XREC_ROUNDTRIP
360
13B0
  0
DICTIONARY
  5
13CB
330
1026
100
AcDbDictionary
280
     1
281
     1
  3
ACAD_XREC_ROUNDTRIP
360
13CC
  0
DICTIONARY
  5
13BB
330
101E
100
AcDbDictionary
280
     1
281
     1
  3
ACAD_XREC_ROUNDTRIP
360
13BC
  0
DICTIONARY
  5
13CD
330
1027
100
AcDbDictionary
280
     1
281
     1
  3
ACAD_XREC_ROUNDTRIP
360
13CE
  0
DICTIONARY
  5
13B3
330
101A
100
AcDbDictionary
280
     1
281
     1
  3
ACAD_XREC_ROUNDTRIP
360
13B4
  0
DICTIONARY
  5
13C9
330
1025
100
AcDbDictionary
280
     1
281
     1
  3
ACAD_XREC_ROUNDTRIP
360
13CA
  0
DICTIONARY
  5
13C7
330
1024
100
AcDbDictionary
280
     1
281
     1
  3
ACAD_XREC_ROUNDTRIP
360
13C8
  0
DICTIONARY
  5
13C1
330
1021
100
AcDbDictionary
280
     1
281
     1
  3
ACAD_XREC_ROUNDTRIP
360
13C2
  0
DICTIONARY
  5
13C3
330
1022
100
AcDbDictionary
280
     1
281
     1
  3
ACAD_XREC_ROUNDTRIP
360
13C4
  0
DICTIONARY
  5
13B9
330
101D
100
AcDbDictionary
280
     1
281
     1
  3
ACAD_XREC_ROUNDTRIP
360
13BA
  0
DICTIONARY
  5
13AD
330
1017
100
AcDbDictionary
280
     1
281
     1
  3
ACAD_XREC_ROUNDTRIP
360
13AE
  0
DICTIONARY
  5
13C5
330
1023
100
AcDbDictionary
280
     1
281
     1
  3
ACAD_XREC_ROUNDTRIP
360
13C6
  0
DICTIONARY
  5
125A
330
1259
100
AcDbDictionary
280
     1
281
     1
  3
AcadLayerStateAnnoScale
360
125B
  0
ACDBASSOCACTION
  5
12C7
330
12C4
100
AcDbAssocAction
 90
        1
 90
        1
330
12C4
360
12C8
 90
        1
 90
        3
 90
        3
360
12CB
360
12CC
360
12CD
  0
ACDBASSOCACTION
  5
12F9
330
12C4
100
AcDbAssocAction
 90
        1
 90
        1
330
12C4
360
12FA
 90
        2
 90
        3
 90
        3
360
12FD
360
12FE
360
12FF
  0
XRECORD
  5
13DB
102
{ACAD_REACTORS
330
13DA
102
}
330
13DA
100
AcDbXrecord
280
     1
102
DISPLAYNAME
  1
Imperial24
102
FLAGS
 90
        0
  0
XRECORD
  5
13D7
102
{ACAD_REACTORS
330
13D6
102
}
330
13D6
100
AcDbXrecord
280
     1
102
DISPLAYNAME
  1
Metric50
102
FLAGS
 90
        0
  0
XRECORD
  5
139B
102
{ACAD_REACTORS
330
139A
102
}
330
139A
100
AcDbXrecord
280
     1
102
SHADEPLOT
 70
     0
102
SHADEPLOTRESLEVEL
 70
     2
102
SHADEPLOTCUSTOMDPI
 70
   300
  0
XRECORD
  5
139D
102
{ACAD_REACTORS
330
139C
102
}
330
139C
100
AcDbXrecord
280
     1
102
SHADEPLOT
 70
     0
102
SHADEPLOTRESLEVEL
 70
     2
102
SHADEPLOTCUSTOMDPI
 70
   300
  0
XRECORD
  5
1399
102
{ACAD_REACTORS
330
1398
102
}
330
1398
100
AcDbXrecord
280
     1
102
SHADEPLOT
 70
     0
102
SHADEPLOTRESLEVEL
 70
     2
102
SHADEPLOTCUSTOMDPI
 70
   300
  0
XRECORD
  5
139F
102
{ACAD_REACTORS
330
1001
102
}
330
1001
100
AcDbXrecord
280
     1
102
MATERIAL
148
0.0
149
0.0
149
0.0
 93
        0
 94
      127
282
     0
 72
     0
 77
     0
171
     0
175
     0
179
     0
273
     0
  0
XRECORD
  5
1003
102
{ACAD_REACTORS
330
1001
102
}
330
1001
100
AcDbXrecord
280
     1
270
     1
271
     1
  0
XRECORD
  5
1002
102
{ACAD_REACTORS
330
1001
102
}
330
1001
100
AcDbXrecord
280
     1
270
     1
271
     1
  0
XRECORD
  5
1006
102
{ACAD_REACTORS
330
1001
102
}
330
1001
100
AcDbXrecord
280
     1
270
     1
271
     1
  0
XRECORD
  5
1005
102
{ACAD_REACTORS
330
1001
102
}
330
1001
100
AcDbXrecord
280
     1
270
     1
271
     1
  0
XRECORD
  5
1007
102
{ACAD_REACTORS
330
1001
102
}
330
1001
100
AcDbXrecord
280
     1
270
     1
271
     1
  0
XRECORD
  5
1004
102
{ACAD_REACTORS
330
1001
102
}
330
1001
100
AcDbXrecord
280
     1
270
     1
271
     1
  0
XRECORD
  5
139E
102
{ACAD_REACTORS
330
FF9
102
}
330
FF9
100
AcDbXrecord
280
     1
102
MATERIAL
148
0.0
149
0.0
149
0.0
 93
        0
 94
      127
282
     0
 72
     0
 77
     0
171
     0
175
     0
179
     0
273
     0
  0
XRECORD
  5
FFB
102
{ACAD_REACTORS
330
FF9
102
}
330
FF9
100
AcDbXrecord
280
     1
270
     1
271
     1
  0
XRECORD
  5
FFA
102
{ACAD_REACTORS
330
FF9
102
}
330
FF9
100
AcDbXrecord
280
     1
270
     1
271
     1
  0
XRECORD
  5
FFE
102
{ACAD_REACTORS
330
FF9
102
}
330
FF9
100
AcDbXrecord
280
     1
270
     1
271
     1
  0
XRECORD
  5
FFD
102
{ACAD_REACTORS
330
FF9
102
}
330
FF9
100
AcDbXrecord
280
     1
270
     1
271
     1
  0
XRECORD
  5
FFF
102
{ACAD_REACTORS
330
FF9
102
}
330
FF9
100
AcDbXrecord
280
     1
270
     1
271
     1
  0
XRECORD
  5
FFC
102
{ACAD_REACTORS
330
FF9
102
}
330
FF9
100
AcDbXrecord
280
     1
270
     1
271
     1
  0
XRECORD
  5
13A0
102
{ACAD_REACTORS
330
1009
102
}
330
1009
100
AcDbXrecord
280
     1
102
MATERIAL
148
0.0
149
0.0
149
0.0
 93
        0
 94
      127
282
     0
 72
     0
 77
     0
171
     0
175
     0
179
     0
273
     0
  0
XRECORD
  5
100B
102
{ACAD_REACTORS
330
1009
102
}
330
1009
100
AcDbXrecord
280
     1
270
     1
271
     1
  0
XRECORD
  5
100A
102
{ACAD_REACTORS
330
1009
102
}
330
1009
100
AcDbXrecord
280
     1
270
     1
271
     1
  0
XRECORD
  5
100E
102
{ACAD_REACTORS
330
1009
102
}
330
1009
100
AcDbXrecord
280
     1
270
     1
271
     1
  0
XRECORD
  5
100D
102
{ACAD_REACTORS
330
1009
102
}
330
1009
100
AcDbXrecord
280
     1
270
     1
271
     1
  0
XRECORD
  5
100F
102
{ACAD_REACTORS
330
1009
102
}
330
1009
100
AcDbXrecord
280
     1
270
     1
271
     1
  0
XRECORD
  5
100C
102
{ACAD_REACTORS
330
1009
102
}
330
1009
100
AcDbXrecord
280
     1
270
     1
271
     1
  0
XRECORD
  5
13D3
102
{ACAD_REACTORS
330
13D2
102
}
330
13D2
100
AcDbXrecord
280
     1
102
ACAD_ROUNDTRIP_2012_MLEADER_STYLE
298
     1
  0
XRECORD
  5
13D9
102
{ACAD_REACTORS
330
13D8
102
}
330
13D8
100
AcDbXrecord
280
     1
102
DISPLAYNAME
  1
Imperial24
102
FLAGS
 90
        0
  0
XRECORD
  5
13D5
102
{ACAD_REACTORS
330
13D4
102
}
330
13D4
100
AcDbXrecord
280
     1
102
DISPLAYNAME
  1
Metric50
102
FLAGS
 90
        0
  0
CELLSTYLEMAP
  5
1395
102
{ACAD_REACTORS
330
1059
102
}
330
1059
100
AcDbCellStyleMap
 90
        3
300
CELLSTYLE
  1
TABLEFORMAT_BEGIN
 90
        5
170
     1
 91
        0
 92
    32768
 62
   257
 93
        1
300
CONTENTFORMAT
  1
CONTENTFORMAT_BEGIN
 90
        0
 91
        0
 92
      512
 93
        0
300

 40
0.0
140
1.0
 94
        5
 62
     0
340
9
144
6.0
309
CONTENTFORMAT_END
171
     1
301
MARGIN
  1
CELLMARGIN_BEGIN
 40
1.5
 40
1.5
 40
1.5
 40
1.5
 40
4.5
 40
4.5
309
CELLMARGIN_END
 94
        6
 95
        1
302
GRIDFORMAT
  1
GRIDFORMAT_BEGIN
 90
        0
 91
        1
 62
     0
 92
       -2
340
0
 93
        0
 40
1.125
309
GRIDFORMAT_END
 95
        2
302
GRIDFORMAT
  1
GRIDFORMAT_BEGIN
 90
        0
 91
        1
 62
     0
 92
       -2
340
0
 93
        0
 40
1.125
309
GRIDFORMAT_END
 95
        4
302
GRIDFORMAT
  1
GRIDFORMAT_BEGIN
 90
        0
 91
        1
 62
     0
 92
       -2
340
0
 93
        0
 40
1.125
309
GRIDFORMAT_END
 95
        8
302
GRIDFORMAT
  1
GRIDFORMAT_BEGIN
 90
        0
 91
        1
 62
     0
 92
       -2
340
0
 93
        0
 40
1.125
309
GRIDFORMAT_END
 95
       16
302
GRIDFORMAT
  1
GRIDFORMAT_BEGIN
 90
        0
 91
        1
 62
     0
 92
       -2
340
0
 93
        0
 40
1.125
309
GRIDFORMAT_END
 95
       32
302
GRIDFORMAT
  1
GRIDFORMAT_BEGIN
 90
        0
 91
        1
 62
     0
 92
       -2
340
0
 93
        0
 40
1.125
309
GRIDFORMAT_END
309
TABLEFORMAT_END
  1
CELLSTYLE_BEGIN
 90
        1
 91
        1
300
_TITLE
309
CELLSTYLE_END
300
CELLSTYLE
  1
TABLEFORMAT_BEGIN
 90
        5
170
     1
 91
        0
 92
        0
 62
   257
 93
        1
300
CONTENTFORMAT
  1
CONTENTFORMAT_BEGIN
 90
        0
 91
        0
 92
      512
 93
        0
300

 40
0.0
140
1.0
 94
        5
 62
     0
340
9
144
4.5
309
CONTENTFORMAT_END
171
     1
301
MARGIN
  1
CELLMARGIN_BEGIN
 40
1.5
 40
1.5
 40
1.5
 40
1.5
 40
4.5
 40
4.5
309
CELLMARGIN_END
 94
        6
 95
        1
302
GRIDFORMAT
  1
GRIDFORMAT_BEGIN
 90
        0
 91
        1
 62
     0
 92
       -2
340
0
 93
        0
 40
1.125
309
GRIDFORMAT_END
 95
        2
302
GRIDFORMAT
  1
GRIDFORMAT_BEGIN
 90
        0
 91
        1
 62
     0
 92
       -2
340
0
 93
        0
 40
1.125
309
GRIDFORMAT_END
 95
        4
302
GRIDFORMAT
  1
GRIDFORMAT_BEGIN
 90
        0
 91
        1
 62
     0
 92
       -2
340
0
 93
        0
 40
1.125
309
GRIDFORMAT_END
 95
        8
302
GRIDFORMAT
  1
GRIDFORMAT_BEGIN
 90
        0
 91
        1
 62
     0
 92
       -2
340
0
 93
        0
 40
1.125
309
GRIDFORMAT_END
 95
       16
302
GRIDFORMAT
  1
GRIDFORMAT_BEGIN
 90
        0
 91
        1
 62
     0
 92
       -2
340
0
 93
        0
 40
1.125
309
GRIDFORMAT_END
 95
       32
302
GRIDFORMAT
  1
GRIDFORMAT_BEGIN
 90
        0
 91
        1
 62
     0
 92
       -2
340
0
 93
        0
 40
1.125
309
GRIDFORMAT_END
309
TABLEFORMAT_END
  1
CELLSTYLE_BEGIN
 90
        2
 91
        1
300
_HEADER
309
CELLSTYLE_END
300
CELLSTYLE
  1
TABLEFORMAT_BEGIN
 90
        5
170
     1
 91
        0
 92
        0
 62
   257
 93
        1
300
CONTENTFORMAT
  1
CONTENTFORMAT_BEGIN
 90
        0
 91
        0
 92
      512
 93
        0
300

 40
0.0
140
1.0
 94
        2
 62
     0
340
9
144
4.5
309
CONTENTFORMAT_END
171
     1
301
MARGIN
  1
CELLMARGIN_BEGIN
 40
1.5
 40
1.5
 40
1.5
 40
1.5
 40
4.5
 40
4.5
309
CELLMARGIN_END
 94
        6
 95
        1
302
GRIDFORMAT
  1
GRIDFORMAT_BEGIN
 90
        0
 91
        1
 62
     0
 92
       -2
340
0
 93
        0
 40
1.125
309
GRIDFORMAT_END
 95
        2
302
GRIDFORMAT
  1
GRIDFORMAT_BEGIN
 90
        0
 91
        1
 62
     0
 92
       -2
340
0
 93
        0
 40
1.125
309
GRIDFORMAT_END
 95
        4
302
GRIDFORMAT
  1
GRIDFORMAT_BEGIN
 90
        0
 91
        1
 62
     0
 92
       -2
340
0
 93
        0
 40
1.125
309
GRIDFORMAT_END
 95
        8
302
GRIDFORMAT
  1
GRIDFORMAT_BEGIN
 90
        0
 91
        1
 62
     0
 92
       -2
340
0
 93
        0
 40
1.125
309
GRIDFORMAT_END
 95
       16
302
GRIDFORMAT
  1
GRIDFORMAT_BEGIN
 90
        0
 91
        1
 62
     0
 92
       -2
340
0
 93
        0
 40
1.125
309
GRIDFORMAT_END
 95
       32
302
GRIDFORMAT
  1
GRIDFORMAT_BEGIN
 90
        0
 91
        1
 62
     0
 92
       -2
340
0
 93
        0
 40
1.125
309
GRIDFORMAT_END
309
TABLEFORMAT_END
  1
CELLSTYLE_BEGIN
 90
        3
 91
        2
300
_DATA
309
CELLSTYLE_END
  0
XRECORD
  5
13D1
102
{ACAD_REACTORS
330
1059
102
}
330
1059
100
AcDbXrecord
280
     1
102
ACAD_ROUNDTRIP_PRE2007_TABLESTYLE
 90
      512
 91
        0
  1

 92
      512
 93
        0
  2

 94
      512
 95
        0
  3

  0
XRECORD
  5
13AC
102
{ACAD_REACTORS
330
13AB
102
}
330
13AB
100
AcDbXrecord
280
     1
102
RTVSPost2010Prop28
280
     1
102
RTVSPost2010PropOp28
 70
     1
102
RTVSPost2010Prop29
280
     1
102
RTVSPost2010PropOp29
 70
     1
102
RTVSPost2010Prop30
280
     0
102
RTVSPost2010PropOp30
 70
     1
102
RTVSPost2010Prop31
280
     0
102
RTVSPost2010PropOp31
 70
     1
102
RTVSPost2010Prop32
280
     0
102
RTVSPost2010PropOp32
 70
     1
102
RTVSPost2010Prop33
280
     0
102
RTVSPost2010PropOp33
 70
     1
102
RTVSPost2010Prop34
280
     0
102
RTVSPost2010PropOp34
 70
     1
102
RTVSPost2010Prop35
280
     0
102
RTVSPost2010PropOp35
 70
     1
102
RTVSPost2010Prop36
280
     0
102
RTVSPost2010PropOp36
 70
     1
102
RTVSPost2010Prop37
 90
       50
102
RTVSPost2010PropOp37
 70
     1
102
RTVSPost2010Prop38
140
0.0
102
RTVSPost2010PropOp38
 70
     1
102
RTVSPost2010Prop39
140
1.0
102
RTVSPost2010PropOp39
 70
     1
102
RTVSPost2010Prop40
 90
        0
102
RTVSPost2010PropOp40
 70
     1
102
RTVSPost2010Prop41ColorIndex
 90
       18
102
RTVSPost2010Prop41ColorRGB
 90
        0
102
RTVSPost2010PropOp41
 70
     1
102
RTVSPost2010Prop42
 90
       50
102
RTVSPost2010PropOp42
 70
     1
102
RTVSPost2010Prop43
 90
        3
102
RTVSPost2010PropOp43
 70
     1
102
RTVSPost2010Prop44ColorIndex
 90
        5
102
RTVSPost2010Prop44ColorRGB
 90
      255
102
RTVSPost2010PropOp44
 70
     1
102
RTVSPost2010Prop45
280
     0
102
RTVSPost2010PropOp45
 70
     1
102
RTVSPost2010Prop46
 90
       50
102
RTVSPost2010PropOp46
 70
     1
102
RTVSPost2010Prop47
 90
       50
102
RTVSPost2010PropOp47
 70
     1
102
RTVSPost2010Prop48
 90
       50
102
RTVSPost2010PropOp48
 70
     1
102
RTVSPost2010Prop49
280
     0
102
RTVSPost2010PropOp49
 70
     1
102
RTVSPost2010Prop50
 90
       50
102
RTVSPost2010PropOp50
 70
     1
102
RTVSPost2010Prop51ColorIndex
 90
      256
102
RTVSPost2010Prop51ColorRGB
 90
-16777216
102
RTVSPost2010PropOp51
 70
     0
102
RTVSPost2010Prop52
140
1.0
102
RTVSPost2010PropOp52
 70
     0
102
RTVSPost2010Prop53
 90
        2
102
RTVSPost2010PropOp53
 70
     1
102
RTVSPost2010Prop54
  1
strokes_ogs.tif
102
RTVSPost2010PropOp54
 70
     1
102
RTVSPost2010Prop55
280
     0
102
RTVSPost2010PropOp55
 70
     1
102
RTVSPost2010Prop56
140
1.0
102
RTVSPost2010PropOp56
 70
     1
102
RTVSPost2010Prop57
140
1.0
102
RTVSPost2010PropOp57
 70
     1
102
RTVSPropertyOp0
 70
     1
102
RTVSPropertyOp1
 70
     1
102
RTVSPropertyOp2
 70
     1
102
RTVSPropertyOp3
 70
     1
102
RTVSPropertyOp4
 70
     1
102
RTVSPropertyOp5
 70
     1
102
RTVSPropertyOp6
 70
     1
102
RTVSPropertyOp7
 70
     1
102
RTVSPropertyOp8
 70
     1
102
RTVSPropertyOp9
 70
     1
102
RTVSPropertyOp10
 70
     1
102
RTVSPropertyOp11
 70
     1
102
RTVSPropertyOp12
 70
     1
102
RTVSPropertyOp13
 70
     1
102
RTVSPropertyOp14
 70
     1
102
RTVSPropertyOp15
 70
     1
102
RTVSPropertyOp16
 70
     1
102
RTVSPropertyOp17
 70
     1
102
RTVSPropertyOp18
 70
     1
102
RTVSPropertyOp19
 70
     1
102
RTVSPropertyOp20
 70
     1
102
RTVSPropertyOp21
 70
     1
102
RTVSPropertyOp22
 70
     1
102
RTVSPropertyOp23
 70
     1
102
RTVSPropertyOp24
 70
     1
102
RTVSPropertyOp25
 70
     1
102
RTVSPropertyOp26
 70
     1
102
RTVSPropertyOp27
 70
     1
102
RTVSPropertyOp28
 70
     1
102
RTVSPropertyOp29
 70
     1
102
RTVSPropertyOp30
 70
     1
102
RTVSPropertyOp31
 70
     1
102
RTVSPropertyOp32
 70
     1
102
RTVSPropertyOp33
 70
     1
102
RTVSPropertyOp34
 70
     1
102
RTVSPropertyOp35
 70
     1
102
RTVSPropertyOp36
 70
     1
102
RTVSPropertyOp37
 70
     1
102
RTVSPropertyOp38
 70
     1
102
RTVSPropertyOp39
 70
     1
102
RTVSPropertyOp40
 70
     1
102
RTVSPropertyOp41
 70
     1
102
RTVSPropertyOp42
 70
     1
102
RTVSPropertyOp43
 70
     1
102
RTVSPropertyOp44
 70
     1
102
RTVSPropertyOp45
 70
     1
102
RTVSPropertyOp46
 70
     1
102
RTVSPropertyOp47
 70
     1
102
RTVSPropertyOp48
 70
     1
102
RTVSPropertyOp49
 70
     1
102
RTVSPropertyOp50
 70
     1
102
RTVSPropertyOp51
 70
     0
102
RTVSPropertyOp52
 70
     0
102
RTVSPropertyOp53
 70
     1
102
RTVSPropertyOp54
 70
     1
102
RTVSPropertyOp55
 70
     1
102
RTVSPropertyOp56
 70
     1
102
RTVSPropertyOp57
 70
     1
102
RTVSPropertyOp58
 70
     1
102
RTVSPropertyOp59
 70
     1
102
RTVSPropertyOp60
 70
     1
102
RTVSPropertyOp61
 70
     1
102
RTVSPropertyOp62
 70
     1
  0
XRECORD
  5
13AA
102
{ACAD_REACTORS
330
13A9
102
}
330
13A9
100
AcDbXrecord
280
     1
102
RTVSPost2010Prop28
280
     0
102
RTVSPost2010PropOp28
 70
     1
102
RTVSPost2010Prop29
280
     1
102
RTVSPost2010PropOp29
 70
     1
102
RTVSPost2010Prop30
280
     1
102
RTVSPost2010PropOp30
 70
     1
102
RTVSPost2010Prop31
280
     0
102
RTVSPost2010PropOp31
 70
     1
102
RTVSPost2010Prop32
280
     0
102
RTVSPost2010PropOp32
 70
     1
102
RTVSPost2010Prop33
280
     0
102
RTVSPost2010PropOp33
 70
     1
102
RTVSPost2010Prop34
280
     0
102
RTVSPost2010PropOp34
 70
     1
102
RTVSPost2010Prop35
280
     0
102
RTVSPost2010PropOp35
 70
     1
102
RTVSPost2010Prop36
280
     0
102
RTVSPost2010PropOp36
 70
     1
102
RTVSPost2010Prop37
 90
       50
102
RTVSPost2010PropOp37
 70
     1
102
RTVSPost2010Prop38
140
0.0
102
RTVSPost2010PropOp38
 70
     1
102
RTVSPost2010Prop39
140
1.0
102
RTVSPost2010PropOp39
 70
     1
102
RTVSPost2010Prop40
 90
        0
102
RTVSPost2010PropOp40
 70
     1
102
RTVSPost2010Prop41ColorIndex
 90
       18
102
RTVSPost2010Prop41ColorRGB
 90
        0
102
RTVSPost2010PropOp41
 70
     1
102
RTVSPost2010Prop42
 90
       50
102
RTVSPost2010PropOp42
 70
     1
102
RTVSPost2010Prop43
 90
        3
102
RTVSPost2010PropOp43
 70
     1
102
RTVSPost2010Prop44ColorIndex
 90
        5
102
RTVSPost2010Prop44ColorRGB
 90
      255
102
RTVSPost2010PropOp44
 70
     1
102
RTVSPost2010Prop45
280
     0
102
RTVSPost2010PropOp45
 70
     1
102
RTVSPost2010Prop46
 90
       50
102
RTVSPost2010PropOp46
 70
     1
102
RTVSPost2010Prop47
 90
       50
102
RTVSPost2010PropOp47
 70
     1
102
RTVSPost2010Prop48
 90
       50
102
RTVSPost2010PropOp48
 70
     1
102
RTVSPost2010Prop49
280
     0
102
RTVSPost2010PropOp49
 70
     1
102
RTVSPost2010Prop50
 90
       50
102
RTVSPost2010PropOp50
 70
     1
102
RTVSPost2010Prop51ColorIndex
 90
      256
102
RTVSPost2010Prop51ColorRGB
 90
-16777216
102
RTVSPost2010PropOp51
 70
     0
102
RTVSPost2010Prop52
140
1.0
102
RTVSPost2010PropOp52
 70
     0
102
RTVSPost2010Prop53
 90
        2
102
RTVSPost2010PropOp53
 70
     1
102
RTVSPost2010Prop54
  1
strokes_ogs.tif
102
RTVSPost2010PropOp54
 70
     1
102
RTVSPost2010Prop55
280
     0
102
RTVSPost2010PropOp55
 70
     1
102
RTVSPost2010Prop56
140
1.0
102
RTVSPost2010PropOp56
 70
     1
102
RTVSPost2010Prop57
140
1.0
102
RTVSPost2010PropOp57
 70
     1
102
RTVSPropertyOp0
 70
     1
102
RTVSPropertyOp1
 70
     1
102
RTVSPropertyOp2
 70
     1
102
RTVSPropertyOp3
 70
     1
102
RTVSPropertyOp4
 70
     1
102
RTVSPropertyOp5
 70
     1
102
RTVSPropertyOp6
 70
     1
102
RTVSPropertyOp7
 70
     1
102
RTVSPropertyOp8
 70
     1
102
RTVSPropertyOp9
 70
     1
102
RTVSPropertyOp10
 70
     1
102
RTVSPropertyOp11
 70
     1
102
RTVSPropertyOp12
 70
     1
102
RTVSPropertyOp13
 70
     1
102
RTVSPropertyOp14
 70
     1
102
RTVSPropertyOp15
 70
     1
102
RTVSPropertyOp16
 70
     1
102
RTVSPropertyOp17
 70
     1
102
RTVSPropertyOp18
 70
     1
102
RTVSPropertyOp19
 70
     1
102
RTVSPropertyOp20
 70
     1
102
RTVSPropertyOp21
 70
     1
102
RTVSPropertyOp22
 70
     1
102
RTVSPropertyOp23
 70
     1
102
RTVSPropertyOp24
 70
     1
102
RTVSPropertyOp25
 70
     1
102
RTVSPropertyOp26
 70
     1
102
RTVSPropertyOp27
 70
     1
102
RTVSPropertyOp28
 70
     1
102
RTVSPropertyOp29
 70
     1
102
RTVSPropertyOp30
 70
     1
102
RTVSPropertyOp31
 70
     1
102
RTVSPropertyOp32
 70
     1
102
RTVSPropertyOp33
 70
     1
102
RTVSPropertyOp34
 70
     1
102
RTVSPropertyOp35
 70
     1
102
RTVSPropertyOp36
 70
     1
102
RTVSPropertyOp37
 70
     1
102
RTVSPropertyOp38
 70
     1
102
RTVSPropertyOp39
 70
     1
102
RTVSPropertyOp40
 70
     1
102
RTVSPropertyOp41
 70
     1
102
RTVSPropertyOp42
 70
     1
102
RTVSPropertyOp43
 70
     1
102
RTVSPropertyOp44
 70
     1
102
RTVSPropertyOp45
 70
     1
102
RTVSPropertyOp46
 70
     1
102
RTVSPropertyOp47
 70
     1
102
RTVSPropertyOp48
 70
     1
102
RTVSPropertyOp49
 70
     1
102
RTVSPropertyOp50
 70
     1
102
RTVSPropertyOp51
 70
     0
102
RTVSPropertyOp52
 70
     0
102
RTVSPropertyOp53
 70
     1
102
RTVSPropertyOp54
 70
     1
102
RTVSPropertyOp55
 70
     1
102
RTVSPropertyOp56
 70
     1
102
RTVSPropertyOp57
 70
     1
102
RTVSPropertyOp58
 70
     1
102
RTVSPropertyOp59
 70
     1
102
RTVSPropertyOp60
 70
     1
102
RTVSPropertyOp61
 70
     1
102
RTVSPropertyOp62
 70
     1
  0
XRECORD
  5
13B8
102
{ACAD_REACTORS
330
13B7
102
}
330
13B7
100
AcDbXrecord
280
     1
102
RTVSPost2010Prop28
280
     0
102
RTVSPost2010PropOp28
 70
     1
102
RTVSPost2010Prop29
280
     1
102
RTVSPost2010PropOp29
 70
     1
102
RTVSPost2010Prop30
280
     1
102
RTVSPost2010PropOp30
 70
     1
102
RTVSPost2010Prop31
280
     0
102
RTVSPost2010PropOp31
 70
     1
102
RTVSPost2010Prop32
280
     0
102
RTVSPost2010PropOp32
 70
     1
102
RTVSPost2010Prop33
280
     0
102
RTVSPost2010PropOp33
 70
     1
102
RTVSPost2010Prop34
280
     0
102
RTVSPost2010PropOp34
 70
     1
102
RTVSPost2010Prop35
280
     0
102
RTVSPost2010PropOp35
 70
     1
102
RTVSPost2010Prop36
280
     0
102
RTVSPost2010PropOp36
 70
     1
102
RTVSPost2010Prop37
 90
       50
102
RTVSPost2010PropOp37
 70
     1
102
RTVSPost2010Prop38
140
0.0
102
RTVSPost2010PropOp38
 70
     1
102
RTVSPost2010Prop39
140
1.0
102
RTVSPost2010PropOp39
 70
     1
102
RTVSPost2010Prop40
 90
        0
102
RTVSPost2010PropOp40
 70
     1
102
RTVSPost2010Prop41ColorIndex
 90
       18
102
RTVSPost2010Prop41ColorRGB
 90
        0
102
RTVSPost2010PropOp41
 70
     1
102
RTVSPost2010Prop42
 90
       50
102
RTVSPost2010PropOp42
 70
     1
102
RTVSPost2010Prop43
 90
        3
102
RTVSPost2010PropOp43
 70
     1
102
RTVSPost2010Prop44ColorIndex
 90
        5
102
RTVSPost2010Prop44ColorRGB
 90
      255
102
RTVSPost2010PropOp44
 70
     1
102
RTVSPost2010Prop45
280
     0
102
RTVSPost2010PropOp45
 70
     1
102
RTVSPost2010Prop46
 90
       50
102
RTVSPost2010PropOp46
 70
     1
102
RTVSPost2010Prop47
 90
       50
102
RTVSPost2010PropOp47
 70
     1
102
RTVSPost2010Prop48
 90
       50
102
RTVSPost2010PropOp48
 70
     1
102
RTVSPost2010Prop49
280
     0
102
RTVSPost2010PropOp49
 70
     1
102
RTVSPost2010Prop50
 90
       50
102
RTVSPost2010PropOp50
 70
     1
102
RTVSPost2010Prop51ColorIndex
 90
      256
102
RTVSPost2010Prop51ColorRGB
 90
-16777216
102
RTVSPost2010PropOp51
 70
     0
102
RTVSPost2010Prop52
140
1.0
102
RTVSPost2010PropOp52
 70
     0
102
RTVSPost2010Prop53
 90
        2
102
RTVSPost2010PropOp53
 70
     1
102
RTVSPost2010Prop54
  1
strokes_ogs.tif
102
RTVSPost2010PropOp54
 70
     1
102
RTVSPost2010Prop55
280
     0
102
RTVSPost2010PropOp55
 70
     1
102
RTVSPost2010Prop56
140
1.0
102
RTVSPost2010PropOp56
 70
     1
102
RTVSPost2010Prop57
140
1.0
102
RTVSPost2010PropOp57
 70
     1
102
RTVSPropertyOp0
 70
     1
102
RTVSPropertyOp1
 70
     1
102
RTVSPropertyOp2
 70
     1
102
RTVSPropertyOp3
 70
     1
102
RTVSPropertyOp4
 70
     1
102
RTVSPropertyOp5
 70
     1
102
RTVSPropertyOp6
 70
     1
102
RTVSPropertyOp7
 70
     1
102
RTVSPropertyOp8
 70
     1
102
RTVSPropertyOp9
 70
     1
102
RTVSPropertyOp10
 70
     1
102
RTVSPropertyOp11
 70
     1
102
RTVSPropertyOp12
 70
     1
102
RTVSPropertyOp13
 70
     1
102
RTVSPropertyOp14
 70
     1
102
RTVSPropertyOp15
 70
     1
102
RTVSPropertyOp16
 70
     1
102
RTVSPropertyOp17
 70
     1
102
RTVSPropertyOp18
 70
     1
102
RTVSPropertyOp19
 70
     1
102
RTVSPropertyOp20
 70
     1
102
RTVSPropertyOp21
 70
     1
102
RTVSPropertyOp22
 70
     1
102
RTVSPropertyOp23
 70
     1
102
RTVSPropertyOp24
 70
     1
102
RTVSPropertyOp25
 70
     1
102
RTVSPropertyOp26
 70
     1
102
RTVSPropertyOp27
 70
     1
102
RTVSPropertyOp28
 70
     1
102
RTVSPropertyOp29
 70
     1
102
RTVSPropertyOp30
 70
     1
102
RTVSPropertyOp31
 70
     1
102
RTVSPropertyOp32
 70
     1
102
RTVSPropertyOp33
 70
     1
102
RTVSPropertyOp34
 70
     1
102
RTVSPropertyOp35
 70
     1
102
RTVSPropertyOp36
 70
     1
102
RTVSPropertyOp37
 70
     1
102
RTVSPropertyOp38
 70
     1
102
RTVSPropertyOp39
 70
     1
102
RTVSPropertyOp40
 70
     1
102
RTVSPropertyOp41
 70
     1
102
RTVSPropertyOp42
 70
     1
102
RTVSPropertyOp43
 70
     1
102
RTVSPropertyOp44
 70
     1
102
RTVSPropertyOp45
 70
     1
102
RTVSPropertyOp46
 70
     1
102
RTVSPropertyOp47
 70
     1
102
RTVSPropertyOp48
 70
     1
102
RTVSPropertyOp49
 70
     1
102
RTVSPropertyOp50
 70
     1
102
RTVSPropertyOp51
 70
     0
102
RTVSPropertyOp52
 70
     0
102
RTVSPropertyOp53
 70
     1
102
RTVSPropertyOp54
 70
     1
102
RTVSPropertyOp55
 70
     1
102
RTVSPropertyOp56
 70
     1
102
RTVSPropertyOp57
 70
     1
102
RTVSPropertyOp58
 70
     1
102
RTVSPropertyOp59
 70
     1
102
RTVSPropertyOp60
 70
     1
102
RTVSPropertyOp61
 70
     1
102
RTVSPropertyOp62
 70
     1
  0
XRECORD
  5
13C0
102
{ACAD_REACTORS
330
13BF
102
}
330
13BF
100
AcDbXrecord
280
     1
102
RTVSPost2010Prop28
280
     0
102
RTVSPost2010PropOp28
 70
     1
102
RTVSPost2010Prop29
280
     1
102
RTVSPost2010PropOp29
 70
     1
102
RTVSPost2010Prop30
280
     1
102
RTVSPost2010PropOp30
 70
     1
102
RTVSPost2010Prop31
280
     0
102
RTVSPost2010PropOp31
 70
     1
102
RTVSPost2010Prop32
280
     0
102
RTVSPost2010PropOp32
 70
     1
102
RTVSPost2010Prop33
280
     0
102
RTVSPost2010PropOp33
 70
     1
102
RTVSPost2010Prop34
280
     0
102
RTVSPost2010PropOp34
 70
     1
102
RTVSPost2010Prop35
280
     0
102
RTVSPost2010PropOp35
 70
     1
102
RTVSPost2010Prop36
280
     0
102
RTVSPost2010PropOp36
 70
     1
102
RTVSPost2010Prop37
 90
       50
102
RTVSPost2010PropOp37
 70
     1
102
RTVSPost2010Prop38
140
0.0
102
RTVSPost2010PropOp38
 70
     1
102
RTVSPost2010Prop39
140
1.0
102
RTVSPost2010PropOp39
 70
     1
102
RTVSPost2010Prop40
 90
        0
102
RTVSPost2010PropOp40
 70
     1
102
RTVSPost2010Prop41ColorIndex
 90
       18
102
RTVSPost2010Prop41ColorRGB
 90
        0
102
RTVSPost2010PropOp41
 70
     1
102
RTVSPost2010Prop42
 90
       50
102
RTVSPost2010PropOp42
 70
     1
102
RTVSPost2010Prop43
 90
        3
102
RTVSPost2010PropOp43
 70
     1
102
RTVSPost2010Prop44ColorIndex
 90
        5
102
RTVSPost2010Prop44ColorRGB
 90
      255
102
RTVSPost2010PropOp44
 70
     1
102
RTVSPost2010Prop45
280
     0
102
RTVSPost2010PropOp45
 70
     1
102
RTVSPost2010Prop46
 90
       50
102
RTVSPost2010PropOp46
 70
     1
102
RTVSPost2010Prop47
 90
       50
102
RTVSPost2010PropOp47
 70
     1
102
RTVSPost2010Prop48
 90
       50
102
RTVSPost2010PropOp48
 70
     1
102
RTVSPost2010Prop49
280
     0
102
RTVSPost2010PropOp49
 70
     1
102
RTVSPost2010Prop50
 90
       50
102
RTVSPost2010PropOp50
 70
     1
102
RTVSPost2010Prop51ColorIndex
 90
      256
102
RTVSPost2010Prop51ColorRGB
 90
-16777216
102
RTVSPost2010PropOp51
 70
     0
102
RTVSPost2010Prop52
140
1.0
102
RTVSPost2010PropOp52
 70
     0
102
RTVSPost2010Prop53
 90
        2
102
RTVSPost2010PropOp53
 70
     1
102
RTVSPost2010Prop54
  1
strokes_ogs.tif
102
RTVSPost2010PropOp54
 70
     1
102
RTVSPost2010Prop55
280
     0
102
RTVSPost2010PropOp55
 70
     1
102
RTVSPost2010Prop56
140
1.0
102
RTVSPost2010PropOp56
 70
     1
102
RTVSPost2010Prop57
140
1.0
102
RTVSPost2010PropOp57
 70
     1
102
RTVSPropertyOp0
 70
     1
102
RTVSPropertyOp1
 70
     1
102
RTVSPropertyOp2
 70
     1
102
RTVSPropertyOp3
 70
     1
102
RTVSPropertyOp4
 70
     1
102
RTVSPropertyOp5
 70
     1
102
RTVSPropertyOp6
 70
     1
102
RTVSPropertyOp7
 70
     1
102
RTVSPropertyOp8
 70
     1
102
RTVSPropertyOp9
 70
     1
102
RTVSPropertyOp10
 70
     1
102
RTVSPropertyOp11
 70
     1
102
RTVSPropertyOp12
 70
     1
102
RTVSPropertyOp13
 70
     1
102
RTVSPropertyOp14
 70
     1
102
RTVSPropertyOp15
 70
     1
102
RTVSPropertyOp16
 70
     1
102
RTVSPropertyOp17
 70
     1
102
RTVSPropertyOp18
 70
     1
102
RTVSPropertyOp19
 70
     1
102
RTVSPropertyOp20
 70
     1
102
RTVSPropertyOp21
 70
     1
102
RTVSPropertyOp22
 70
     1
102
RTVSPropertyOp23
 70
     1
102
RTVSPropertyOp24
 70
     1
102
RTVSPropertyOp25
 70
     1
102
RTVSPropertyOp26
 70
     1
102
RTVSPropertyOp27
 70
     1
102
RTVSPropertyOp28
 70
     1
102
RTVSPropertyOp29
 70
     1
102
RTVSPropertyOp30
 70
     1
102
RTVSPropertyOp31
 70
     1
102
RTVSPropertyOp32
 70
     1
102
RTVSPropertyOp33
 70
     1
102
RTVSPropertyOp34
 70
     1
102
RTVSPropertyOp35
 70
     1
102
RTVSPropertyOp36
 70
     1
102
RTVSPropertyOp37
 70
     1
102
RTVSPropertyOp38
 70
     1
102
RTVSPropertyOp39
 70
     1
102
RTVSPropertyOp40
 70
     1
102
RTVSPropertyOp41
 70
     1
102
RTVSPropertyOp42
 70
     1
102
RTVSPropertyOp43
 70
     1
102
RTVSPropertyOp44
 70
     1
102
RTVSPropertyOp45
 70
     1
102
RTVSPropertyOp46
 70
     1
102
RTVSPropertyOp47
 70
     1
102
RTVSPropertyOp48
 70
     1
102
RTVSPropertyOp49
 70
     1
102
RTVSPropertyOp50
 70
     1
102
RTVSPropertyOp51
 70
     0
102
RTVSPropertyOp52
 70
     0
102
RTVSPropertyOp53
 70
     1
102
RTVSPropertyOp54
 70
     1
102
RTVSPropertyOp55
 70
     1
102
RTVSPropertyOp56
 70
     1
102
RTVSPropertyOp57
 70
     1
102
RTVSPropertyOp58
 70
     1
102
RTVSPropertyOp59
 70
     1
102
RTVSPropertyOp60
 70
     1
102
RTVSPropertyOp61
 70
     1
102
RTVSPropertyOp62
 70
     1
  0
XRECORD
  5
13B2
102
{ACAD_REACTORS
330
13B1
102
}
330
13B1
100
AcDbXrecord
280
     1
102
RTVSPost2010Prop28
280
     0
102
RTVSPost2010PropOp28
 70
     1
102
RTVSPost2010Prop29
280
     1
102
RTVSPost2010PropOp29
 70
     1
102
RTVSPost2010Prop30
280
     1
102
RTVSPost2010PropOp30
 70
     1
102
RTVSPost2010Prop31
280
     0
102
RTVSPost2010PropOp31
 70
     1
102
RTVSPost2010Prop32
280
     0
102
RTVSPost2010PropOp32
 70
     1
102
RTVSPost2010Prop33
280
     0
102
RTVSPost2010PropOp33
 70
     1
102
RTVSPost2010Prop34
280
     0
102
RTVSPost2010PropOp34
 70
     1
102
RTVSPost2010Prop35
280
     0
102
RTVSPost2010PropOp35
 70
     1
102
RTVSPost2010Prop36
280
     0
102
RTVSPost2010PropOp36
 70
     1
102
RTVSPost2010Prop37
 90
       50
102
RTVSPost2010PropOp37
 70
     1
102
RTVSPost2010Prop38
140
0.0
102
RTVSPost2010PropOp38
 70
     1
102
RTVSPost2010Prop39
140
1.0
102
RTVSPost2010PropOp39
 70
     1
102
RTVSPost2010Prop40
 90
        0
102
RTVSPost2010PropOp40
 70
     1
102
RTVSPost2010Prop41ColorIndex
 90
       18
102
RTVSPost2010Prop41ColorRGB
 90
        0
102
RTVSPost2010PropOp41
 70
     1
102
RTVSPost2010Prop42
 90
       50
102
RTVSPost2010PropOp42
 70
     1
102
RTVSPost2010Prop43
 90
        3
102
RTVSPost2010PropOp43
 70
     1
102
RTVSPost2010Prop44ColorIndex
 90
        5
102
RTVSPost2010Prop44ColorRGB
 90
      255
102
RTVSPost2010PropOp44
 70
     1
102
RTVSPost2010Prop45
280
     0
102
RTVSPost2010PropOp45
 70
     1
102
RTVSPost2010Prop46
 90
       50
102
RTVSPost2010PropOp46
 70
     1
102
RTVSPost2010Prop47
 90
       50
102
RTVSPost2010PropOp47
 70
     1
102
RTVSPost2010Prop48
 90
       50
102
RTVSPost2010PropOp48
 70
     1
102
RTVSPost2010Prop49
280
     0
102
RTVSPost2010PropOp49
 70
     1
102
RTVSPost2010Prop50
 90
       50
102
RTVSPost2010PropOp50
 70
     1
102
RTVSPost2010Prop51ColorIndex
 90
      256
102
RTVSPost2010Prop51ColorRGB
 90
-16777216
102
RTVSPost2010PropOp51
 70
     0
102
RTVSPost2010Prop52
140
1.0
102
RTVSPost2010PropOp52
 70
     0
102
RTVSPost2010Prop53
 90
        2
102
RTVSPost2010PropOp53
 70
     1
102
RTVSPost2010Prop54
  1
strokes_ogs.tif
102
RTVSPost2010PropOp54
 70
     1
102
RTVSPost2010Prop55
280
     0
102
RTVSPost2010PropOp55
 70
     1
102
RTVSPost2010Prop56
140
1.0
102
RTVSPost2010PropOp56
 70
     1
102
RTVSPost2010Prop57
140
1.0
102
RTVSPost2010PropOp57
 70
     1
102
RTVSPropertyOp0
 70
     1
102
RTVSPropertyOp1
 70
     1
102
RTVSPropertyOp2
 70
     1
102
RTVSPropertyOp3
 70
     1
102
RTVSPropertyOp4
 70
     1
102
RTVSPropertyOp5
 70
     1
102
RTVSPropertyOp6
 70
     1
102
RTVSPropertyOp7
 70
     1
102
RTVSPropertyOp8
 70
     1
102
RTVSPropertyOp9
 70
     1
102
RTVSPropertyOp10
 70
     1
102
RTVSPropertyOp11
 70
     1
102
RTVSPropertyOp12
 70
     1
102
RTVSPropertyOp13
 70
     1
102
RTVSPropertyOp14
 70
     1
102
RTVSPropertyOp15
 70
     1
102
RTVSPropertyOp16
 70
     1
102
RTVSPropertyOp17
 70
     1
102
RTVSPropertyOp18
 70
     1
102
RTVSPropertyOp19
 70
     1
102
RTVSPropertyOp20
 70
     1
102
RTVSPropertyOp21
 70
     1
102
RTVSPropertyOp22
 70
     1
102
RTVSPropertyOp23
 70
     1
102
RTVSPropertyOp24
 70
     1
102
RTVSPropertyOp25
 70
     1
102
RTVSPropertyOp26
 70
     1
102
RTVSPropertyOp27
 70
     1
102
RTVSPropertyOp28
 70
     1
102
RTVSPropertyOp29
 70
     1
102
RTVSPropertyOp30
 70
     1
102
RTVSPropertyOp31
 70
     1
102
RTVSPropertyOp32
 70
     1
102
RTVSPropertyOp33
 70
     1
102
RTVSPropertyOp34
 70
     1
102
RTVSPropertyOp35
 70
     1
102
RTVSPropertyOp36
 70
     1
102
RTVSPropertyOp37
 70
     1
102
RTVSPropertyOp38
 70
     1
102
RTVSPropertyOp39
 70
     1
102
RTVSPropertyOp40
 70
     1
102
RTVSPropertyOp41
 70
     1
102
RTVSPropertyOp42
 70
     1
102
RTVSPropertyOp43
 70
     1
102
RTVSPropertyOp44
 70
     1
102
RTVSPropertyOp45
 70
     1
102
RTVSPropertyOp46
 70
     1
102
RTVSPropertyOp47
 70
     1
102
RTVSPropertyOp48
 70
     1
102
RTVSPropertyOp49
 70
     1
102
RTVSPropertyOp50
 70
     1
102
RTVSPropertyOp51
 70
     0
102
RTVSPropertyOp52
 70
     0
102
RTVSPropertyOp53
 70
     1
102
RTVSPropertyOp54
 70
     1
102
RTVSPropertyOp55
 70
     1
102
RTVSPropertyOp56
 70
     1
102
RTVSPropertyOp57
 70
     1
102
RTVSPropertyOp58
 70
     1
102
RTVSPropertyOp59
 70
     1
102
RTVSPropertyOp60
 70
     1
102
RTVSPropertyOp61
 70
     1
102
RTVSPropertyOp62
 70
     1
  0
XRECORD
  5
13B6
102
{ACAD_REACTORS
330
13B5
102
}
330
13B5
100
AcDbXrecord
280
     1
102
RTVSPost2010Prop28
280
     0
102
RTVSPost2010PropOp28
 70
     1
102
RTVSPost2010Prop29
280
     1
102
RTVSPost2010PropOp29
 70
     1
102
RTVSPost2010Prop30
280
     1
102
RTVSPost2010PropOp30
 70
     1
102
RTVSPost2010Prop31
280
     0
102
RTVSPost2010PropOp31
 70
     1
102
RTVSPost2010Prop32
280
     0
102
RTVSPost2010PropOp32
 70
     1
102
RTVSPost2010Prop33
280
     0
102
RTVSPost2010PropOp33
 70
     1
102
RTVSPost2010Prop34
280
     0
102
RTVSPost2010PropOp34
 70
     1
102
RTVSPost2010Prop35
280
     0
102
RTVSPost2010PropOp35
 70
     1
102
RTVSPost2010Prop36
280
     0
102
RTVSPost2010PropOp36
 70
     1
102
RTVSPost2010Prop37
 90
       50
102
RTVSPost2010PropOp37
 70
     1
102
RTVSPost2010Prop38
140
0.0
102
RTVSPost2010PropOp38
 70
     1
102
RTVSPost2010Prop39
140
1.0
102
RTVSPost2010PropOp39
 70
     1
102
RTVSPost2010Prop40
 90
        0
102
RTVSPost2010PropOp40
 70
     1
102
RTVSPost2010Prop41ColorIndex
 90
       18
102
RTVSPost2010Prop41ColorRGB
 90
        0
102
RTVSPost2010PropOp41
 70
     1
102
RTVSPost2010Prop42
 90
       50
102
RTVSPost2010PropOp42
 70
     1
102
RTVSPost2010Prop43
 90
        3
102
RTVSPost2010PropOp43
 70
     1
102
RTVSPost2010Prop44ColorIndex
 90
        5
102
RTVSPost2010Prop44ColorRGB
 90
      255
102
RTVSPost2010PropOp44
 70
     1
102
RTVSPost2010Prop45
280
     0
102
RTVSPost2010PropOp45
 70
     1
102
RTVSPost2010Prop46
 90
       50
102
RTVSPost2010PropOp46
 70
     1
102
RTVSPost2010Prop47
 90
       50
102
RTVSPost2010PropOp47
 70
     1
102
RTVSPost2010Prop48
 90
       50
102
RTVSPost2010PropOp48
 70
     1
102
RTVSPost2010Prop49
280
     0
102
RTVSPost2010PropOp49
 70
     1
102
RTVSPost2010Prop50
 90
       50
102
RTVSPost2010PropOp50
 70
     1
102
RTVSPost2010Prop51ColorIndex
 90
      256
102
RTVSPost2010Prop51ColorRGB
 90
-16777216
102
RTVSPost2010PropOp51
 70
     0
102
RTVSPost2010Prop52
140
1.0
102
RTVSPost2010PropOp52
 70
     0
102
RTVSPost2010Prop53
 90
        2
102
RTVSPost2010PropOp53
 70
     1
102
RTVSPost2010Prop54
  1
strokes_ogs.tif
102
RTVSPost2010PropOp54
 70
     1
102
RTVSPost2010Prop55
280
     0
102
RTVSPost2010PropOp55
 70
     1
102
RTVSPost2010Prop56
140
1.0
102
RTVSPost2010PropOp56
 70
     1
102
RTVSPost2010Prop57
140
1.0
102
RTVSPost2010PropOp57
 70
     1
102
RTVSPropertyOp0
 70
     1
102
RTVSPropertyOp1
 70
     1
102
RTVSPropertyOp2
 70
     1
102
RTVSPropertyOp3
 70
     1
102
RTVSPropertyOp4
 70
     1
102
RTVSPropertyOp5
 70
     1
102
RTVSPropertyOp6
 70
     1
102
RTVSPropertyOp7
 70
     1
102
RTVSPropertyOp8
 70
     1
102
RTVSPropertyOp9
 70
     1
102
RTVSPropertyOp10
 70
     1
102
RTVSPropertyOp11
 70
     1
102
RTVSPropertyOp12
 70
     1
102
RTVSPropertyOp13
 70
     1
102
RTVSPropertyOp14
 70
     1
102
RTVSPropertyOp15
 70
     1
102
RTVSPropertyOp16
 70
     1
102
RTVSPropertyOp17
 70
     1
102
RTVSPropertyOp18
 70
     1
102
RTVSPropertyOp19
 70
     1
102
RTVSPropertyOp20
 70
     1
102
RTVSPropertyOp21
 70
     1
102
RTVSPropertyOp22
 70
     1
102
RTVSPropertyOp23
 70
     1
102
RTVSPropertyOp24
 70
     1
102
RTVSPropertyOp25
 70
     1
102
RTVSPropertyOp26
 70
     1
102
RTVSPropertyOp27
 70
     1
102
RTVSPropertyOp28
 70
     1
102
RTVSPropertyOp29
 70
     1
102
RTVSPropertyOp30
 70
     1
102
RTVSPropertyOp31
 70
     1
102
RTVSPropertyOp32
 70
     1
102
RTVSPropertyOp33
 70
     1
102
RTVSPropertyOp34
 70
     1
102
RTVSPropertyOp35
 70
     1
102
RTVSPropertyOp36
 70
     1
102
RTVSPropertyOp37
 70
     1
102
RTVSPropertyOp38
 70
     1
102
RTVSPropertyOp39
 70
     1
102
RTVSPropertyOp40
 70
     1
102
RTVSPropertyOp41
 70
     1
102
RTVSPropertyOp42
 70
     1
102
RTVSPropertyOp43
 70
     1
102
RTVSPropertyOp44
 70
     1
102
RTVSPropertyOp45
 70
     1
102
RTVSPropertyOp46
 70
     1
102
RTVSPropertyOp47
 70
     1
102
RTVSPropertyOp48
 70
     1
102
RTVSPropertyOp49
 70
     1
102
RTVSPropertyOp50
 70
     1
102
RTVSPropertyOp51
 70
     0
102
RTVSPropertyOp52
 70
     0
102
RTVSPropertyOp53
 70
     1
102
RTVSPropertyOp54
 70
     1
102
RTVSPropertyOp55
 70
     1
102
RTVSPropertyOp56
 70
     1
102
RTVSPropertyOp57
 70
     1
102
RTVSPropertyOp58
 70
     1
102
RTVSPropertyOp59
 70
     1
102
RTVSPropertyOp60
 70
     1
102
RTVSPropertyOp61
 70
     1
102
RTVSPropertyOp62
 70
     1
  0
XRECORD
  5
13D0
102
{ACAD_REACTORS
330
13CF
102
}
330
13CF
100
AcDbXrecord
280
     1
102
RTVSPost2010Prop28
280
     0
102
RTVSPost2010PropOp28
 70
     0
102
RTVSPost2010Prop29
280
     1
102
RTVSPost2010PropOp29
 70
     0
102
RTVSPost2010Prop30
280
     1
102
RTVSPost2010PropOp30
 70
     0
102
RTVSPost2010Prop31
280
     0
102
RTVSPost2010PropOp31
 70
     0
102
RTVSPost2010Prop32
280
     0
102
RTVSPost2010PropOp32
 70
     0
102
RTVSPost2010Prop33
280
     0
102
RTVSPost2010PropOp33
 70
     0
102
RTVSPost2010Prop34
280
     0
102
RTVSPost2010PropOp34
 70
     0
102
RTVSPost2010Prop35
280
     0
102
RTVSPost2010PropOp35
 70
     0
102
RTVSPost2010Prop36
280
     0
102
RTVSPost2010PropOp36
 70
     0
102
RTVSPost2010Prop37
 90
       50
102
RTVSPost2010PropOp37
 70
     0
102
RTVSPost2010Prop38
140
0.0
102
RTVSPost2010PropOp38
 70
     0
102
RTVSPost2010Prop39
140
1.0
102
RTVSPost2010PropOp39
 70
     0
102
RTVSPost2010Prop40
 90
        0
102
RTVSPost2010PropOp40
 70
     0
102
RTVSPost2010Prop41ColorIndex
 90
       18
102
RTVSPost2010Prop41ColorRGB
 90
        0
102
RTVSPost2010PropOp41
 70
     0
102
RTVSPost2010Prop42
 90
       50
102
RTVSPost2010PropOp42
 70
     0
102
RTVSPost2010Prop43
 90
        3
102
RTVSPost2010PropOp43
 70
     0
102
RTVSPost2010Prop44ColorIndex
 90
        5
102
RTVSPost2010Prop44ColorRGB
 90
      255
102
RTVSPost2010PropOp44
 70
     0
102
RTVSPost2010Prop45
280
     0
102
RTVSPost2010PropOp45
 70
     0
102
RTVSPost2010Prop46
 90
       50
102
RTVSPost2010PropOp46
 70
     0
102
RTVSPost2010Prop47
 90
       50
102
RTVSPost2010PropOp47
 70
     0
102
RTVSPost2010Prop48
 90
       50
102
RTVSPost2010PropOp48
 70
     0
102
RTVSPost2010Prop49
280
     0
102
RTVSPost2010PropOp49
 70
     0
102
RTVSPost2010Prop50
 90
       50
102
RTVSPost2010PropOp50
 70
     0
102
RTVSPost2010Prop51ColorIndex
 90
      256
102
RTVSPost2010Prop51ColorRGB
 90
-16777216
102
RTVSPost2010PropOp51
 70
     0
102
RTVSPost2010Prop52
140
1.0
102
RTVSPost2010PropOp52
 70
     0
102
RTVSPost2010Prop53
 90
        2
102
RTVSPost2010PropOp53
 70
     0
102
RTVSPost2010Prop54
  1
strokes_ogs.tif
102
RTVSPost2010PropOp54
 70
     0
102
RTVSPost2010Prop55
280
     0
102
RTVSPost2010PropOp55
 70
     0
102
RTVSPost2010Prop56
140
1.0
102
RTVSPost2010PropOp56
 70
     0
102
RTVSPost2010Prop57
140
1.0
102
RTVSPost2010PropOp57
 70
     0
102
RTVSPropertyOp0
 70
     0
102
RTVSPropertyOp1
 70
     0
102
RTVSPropertyOp2
 70
     0
102
RTVSPropertyOp3
 70
     0
102
RTVSPropertyOp4
 70
     0
102
RTVSPropertyOp5
 70
     0
102
RTVSPropertyOp6
 70
     0
102
RTVSPropertyOp7
 70
     0
102
RTVSPropertyOp8
 70
     0
102
RTVSPropertyOp9
 70
     0
102
RTVSPropertyOp10
 70
     0
102
RTVSPropertyOp11
 70
     0
102
RTVSPropertyOp12
 70
     0
102
RTVSPropertyOp13
 70
     0
102
RTVSPropertyOp14
 70
     2
102
RTVSPropertyOp15
 70
     0
102
RTVSPropertyOp16
 70
     0
102
RTVSPropertyOp17
 70
     0
102
RTVSPropertyOp18
 70
     0
102
RTVSPropertyOp19
 70
     0
102
RTVSPropertyOp20
 70
     0
102
RTVSPropertyOp21
 70
     0
102
RTVSPropertyOp22
 70
     0
102
RTVSPropertyOp23
 70
     0
102
RTVSPropertyOp24
 70
     0
102
RTVSPropertyOp25
 70
     0
102
RTVSPropertyOp26
 70
     0
102
RTVSPropertyOp27
 70
     0
102
RTVSPropertyOp28
 70
     0
102
RTVSPropertyOp29
 70
     0
102
RTVSPropertyOp30
 70
     0
102
RTVSPropertyOp31
 70
     0
102
RTVSPropertyOp32
 70
     0
102
RTVSPropertyOp33
 70
     0
102
RTVSPropertyOp34
 70
     0
102
RTVSPropertyOp35
 70
     0
102
RTVSPropertyOp36
 70
     0
102
RTVSPropertyOp37
 70
     0
102
RTVSPropertyOp38
 70
     0
102
RTVSPropertyOp39
 70
     0
102
RTVSPropertyOp40
 70
     0
102
RTVSPropertyOp41
 70
     0
102
RTVSPropertyOp42
 70
     0
102
RTVSPropertyOp43
 70
     0
102
RTVSPropertyOp44
 70
     0
102
RTVSPropertyOp45
 70
     0
102
RTVSPropertyOp46
 70
     0
102
RTVSPropertyOp47
 70
     0
102
RTVSPropertyOp48
 70
     0
102
RTVSPropertyOp49
 70
     0
102
RTVSPropertyOp50
 70
     0
102
RTVSPropertyOp51
 70
     0
102
RTVSPropertyOp52
 70
     0
102
RTVSPropertyOp53
 70
     0
102
RTVSPropertyOp54
 70
     0
102
RTVSPropertyOp55
 70
     0
102
RTVSPropertyOp56
 70
     0
102
RTVSPropertyOp57
 70
     0
102
RTVSPropertyOp58
 70
     0
102
RTVSPropertyOp59
 70
     0
102
RTVSPropertyOp60
 70
     0
102
RTVSPropertyOp61
 70
     0
102
RTVSPropertyOp62
 70
     0
  0
XRECORD
  5
13BE
102
{ACAD_REACTORS
330
13BD
102
}
330
13BD
100
AcDbXrecord
280
     1
102
RTVSPost2010Prop28
280
     0
102
RTVSPost2010PropOp28
 70
     1
102
RTVSPost2010Prop29
280
     1
102
RTVSPost2010PropOp29
 70
     1
102
RTVSPost2010Prop30
280
     1
102
RTVSPost2010PropOp30
 70
     1
102
RTVSPost2010Prop31
280
     0
102
RTVSPost2010PropOp31
 70
     1
102
RTVSPost2010Prop32
280
     0
102
RTVSPost2010PropOp32
 70
     1
102
RTVSPost2010Prop33
280
     0
102
RTVSPost2010PropOp33
 70
     1
102
RTVSPost2010Prop34
280
     0
102
RTVSPost2010PropOp34
 70
     1
102
RTVSPost2010Prop35
280
     0
102
RTVSPost2010PropOp35
 70
     1
102
RTVSPost2010Prop36
280
     0
102
RTVSPost2010PropOp36
 70
     1
102
RTVSPost2010Prop37
 90
       50
102
RTVSPost2010PropOp37
 70
     1
102
RTVSPost2010Prop38
140
0.0
102
RTVSPost2010PropOp38
 70
     1
102
RTVSPost2010Prop39
140
1.0
102
RTVSPost2010PropOp39
 70
     1
102
RTVSPost2010Prop40
 90
        0
102
RTVSPost2010PropOp40
 70
     1
102
RTVSPost2010Prop41ColorIndex
 90
       18
102
RTVSPost2010Prop41ColorRGB
 90
        0
102
RTVSPost2010PropOp41
 70
     1
102
RTVSPost2010Prop42
 90
       50
102
RTVSPost2010PropOp42
 70
     1
102
RTVSPost2010Prop43
 90
        3
102
RTVSPost2010PropOp43
 70
     1
102
RTVSPost2010Prop44ColorIndex
 90
        5
102
RTVSPost2010Prop44ColorRGB
 90
      255
102
RTVSPost2010PropOp44
 70
     1
102
RTVSPost2010Prop45
280
     0
102
RTVSPost2010PropOp45
 70
     1
102
RTVSPost2010Prop46
 90
       50
102
RTVSPost2010PropOp46
 70
     1
102
RTVSPost2010Prop47
 90
       50
102
RTVSPost2010PropOp47
 70
     1
102
RTVSPost2010Prop48
 90
       50
102
RTVSPost2010PropOp48
 70
     1
102
RTVSPost2010Prop49
280
     0
102
RTVSPost2010PropOp49
 70
     1
102
RTVSPost2010Prop50
 90
       50
102
RTVSPost2010PropOp50
 70
     1
102
RTVSPost2010Prop51ColorIndex
 90
      256
102
RTVSPost2010Prop51ColorRGB
 90
-16777216
102
RTVSPost2010PropOp51
 70
     0
102
RTVSPost2010Prop52
140
1.0
102
RTVSPost2010PropOp52
 70
     0
102
RTVSPost2010Prop53
 90
        2
102
RTVSPost2010PropOp53
 70
     1
102
RTVSPost2010Prop54
  1
strokes_ogs.tif
102
RTVSPost2010PropOp54
 70
     1
102
RTVSPost2010Prop55
280
     0
102
RTVSPost2010PropOp55
 70
     1
102
RTVSPost2010Prop56
140
1.0
102
RTVSPost2010PropOp56
 70
     1
102
RTVSPost2010Prop57
140
1.0
102
RTVSPost2010PropOp57
 70
     1
102
RTVSPropertyOp0
 70
     1
102
RTVSPropertyOp1
 70
     1
102
RTVSPropertyOp2
 70
     1
102
RTVSPropertyOp3
 70
     1
102
RTVSPropertyOp4
 70
     1
102
RTVSPropertyOp5
 70
     1
102
RTVSPropertyOp6
 70
     1
102
RTVSPropertyOp7
 70
     1
102
RTVSPropertyOp8
 70
     1
102
RTVSPropertyOp9
 70
     1
102
RTVSPropertyOp10
 70
     1
102
RTVSPropertyOp11
 70
     1
102
RTVSPropertyOp12
 70
     1
102
RTVSPropertyOp13
 70
     1
102
RTVSPropertyOp14
 70
     1
102
RTVSPropertyOp15
 70
     1
102
RTVSPropertyOp16
 70
     1
102
RTVSPropertyOp17
 70
     1
102
RTVSPropertyOp18
 70
     1
102
RTVSPropertyOp19
 70
     1
102
RTVSPropertyOp20
 70
     1
102
RTVSPropertyOp21
 70
     1
102
RTVSPropertyOp22
 70
     1
102
RTVSPropertyOp23
 70
     1
102
RTVSPropertyOp24
 70
     1
102
RTVSPropertyOp25
 70
     1
102
RTVSPropertyOp26
 70
     1
102
RTVSPropertyOp27
 70
     1
102
RTVSPropertyOp28
 70
     1
102
RTVSPropertyOp29
 70
     1
102
RTVSPropertyOp30
 70
     1
102
RTVSPropertyOp31
 70
     1
102
RTVSPropertyOp32
 70
     1
102
RTVSPropertyOp33
 70
     1
102
RTVSPropertyOp34
 70
     1
102
RTVSPropertyOp35
 70
     1
102
RTVSPropertyOp36
 70
     1
102
RTVSPropertyOp37
 70
     1
102
RTVSPropertyOp38
 70
     1
102
RTVSPropertyOp39
 70
     1
102
RTVSPropertyOp40
 70
     1
102
RTVSPropertyOp41
 70
     1
102
RTVSPropertyOp42
 70
     1
102
RTVSPropertyOp43
 70
     1
102
RTVSPropertyOp44
 70
     1
102
RTVSPropertyOp45
 70
     1
102
RTVSPropertyOp46
 70
     1
102
RTVSPropertyOp47
 70
     1
102
RTVSPropertyOp48
 70
     1
102
RTVSPropertyOp49
 70
     1
102
RTVSPropertyOp50
 70
     1
102
RTVSPropertyOp51
 70
     0
102
RTVSPropertyOp52
 70
     0
102
RTVSPropertyOp53
 70
     1
102
RTVSPropertyOp54
 70
     1
102
RTVSPropertyOp55
 70
     1
102
RTVSPropertyOp56
 70
     1
102
RTVSPropertyOp57
 70
     1
102
RTVSPropertyOp58
 70
     1
102
RTVSPropertyOp59
 70
     1
102
RTVSPropertyOp60
 70
     1
102
RTVSPropertyOp61
 70
     1
102
RTVSPropertyOp62
 70
     1
  0
XRECORD
  5
13A2
102
{ACAD_REACTORS
330
13A1
102
}
330
13A1
100
AcDbXrecord
280
     1
102
RTVSPost2010Prop28
280
     0
102
RTVSPost2010PropOp28
 70
     1
102
RTVSPost2010Prop29
280
     1
102
RTVSPost2010PropOp29
 70
     1
102
RTVSPost2010Prop30
280
     1
102
RTVSPost2010PropOp30
 70
     1
102
RTVSPost2010Prop31
280
     0
102
RTVSPost2010PropOp31
 70
     1
102
RTVSPost2010Prop32
280
     0
102
RTVSPost2010PropOp32
 70
     1
102
RTVSPost2010Prop33
280
     0
102
RTVSPost2010PropOp33
 70
     1
102
RTVSPost2010Prop34
280
     0
102
RTVSPost2010PropOp34
 70
     1
102
RTVSPost2010Prop35
280
     0
102
RTVSPost2010PropOp35
 70
     1
102
RTVSPost2010Prop36
280
     0
102
RTVSPost2010PropOp36
 70
     1
102
RTVSPost2010Prop37
 90
       50
102
RTVSPost2010PropOp37
 70
     1
102
RTVSPost2010Prop38
140
0.0
102
RTVSPost2010PropOp38
 70
     1
102
RTVSPost2010Prop39
140
1.0
102
RTVSPost2010PropOp39
 70
     1
102
RTVSPost2010Prop40
 90
        0
102
RTVSPost2010PropOp40
 70
     1
102
RTVSPost2010Prop41ColorIndex
 90
       18
102
RTVSPost2010Prop41ColorRGB
 90
        0
102
RTVSPost2010PropOp41
 70
     1
102
RTVSPost2010Prop42
 90
       50
102
RTVSPost2010PropOp42
 70
     1
102
RTVSPost2010Prop43
 90
        3
102
RTVSPost2010PropOp43
 70
     1
102
RTVSPost2010Prop44ColorIndex
 90
        5
102
RTVSPost2010Prop44ColorRGB
 90
      255
102
RTVSPost2010PropOp44
 70
     1
102
RTVSPost2010Prop45
280
     0
102
RTVSPost2010PropOp45
 70
     1
102
RTVSPost2010Prop46
 90
       50
102
RTVSPost2010PropOp46
 70
     1
102
RTVSPost2010Prop47
 90
       50
102
RTVSPost2010PropOp47
 70
     1
102
RTVSPost2010Prop48
 90
       50
102
RTVSPost2010PropOp48
 70
     1
102
RTVSPost2010Prop49
280
     0
102
RTVSPost2010PropOp49
 70
     1
102
RTVSPost2010Prop50
 90
       50
102
RTVSPost2010PropOp50
 70
     1
102
RTVSPost2010Prop51ColorIndex
 90
      256
102
RTVSPost2010Prop51ColorRGB
 90
-16777216
102
RTVSPost2010PropOp51
 70
     0
102
RTVSPost2010Prop52
140
1.0
102
RTVSPost2010PropOp52
 70
     0
102
RTVSPost2010Prop53
 90
        2
102
RTVSPost2010PropOp53
 70
     1
102
RTVSPost2010Prop54
  1
strokes_ogs.tif
102
RTVSPost2010PropOp54
 70
     1
102
RTVSPost2010Prop55
280
     0
102
RTVSPost2010PropOp55
 70
     1
102
RTVSPost2010Prop56
140
1.0
102
RTVSPost2010PropOp56
 70
     1
102
RTVSPost2010Prop57
140
1.0
102
RTVSPost2010PropOp57
 70
     1
102
RTVSPropertyOp0
 70
     1
102
RTVSPropertyOp1
 70
     1
102
RTVSPropertyOp2
 70
     1
102
RTVSPropertyOp3
 70
     1
102
RTVSPropertyOp4
 70
     1
102
RTVSPropertyOp5
 70
     1
102
RTVSPropertyOp6
 70
     1
102
RTVSPropertyOp7
 70
     1
102
RTVSPropertyOp8
 70
     1
102
RTVSPropertyOp9
 70
     1
102
RTVSPropertyOp10
 70
     1
102
RTVSPropertyOp11
 70
     1
102
RTVSPropertyOp12
 70
     1
102
RTVSPropertyOp13
 70
     1
102
RTVSPropertyOp14
 70
     1
102
RTVSPropertyOp15
 70
     1
102
RTVSPropertyOp16
 70
     1
102
RTVSPropertyOp17
 70
     1
102
RTVSPropertyOp18
 70
     1
102
RTVSPropertyOp19
 70
     1
102
RTVSPropertyOp20
 70
     1
102
RTVSPropertyOp21
 70
     1
102
RTVSPropertyOp22
 70
     1
102
RTVSPropertyOp23
 70
     1
102
RTVSPropertyOp24
 70
     1
102
RTVSPropertyOp25
 70
     1
102
RTVSPropertyOp26
 70
     1
102
RTVSPropertyOp27
 70
     1
102
RTVSPropertyOp28
 70
     1
102
RTVSPropertyOp29
 70
     1
102
RTVSPropertyOp30
 70
     1
102
RTVSPropertyOp31
 70
     1
102
RTVSPropertyOp32
 70
     1
102
RTVSPropertyOp33
 70
     1
102
RTVSPropertyOp34
 70
     1
102
RTVSPropertyOp35
 70
     1
102
RTVSPropertyOp36
 70
     1
102
RTVSPropertyOp37
 70
     1
102
RTVSPropertyOp38
 70
     1
102
RTVSPropertyOp39
 70
     1
102
RTVSPropertyOp40
 70
     1
102
RTVSPropertyOp41
 70
     1
102
RTVSPropertyOp42
 70
     1
102
RTVSPropertyOp43
 70
     1
102
RTVSPropertyOp44
 70
     1
102
RTVSPropertyOp45
 70
     1
102
RTVSPropertyOp46
 70
     1
102
RTVSPropertyOp47
 70
     1
102
RTVSPropertyOp48
 70
     1
102
RTVSPropertyOp49
 70
     1
102
RTVSPropertyOp50
 70
     1
102
RTVSPropertyOp51
 70
     0
102
RTVSPropertyOp52
 70
     0
102
RTVSPropertyOp53
 70
     1
102
RTVSPropertyOp54
 70
     1
102
RTVSPropertyOp55
 70
     1
102
RTVSPropertyOp56
 70
     1
102
RTVSPropertyOp57
 70
     1
102
RTVSPropertyOp58
 70
     1
102
RTVSPropertyOp59
 70
     1
102
RTVSPropertyOp60
 70
     1
102
RTVSPropertyOp61
 70
     1
102
RTVSPropertyOp62
 70
     1
  0
XRECORD
  5
13A4
102
{ACAD_REACTORS
330
13A3
102
}
330
13A3
100
AcDbXrecord
280
     1
102
RTVSPost2010Prop28
280
     0
102
RTVSPost2010PropOp28
 70
     1
102
RTVSPost2010Prop29
280
     1
102
RTVSPost2010PropOp29
 70
     1
102
RTVSPost2010Prop30
280
     1
102
RTVSPost2010PropOp30
 70
     1
102
RTVSPost2010Prop31
280
     0
102
RTVSPost2010PropOp31
 70
     1
102
RTVSPost2010Prop32
280
     0
102
RTVSPost2010PropOp32
 70
     1
102
RTVSPost2010Prop33
280
     0
102
RTVSPost2010PropOp33
 70
     1
102
RTVSPost2010Prop34
280
     0
102
RTVSPost2010PropOp34
 70
     1
102
RTVSPost2010Prop35
280
     0
102
RTVSPost2010PropOp35
 70
     1
102
RTVSPost2010Prop36
280
     0
102
RTVSPost2010PropOp36
 70
     1
102
RTVSPost2010Prop37
 90
       50
102
RTVSPost2010PropOp37
 70
     1
102
RTVSPost2010Prop38
140
0.0
102
RTVSPost2010PropOp38
 70
     1
102
RTVSPost2010Prop39
140
1.0
102
RTVSPost2010PropOp39
 70
     1
102
RTVSPost2010Prop40
 90
        0
102
RTVSPost2010PropOp40
 70
     1
102
RTVSPost2010Prop41ColorIndex
 90
       18
102
RTVSPost2010Prop41ColorRGB
 90
        0
102
RTVSPost2010PropOp41
 70
     1
102
RTVSPost2010Prop42
 90
       50
102
RTVSPost2010PropOp42
 70
     1
102
RTVSPost2010Prop43
 90
        3
102
RTVSPost2010PropOp43
 70
     1
102
RTVSPost2010Prop44ColorIndex
 90
        5
102
RTVSPost2010Prop44ColorRGB
 90
      255
102
RTVSPost2010PropOp44
 70
     1
102
RTVSPost2010Prop45
280
     0
102
RTVSPost2010PropOp45
 70
     1
102
RTVSPost2010Prop46
 90
       50
102
RTVSPost2010PropOp46
 70
     1
102
RTVSPost2010Prop47
 90
       50
102
RTVSPost2010PropOp47
 70
     1
102
RTVSPost2010Prop48
 90
       50
102
RTVSPost2010PropOp48
 70
     1
102
RTVSPost2010Prop49
280
     0
102
RTVSPost2010PropOp49
 70
     1
102
RTVSPost2010Prop50
 90
       50
102
RTVSPost2010PropOp50
 70
     1
102
RTVSPost2010Prop51ColorIndex
 90
      256
102
RTVSPost2010Prop51ColorRGB
 90
-16777216
102
RTVSPost2010PropOp51
 70
     0
102
RTVSPost2010Prop52
140
1.0
102
RTVSPost2010PropOp52
 70
     0
102
RTVSPost2010Prop53
 90
        2
102
RTVSPost2010PropOp53
 70
     1
102
RTVSPost2010Prop54
  1
strokes_ogs.tif
102
RTVSPost2010PropOp54
 70
     1
102
RTVSPost2010Prop55
280
     0
102
RTVSPost2010PropOp55
 70
     1
102
RTVSPost2010Prop56
140
1.0
102
RTVSPost2010PropOp56
 70
     1
102
RTVSPost2010Prop57
140
1.0
102
RTVSPost2010PropOp57
 70
     1
102
RTVSPropertyOp0
 70
     1
102
RTVSPropertyOp1
 70
     1
102
RTVSPropertyOp2
 70
     1
102
RTVSPropertyOp3
 70
     1
102
RTVSPropertyOp4
 70
     1
102
RTVSPropertyOp5
 70
     1
102
RTVSPropertyOp6
 70
     1
102
RTVSPropertyOp7
 70
     1
102
RTVSPropertyOp8
 70
     1
102
RTVSPropertyOp9
 70
     1
102
RTVSPropertyOp10
 70
     1
102
RTVSPropertyOp11
 70
     1
102
RTVSPropertyOp12
 70
     1
102
RTVSPropertyOp13
 70
     1
102
RTVSPropertyOp14
 70
     1
102
RTVSPropertyOp15
 70
     1
102
RTVSPropertyOp16
 70
     1
102
RTVSPropertyOp17
 70
     1
102
RTVSPropertyOp18
 70
     1
102
RTVSPropertyOp19
 70
     1
102
RTVSPropertyOp20
 70
     1
102
RTVSPropertyOp21
 70
     1
102
RTVSPropertyOp22
 70
     1
102
RTVSPropertyOp23
 70
     1
102
RTVSPropertyOp24
 70
     1
102
RTVSPropertyOp25
 70
     1
102
RTVSPropertyOp26
 70
     1
102
RTVSPropertyOp27
 70
     1
102
RTVSPropertyOp28
 70
     1
102
RTVSPropertyOp29
 70
     1
102
RTVSPropertyOp30
 70
     1
102
RTVSPropertyOp31
 70
     1
102
RTVSPropertyOp32
 70
     1
102
RTVSPropertyOp33
 70
     1
102
RTVSPropertyOp34
 70
     1
102
RTVSPropertyOp35
 70
     1
102
RTVSPropertyOp36
 70
     1
102
RTVSPropertyOp37
 70
     1
102
RTVSPropertyOp38
 70
     1
102
RTVSPropertyOp39
 70
     1
102
RTVSPropertyOp40
 70
     1
102
RTVSPropertyOp41
 70
     1
102
RTVSPropertyOp42
 70
     1
102
RTVSPropertyOp43
 70
     1
102
RTVSPropertyOp44
 70
     1
102
RTVSPropertyOp45
 70
     1
102
RTVSPropertyOp46
 70
     1
102
RTVSPropertyOp47
 70
     1
102
RTVSPropertyOp48
 70
     1
102
RTVSPropertyOp49
 70
     1
102
RTVSPropertyOp50
 70
     1
102
RTVSPropertyOp51
 70
     0
102
RTVSPropertyOp52
 70
     0
102
RTVSPropertyOp53
 70
     1
102
RTVSPropertyOp54
 70
     1
102
RTVSPropertyOp55
 70
     1
102
RTVSPropertyOp56
 70
     1
102
RTVSPropertyOp57
 70
     1
102
RTVSPropertyOp58
 70
     1
102
RTVSPropertyOp59
 70
     1
102
RTVSPropertyOp60
 70
     1
102
RTVSPropertyOp61
 70
     1
102
RTVSPropertyOp62
 70
     1
  0
XRECORD
  5
13A6
102
{ACAD_REACTORS
330
13A5
102
}
330
13A5
100
AcDbXrecord
280
     1
102
RTVSPost2010Prop28
280
     0
102
RTVSPost2010PropOp28
 70
     1
102
RTVSPost2010Prop29
280
     1
102
RTVSPost2010PropOp29
 70
     1
102
RTVSPost2010Prop30
280
     1
102
RTVSPost2010PropOp30
 70
     1
102
RTVSPost2010Prop31
280
     0
102
RTVSPost2010PropOp31
 70
     1
102
RTVSPost2010Prop32
280
     0
102
RTVSPost2010PropOp32
 70
     1
102
RTVSPost2010Prop33
280
     0
102
RTVSPost2010PropOp33
 70
     1
102
RTVSPost2010Prop34
280
     0
102
RTVSPost2010PropOp34
 70
     1
102
RTVSPost2010Prop35
280
     0
102
RTVSPost2010PropOp35
 70
     1
102
RTVSPost2010Prop36
280
     0
102
RTVSPost2010PropOp36
 70
     1
102
RTVSPost2010Prop37
 90
       50
102
RTVSPost2010PropOp37
 70
     1
102
RTVSPost2010Prop38
140
0.0
102
RTVSPost2010PropOp38
 70
     1
102
RTVSPost2010Prop39
140
1.0
102
RTVSPost2010PropOp39
 70
     1
102
RTVSPost2010Prop40
 90
        0
102
RTVSPost2010PropOp40
 70
     1
102
RTVSPost2010Prop41ColorIndex
 90
       18
102
RTVSPost2010Prop41ColorRGB
 90
        0
102
RTVSPost2010PropOp41
 70
     1
102
RTVSPost2010Prop42
 90
       50
102
RTVSPost2010PropOp42
 70
     1
102
RTVSPost2010Prop43
 90
        3
102
RTVSPost2010PropOp43
 70
     1
102
RTVSPost2010Prop44ColorIndex
 90
        5
102
RTVSPost2010Prop44ColorRGB
 90
      255
102
RTVSPost2010PropOp44
 70
     1
102
RTVSPost2010Prop45
280
     0
102
RTVSPost2010PropOp45
 70
     1
102
RTVSPost2010Prop46
 90
       50
102
RTVSPost2010PropOp46
 70
     1
102
RTVSPost2010Prop47
 90
       50
102
RTVSPost2010PropOp47
 70
     1
102
RTVSPost2010Prop48
 90
       50
102
RTVSPost2010PropOp48
 70
     1
102
RTVSPost2010Prop49
280
     0
102
RTVSPost2010PropOp49
 70
     1
102
RTVSPost2010Prop50
 90
       50
102
RTVSPost2010PropOp50
 70
     1
102
RTVSPost2010Prop51ColorIndex
 90
      256
102
RTVSPost2010Prop51ColorRGB
 90
-16777216
102
RTVSPost2010PropOp51
 70
     0
102
RTVSPost2010Prop52
140
1.0
102
RTVSPost2010PropOp52
 70
     0
102
RTVSPost2010Prop53
 90
        2
102
RTVSPost2010PropOp53
 70
     1
102
RTVSPost2010Prop54
  1
strokes_ogs.tif
102
RTVSPost2010PropOp54
 70
     1
102
RTVSPost2010Prop55
280
     0
102
RTVSPost2010PropOp55
 70
     1
102
RTVSPost2010Prop56
140
1.0
102
RTVSPost2010PropOp56
 70
     1
102
RTVSPost2010Prop57
140
1.0
102
RTVSPost2010PropOp57
 70
     1
102
RTVSPropertyOp0
 70
     1
102
RTVSPropertyOp1
 70
     1
102
RTVSPropertyOp2
 70
     1
102
RTVSPropertyOp3
 70
     1
102
RTVSPropertyOp4
 70
     1
102
RTVSPropertyOp5
 70
     1
102
RTVSPropertyOp6
 70
     1
102
RTVSPropertyOp7
 70
     1
102
RTVSPropertyOp8
 70
     1
102
RTVSPropertyOp9
 70
     1
102
RTVSPropertyOp10
 70
     1
102
RTVSPropertyOp11
 70
     1
102
RTVSPropertyOp12
 70
     1
102
RTVSPropertyOp13
 70
     1
102
RTVSPropertyOp14
 70
     1
102
RTVSPropertyOp15
 70
     1
102
RTVSPropertyOp16
 70
     1
102
RTVSPropertyOp17
 70
     1
102
RTVSPropertyOp18
 70
     1
102
RTVSPropertyOp19
 70
     1
102
RTVSPropertyOp20
 70
     1
102
RTVSPropertyOp21
 70
     1
102
RTVSPropertyOp22
 70
     1
102
RTVSPropertyOp23
 70
     1
102
RTVSPropertyOp24
 70
     1
102
RTVSPropertyOp25
 70
     1
102
RTVSPropertyOp26
 70
     1
102
RTVSPropertyOp27
 70
     1
102
RTVSPropertyOp28
 70
     1
102
RTVSPropertyOp29
 70
     1
102
RTVSPropertyOp30
 70
     1
102
RTVSPropertyOp31
 70
     1
102
RTVSPropertyOp32
 70
     1
102
RTVSPropertyOp33
 70
     1
102
RTVSPropertyOp34
 70
     1
102
RTVSPropertyOp35
 70
     1
102
RTVSPropertyOp36
 70
     1
102
RTVSPropertyOp37
 70
     1
102
RTVSPropertyOp38
 70
     1
102
RTVSPropertyOp39
 70
     1
102
RTVSPropertyOp40
 70
     1
102
RTVSPropertyOp41
 70
     1
102
RTVSPropertyOp42
 70
     1
102
RTVSPropertyOp43
 70
     1
102
RTVSPropertyOp44
 70
     1
102
RTVSPropertyOp45
 70
     1
102
RTVSPropertyOp46
 70
     1
102
RTVSPropertyOp47
 70
     1
102
RTVSPropertyOp48
 70
     1
102
RTVSPropertyOp49
 70
     1
102
RTVSPropertyOp50
 70
     1
102
RTVSPropertyOp51
 70
     0
102
RTVSPropertyOp52
 70
     0
102
RTVSPropertyOp53
 70
     1
102
RTVSPropertyOp54
 70
     1
102
RTVSPropertyOp55
 70
     1
102
RTVSPropertyOp56
 70
     1
102
RTVSPropertyOp57
 70
     1
102
RTVSPropertyOp58
 70
     1
102
RTVSPropertyOp59
 70
     1
102
RTVSPropertyOp60
 70
     1
102
RTVSPropertyOp61
 70
     1
102
RTVSPropertyOp62
 70
     1
  0
XRECORD
  5
13A8
102
{ACAD_REACTORS
330
13A7
102
}
330
13A7
100
AcDbXrecord
280
     1
102
RTVSPost2010Prop28
280
     0
102
RTVSPost2010PropOp28
 70
     1
102
RTVSPost2010Prop29
280
     1
102
RTVSPost2010PropOp29
 70
     1
102
RTVSPost2010Prop30
280
     1
102
RTVSPost2010PropOp30
 70
     1
102
RTVSPost2010Prop31
280
     0
102
RTVSPost2010PropOp31
 70
     1
102
RTVSPost2010Prop32
280
     0
102
RTVSPost2010PropOp32
 70
     1
102
RTVSPost2010Prop33
280
     0
102
RTVSPost2010PropOp33
 70
     1
102
RTVSPost2010Prop34
280
     0
102
RTVSPost2010PropOp34
 70
     1
102
RTVSPost2010Prop35
280
     0
102
RTVSPost2010PropOp35
 70
     1
102
RTVSPost2010Prop36
280
     0
102
RTVSPost2010PropOp36
 70
     1
102
RTVSPost2010Prop37
 90
       50
102
RTVSPost2010PropOp37
 70
     1
102
RTVSPost2010Prop38
140
0.0
102
RTVSPost2010PropOp38
 70
     1
102
RTVSPost2010Prop39
140
1.0
102
RTVSPost2010PropOp39
 70
     1
102
RTVSPost2010Prop40
 90
        0
102
RTVSPost2010PropOp40
 70
     1
102
RTVSPost2010Prop41ColorIndex
 90
       18
102
RTVSPost2010Prop41ColorRGB
 90
        0
102
RTVSPost2010PropOp41
 70
     1
102
RTVSPost2010Prop42
 90
       50
102
RTVSPost2010PropOp42
 70
     1
102
RTVSPost2010Prop43
 90
        3
102
RTVSPost2010PropOp43
 70
     1
102
RTVSPost2010Prop44ColorIndex
 90
        5
102
RTVSPost2010Prop44ColorRGB
 90
      255
102
RTVSPost2010PropOp44
 70
     1
102
RTVSPost2010Prop45
280
     0
102
RTVSPost2010PropOp45
 70
     1
102
RTVSPost2010Prop46
 90
       50
102
RTVSPost2010PropOp46
 70
     1
102
RTVSPost2010Prop47
 90
       50
102
RTVSPost2010PropOp47
 70
     1
102
RTVSPost2010Prop48
 90
       50
102
RTVSPost2010PropOp48
 70
     1
102
RTVSPost2010Prop49
280
     0
102
RTVSPost2010PropOp49
 70
     1
102
RTVSPost2010Prop50
 90
       50
102
RTVSPost2010PropOp50
 70
     1
102
RTVSPost2010Prop51ColorIndex
 90
      256
102
RTVSPost2010Prop51ColorRGB
 90
-16777216
102
RTVSPost2010PropOp51
 70
     0
102
RTVSPost2010Prop52
140
1.0
102
RTVSPost2010PropOp52
 70
     0
102
RTVSPost2010Prop53
 90
        2
102
RTVSPost2010PropOp53
 70
     1
102
RTVSPost2010Prop54
  1
strokes_ogs.tif
102
RTVSPost2010PropOp54
 70
     1
102
RTVSPost2010Prop55
280
     0
102
RTVSPost2010PropOp55
 70
     1
102
RTVSPost2010Prop56
140
1.0
102
RTVSPost2010PropOp56
 70
     1
102
RTVSPost2010Prop57
140
1.0
102
RTVSPost2010PropOp57
 70
     1
102
RTVSPropertyOp0
 70
     1
102
RTVSPropertyOp1
 70
     1
102
RTVSPropertyOp2
 70
     1
102
RTVSPropertyOp3
 70
     1
102
RTVSPropertyOp4
 70
     1
102
RTVSPropertyOp5
 70
     1
102
RTVSPropertyOp6
 70
     1
102
RTVSPropertyOp7
 70
     1
102
RTVSPropertyOp8
 70
     1
102
RTVSPropertyOp9
 70
     1
102
RTVSPropertyOp10
 70
     1
102
RTVSPropertyOp11
 70
     1
102
RTVSPropertyOp12
 70
     1
102
RTVSPropertyOp13
 70
     1
102
RTVSPropertyOp14
 70
     1
102
RTVSPropertyOp15
 70
     1
102
RTVSPropertyOp16
 70
     1
102
RTVSPropertyOp17
 70
     1
102
RTVSPropertyOp18
 70
     1
102
RTVSPropertyOp19
 70
     1
102
RTVSPropertyOp20
 70
     1
102
RTVSPropertyOp21
 70
     1
102
RTVSPropertyOp22
 70
     1
102
RTVSPropertyOp23
 70
     1
102
RTVSPropertyOp24
 70
     1
102
RTVSPropertyOp25
 70
     1
102
RTVSPropertyOp26
 70
     1
102
RTVSPropertyOp27
 70
     1
102
RTVSPropertyOp28
 70
     1
102
RTVSPropertyOp29
 70
     1
102
RTVSPropertyOp30
 70
     1
102
RTVSPropertyOp31
 70
     1
102
RTVSPropertyOp32
 70
     1
102
RTVSPropertyOp33
 70
     1
102
RTVSPropertyOp34
 70
     1
102
RTVSPropertyOp35
 70
     1
102
RTVSPropertyOp36
 70
     1
102
RTVSPropertyOp37
 70
     1
102
RTVSPropertyOp38
 70
     1
102
RTVSPropertyOp39
 70
     1
102
RTVSPropertyOp40
 70
     1
102
RTVSPropertyOp41
 70
     1
102
RTVSPropertyOp42
 70
     1
102
RTVSPropertyOp43
 70
     1
102
RTVSPropertyOp44
 70
     1
102
RTVSPropertyOp45
 70
     1
102
RTVSPropertyOp46
 70
     1
102
RTVSPropertyOp47
 70
     1
102
RTVSPropertyOp48
 70
     1
102
RTVSPropertyOp49
 70
     1
102
RTVSPropertyOp50
 70
     1
102
RTVSPropertyOp51
 70
     0
102
RTVSPropertyOp52
 70
     0
102
RTVSPropertyOp53
 70
     1
102
RTVSPropertyOp54
 70
     1
102
RTVSPropertyOp55
 70
     1
102
RTVSPropertyOp56
 70
     1
102
RTVSPropertyOp57
 70
     1
102
RTVSPropertyOp58
 70
     1
102
RTVSPropertyOp59
 70
     1
102
RTVSPropertyOp60
 70
     1
102
RTVSPropertyOp61
 70
     1
102
RTVSPropertyOp62
 70
     1
  0
XRECORD
  5
13B0
102
{ACAD_REACTORS
330
13AF
102
}
330
13AF
100
AcDbXrecord
280
     1
102
RTVSPost2010Prop28
280
     0
102
RTVSPost2010PropOp28
 70
     1
102
RTVSPost2010Prop29
280
     1
102
RTVSPost2010PropOp29
 70
     1
102
RTVSPost2010Prop30
280
     1
102
RTVSPost2010PropOp30
 70
     1
102
RTVSPost2010Prop31
280
     0
102
RTVSPost2010PropOp31
 70
     1
102
RTVSPost2010Prop32
280
     0
102
RTVSPost2010PropOp32
 70
     1
102
RTVSPost2010Prop33
280
     0
102
RTVSPost2010PropOp33
 70
     1
102
RTVSPost2010Prop34
280
     0
102
RTVSPost2010PropOp34
 70
     1
102
RTVSPost2010Prop35
280
     0
102
RTVSPost2010PropOp35
 70
     1
102
RTVSPost2010Prop36
280
     0
102
RTVSPost2010PropOp36
 70
     1
102
RTVSPost2010Prop37
 90
       50
102
RTVSPost2010PropOp37
 70
     1
102
RTVSPost2010Prop38
140
0.0
102
RTVSPost2010PropOp38
 70
     1
102
RTVSPost2010Prop39
140
1.0
102
RTVSPost2010PropOp39
 70
     1
102
RTVSPost2010Prop40
 90
        0
102
RTVSPost2010PropOp40
 70
     1
102
RTVSPost2010Prop41ColorIndex
 90
       18
102
RTVSPost2010Prop41ColorRGB
 90
        0
102
RTVSPost2010PropOp41
 70
     1
102
RTVSPost2010Prop42
 90
       50
102
RTVSPost2010PropOp42
 70
     1
102
RTVSPost2010Prop43
 90
        3
102
RTVSPost2010PropOp43
 70
     1
102
RTVSPost2010Prop44ColorIndex
 90
        5
102
RTVSPost2010Prop44ColorRGB
 90
      255
102
RTVSPost2010PropOp44
 70
     1
102
RTVSPost2010Prop45
280
     0
102
RTVSPost2010PropOp45
 70
     1
102
RTVSPost2010Prop46
 90
       50
102
RTVSPost2010PropOp46
 70
     1
102
RTVSPost2010Prop47
 90
       50
102
RTVSPost2010PropOp47
 70
     1
102
RTVSPost2010Prop48
 90
       50
102
RTVSPost2010PropOp48
 70
     1
102
RTVSPost2010Prop49
280
     0
102
RTVSPost2010PropOp49
 70
     1
102
RTVSPost2010Prop50
 90
       50
102
RTVSPost2010PropOp50
 70
     1
102
RTVSPost2010Prop51ColorIndex
 90
      256
102
RTVSPost2010Prop51ColorRGB
 90
-16777216
102
RTVSPost2010PropOp51
 70
     0
102
RTVSPost2010Prop52
140
1.0
102
RTVSPost2010PropOp52
 70
     0
102
RTVSPost2010Prop53
 90
        2
102
RTVSPost2010PropOp53
 70
     1
102
RTVSPost2010Prop54
  1
strokes_ogs.tif
102
RTVSPost2010PropOp54
 70
     1
102
RTVSPost2010Prop55
280
     0
102
RTVSPost2010PropOp55
 70
     1
102
RTVSPost2010Prop56
140
1.0
102
RTVSPost2010PropOp56
 70
     1
102
RTVSPost2010Prop57
140
1.0
102
RTVSPost2010PropOp57
 70
     1
102
RTVSPropertyOp0
 70
     1
102
RTVSPropertyOp1
 70
     1
102
RTVSPropertyOp2
 70
     1
102
RTVSPropertyOp3
 70
     1
102
RTVSPropertyOp4
 70
     1
102
RTVSPropertyOp5
 70
     1
102
RTVSPropertyOp6
 70
     1
102
RTVSPropertyOp7
 70
     1
102
RTVSPropertyOp8
 70
     1
102
RTVSPropertyOp9
 70
     1
102
RTVSPropertyOp10
 70
     1
102
RTVSPropertyOp11
 70
     1
102
RTVSPropertyOp12
 70
     1
102
RTVSPropertyOp13
 70
     1
102
RTVSPropertyOp14
 70
     1
102
RTVSPropertyOp15
 70
     1
102
RTVSPropertyOp16
 70
     1
102
RTVSPropertyOp17
 70
     1
102
RTVSPropertyOp18
 70
     1
102
RTVSPropertyOp19
 70
     1
102
RTVSPropertyOp20
 70
     1
102
RTVSPropertyOp21
 70
     1
102
RTVSPropertyOp22
 70
     1
102
RTVSPropertyOp23
 70
     1
102
RTVSPropertyOp24
 70
     1
102
RTVSPropertyOp25
 70
     1
102
RTVSPropertyOp26
 70
     1
102
RTVSPropertyOp27
 70
     1
102
RTVSPropertyOp28
 70
     1
102
RTVSPropertyOp29
 70
     1
102
RTVSPropertyOp30
 70
     1
102
RTVSPropertyOp31
 70
     1
102
RTVSPropertyOp32
 70
     1
102
RTVSPropertyOp33
 70
     1
102
RTVSPropertyOp34
 70
     1
102
RTVSPropertyOp35
 70
     1
102
RTVSPropertyOp36
 70
     1
102
RTVSPropertyOp37
 70
     1
102
RTVSPropertyOp38
 70
     1
102
RTVSPropertyOp39
 70
     1
102
RTVSPropertyOp40
 70
     1
102
RTVSPropertyOp41
 70
     1
102
RTVSPropertyOp42
 70
     1
102
RTVSPropertyOp43
 70
     1
102
RTVSPropertyOp44
 70
     1
102
RTVSPropertyOp45
 70
     1
102
RTVSPropertyOp46
 70
     1
102
RTVSPropertyOp47
 70
     1
102
RTVSPropertyOp48
 70
     1
102
RTVSPropertyOp49
 70
     1
102
RTVSPropertyOp50
 70
     1
102
RTVSPropertyOp51
 70
     0
102
RTVSPropertyOp52
 70
     0
102
RTVSPropertyOp53
 70
     1
102
RTVSPropertyOp54
 70
     1
102
RTVSPropertyOp55
 70
     1
102
RTVSPropertyOp56
 70
     1
102
RTVSPropertyOp57
 70
     1
102
RTVSPropertyOp58
 70
     1
102
RTVSPropertyOp59
 70
     1
102
RTVSPropertyOp60
 70
     1
102
RTVSPropertyOp61
 70
     1
102
RTVSPropertyOp62
 70
     1
  0
XRECORD
  5
13CC
102
{ACAD_REACTORS
330
13CB
102
}
330
13CB
100
AcDbXrecord
280
     1
102
RTVSPost2010Prop28
280
     0
102
RTVSPost2010PropOp28
 70
     0
102
RTVSPost2010Prop29
280
     1
102
RTVSPost2010PropOp29
 70
     0
102
RTVSPost2010Prop30
280
     1
102
RTVSPost2010PropOp30
 70
     0
102
RTVSPost2010Prop31
280
     0
102
RTVSPost2010PropOp31
 70
     0
102
RTVSPost2010Prop32
280
     0
102
RTVSPost2010PropOp32
 70
     0
102
RTVSPost2010Prop33
280
     0
102
RTVSPost2010PropOp33
 70
     0
102
RTVSPost2010Prop34
280
     0
102
RTVSPost2010PropOp34
 70
     0
102
RTVSPost2010Prop35
280
     0
102
RTVSPost2010PropOp35
 70
     0
102
RTVSPost2010Prop36
280
     0
102
RTVSPost2010PropOp36
 70
     0
102
RTVSPost2010Prop37
 90
       50
102
RTVSPost2010PropOp37
 70
     0
102
RTVSPost2010Prop38
140
0.0
102
RTVSPost2010PropOp38
 70
     0
102
RTVSPost2010Prop39
140
1.0
102
RTVSPost2010PropOp39
 70
     0
102
RTVSPost2010Prop40
 90
        0
102
RTVSPost2010PropOp40
 70
     0
102
RTVSPost2010Prop41ColorIndex
 90
       18
102
RTVSPost2010Prop41ColorRGB
 90
        0
102
RTVSPost2010PropOp41
 70
     0
102
RTVSPost2010Prop42
 90
       50
102
RTVSPost2010PropOp42
 70
     0
102
RTVSPost2010Prop43
 90
        3
102
RTVSPost2010PropOp43
 70
     0
102
RTVSPost2010Prop44ColorIndex
 90
        5
102
RTVSPost2010Prop44ColorRGB
 90
      255
102
RTVSPost2010PropOp44
 70
     0
102
RTVSPost2010Prop45
280
     0
102
RTVSPost2010PropOp45
 70
     0
102
RTVSPost2010Prop46
 90
       50
102
RTVSPost2010PropOp46
 70
     0
102
RTVSPost2010Prop47
 90
       50
102
RTVSPost2010PropOp47
 70
     0
102
RTVSPost2010Prop48
 90
       50
102
RTVSPost2010PropOp48
 70
     0
102
RTVSPost2010Prop49
280
     0
102
RTVSPost2010PropOp49
 70
     0
102
RTVSPost2010Prop50
 90
       50
102
RTVSPost2010PropOp50
 70
     0
102
RTVSPost2010Prop51ColorIndex
 90
      256
102
RTVSPost2010Prop51ColorRGB
 90
-16777216
102
RTVSPost2010PropOp51
 70
     0
102
RTVSPost2010Prop52
140
1.0
102
RTVSPost2010PropOp52
 70
     0
102
RTVSPost2010Prop53
 90
        2
102
RTVSPost2010PropOp53
 70
     0
102
RTVSPost2010Prop54
  1
strokes_ogs.tif
102
RTVSPost2010PropOp54
 70
     0
102
RTVSPost2010Prop55
280
     0
102
RTVSPost2010PropOp55
 70
     0
102
RTVSPost2010Prop56
140
1.0
102
RTVSPost2010PropOp56
 70
     0
102
RTVSPost2010Prop57
140
1.0
102
RTVSPost2010PropOp57
 70
     0
102
RTVSPropertyOp0
 70
     0
102
RTVSPropertyOp1
 70
     0
102
RTVSPropertyOp2
 70
     0
102
RTVSPropertyOp3
 70
     0
102
RTVSPropertyOp4
 70
     0
102
RTVSPropertyOp5
 70
     0
102
RTVSPropertyOp6
 70
     0
102
RTVSPropertyOp7
 70
     0
102
RTVSPropertyOp8
 70
     0
102
RTVSPropertyOp9
 70
     0
102
RTVSPropertyOp10
 70
     0
102
RTVSPropertyOp11
 70
     0
102
RTVSPropertyOp12
 70
     0
102
RTVSPropertyOp13
 70
     0
102
RTVSPropertyOp14
 70
     2
102
RTVSPropertyOp15
 70
     0
102
RTVSPropertyOp16
 70
     0
102
RTVSPropertyOp17
 70
     0
102
RTVSPropertyOp18
 70
     0
102
RTVSPropertyOp19
 70
     0
102
RTVSPropertyOp20
 70
     0
102
RTVSPropertyOp21
 70
     0
102
RTVSPropertyOp22
 70
     0
102
RTVSPropertyOp23
 70
     0
102
RTVSPropertyOp24
 70
     0
102
RTVSPropertyOp25
 70
     0
102
RTVSPropertyOp26
 70
     0
102
RTVSPropertyOp27
 70
     0
102
RTVSPropertyOp28
 70
     0
102
RTVSPropertyOp29
 70
     0
102
RTVSPropertyOp30
 70
     0
102
RTVSPropertyOp31
 70
     0
102
RTVSPropertyOp32
 70
     0
102
RTVSPropertyOp33
 70
     0
102
RTVSPropertyOp34
 70
     0
102
RTVSPropertyOp35
 70
     0
102
RTVSPropertyOp36
 70
     0
102
RTVSPropertyOp37
 70
     0
102
RTVSPropertyOp38
 70
     0
102
RTVSPropertyOp39
 70
     0
102
RTVSPropertyOp40
 70
     0
102
RTVSPropertyOp41
 70
     0
102
RTVSPropertyOp42
 70
     0
102
RTVSPropertyOp43
 70
     0
102
RTVSPropertyOp44
 70
     0
102
RTVSPropertyOp45
 70
     0
102
RTVSPropertyOp46
 70
     0
102
RTVSPropertyOp47
 70
     0
102
RTVSPropertyOp48
 70
     0
102
RTVSPropertyOp49
 70
     0
102
RTVSPropertyOp50
 70
     0
102
RTVSPropertyOp51
 70
     0
102
RTVSPropertyOp52
 70
     0
102
RTVSPropertyOp53
 70
     0
102
RTVSPropertyOp54
 70
     0
102
RTVSPropertyOp55
 70
     0
102
RTVSPropertyOp56
 70
     0
102
RTVSPropertyOp57
 70
     0
102
RTVSPropertyOp58
 70
     0
102
RTVSPropertyOp59
 70
     0
102
RTVSPropertyOp60
 70
     0
102
RTVSPropertyOp61
 70
     0
102
RTVSPropertyOp62
 70
     0
  0
XRECORD
  5
13BC
102
{ACAD_REACTORS
330
13BB
102
}
330
13BB
100
AcDbXrecord
280
     1
102
RTVSPost2010Prop28
280
     0
102
RTVSPost2010PropOp28
 70
     1
102
RTVSPost2010Prop29
280
     1
102
RTVSPost2010PropOp29
 70
     1
102
RTVSPost2010Prop30
280
     1
102
RTVSPost2010PropOp30
 70
     1
102
RTVSPost2010Prop31
280
     0
102
RTVSPost2010PropOp31
 70
     1
102
RTVSPost2010Prop32
280
     0
102
RTVSPost2010PropOp32
 70
     1
102
RTVSPost2010Prop33
280
     0
102
RTVSPost2010PropOp33
 70
     1
102
RTVSPost2010Prop34
280
     0
102
RTVSPost2010PropOp34
 70
     1
102
RTVSPost2010Prop35
280
     0
102
RTVSPost2010PropOp35
 70
     1
102
RTVSPost2010Prop36
280
     0
102
RTVSPost2010PropOp36
 70
     1
102
RTVSPost2010Prop37
 90
       50
102
RTVSPost2010PropOp37
 70
     1
102
RTVSPost2010Prop38
140
0.0
102
RTVSPost2010PropOp38
 70
     1
102
RTVSPost2010Prop39
140
1.0
102
RTVSPost2010PropOp39
 70
     1
102
RTVSPost2010Prop40
 90
        0
102
RTVSPost2010PropOp40
 70
     1
102
RTVSPost2010Prop41ColorIndex
 90
       18
102
RTVSPost2010Prop41ColorRGB
 90
        0
102
RTVSPost2010PropOp41
 70
     1
102
RTVSPost2010Prop42
 90
       50
102
RTVSPost2010PropOp42
 70
     1
102
RTVSPost2010Prop43
 90
        3
102
RTVSPost2010PropOp43
 70
     1
102
RTVSPost2010Prop44ColorIndex
 90
        5
102
RTVSPost2010Prop44ColorRGB
 90
      255
102
RTVSPost2010PropOp44
 70
     1
102
RTVSPost2010Prop45
280
     0
102
RTVSPost2010PropOp45
 70
     1
102
RTVSPost2010Prop46
 90
       50
102
RTVSPost2010PropOp46
 70
     1
102
RTVSPost2010Prop47
 90
       50
102
RTVSPost2010PropOp47
 70
     1
102
RTVSPost2010Prop48
 90
       50
102
RTVSPost2010PropOp48
 70
     1
102
RTVSPost2010Prop49
280
     0
102
RTVSPost2010PropOp49
 70
     1
102
RTVSPost2010Prop50
 90
       50
102
RTVSPost2010PropOp50
 70
     1
102
RTVSPost2010Prop51ColorIndex
 90
      256
102
RTVSPost2010Prop51ColorRGB
 90
-16777216
102
RTVSPost2010PropOp51
 70
     0
102
RTVSPost2010Prop52
140
1.0
102
RTVSPost2010PropOp52
 70
     0
102
RTVSPost2010Prop53
 90
        2
102
RTVSPost2010PropOp53
 70
     1
102
RTVSPost2010Prop54
  1
strokes_ogs.tif
102
RTVSPost2010PropOp54
 70
     1
102
RTVSPost2010Prop55
280
     0
102
RTVSPost2010PropOp55
 70
     1
102
RTVSPost2010Prop56
140
1.0
102
RTVSPost2010PropOp56
 70
     1
102
RTVSPost2010Prop57
140
1.0
102
RTVSPost2010PropOp57
 70
     1
102
RTVSPropertyOp0
 70
     1
102
RTVSPropertyOp1
 70
     1
102
RTVSPropertyOp2
 70
     1
102
RTVSPropertyOp3
 70
     1
102
RTVSPropertyOp4
 70
     1
102
RTVSPropertyOp5
 70
     1
102
RTVSPropertyOp6
 70
     1
102
RTVSPropertyOp7
 70
     1
102
RTVSPropertyOp8
 70
     1
102
RTVSPropertyOp9
 70
     1
102
RTVSPropertyOp10
 70
     1
102
RTVSPropertyOp11
 70
     1
102
RTVSPropertyOp12
 70
     1
102
RTVSPropertyOp13
 70
     1
102
RTVSPropertyOp14
 70
     1
102
RTVSPropertyOp15
 70
     1
102
RTVSPropertyOp16
 70
     1
102
RTVSPropertyOp17
 70
     1
102
RTVSPropertyOp18
 70
     1
102
RTVSPropertyOp19
 70
     1
102
RTVSPropertyOp20
 70
     1
102
RTVSPropertyOp21
 70
     1
102
RTVSPropertyOp22
 70
     1
102
RTVSPropertyOp23
 70
     1
102
RTVSPropertyOp24
 70
     1
102
RTVSPropertyOp25
 70
     1
102
RTVSPropertyOp26
 70
     1
102
RTVSPropertyOp27
 70
     1
102
RTVSPropertyOp28
 70
     1
102
RTVSPropertyOp29
 70
     1
102
RTVSPropertyOp30
 70
     1
102
RTVSPropertyOp31
 70
     1
102
RTVSPropertyOp32
 70
     1
102
RTVSPropertyOp33
 70
     1
102
RTVSPropertyOp34
 70
     1
102
RTVSPropertyOp35
 70
     1
102
RTVSPropertyOp36
 70
     1
102
RTVSPropertyOp37
 70
     1
102
RTVSPropertyOp38
 70
     1
102
RTVSPropertyOp39
 70
     1
102
RTVSPropertyOp40
 70
     1
102
RTVSPropertyOp41
 70
     1
102
RTVSPropertyOp42
 70
     1
102
RTVSPropertyOp43
 70
     1
102
RTVSPropertyOp44
 70
     1
102
RTVSPropertyOp45
 70
     1
102
RTVSPropertyOp46
 70
     1
102
RTVSPropertyOp47
 70
     1
102
RTVSPropertyOp48
 70
     1
102
RTVSPropertyOp49
 70
     1
102
RTVSPropertyOp50
 70
     1
102
RTVSPropertyOp51
 70
     0
102
RTVSPropertyOp52
 70
     0
102
RTVSPropertyOp53
 70
     1
102
RTVSPropertyOp54
 70
     1
102
RTVSPropertyOp55
 70
     1
102
RTVSPropertyOp56
 70
     1
102
RTVSPropertyOp57
 70
     1
102
RTVSPropertyOp58
 70
     1
102
RTVSPropertyOp59
 70
     1
102
RTVSPropertyOp60
 70
     1
102
RTVSPropertyOp61
 70
     1
102
RTVSPropertyOp62
 70
     1
  0
XRECORD
  5
13CE
102
{ACAD_REACTORS
330
13CD
102
}
330
13CD
100
AcDbXrecord
280
     1
102
RTVSPost2010Prop28
280
     0
102
RTVSPost2010PropOp28
 70
     0
102
RTVSPost2010Prop29
280
     1
102
RTVSPost2010PropOp29
 70
     0
102
RTVSPost2010Prop30
280
     1
102
RTVSPost2010PropOp30
 70
     0
102
RTVSPost2010Prop31
280
     0
102
RTVSPost2010PropOp31
 70
     0
102
RTVSPost2010Prop32
280
     0
102
RTVSPost2010PropOp32
 70
     0
102
RTVSPost2010Prop33
280
     0
102
RTVSPost2010PropOp33
 70
     0
102
RTVSPost2010Prop34
280
     0
102
RTVSPost2010PropOp34
 70
     0
102
RTVSPost2010Prop35
280
     0
102
RTVSPost2010PropOp35
 70
     0
102
RTVSPost2010Prop36
280
     0
102
RTVSPost2010PropOp36
 70
     0
102
RTVSPost2010Prop37
 90
       50
102
RTVSPost2010PropOp37
 70
     0
102
RTVSPost2010Prop38
140
0.0
102
RTVSPost2010PropOp38
 70
     0
102
RTVSPost2010Prop39
140
1.0
102
RTVSPost2010PropOp39
 70
     0
102
RTVSPost2010Prop40
 90
        0
102
RTVSPost2010PropOp40
 70
     0
102
RTVSPost2010Prop41ColorIndex
 90
       18
102
RTVSPost2010Prop41ColorRGB
 90
        0
102
RTVSPost2010PropOp41
 70
     0
102
RTVSPost2010Prop42
 90
       50
102
RTVSPost2010PropOp42
 70
     0
102
RTVSPost2010Prop43
 90
        3
102
RTVSPost2010PropOp43
 70
     0
102
RTVSPost2010Prop44ColorIndex
 90
        5
102
RTVSPost2010Prop44ColorRGB
 90
      255
102
RTVSPost2010PropOp44
 70
     0
102
RTVSPost2010Prop45
280
     0
102
RTVSPost2010PropOp45
 70
     0
102
RTVSPost2010Prop46
 90
       50
102
RTVSPost2010PropOp46
 70
     0
102
RTVSPost2010Prop47
 90
       50
102
RTVSPost2010PropOp47
 70
     0
102
RTVSPost2010Prop48
 90
       50
102
RTVSPost2010PropOp48
 70
     0
102
RTVSPost2010Prop49
280
     0
102
RTVSPost2010PropOp49
 70
     0
102
RTVSPost2010Prop50
 90
       50
102
RTVSPost2010PropOp50
 70
     0
102
RTVSPost2010Prop51ColorIndex
 90
      256
102
RTVSPost2010Prop51ColorRGB
 90
-16777216
102
RTVSPost2010PropOp51
 70
     0
102
RTVSPost2010Prop52
140
1.0
102
RTVSPost2010PropOp52
 70
     0
102
RTVSPost2010Prop53
 90
        2
102
RTVSPost2010PropOp53
 70
     0
102
RTVSPost2010Prop54
  1
strokes_ogs.tif
102
RTVSPost2010PropOp54
 70
     0
102
RTVSPost2010Prop55
280
     0
102
RTVSPost2010PropOp55
 70
     0
102
RTVSPost2010Prop56
140
1.0
102
RTVSPost2010PropOp56
 70
     0
102
RTVSPost2010Prop57
140
1.0
102
RTVSPost2010PropOp57
 70
     0
102
RTVSPropertyOp0
 70
     0
102
RTVSPropertyOp1
 70
     0
102
RTVSPropertyOp2
 70
     0
102
RTVSPropertyOp3
 70
     0
102
RTVSPropertyOp4
 70
     0
102
RTVSPropertyOp5
 70
     0
102
RTVSPropertyOp6
 70
     0
102
RTVSPropertyOp7
 70
     0
102
RTVSPropertyOp8
 70
     0
102
RTVSPropertyOp9
 70
     0
102
RTVSPropertyOp10
 70
     0
102
RTVSPropertyOp11
 70
     0
102
RTVSPropertyOp12
 70
     0
102
RTVSPropertyOp13
 70
     0
102
RTVSPropertyOp14
 70
     2
102
RTVSPropertyOp15
 70
     0
102
RTVSPropertyOp16
 70
     0
102
RTVSPropertyOp17
 70
     0
102
RTVSPropertyOp18
 70
     0
102
RTVSPropertyOp19
 70
     0
102
RTVSPropertyOp20
 70
     0
102
RTVSPropertyOp21
 70
     0
102
RTVSPropertyOp22
 70
     0
102
RTVSPropertyOp23
 70
     0
102
RTVSPropertyOp24
 70
     0
102
RTVSPropertyOp25
 70
     0
102
RTVSPropertyOp26
 70
     0
102
RTVSPropertyOp27
 70
     0
102
RTVSPropertyOp28
 70
     0
102
RTVSPropertyOp29
 70
     0
102
RTVSPropertyOp30
 70
     0
102
RTVSPropertyOp31
 70
     0
102
RTVSPropertyOp32
 70
     0
102
RTVSPropertyOp33
 70
     0
102
RTVSPropertyOp34
 70
     0
102
RTVSPropertyOp35
 70
     0
102
RTVSPropertyOp36
 70
     0
102
RTVSPropertyOp37
 70
     0
102
RTVSPropertyOp38
 70
     0
102
RTVSPropertyOp39
 70
     0
102
RTVSPropertyOp40
 70
     0
102
RTVSPropertyOp41
 70
     0
102
RTVSPropertyOp42
 70
     0
102
RTVSPropertyOp43
 70
     0
102
RTVSPropertyOp44
 70
     0
102
RTVSPropertyOp45
 70
     0
102
RTVSPropertyOp46
 70
     0
102
RTVSPropertyOp47
 70
     0
102
RTVSPropertyOp48
 70
     0
102
RTVSPropertyOp49
 70
     0
102
RTVSPropertyOp50
 70
     0
102
RTVSPropertyOp51
 70
     0
102
RTVSPropertyOp52
 70
     0
102
RTVSPropertyOp53
 70
     0
102
RTVSPropertyOp54
 70
     0
102
RTVSPropertyOp55
 70
     0
102
RTVSPropertyOp56
 70
     0
102
RTVSPropertyOp57
 70
     0
102
RTVSPropertyOp58
 70
     0
102
RTVSPropertyOp59
 70
     0
102
RTVSPropertyOp60
 70
     0
102
RTVSPropertyOp61
 70
     0
102
RTVSPropertyOp62
 70
     0
  0
XRECORD
  5
13B4
102
{ACAD_REACTORS
330
13B3
102
}
330
13B3
100
AcDbXrecord
280
     1
102
RTVSPost2010Prop28
280
     0
102
RTVSPost2010PropOp28
 70
     1
102
RTVSPost2010Prop29
280
     1
102
RTVSPost2010PropOp29
 70
     1
102
RTVSPost2010Prop30
280
     1
102
RTVSPost2010PropOp30
 70
     1
102
RTVSPost2010Prop31
280
     0
102
RTVSPost2010PropOp31
 70
     1
102
RTVSPost2010Prop32
280
     0
102
RTVSPost2010PropOp32
 70
     1
102
RTVSPost2010Prop33
280
     0
102
RTVSPost2010PropOp33
 70
     1
102
RTVSPost2010Prop34
280
     0
102
RTVSPost2010PropOp34
 70
     1
102
RTVSPost2010Prop35
280
     0
102
RTVSPost2010PropOp35
 70
     1
102
RTVSPost2010Prop36
280
     0
102
RTVSPost2010PropOp36
 70
     1
102
RTVSPost2010Prop37
 90
       50
102
RTVSPost2010PropOp37
 70
     1
102
RTVSPost2010Prop38
140
0.0
102
RTVSPost2010PropOp38
 70
     1
102
RTVSPost2010Prop39
140
1.0
102
RTVSPost2010PropOp39
 70
     1
102
RTVSPost2010Prop40
 90
        0
102
RTVSPost2010PropOp40
 70
     1
102
RTVSPost2010Prop41ColorIndex
 90
       18
102
RTVSPost2010Prop41ColorRGB
 90
        0
102
RTVSPost2010PropOp41
 70
     1
102
RTVSPost2010Prop42
 90
       50
102
RTVSPost2010PropOp42
 70
     1
102
RTVSPost2010Prop43
 90
        3
102
RTVSPost2010PropOp43
 70
     1
102
RTVSPost2010Prop44ColorIndex
 90
        5
102
RTVSPost2010Prop44ColorRGB
 90
      255
102
RTVSPost2010PropOp44
 70
     1
102
RTVSPost2010Prop45
280
     0
102
RTVSPost2010PropOp45
 70
     1
102
RTVSPost2010Prop46
 90
       50
102
RTVSPost2010PropOp46
 70
     1
102
RTVSPost2010Prop47
 90
       50
102
RTVSPost2010PropOp47
 70
     1
102
RTVSPost2010Prop48
 90
       50
102
RTVSPost2010PropOp48
 70
     1
102
RTVSPost2010Prop49
280
     0
102
RTVSPost2010PropOp49
 70
     1
102
RTVSPost2010Prop50
 90
       50
102
RTVSPost2010PropOp50
 70
     1
102
RTVSPost2010Prop51ColorIndex
 90
      256
102
RTVSPost2010Prop51ColorRGB
 90
-16777216
102
RTVSPost2010PropOp51
 70
     0
102
RTVSPost2010Prop52
140
1.0
102
RTVSPost2010PropOp52
 70
     0
102
RTVSPost2010Prop53
 90
        2
102
RTVSPost2010PropOp53
 70
     1
102
RTVSPost2010Prop54
  1
strokes_ogs.tif
102
RTVSPost2010PropOp54
 70
     1
102
RTVSPost2010Prop55
280
     0
102
RTVSPost2010PropOp55
 70
     1
102
RTVSPost2010Prop56
140
1.0
102
RTVSPost2010PropOp56
 70
     1
102
RTVSPost2010Prop57
140
1.0
102
RTVSPost2010PropOp57
 70
     1
102
RTVSPropertyOp0
 70
     1
102
RTVSPropertyOp1
 70
     1
102
RTVSPropertyOp2
 70
     1
102
RTVSPropertyOp3
 70
     1
102
RTVSPropertyOp4
 70
     1
102
RTVSPropertyOp5
 70
     1
102
RTVSPropertyOp6
 70
     1
102
RTVSPropertyOp7
 70
     1
102
RTVSPropertyOp8
 70
     1
102
RTVSPropertyOp9
 70
     1
102
RTVSPropertyOp10
 70
     1
102
RTVSPropertyOp11
 70
     1
102
RTVSPropertyOp12
 70
     1
102
RTVSPropertyOp13
 70
     1
102
RTVSPropertyOp14
 70
     1
102
RTVSPropertyOp15
 70
     1
102
RTVSPropertyOp16
 70
     1
102
RTVSPropertyOp17
 70
     1
102
RTVSPropertyOp18
 70
     1
102
RTVSPropertyOp19
 70
     1
102
RTVSPropertyOp20
 70
     1
102
RTVSPropertyOp21
 70
     1
102
RTVSPropertyOp22
 70
     1
102
RTVSPropertyOp23
 70
     1
102
RTVSPropertyOp24
 70
     1
102
RTVSPropertyOp25
 70
     1
102
RTVSPropertyOp26
 70
     1
102
RTVSPropertyOp27
 70
     1
102
RTVSPropertyOp28
 70
     1
102
RTVSPropertyOp29
 70
     1
102
RTVSPropertyOp30
 70
     1
102
RTVSPropertyOp31
 70
     1
102
RTVSPropertyOp32
 70
     1
102
RTVSPropertyOp33
 70
     1
102
RTVSPropertyOp34
 70
     1
102
RTVSPropertyOp35
 70
     1
102
RTVSPropertyOp36
 70
     1
102
RTVSPropertyOp37
 70
     1
102
RTVSPropertyOp38
 70
     1
102
RTVSPropertyOp39
 70
     1
102
RTVSPropertyOp40
 70
     1
102
RTVSPropertyOp41
 70
     1
102
RTVSPropertyOp42
 70
     1
102
RTVSPropertyOp43
 70
     1
102
RTVSPropertyOp44
 70
     1
102
RTVSPropertyOp45
 70
     1
102
RTVSPropertyOp46
 70
     1
102
RTVSPropertyOp47
 70
     1
102
RTVSPropertyOp48
 70
     1
102
RTVSPropertyOp49
 70
     1
102
RTVSPropertyOp50
 70
     1
102
RTVSPropertyOp51
 70
     0
102
RTVSPropertyOp52
 70
     0
102
RTVSPropertyOp53
 70
     1
102
RTVSPropertyOp54
 70
     1
102
RTVSPropertyOp55
 70
     1
102
RTVSPropertyOp56
 70
     1
102
RTVSPropertyOp57
 70
     1
102
RTVSPropertyOp58
 70
     1
102
RTVSPropertyOp59
 70
     1
102
RTVSPropertyOp60
 70
     1
102
RTVSPropertyOp61
 70
     1
102
RTVSPropertyOp62
 70
     1
  0
XRECORD
  5
13CA
102
{ACAD_REACTORS
330
13C9
102
}
330
13C9
100
AcDbXrecord
280
     1
102
RTVSPost2010Prop28
280
     0
102
RTVSPost2010PropOp28
 70
     1
102
RTVSPost2010Prop29
280
     1
102
RTVSPost2010PropOp29
 70
     1
102
RTVSPost2010Prop30
280
     1
102
RTVSPost2010PropOp30
 70
     1
102
RTVSPost2010Prop31
280
     0
102
RTVSPost2010PropOp31
 70
     1
102
RTVSPost2010Prop32
280
     0
102
RTVSPost2010PropOp32
 70
     1
102
RTVSPost2010Prop33
280
     0
102
RTVSPost2010PropOp33
 70
     1
102
RTVSPost2010Prop34
280
     0
102
RTVSPost2010PropOp34
 70
     1
102
RTVSPost2010Prop35
280
     0
102
RTVSPost2010PropOp35
 70
     1
102
RTVSPost2010Prop36
280
     0
102
RTVSPost2010PropOp36
 70
     1
102
RTVSPost2010Prop37
 90
       50
102
RTVSPost2010PropOp37
 70
     1
102
RTVSPost2010Prop38
140
0.0
102
RTVSPost2010PropOp38
 70
     1
102
RTVSPost2010Prop39
140
1.0
102
RTVSPost2010PropOp39
 70
     1
102
RTVSPost2010Prop40
 90
        0
102
RTVSPost2010PropOp40
 70
     1
102
RTVSPost2010Prop41ColorIndex
 90
       18
102
RTVSPost2010Prop41ColorRGB
 90
        0
102
RTVSPost2010PropOp41
 70
     1
102
RTVSPost2010Prop42
 90
       50
102
RTVSPost2010PropOp42
 70
     1
102
RTVSPost2010Prop43
 90
        3
102
RTVSPost2010PropOp43
 70
     1
102
RTVSPost2010Prop44ColorIndex
 90
        5
102
RTVSPost2010Prop44ColorRGB
 90
      255
102
RTVSPost2010PropOp44
 70
     1
102
RTVSPost2010Prop45
280
     0
102
RTVSPost2010PropOp45
 70
     1
102
RTVSPost2010Prop46
 90
       50
102
RTVSPost2010PropOp46
 70
     1
102
RTVSPost2010Prop47
 90
       50
102
RTVSPost2010PropOp47
 70
     1
102
RTVSPost2010Prop48
 90
       50
102
RTVSPost2010PropOp48
 70
     1
102
RTVSPost2010Prop49
280
     0
102
RTVSPost2010PropOp49
 70
     1
102
RTVSPost2010Prop50
 90
       50
102
RTVSPost2010PropOp50
 70
     1
102
RTVSPost2010Prop51ColorIndex
 90
      256
102
RTVSPost2010Prop51ColorRGB
 90
-16777216
102
RTVSPost2010PropOp51
 70
     0
102
RTVSPost2010Prop52
140
1.0
102
RTVSPost2010PropOp52
 70
     0
102
RTVSPost2010Prop53
 90
        2
102
RTVSPost2010PropOp53
 70
     1
102
RTVSPost2010Prop54
  1
strokes_ogs.tif
102
RTVSPost2010PropOp54
 70
     1
102
RTVSPost2010Prop55
280
     0
102
RTVSPost2010PropOp55
 70
     1
102
RTVSPost2010Prop56
140
1.0
102
RTVSPost2010PropOp56
 70
     1
102
RTVSPost2010Prop57
140
1.0
102
RTVSPost2010PropOp57
 70
     1
102
RTVSPropertyOp0
 70
     1
102
RTVSPropertyOp1
 70
     1
102
RTVSPropertyOp2
 70
     1
102
RTVSPropertyOp3
 70
     1
102
RTVSPropertyOp4
 70
     1
102
RTVSPropertyOp5
 70
     1
102
RTVSPropertyOp6
 70
     1
102
RTVSPropertyOp7
 70
     1
102
RTVSPropertyOp8
 70
     1
102
RTVSPropertyOp9
 70
     1
102
RTVSPropertyOp10
 70
     1
102
RTVSPropertyOp11
 70
     1
102
RTVSPropertyOp12
 70
     1
102
RTVSPropertyOp13
 70
     1
102
RTVSPropertyOp14
 70
     1
102
RTVSPropertyOp15
 70
     1
102
RTVSPropertyOp16
 70
     1
102
RTVSPropertyOp17
 70
     1
102
RTVSPropertyOp18
 70
     1
102
RTVSPropertyOp19
 70
     1
102
RTVSPropertyOp20
 70
     1
102
RTVSPropertyOp21
 70
     1
102
RTVSPropertyOp22
 70
     1
102
RTVSPropertyOp23
 70
     1
102
RTVSPropertyOp24
 70
     1
102
RTVSPropertyOp25
 70
     1
102
RTVSPropertyOp26
 70
     1
102
RTVSPropertyOp27
 70
     1
102
RTVSPropertyOp28
 70
     1
102
RTVSPropertyOp29
 70
     1
102
RTVSPropertyOp30
 70
     1
102
RTVSPropertyOp31
 70
     1
102
RTVSPropertyOp32
 70
     1
102
RTVSPropertyOp33
 70
     1
102
RTVSPropertyOp34
 70
     1
102
RTVSPropertyOp35
 70
     1
102
RTVSPropertyOp36
 70
     1
102
RTVSPropertyOp37
 70
     1
102
RTVSPropertyOp38
 70
     1
102
RTVSPropertyOp39
 70
     1
102
RTVSPropertyOp40
 70
     1
102
RTVSPropertyOp41
 70
     1
102
RTVSPropertyOp42
 70
     1
102
RTVSPropertyOp43
 70
     1
102
RTVSPropertyOp44
 70
     1
102
RTVSPropertyOp45
 70
     1
102
RTVSPropertyOp46
 70
     1
102
RTVSPropertyOp47
 70
     1
102
RTVSPropertyOp48
 70
     1
102
RTVSPropertyOp49
 70
     1
102
RTVSPropertyOp50
 70
     1
102
RTVSPropertyOp51
 70
     0
102
RTVSPropertyOp52
 70
     0
102
RTVSPropertyOp53
 70
     1
102
RTVSPropertyOp54
 70
     1
102
RTVSPropertyOp55
 70
     1
102
RTVSPropertyOp56
 70
     1
102
RTVSPropertyOp57
 70
     1
102
RTVSPropertyOp58
 70
     1
102
RTVSPropertyOp59
 70
     1
102
RTVSPropertyOp60
 70
     1
102
RTVSPropertyOp61
 70
     1
102
RTVSPropertyOp62
 70
     1
  0
XRECORD
  5
13C8
102
{ACAD_REACTORS
330
13C7
102
}
330
13C7
100
AcDbXrecord
280
     1
102
RTVSPost2010Prop28
280
     0
102
RTVSPost2010PropOp28
 70
     1
102
RTVSPost2010Prop29
280
     1
102
RTVSPost2010PropOp29
 70
     1
102
RTVSPost2010Prop30
280
     1
102
RTVSPost2010PropOp30
 70
     1
102
RTVSPost2010Prop31
280
     0
102
RTVSPost2010PropOp31
 70
     1
102
RTVSPost2010Prop32
280
     0
102
RTVSPost2010PropOp32
 70
     1
102
RTVSPost2010Prop33
280
     0
102
RTVSPost2010PropOp33
 70
     1
102
RTVSPost2010Prop34
280
     0
102
RTVSPost2010PropOp34
 70
     1
102
RTVSPost2010Prop35
280
     0
102
RTVSPost2010PropOp35
 70
     1
102
RTVSPost2010Prop36
280
     0
102
RTVSPost2010PropOp36
 70
     1
102
RTVSPost2010Prop37
 90
       50
102
RTVSPost2010PropOp37
 70
     1
102
RTVSPost2010Prop38
140
0.0
102
RTVSPost2010PropOp38
 70
     1
102
RTVSPost2010Prop39
140
1.0
102
RTVSPost2010PropOp39
 70
     1
102
RTVSPost2010Prop40
 90
        0
102
RTVSPost2010PropOp40
 70
     1
102
RTVSPost2010Prop41ColorIndex
 90
       18
102
RTVSPost2010Prop41ColorRGB
 90
        0
102
RTVSPost2010PropOp41
 70
     1
102
RTVSPost2010Prop42
 90
       50
102
RTVSPost2010PropOp42
 70
     1
102
RTVSPost2010Prop43
 90
        3
102
RTVSPost2010PropOp43
 70
     1
102
RTVSPost2010Prop44ColorIndex
 90
        5
102
RTVSPost2010Prop44ColorRGB
 90
      255
102
RTVSPost2010PropOp44
 70
     1
102
RTVSPost2010Prop45
280
     0
102
RTVSPost2010PropOp45
 70
     1
102
RTVSPost2010Prop46
 90
       50
102
RTVSPost2010PropOp46
 70
     1
102
RTVSPost2010Prop47
 90
       50
102
RTVSPost2010PropOp47
 70
     1
102
RTVSPost2010Prop48
 90
       50
102
RTVSPost2010PropOp48
 70
     1
102
RTVSPost2010Prop49
280
     0
102
RTVSPost2010PropOp49
 70
     1
102
RTVSPost2010Prop50
 90
       50
102
RTVSPost2010PropOp50
 70
     1
102
RTVSPost2010Prop51ColorIndex
 90
      256
102
RTVSPost2010Prop51ColorRGB
 90
-16777216
102
RTVSPost2010PropOp51
 70
     0
102
RTVSPost2010Prop52
140
1.0
102
RTVSPost2010PropOp52
 70
     0
102
RTVSPost2010Prop53
 90
        2
102
RTVSPost2010PropOp53
 70
     1
102
RTVSPost2010Prop54
  1
strokes_ogs.tif
102
RTVSPost2010PropOp54
 70
     1
102
RTVSPost2010Prop55
280
     0
102
RTVSPost2010PropOp55
 70
     1
102
RTVSPost2010Prop56
140
1.0
102
RTVSPost2010PropOp56
 70
     1
102
RTVSPost2010Prop57
140
1.0
102
RTVSPost2010PropOp57
 70
     1
102
RTVSPropertyOp0
 70
     1
102
RTVSPropertyOp1
 70
     1
102
RTVSPropertyOp2
 70
     1
102
RTVSPropertyOp3
 70
     1
102
RTVSPropertyOp4
 70
     1
102
RTVSPropertyOp5
 70
     1
102
RTVSPropertyOp6
 70
     1
102
RTVSPropertyOp7
 70
     1
102
RTVSPropertyOp8
 70
     1
102
RTVSPropertyOp9
 70
     1
102
RTVSPropertyOp10
 70
     1
102
RTVSPropertyOp11
 70
     1
102
RTVSPropertyOp12
 70
     1
102
RTVSPropertyOp13
 70
     1
102
RTVSPropertyOp14
 70
     1
102
RTVSPropertyOp15
 70
     1
102
RTVSPropertyOp16
 70
     1
102
RTVSPropertyOp17
 70
     1
102
RTVSPropertyOp18
 70
     1
102
RTVSPropertyOp19
 70
     1
102
RTVSPropertyOp20
 70
     1
102
RTVSPropertyOp21
 70
     1
102
RTVSPropertyOp22
 70
     1
102
RTVSPropertyOp23
 70
     1
102
RTVSPropertyOp24
 70
     1
102
RTVSPropertyOp25
 70
     1
102
RTVSPropertyOp26
 70
     1
102
RTVSPropertyOp27
 70
     1
102
RTVSPropertyOp28
 70
     1
102
RTVSPropertyOp29
 70
     1
102
RTVSPropertyOp30
 70
     1
102
RTVSPropertyOp31
 70
     1
102
RTVSPropertyOp32
 70
     1
102
RTVSPropertyOp33
 70
     1
102
RTVSPropertyOp34
 70
     1
102
RTVSPropertyOp35
 70
     1
102
RTVSPropertyOp36
 70
     1
102
RTVSPropertyOp37
 70
     1
102
RTVSPropertyOp38
 70
     1
102
RTVSPropertyOp39
 70
     1
102
RTVSPropertyOp40
 70
     1
102
RTVSPropertyOp41
 70
     1
102
RTVSPropertyOp42
 70
     1
102
RTVSPropertyOp43
 70
     1
102
RTVSPropertyOp44
 70
     1
102
RTVSPropertyOp45
 70
     1
102
RTVSPropertyOp46
 70
     1
102
RTVSPropertyOp47
 70
     1
102
RTVSPropertyOp48
 70
     1
102
RTVSPropertyOp49
 70
     1
102
RTVSPropertyOp50
 70
     1
102
RTVSPropertyOp51
 70
     0
102
RTVSPropertyOp52
 70
     0
102
RTVSPropertyOp53
 70
     1
102
RTVSPropertyOp54
 70
     1
102
RTVSPropertyOp55
 70
     1
102
RTVSPropertyOp56
 70
     1
102
RTVSPropertyOp57
 70
     1
102
RTVSPropertyOp58
 70
     1
102
RTVSPropertyOp59
 70
     1
102
RTVSPropertyOp60
 70
     1
102
RTVSPropertyOp61
 70
     1
102
RTVSPropertyOp62
 70
     1
  0
XRECORD
  5
13C2
102
{ACAD_REACTORS
330
13C1
102
}
330
13C1
100
AcDbXrecord
280
     1
102
RTVSPost2010Prop28
280
     0
102
RTVSPost2010PropOp28
 70
     1
102
RTVSPost2010Prop29
280
     1
102
RTVSPost2010PropOp29
 70
     1
102
RTVSPost2010Prop30
280
     1
102
RTVSPost2010PropOp30
 70
     1
102
RTVSPost2010Prop31
280
     0
102
RTVSPost2010PropOp31
 70
     1
102
RTVSPost2010Prop32
280
     0
102
RTVSPost2010PropOp32
 70
     1
102
RTVSPost2010Prop33
280
     0
102
RTVSPost2010PropOp33
 70
     1
102
RTVSPost2010Prop34
280
     0
102
RTVSPost2010PropOp34
 70
     1
102
RTVSPost2010Prop35
280
     0
102
RTVSPost2010PropOp35
 70
     1
102
RTVSPost2010Prop36
280
     0
102
RTVSPost2010PropOp36
 70
     1
102
RTVSPost2010Prop37
 90
       50
102
RTVSPost2010PropOp37
 70
     1
102
RTVSPost2010Prop38
140
0.0
102
RTVSPost2010PropOp38
 70
     1
102
RTVSPost2010Prop39
140
1.0
102
RTVSPost2010PropOp39
 70
     1
102
RTVSPost2010Prop40
 90
        0
102
RTVSPost2010PropOp40
 70
     1
102
RTVSPost2010Prop41ColorIndex
 90
       18
102
RTVSPost2010Prop41ColorRGB
 90
        0
102
RTVSPost2010PropOp41
 70
     1
102
RTVSPost2010Prop42
 90
       50
102
RTVSPost2010PropOp42
 70
     1
102
RTVSPost2010Prop43
 90
        3
102
RTVSPost2010PropOp43
 70
     1
102
RTVSPost2010Prop44ColorIndex
 90
        5
102
RTVSPost2010Prop44ColorRGB
 90
      255
102
RTVSPost2010PropOp44
 70
     1
102
RTVSPost2010Prop45
280
     0
102
RTVSPost2010PropOp45
 70
     1
102
RTVSPost2010Prop46
 90
       50
102
RTVSPost2010PropOp46
 70
     1
102
RTVSPost2010Prop47
 90
       50
102
RTVSPost2010PropOp47
 70
     1
102
RTVSPost2010Prop48
 90
       50
102
RTVSPost2010PropOp48
 70
     1
102
RTVSPost2010Prop49
280
     0
102
RTVSPost2010PropOp49
 70
     1
102
RTVSPost2010Prop50
 90
       50
102
RTVSPost2010PropOp50
 70
     1
102
RTVSPost2010Prop51ColorIndex
 90
      256
102
RTVSPost2010Prop51ColorRGB
 90
-16777216
102
RTVSPost2010PropOp51
 70
     0
102
RTVSPost2010Prop52
140
1.0
102
RTVSPost2010PropOp52
 70
     0
102
RTVSPost2010Prop53
 90
        2
102
RTVSPost2010PropOp53
 70
     1
102
RTVSPost2010Prop54
  1
strokes_ogs.tif
102
RTVSPost2010PropOp54
 70
     1
102
RTVSPost2010Prop55
280
     0
102
RTVSPost2010PropOp55
 70
     1
102
RTVSPost2010Prop56
140
1.0
102
RTVSPost2010PropOp56
 70
     1
102
RTVSPost2010Prop57
140
1.0
102
RTVSPost2010PropOp57
 70
     1
102
RTVSPropertyOp0
 70
     1
102
RTVSPropertyOp1
 70
     1
102
RTVSPropertyOp2
 70
     1
102
RTVSPropertyOp3
 70
     1
102
RTVSPropertyOp4
 70
     1
102
RTVSPropertyOp5
 70
     1
102
RTVSPropertyOp6
 70
     1
102
RTVSPropertyOp7
 70
     1
102
RTVSPropertyOp8
 70
     1
102
RTVSPropertyOp9
 70
     1
102
RTVSPropertyOp10
 70
     1
102
RTVSPropertyOp11
 70
     1
102
RTVSPropertyOp12
 70
     1
102
RTVSPropertyOp13
 70
     1
102
RTVSPropertyOp14
 70
     1
102
RTVSPropertyOp15
 70
     1
102
RTVSPropertyOp16
 70
     1
102
RTVSPropertyOp17
 70
     1
102
RTVSPropertyOp18
 70
     1
102
RTVSPropertyOp19
 70
     1
102
RTVSPropertyOp20
 70
     1
102
RTVSPropertyOp21
 70
     1
102
RTVSPropertyOp22
 70
     1
102
RTVSPropertyOp23
 70
     1
102
RTVSPropertyOp24
 70
     1
102
RTVSPropertyOp25
 70
     1
102
RTVSPropertyOp26
 70
     1
102
RTVSPropertyOp27
 70
     1
102
RTVSPropertyOp28
 70
     1
102
RTVSPropertyOp29
 70
     1
102
RTVSPropertyOp30
 70
     1
102
RTVSPropertyOp31
 70
     1
102
RTVSPropertyOp32
 70
     1
102
RTVSPropertyOp33
 70
     1
102
RTVSPropertyOp34
 70
     1
102
RTVSPropertyOp35
 70
     1
102
RTVSPropertyOp36
 70
     1
102
RTVSPropertyOp37
 70
     1
102
RTVSPropertyOp38
 70
     1
102
RTVSPropertyOp39
 70
     1
102
RTVSPropertyOp40
 70
     1
102
RTVSPropertyOp41
 70
     1
102
RTVSPropertyOp42
 70
     1
102
RTVSPropertyOp43
 70
     1
102
RTVSPropertyOp44
 70
     1
102
RTVSPropertyOp45
 70
     1
102
RTVSPropertyOp46
 70
     1
102
RTVSPropertyOp47
 70
     1
102
RTVSPropertyOp48
 70
     1
102
RTVSPropertyOp49
 70
     1
102
RTVSPropertyOp50
 70
     1
102
RTVSPropertyOp51
 70
     0
102
RTVSPropertyOp52
 70
     0
102
RTVSPropertyOp53
 70
     1
102
RTVSPropertyOp54
 70
     1
102
RTVSPropertyOp55
 70
     1
102
RTVSPropertyOp56
 70
     1
102
RTVSPropertyOp57
 70
     1
102
RTVSPropertyOp58
 70
     1
102
RTVSPropertyOp59
 70
     1
102
RTVSPropertyOp60
 70
     1
102
RTVSPropertyOp61
 70
     1
102
RTVSPropertyOp62
 70
     1
  0
XRECORD
  5
13C4
102
{ACAD_REACTORS
330
13C3
102
}
330
13C3
100
AcDbXrecord
280
     1
102
RTVSPost2010Prop28
280
     0
102
RTVSPost2010PropOp28
 70
     1
102
RTVSPost2010Prop29
280
     1
102
RTVSPost2010PropOp29
 70
     1
102
RTVSPost2010Prop30
280
     1
102
RTVSPost2010PropOp30
 70
     1
102
RTVSPost2010Prop31
280
     0
102
RTVSPost2010PropOp31
 70
     1
102
RTVSPost2010Prop32
280
     0
102
RTVSPost2010PropOp32
 70
     1
102
RTVSPost2010Prop33
280
     0
102
RTVSPost2010PropOp33
 70
     1
102
RTVSPost2010Prop34
280
     0
102
RTVSPost2010PropOp34
 70
     1
102
RTVSPost2010Prop35
280
     0
102
RTVSPost2010PropOp35
 70
     1
102
RTVSPost2010Prop36
280
     0
102
RTVSPost2010PropOp36
 70
     1
102
RTVSPost2010Prop37
 90
       50
102
RTVSPost2010PropOp37
 70
     1
102
RTVSPost2010Prop38
140
0.0
102
RTVSPost2010PropOp38
 70
     1
102
RTVSPost2010Prop39
140
1.0
102
RTVSPost2010PropOp39
 70
     1
102
RTVSPost2010Prop40
 90
        0
102
RTVSPost2010PropOp40
 70
     1
102
RTVSPost2010Prop41ColorIndex
 90
       18
102
RTVSPost2010Prop41ColorRGB
 90
        0
102
RTVSPost2010PropOp41
 70
     1
102
RTVSPost2010Prop42
 90
       50
102
RTVSPost2010PropOp42
 70
     1
102
RTVSPost2010Prop43
 90
        3
102
RTVSPost2010PropOp43
 70
     1
102
RTVSPost2010Prop44ColorIndex
 90
        5
102
RTVSPost2010Prop44ColorRGB
 90
      255
102
RTVSPost2010PropOp44
 70
     1
102
RTVSPost2010Prop45
280
     0
102
RTVSPost2010PropOp45
 70
     1
102
RTVSPost2010Prop46
 90
       50
102
RTVSPost2010PropOp46
 70
     1
102
RTVSPost2010Prop47
 90
       50
102
RTVSPost2010PropOp47
 70
     1
102
RTVSPost2010Prop48
 90
       50
102
RTVSPost2010PropOp48
 70
     1
102
RTVSPost2010Prop49
280
     0
102
RTVSPost2010PropOp49
 70
     1
102
RTVSPost2010Prop50
 90
       50
102
RTVSPost2010PropOp50
 70
     1
102
RTVSPost2010Prop51ColorIndex
 90
      256
102
RTVSPost2010Prop51ColorRGB
 90
-16777216
102
RTVSPost2010PropOp51
 70
     0
102
RTVSPost2010Prop52
140
1.0
102
RTVSPost2010PropOp52
 70
     0
102
RTVSPost2010Prop53
 90
        2
102
RTVSPost2010PropOp53
 70
     1
102
RTVSPost2010Prop54
  1
strokes_ogs.tif
102
RTVSPost2010PropOp54
 70
     1
102
RTVSPost2010Prop55
280
     0
102
RTVSPost2010PropOp55
 70
     1
102
RTVSPost2010Prop56
140
1.0
102
RTVSPost2010PropOp56
 70
     1
102
RTVSPost2010Prop57
140
1.0
102
RTVSPost2010PropOp57
 70
     1
102
RTVSPropertyOp0
 70
     1
102
RTVSPropertyOp1
 70
     1
102
RTVSPropertyOp2
 70
     1
102
RTVSPropertyOp3
 70
     1
102
RTVSPropertyOp4
 70
     1
102
RTVSPropertyOp5
 70
     1
102
RTVSPropertyOp6
 70
     1
102
RTVSPropertyOp7
 70
     1
102
RTVSPropertyOp8
 70
     1
102
RTVSPropertyOp9
 70
     1
102
RTVSPropertyOp10
 70
     1
102
RTVSPropertyOp11
 70
     1
102
RTVSPropertyOp12
 70
     1
102
RTVSPropertyOp13
 70
     1
102
RTVSPropertyOp14
 70
     1
102
RTVSPropertyOp15
 70
     1
102
RTVSPropertyOp16
 70
     1
102
RTVSPropertyOp17
 70
     1
102
RTVSPropertyOp18
 70
     1
102
RTVSPropertyOp19
 70
     1
102
RTVSPropertyOp20
 70
     1
102
RTVSPropertyOp21
 70
     1
102
RTVSPropertyOp22
 70
     1
102
RTVSPropertyOp23
 70
     1
102
RTVSPropertyOp24
 70
     1
102
RTVSPropertyOp25
 70
     1
102
RTVSPropertyOp26
 70
     1
102
RTVSPropertyOp27
 70
     1
102
RTVSPropertyOp28
 70
     1
102
RTVSPropertyOp29
 70
     1
102
RTVSPropertyOp30
 70
     1
102
RTVSPropertyOp31
 70
     1
102
RTVSPropertyOp32
 70
     1
102
RTVSPropertyOp33
 70
     1
102
RTVSPropertyOp34
 70
     1
102
RTVSPropertyOp35
 70
     1
102
RTVSPropertyOp36
 70
     1
102
RTVSPropertyOp37
 70
     1
102
RTVSPropertyOp38
 70
     1
102
RTVSPropertyOp39
 70
     1
102
RTVSPropertyOp40
 70
     1
102
RTVSPropertyOp41
 70
     1
102
RTVSPropertyOp42
 70
     1
102
RTVSPropertyOp43
 70
     1
102
RTVSPropertyOp44
 70
     1
102
RTVSPropertyOp45
 70
     1
102
RTVSPropertyOp46
 70
     1
102
RTVSPropertyOp47
 70
     1
102
RTVSPropertyOp48
 70
     1
102
RTVSPropertyOp49
 70
     1
102
RTVSPropertyOp50
 70
     1
102
RTVSPropertyOp51
 70
     0
102
RTVSPropertyOp52
 70
     0
102
RTVSPropertyOp53
 70
     1
102
RTVSPropertyOp54
 70
     1
102
RTVSPropertyOp55
 70
     1
102
RTVSPropertyOp56
 70
     1
102
RTVSPropertyOp57
 70
     1
102
RTVSPropertyOp58
 70
     1
102
RTVSPropertyOp59
 70
     1
102
RTVSPropertyOp60
 70
     1
102
RTVSPropertyOp61
 70
     1
102
RTVSPropertyOp62
 70
     1
  0
XRECORD
  5
13BA
102
{ACAD_REACTORS
330
13B9
102
}
330
13B9
100
AcDbXrecord
280
     1
102
RTVSPost2010Prop28
280
     0
102
RTVSPost2010PropOp28
 70
     1
102
RTVSPost2010Prop29
280
     1
102
RTVSPost2010PropOp29
 70
     1
102
RTVSPost2010Prop30
280
     1
102
RTVSPost2010PropOp30
 70
     1
102
RTVSPost2010Prop31
280
     0
102
RTVSPost2010PropOp31
 70
     1
102
RTVSPost2010Prop32
280
     0
102
RTVSPost2010PropOp32
 70
     1
102
RTVSPost2010Prop33
280
     0
102
RTVSPost2010PropOp33
 70
     1
102
RTVSPost2010Prop34
280
     0
102
RTVSPost2010PropOp34
 70
     1
102
RTVSPost2010Prop35
280
     0
102
RTVSPost2010PropOp35
 70
     1
102
RTVSPost2010Prop36
280
     0
102
RTVSPost2010PropOp36
 70
     1
102
RTVSPost2010Prop37
 90
       50
102
RTVSPost2010PropOp37
 70
     1
102
RTVSPost2010Prop38
140
0.0
102
RTVSPost2010PropOp38
 70
     1
102
RTVSPost2010Prop39
140
1.0
102
RTVSPost2010PropOp39
 70
     1
102
RTVSPost2010Prop40
 90
        0
102
RTVSPost2010PropOp40
 70
     1
102
RTVSPost2010Prop41ColorIndex
 90
       18
102
RTVSPost2010Prop41ColorRGB
 90
        0
102
RTVSPost2010PropOp41
 70
     1
102
RTVSPost2010Prop42
 90
       50
102
RTVSPost2010PropOp42
 70
     1
102
RTVSPost2010Prop43
 90
        3
102
RTVSPost2010PropOp43
 70
     1
102
RTVSPost2010Prop44ColorIndex
 90
        5
102
RTVSPost2010Prop44ColorRGB
 90
      255
102
RTVSPost2010PropOp44
 70
     1
102
RTVSPost2010Prop45
280
     0
102
RTVSPost2010PropOp45
 70
     1
102
RTVSPost2010Prop46
 90
       50
102
RTVSPost2010PropOp46
 70
     1
102
RTVSPost2010Prop47
 90
       50
102
RTVSPost2010PropOp47
 70
     1
102
RTVSPost2010Prop48
 90
       50
102
RTVSPost2010PropOp48
 70
     1
102
RTVSPost2010Prop49
280
     0
102
RTVSPost2010PropOp49
 70
     1
102
RTVSPost2010Prop50
 90
       50
102
RTVSPost2010PropOp50
 70
     1
102
RTVSPost2010Prop51ColorIndex
 90
      256
102
RTVSPost2010Prop51ColorRGB
 90
-16777216
102
RTVSPost2010PropOp51
 70
     0
102
RTVSPost2010Prop52
140
1.0
102
RTVSPost2010PropOp52
 70
     0
102
RTVSPost2010Prop53
 90
        2
102
RTVSPost2010PropOp53
 70
     1
102
RTVSPost2010Prop54
  1
strokes_ogs.tif
102
RTVSPost2010PropOp54
 70
     1
102
RTVSPost2010Prop55
280
     0
102
RTVSPost2010PropOp55
 70
     1
102
RTVSPost2010Prop56
140
1.0
102
RTVSPost2010PropOp56
 70
     1
102
RTVSPost2010Prop57
140
1.0
102
RTVSPost2010PropOp57
 70
     1
102
RTVSPropertyOp0
 70
     1
102
RTVSPropertyOp1
 70
     1
102
RTVSPropertyOp2
 70
     1
102
RTVSPropertyOp3
 70
     1
102
RTVSPropertyOp4
 70
     1
102
RTVSPropertyOp5
 70
     1
102
RTVSPropertyOp6
 70
     1
102
RTVSPropertyOp7
 70
     1
102
RTVSPropertyOp8
 70
     1
102
RTVSPropertyOp9
 70
     1
102
RTVSPropertyOp10
 70
     1
102
RTVSPropertyOp11
 70
     1
102
RTVSPropertyOp12
 70
     1
102
RTVSPropertyOp13
 70
     1
102
RTVSPropertyOp14
 70
     1
102
RTVSPropertyOp15
 70
     1
102
RTVSPropertyOp16
 70
     1
102
RTVSPropertyOp17
 70
     1
102
RTVSPropertyOp18
 70
     1
102
RTVSPropertyOp19
 70
     1
102
RTVSPropertyOp20
 70
     1
102
RTVSPropertyOp21
 70
     1
102
RTVSPropertyOp22
 70
     1
102
RTVSPropertyOp23
 70
     1
102
RTVSPropertyOp24
 70
     1
102
RTVSPropertyOp25
 70
     1
102
RTVSPropertyOp26
 70
     1
102
RTVSPropertyOp27
 70
     1
102
RTVSPropertyOp28
 70
     1
102
RTVSPropertyOp29
 70
     1
102
RTVSPropertyOp30
 70
     1
102
RTVSPropertyOp31
 70
     1
102
RTVSPropertyOp32
 70
     1
102
RTVSPropertyOp33
 70
     1
102
RTVSPropertyOp34
 70
     1
102
RTVSPropertyOp35
 70
     1
102
RTVSPropertyOp36
 70
     1
102
RTVSPropertyOp37
 70
     1
102
RTVSPropertyOp38
 70
     1
102
RTVSPropertyOp39
 70
     1
102
RTVSPropertyOp40
 70
     1
102
RTVSPropertyOp41
 70
     1
102
RTVSPropertyOp42
 70
     1
102
RTVSPropertyOp43
 70
     1
102
RTVSPropertyOp44
 70
     1
102
RTVSPropertyOp45
 70
     1
102
RTVSPropertyOp46
 70
     1
102
RTVSPropertyOp47
 70
     1
102
RTVSPropertyOp48
 70
     1
102
RTVSPropertyOp49
 70
     1
102
RTVSPropertyOp50
 70
     1
102
RTVSPropertyOp51
 70
     0
102
RTVSPropertyOp52
 70
     0
102
RTVSPropertyOp53
 70
     1
102
RTVSPropertyOp54
 70
     1
102
RTVSPropertyOp55
 70
     1
102
RTVSPropertyOp56
 70
     1
102
RTVSPropertyOp57
 70
     1
102
RTVSPropertyOp58
 70
     1
102
RTVSPropertyOp59
 70
     1
102
RTVSPropertyOp60
 70
     1
102
RTVSPropertyOp61
 70
     1
102
RTVSPropertyOp62
 70
     1
  0
XRECORD
  5
13AE
102
{ACAD_REACTORS
330
13AD
102
}
330
13AD
100
AcDbXrecord
280
     1
102
RTVSPost2010Prop28
280
     0
102
RTVSPost2010PropOp28
 70
     1
102
RTVSPost2010Prop29
280
     1
102
RTVSPost2010PropOp29
 70
     1
102
RTVSPost2010Prop30
280
     1
102
RTVSPost2010PropOp30
 70
     1
102
RTVSPost2010Prop31
280
     0
102
RTVSPost2010PropOp31
 70
     1
102
RTVSPost2010Prop32
280
     0
102
RTVSPost2010PropOp32
 70
     1
102
RTVSPost2010Prop33
280
     0
102
RTVSPost2010PropOp33
 70
     1
102
RTVSPost2010Prop34
280
     0
102
RTVSPost2010PropOp34
 70
     1
102
RTVSPost2010Prop35
280
     0
102
RTVSPost2010PropOp35
 70
     1
102
RTVSPost2010Prop36
280
     0
102
RTVSPost2010PropOp36
 70
     1
102
RTVSPost2010Prop37
 90
       50
102
RTVSPost2010PropOp37
 70
     1
102
RTVSPost2010Prop38
140
0.0
102
RTVSPost2010PropOp38
 70
     1
102
RTVSPost2010Prop39
140
1.0
102
RTVSPost2010PropOp39
 70
     1
102
RTVSPost2010Prop40
 90
        0
102
RTVSPost2010PropOp40
 70
     1
102
RTVSPost2010Prop41ColorIndex
 90
       18
102
RTVSPost2010Prop41ColorRGB
 90
        0
102
RTVSPost2010PropOp41
 70
     1
102
RTVSPost2010Prop42
 90
       50
102
RTVSPost2010PropOp42
 70
     1
102
RTVSPost2010Prop43
 90
        3
102
RTVSPost2010PropOp43
 70
     1
102
RTVSPost2010Prop44ColorIndex
 90
        5
102
RTVSPost2010Prop44ColorRGB
 90
      255
102
RTVSPost2010PropOp44
 70
     1
102
RTVSPost2010Prop45
280
     0
102
RTVSPost2010PropOp45
 70
     1
102
RTVSPost2010Prop46
 90
       50
102
RTVSPost2010PropOp46
 70
     1
102
RTVSPost2010Prop47
 90
       50
102
RTVSPost2010PropOp47
 70
     1
102
RTVSPost2010Prop48
 90
       50
102
RTVSPost2010PropOp48
 70
     1
102
RTVSPost2010Prop49
280
     0
102
RTVSPost2010PropOp49
 70
     1
102
RTVSPost2010Prop50
 90
       50
102
RTVSPost2010PropOp50
 70
     1
102
RTVSPost2010Prop51ColorIndex
 90
      256
102
RTVSPost2010Prop51ColorRGB
 90
-16777216
102
RTVSPost2010PropOp51
 70
     0
102
RTVSPost2010Prop52
140
1.0
102
RTVSPost2010PropOp52
 70
     0
102
RTVSPost2010Prop53
 90
        2
102
RTVSPost2010PropOp53
 70
     1
102
RTVSPost2010Prop54
  1
strokes_ogs.tif
102
RTVSPost2010PropOp54
 70
     1
102
RTVSPost2010Prop55
280
     0
102
RTVSPost2010PropOp55
 70
     1
102
RTVSPost2010Prop56
140
1.0
102
RTVSPost2010PropOp56
 70
     1
102
RTVSPost2010Prop57
140
1.0
102
RTVSPost2010PropOp57
 70
     1
102
RTVSPropertyOp0
 70
     1
102
RTVSPropertyOp1
 70
     1
102
RTVSPropertyOp2
 70
     1
102
RTVSPropertyOp3
 70
     1
102
RTVSPropertyOp4
 70
     1
102
RTVSPropertyOp5
 70
     1
102
RTVSPropertyOp6
 70
     1
102
RTVSPropertyOp7
 70
     1
102
RTVSPropertyOp8
 70
     1
102
RTVSPropertyOp9
 70
     1
102
RTVSPropertyOp10
 70
     1
102
RTVSPropertyOp11
 70
     1
102
RTVSPropertyOp12
 70
     1
102
RTVSPropertyOp13
 70
     1
102
RTVSPropertyOp14
 70
     1
102
RTVSPropertyOp15
 70
     1
102
RTVSPropertyOp16
 70
     1
102
RTVSPropertyOp17
 70
     1
102
RTVSPropertyOp18
 70
     1
102
RTVSPropertyOp19
 70
     1
102
RTVSPropertyOp20
 70
     1
102
RTVSPropertyOp21
 70
     1
102
RTVSPropertyOp22
 70
     1
102
RTVSPropertyOp23
 70
     1
102
RTVSPropertyOp24
 70
     1
102
RTVSPropertyOp25
 70
     1
102
RTVSPropertyOp26
 70
     1
102
RTVSPropertyOp27
 70
     1
102
RTVSPropertyOp28
 70
     1
102
RTVSPropertyOp29
 70
     1
102
RTVSPropertyOp30
 70
     1
102
RTVSPropertyOp31
 70
     1
102
RTVSPropertyOp32
 70
     1
102
RTVSPropertyOp33
 70
     1
102
RTVSPropertyOp34
 70
     1
102
RTVSPropertyOp35
 70
     1
102
RTVSPropertyOp36
 70
     1
102
RTVSPropertyOp37
 70
     1
102
RTVSPropertyOp38
 70
     1
102
RTVSPropertyOp39
 70
     1
102
RTVSPropertyOp40
 70
     1
102
RTVSPropertyOp41
 70
     1
102
RTVSPropertyOp42
 70
     1
102
RTVSPropertyOp43
 70
     1
102
RTVSPropertyOp44
 70
     1
102
RTVSPropertyOp45
 70
     1
102
RTVSPropertyOp46
 70
     1
102
RTVSPropertyOp47
 70
     1
102
RTVSPropertyOp48
 70
     1
102
RTVSPropertyOp49
 70
     1
102
RTVSPropertyOp50
 70
     1
102
RTVSPropertyOp51
 70
     0
102
RTVSPropertyOp52
 70
     0
102
RTVSPropertyOp53
 70
     1
102
RTVSPropertyOp54
 70
     1
102
RTVSPropertyOp55
 70
     1
102
RTVSPropertyOp56
 70
     1
102
RTVSPropertyOp57
 70
     1
102
RTVSPropertyOp58
 70
     1
102
RTVSPropertyOp59
 70
     1
102
RTVSPropertyOp60
 70
     1
102
RTVSPropertyOp61
 70
     1
102
RTVSPropertyOp62
 70
     1
  0
XRECORD
  5
13C6
102
{ACAD_REACTORS
330
13C5
102
}
330
13C5
100
AcDbXrecord
280
     1
102
RTVSPost2010Prop28
280
     0
102
RTVSPost2010PropOp28
 70
     1
102
RTVSPost2010Prop29
280
     1
102
RTVSPost2010PropOp29
 70
     1
102
RTVSPost2010Prop30
280
     1
102
RTVSPost2010PropOp30
 70
     1
102
RTVSPost2010Prop31
280
     0
102
RTVSPost2010PropOp31
 70
     1
102
RTVSPost2010Prop32
280
     0
102
RTVSPost2010PropOp32
 70
     1
102
RTVSPost2010Prop33
280
     0
102
RTVSPost2010PropOp33
 70
     1
102
RTVSPost2010Prop34
280
     0
102
RTVSPost2010PropOp34
 70
     1
102
RTVSPost2010Prop35
280
     0
102
RTVSPost2010PropOp35
 70
     1
102
RTVSPost2010Prop36
280
     0
102
RTVSPost2010PropOp36
 70
     1
102
RTVSPost2010Prop37
 90
       50
102
RTVSPost2010PropOp37
 70
     1
102
RTVSPost2010Prop38
140
0.0
102
RTVSPost2010PropOp38
 70
     1
102
RTVSPost2010Prop39
140
1.0
102
RTVSPost2010PropOp39
 70
     1
102
RTVSPost2010Prop40
 90
        0
102
RTVSPost2010PropOp40
 70
     1
102
RTVSPost2010Prop41ColorIndex
 90
       18
102
RTVSPost2010Prop41ColorRGB
 90
        0
102
RTVSPost2010PropOp41
 70
     1
102
RTVSPost2010Prop42
 90
       50
102
RTVSPost2010PropOp42
 70
     1
102
RTVSPost2010Prop43
 90
        3
102
RTVSPost2010PropOp43
 70
     1
102
RTVSPost2010Prop44ColorIndex
 90
        5
102
RTVSPost2010Prop44ColorRGB
 90
      255
102
RTVSPost2010PropOp44
 70
     1
102
RTVSPost2010Prop45
280
     0
102
RTVSPost2010PropOp45
 70
     1
102
RTVSPost2010Prop46
 90
       50
102
RTVSPost2010PropOp46
 70
     1
102
RTVSPost2010Prop47
 90
       50
102
RTVSPost2010PropOp47
 70
     1
102
RTVSPost2010Prop48
 90
       50
102
RTVSPost2010PropOp48
 70
     1
102
RTVSPost2010Prop49
280
     0
102
RTVSPost2010PropOp49
 70
     1
102
RTVSPost2010Prop50
 90
       50
102
RTVSPost2010PropOp50
 70
     1
102
RTVSPost2010Prop51ColorIndex
 90
      256
102
RTVSPost2010Prop51ColorRGB
 90
-16777216
102
RTVSPost2010PropOp51
 70
     0
102
RTVSPost2010Prop52
140
1.0
102
RTVSPost2010PropOp52
 70
     0
102
RTVSPost2010Prop53
 90
        2
102
RTVSPost2010PropOp53
 70
     1
102
RTVSPost2010Prop54
  1
strokes_ogs.tif
102
RTVSPost2010PropOp54
 70
     1
102
RTVSPost2010Prop55
280
     0
102
RTVSPost2010PropOp55
 70
     1
102
RTVSPost2010Prop56
140
1.0
102
RTVSPost2010PropOp56
 70
     1
102
RTVSPost2010Prop57
140
1.0
102
RTVSPost2010PropOp57
 70
     1
102
RTVSPropertyOp0
 70
     1
102
RTVSPropertyOp1
 70
     1
102
RTVSPropertyOp2
 70
     1
102
RTVSPropertyOp3
 70
     1
102
RTVSPropertyOp4
 70
     1
102
RTVSPropertyOp5
 70
     1
102
RTVSPropertyOp6
 70
     1
102
RTVSPropertyOp7
 70
     1
102
RTVSPropertyOp8
 70
     1
102
RTVSPropertyOp9
 70
     1
102
RTVSPropertyOp10
 70
     1
102
RTVSPropertyOp11
 70
     1
102
RTVSPropertyOp12
 70
     1
102
RTVSPropertyOp13
 70
     1
102
RTVSPropertyOp14
 70
     1
102
RTVSPropertyOp15
 70
     1
102
RTVSPropertyOp16
 70
     1
102
RTVSPropertyOp17
 70
     1
102
RTVSPropertyOp18
 70
     1
102
RTVSPropertyOp19
 70
     1
102
RTVSPropertyOp20
 70
     1
102
RTVSPropertyOp21
 70
     1
102
RTVSPropertyOp22
 70
     1
102
RTVSPropertyOp23
 70
     1
102
RTVSPropertyOp24
 70
     1
102
RTVSPropertyOp25
 70
     1
102
RTVSPropertyOp26
 70
     1
102
RTVSPropertyOp27
 70
     1
102
RTVSPropertyOp28
 70
     1
102
RTVSPropertyOp29
 70
     1
102
RTVSPropertyOp30
 70
     1
102
RTVSPropertyOp31
 70
     1
102
RTVSPropertyOp32
 70
     1
102
RTVSPropertyOp33
 70
     1
102
RTVSPropertyOp34
 70
     1
102
RTVSPropertyOp35
 70
     1
102
RTVSPropertyOp36
 70
     1
102
RTVSPropertyOp37
 70
     1
102
RTVSPropertyOp38
 70
     1
102
RTVSPropertyOp39
 70
     1
102
RTVSPropertyOp40
 70
     1
102
RTVSPropertyOp41
 70
     1
102
RTVSPropertyOp42
 70
     1
102
RTVSPropertyOp43
 70
     1
102
RTVSPropertyOp44
 70
     1
102
RTVSPropertyOp45
 70
     1
102
RTVSPropertyOp46
 70
     1
102
RTVSPropertyOp47
 70
     1
102
RTVSPropertyOp48
 70
     1
102
RTVSPropertyOp49
 70
     1
102
RTVSPropertyOp50
 70
     1
102
RTVSPropertyOp51
 70
     0
102
RTVSPropertyOp52
 70
     0
102
RTVSPropertyOp53
 70
     1
102
RTVSPropertyOp54
 70
     1
102
RTVSPropertyOp55
 70
     1
102
RTVSPropertyOp56
 70
     1
102
RTVSPropertyOp57
 70
     1
102
RTVSPropertyOp58
 70
     1
102
RTVSPropertyOp59
 70
     1
102
RTVSPropertyOp60
 70
     1
102
RTVSPropertyOp61
 70
     1
102
RTVSPropertyOp62
 70
     1
  0
XRECORD
  5
125B
102
{ACAD_REACTORS
330
125A
102
}
330
125A
100
AcDbXrecord
280
     1
330
102D
  0
ACDBASSOCARRAYACTIONBODY
  5
12C8
330
12C7
100
AcDbAssocActionBody
 90
        1
100
AcDbAssocParamBasedActionBody
 90
        0
 90
        0
 90
        3
360
12C9
360
12CA
360
12CE
 90
        0
 90
        9
 90
        0
  1
AlignItems
 90
        0
 90
        1
 90
        0
330
0
330
0
 90
        0
  1
AxesAngle
 90
        2
 90
        1
 40
1.570796326794896
330
0
330
0
 90
        0
  1
ItemSpacing
 90
        1
 90
        1
 40
35.3
330
0
330
0
 90
        0
  1
Items
 90
        0
 90
        1
 90
       16
330
0
330
0
 90
        0
  1
LevelSpacing
 90
        1
 90
        1
 40
1.0
330
0
330
0
 90
        0
  1
Levels
 90
        0
 90
        1
 90
        1
330
0
330
0
 90
        0
  1
RowElevation
 90
        1
 90
        1
 40
0.0
330
0
330
0
 90
        0
  1
RowSpacing
 90
        1
 90
        1
 40
721.4999999999999
330
0
330
0
 90
        0
  1
Rows
 90
        0
 90
        1
 90
        1
330
0
330
0
100
AcDbAssocArrayActionBody
 90
        1
  1
AcDbAssocArrayRectangularParameters
 90
        0
 90
       16
  1
AcDbAssocArrayItem
100
AcDbAssocArrayItem
 90
        0
 90
        0
 90
        0
 90
        0
 90
        8
 11
0.0
 21
0.0
 31
0.0
330
12D0
100
AcDbAssocArrayItem
 90
        0
 90
        1
 90
        0
 90
        0
 90
        8
 11
35.3
 21
0.0
 31
0.0
330
12D1
100
AcDbAssocArrayItem
 90
        0
 90
        2
 90
        0
 90
        0
 90
        8
 11
70.59999999999999
 21
0.0
 31
0.0
330
12D2
100
AcDbAssocArrayItem
 90
        0
 90
        3
 90
        0
 90
        0
 90
        8
 11
105.9
 21
0.0
 31
0.0
330
12D3
100
AcDbAssocArrayItem
 90
        0
 90
        4
 90
        0
 90
        0
 90
        8
 11
141.2
 21
0.0
 31
0.0
330
12D4
100
AcDbAssocArrayItem
 90
        0
 90
        5
 90
        0
 90
        0
 90
        8
 11
176.5
 21
0.0
 31
0.0
330
12D5
100
AcDbAssocArrayItem
 90
        0
 90
        6
 90
        0
 90
        0
 90
        8
 11
211.8
 21
0.0
 31
0.0
330
12D6
100
AcDbAssocArrayItem
 90
        0
 90
        7
 90
        0
 90
        0
 90
        8
 11
247.1
 21
0.0
 31
0.0
330
12D7
100
AcDbAssocArrayItem
 90
        0
 90
        8
 90
        0
 90
        0
 90
        8
 11
282.4
 21
0.0
 31
0.0
330
12D8
100
AcDbAssocArrayItem
 90
        0
 90
        9
 90
        0
 90
        0
 90
        8
 11
317.7
 21
0.0
 31
0.0
330
12D9
100
AcDbAssocArrayItem
 90
        0
 90
       10
 90
        0
 90
        0
 90
        8
 11
353.0
 21
0.0
 31
0.0
330
12DA
100
AcDbAssocArrayItem
 90
        0
 90
       11
 90
        0
 90
        0
 90
        8
 11
388.3
 21
0.0
 31
0.0
330
12DB
100
AcDbAssocArrayItem
 90
        0
 90
       12
 90
        0
 90
        0
 90
        8
 11
423.5999999999999
 21
0.0
 31
0.0
330
12DC
100
AcDbAssocArrayItem
 90
        0
 90
       13
 90
        0
 90
        0
 90
        8
 11
458.8999999999999
 21
0.0
 31
0.0
330
12DD
100
AcDbAssocArrayItem
 90
        0
 90
       14
 90
        0
 90
        0
 90
        8
 11
494.1999999999999
 21
0.0
 31
0.0
330
12DE
100
AcDbAssocArrayItem
 90
        0
 90
       15
 90
        0
 90
        0
 90
        8
 11
529.4999999999999
 21
0.0
 31
0.0
330
12DF
 40
1.0
 40
0.0
 40
0.0
 40
449.1951284152369
 40
0.0
 40
1.0
 40
0.0
 40
1358.428240482563
 40
0.0
 40
0.0
 40
1.0
 40
0.0
 40
0.0
 40
0.0
 40
0.0
 40
1.0
  0
ACDBASSOCDEPENDENCY
  5
12CB
330
12C7
100
AcDbAssocDependency
 90
        2
 90
        1
290
     0
290
     1
290
     1
290
     1
 90
        0
330
1267
290
     0
330
0
330
0
360
0
 90
        1
  0
ACDBASSOCDEPENDENCY
  5
12CC
330
12C7
100
AcDbAssocDependency
 90
        2
 90
        1
290
     1
290
     0
290
     1
290
     1
 90
        0
330
1264
290
     0
330
0
330
0
360
0
 90
        2
  0
ACDBASSOCDEPENDENCY
  5
12CD
330
12C7
100
AcDbAssocDependency
 90
        2
 90
        0
290
     1
290
     1
290
     1
290
     1
 90
-2147483648
330
126A
290
     0
330
0
330
0
360
0
 90
        3
  0
ACDBASSOCARRAYACTIONBODY
  5
12FA
330
12F9
100
AcDbAssocActionBody
 90
        1
100
AcDbAssocParamBasedActionBody
 90
        0
 90
        0
 90
        3
360
12FB
360
12FC
360
1300
 90
        0
 90
        9
 90
        0
  1
AlignItems
 90
        0
 90
        1
 90
        0
330
0
330
0
 90
        0
  1
AxesAngle
 90
        2
 90
        1
 40
1.570796326794896
330
0
330
0
 90
        0
  1
ItemSpacing
 90
        1
 90
        1
 40
35.3
330
0
330
0
 90
        0
  1
Items
 90
        0
 90
        1
 90
       16
330
0
330
0
 90
        0
  1
LevelSpacing
 90
        1
 90
        1
 40
1.0
330
0
330
0
 90
        0
  1
Levels
 90
        0
 90
        1
 90
        1
330
0
330
0
 90
        0
  1
RowElevation
 90
        1
 90
        1
 40
0.0
330
0
330
0
 90
        0
  1
RowSpacing
 90
        1
 90
        1
 40
82.5
330
0
330
0
 90
        0
  1
Rows
 90
        0
 90
        1
 90
        1
330
0
330
0
100
AcDbAssocArrayActionBody
 90
        1
  1
AcDbAssocArrayRectangularParameters
 90
        0
 90
       16
  1
AcDbAssocArrayItem
100
AcDbAssocArrayItem
 90
        0
 90
        0
 90
        0
 90
        0
 90
        8
 11
0.0
 21
0.0
 31
0.0
330
1302
100
AcDbAssocArrayItem
 90
        0
 90
        1
 90
        0
 90
        0
 90
        8
 11
35.3
 21
0.0
 31
0.0
330
1303
100
AcDbAssocArrayItem
 90
        0
 90
        2
 90
        0
 90
        0
 90
        8
 11
70.59999999999999
 21
0.0
 31
0.0
330
1304
100
AcDbAssocArrayItem
 90
        0
 90
        3
 90
        0
 90
        0
 90
        8
 11
105.9
 21
0.0
 31
0.0
330
1305
100
AcDbAssocArrayItem
 90
        0
 90
        4
 90
        0
 90
        0
 90
        8
 11
141.2
 21
0.0
 31
0.0
330
1306
100
AcDbAssocArrayItem
 90
        0
 90
        5
 90
        0
 90
        0
 90
        8
 11
176.5
 21
0.0
 31
0.0
330
1307
100
AcDbAssocArrayItem
 90
        0
 90
        6
 90
        0
 90
        0
 90
        8
 11
211.8
 21
0.0
 31
0.0
330
1308
100
AcDbAssocArrayItem
 90
        0
 90
        7
 90
        0
 90
        0
 90
        8
 11
247.1
 21
0.0
 31
0.0
330
1309
100
AcDbAssocArrayItem
 90
        0
 90
        8
 90
        0
 90
        0
 90
        8
 11
282.4
 21
0.0
 31
0.0
330
130A
100
AcDbAssocArrayItem
 90
        0
 90
        9
 90
        0
 90
        0
 90
        8
 11
317.7
 21
0.0
 31
0.0
330
130B
100
AcDbAssocArrayItem
 90
        0
 90
       10
 90
        0
 90
        0
 90
        8
 11
353.0
 21
0.0
 31
0.0
330
130C
100
AcDbAssocArrayItem
 90
        0
 90
       11
 90
        0
 90
        0
 90
        8
 11
388.3
 21
0.0
 31
0.0
330
130D
100
AcDbAssocArrayItem
 90
        0
 90
       12
 90
        0
 90
        0
 90
        8
 11
423.5999999999999
 21
0.0
 31
0.0
330
130E
100
AcDbAssocArrayItem
 90
        0
 90
       13
 90
        0
 90
        0
 90
        8
 11
458.8999999999999
 21
0.0
 31
0.0
330
130F
100
AcDbAssocArrayItem
 90
        0
 90
       14
 90
        0
 90
        0
 90
        8
 11
494.1999999999999
 21
0.0
 31
0.0
330
1310
100
AcDbAssocArrayItem
 90
        0
 90
       15
 90
        0
 90
        0
 90
        8
 11
529.4999999999999
 21
0.0
 31
0.0
330
1311
 40
1.0
 40
0.0
 40
0.0
 40
451.9451284152369
 40
0.0
 40
1.0
 40
0.0
 40
641.8441617594153
 40
0.0
 40
0.0
 40
1.0
 40
0.0
 40
0.0
 40
0.0
 40
0.0
 40
1.0
  0
ACDBASSOCDEPENDENCY
  5
12FD
330
12F9
100
AcDbAssocDependency
 90
        2
 90
        1
290
     0
290
     1
290
     1
290
     1
 90
        0
330
12E4
290
     0
330
0
330
0
360
0
 90
        1
  0
ACDBASSOCDEPENDENCY
  5
12FE
330
12F9
100
AcDbAssocDependency
 90
        2
 90
        1
290
     1
290
     0
290
     1
290
     1
 90
        0
330
12E1
290
     0
330
0
330
0
360
0
 90
        2
  0
ACDBASSOCDEPENDENCY
  5
12FF
330
12F9
100
AcDbAssocDependency
 90
        2
 90
        0
290
     1
290
     1
290
     1
290
     1
 90
-2147483648
330
12E7
290
     0
330
0
330
0
360
0
 90
        3
  0
ACDBASSOCVERTEXACTIONPARAM
  5
12C9
330
12C8
100
AcDbAssocActionParam
 90
        0
  1
BaseNormal
100
AcDbAssocSingleDependencyActionParam
 90
        0
330
0
100
AcDbAssocVertexActionParam
 90
        0
 10
0.0
 20
0.0
 30
1.0
  0
ACDBASSOCVERTEXACTIONPARAM
  5
12CA
330
12C8
100
AcDbAssocActionParam
 90
        0
  1
Origin
100
AcDbAssocSingleDependencyActionParam
 90
        0
330
0
100
AcDbAssocVertexActionParam
 90
        0
 10
0.0
 20
0.0
 30
0.0
  0
ACDBASSOCVERTEXACTIONPARAM
  5
12CE
330
12C8
100
AcDbAssocActionParam
 90
        0
  1
basePoint
100
AcDbAssocSingleDependencyActionParam
 90
        0
330
0
100
AcDbAssocVertexActionParam
 90
        0
 10
0.0
 20
0.0
 30
0.0
  0
ACDBASSOCVERTEXACTIONPARAM
  5
12FB
330
12FA
100
AcDbAssocActionParam
 90
        0
  1
BaseNormal
100
AcDbAssocSingleDependencyActionParam
 90
        0
330
0
100
AcDbAssocVertexActionParam
 90
        0
 10
0.0
 20
0.0
 30
1.0
  0
ACDBASSOCVERTEXACTIONPARAM
  5
12FC
330
12FA
100
AcDbAssocActionParam
 90
        0
  1
Origin
100
AcDbAssocSingleDependencyActionParam
 90
        0
330
0
100
AcDbAssocVertexActionParam
 90
        0
 10
0.0
 20
0.0
 30
0.0
  0
ACDBASSOCVERTEXACTIONPARAM
  5
1300
330
12FA
100
AcDbAssocActionParam
 90
        0
  1
basePoint
100
AcDbAssocSingleDependencyActionParam
 90
        0
330
0
100
AcDbAssocVertexActionParam
 90
        0
 10
0.0
 20
0.0
 30
0.0
  0
ENDSEC
  0
EOF
