  0
SECTION
  2
HEADER
  9
$ACADVER
  1
AC1015
  9
$ACADMAINTVER
 70
    20
  9
$DWGCODEPAGE
  3
ANSI_932
  9
$INSBASE
 10
0.0
 20
0.0
 30
0.0
  9
$EXTMIN
 10
-0.1276599116808939
 20
-0.090305199040813
 30
-0.0000000000000058
  9
$EXTMAX
 10
2789.638872896218
 20
1973.359454451644
 30
0.0000000000000104
  9
$LIMMIN
 10
0.0
 20
0.0
  9
$LIMMAX
 10
297.0
 20
209.0
  9
$ORTHOMODE
 70
     1
  9
$REGENMODE
 70
     1
  9
$FILLMODE
 70
     1
  9
$QTEXTMODE
 70
     0
  9
$MIRRTEXT
 70
     1
  9
$LTSCALE
 40
1.0
  9
$ATTMODE
 70
     1
  9
$TEXTSIZE
 40
2.5
  9
$TRACEWID
 40
1.0
  9
$TEXTSTYLE
  7
Standard
  9
$CLAYER
  8
本体
  9
$CELTYPE
  6
ByLayer
  9
$CECOLOR
 62
   256
  9
$CELTSCALE
 40
3.0
  9
$DISPSILH
 70
     0
  9
$DIMSCALE
 40
10.0
  9
$DIMASZ
 40
1.5
  9
$DIMEXO
 40
2.0
  9
$DIMDLI
 40
3.75
  9
$DIMRND
 40
0.0
  9
$DIMDLE
 40
0.0
  9
$DIMEXE
 40
1.5
  9
$DIMTP
 40
0.0
  9
$DIMTM
 40
0.0
  9
$DIMTXT
 40
3.0
  9
$DIMCEN
 40
2.5
  9
$DIMTSZ
 40
0.0
  9
$DIMTOL
 70
     0
  9
$DIMLIM
 70
     0
  9
$DIMTIH
 70
     0
  9
$DIMTOH
 70
     0
  9
$DIMSE1
 70
     0
  9
$DIMSE2
 70
     0
  9
$DIMTAD
 70
     1
  9
$DIMZIN
 70
     8
  9
$DIMBLK
  1
Open30
  9
$DIMASO
 70
     1
  9
$DIMSHO
 70
     1
  9
$DIMPOST
  1

  9
$DIMAPOST
  1

  9
$DIMALT
 70
     0
  9
$DIMALTD
 70
     3
  9
$DIMALTF
 40
0.03937007874016
  9
$DIMLFAC
 40
1.0
  9
$DIMTOFL
 70
     1
  9
$DIMTVP
 40
0.0
  9
$DIMTIX
 70
     0
  9
$DIMSOXD
 70
     0
  9
$DIMSAH
 70
     0
  9
$DIMBLK1
  1

  9
$DIMBLK2
  1

  9
$DIMSTYLE
  2
ISO-25
  9
$DIMCLRD
 70
     0
  9
$DIMCLRE
 70
     0
  9
$DIMCLRT
 70
     0
  9
$DIMTFAC
 40
1.0
  9
$DIMGAP
 40
0.5
  9
$DIMJUST
 70
     0
  9
$DIMSD1
 70
     0
  9
$DIMSD2
 70
     0
  9
$DIMTOLJ
 70
     0
  9
$DIMTZIN
 70
     8
  9
$DIMALTZ
 70
     0
  9
$DIMALTTZ
 70
     0
  9
$DIMUPT
 70
     0
  9
$DIMDEC
 70
     2
  9
$DIMTDEC
 70
     2
  9
$DIMALTU
 70
     2
  9
$DIMALTTD
 70
     3
  9
$DIMTXSTY
  7
Standard
  9
$DIMAUNIT
 70
     0
  9
$DIMADEC
 70
     0
  9
$DIMALTRND
 40
0.0
  9
$DIMAZIN
 70
     0
  9
$DIMDSEP
 70
    46
  9
$DIMATFIT
 70
     0
  9
$DIMFRAC
 70
     0
  9
$DIMLDRBLK
  1
Open30
  9
$DIMLUNIT
 70
     2
  9
$DIMLWD
 70
    -2
  9
$DIMLWE
 70
    -2
  9
$DIMTMOVE
 70
     0
  9
$LUNITS
 70
     2
  9
$LUPREC
 70
     4
  9
$SKETCHINC
 40
1.0
  9
$FILLETRAD
 40
9.9
  9
$AUNITS
 70
     0
  9
$AUPREC
 70
     0
  9
$MENU
  1
.
  9
$ELEVATION
 40
0.0
  9
$PELEVATION
 40
0.0
  9
$THICKNESS
 40
0.0
  9
$LIMCHECK
 70
     0
  9
$CHAMFERA
 40
10.0
  9
$CHAMFERB
 40
10.0
  9
$CHAMFERC
 40
20.0
  9
$CHAMFERD
 40
0.0
  9
$SKPOLY
 70
     0
  9
$TDCREATE
 40
2453510.558637211
  9
$TDUCREATE
 40
2453510.183637211
  9
$TDUPDATE
 40
2457557.663531134
  9
$TDUUPDATE
 40
2457557.288531134
  9
$TDINDWG
 40
0.0447204861
  9
$TDUSRTIMER
 40
0.0447204861
  9
$USRTIMER
 70
     1
  9
$ANGBASE
 50
0.0
  9
$ANGDIR
 70
     0
  9
$PDMODE
 70
     0
  9
$PDSIZE
 40
0.0
  9
$PLINEWID
 40
0.0
  9
$SPLFRAME
 70
     0
  9
$SPLINETYPE
 70
     6
  9
$SPLINESEGS
 70
     8
  9
$HANDSEED
  5
1B69
  9
$SURFTAB1
 70
     6
  9
$SURFTAB2
 70
     6
  9
$SURFTYPE
 70
     6
  9
$SURFU
 70
     6
  9
$SURFV
 70
     6
  9
$UCSBASE
  2

  9
$UCSNAME
  2

  9
$UCSORG
 10
0.0
 20
0.0
 30
0.0
  9
$UCSXDIR
 10
1.0
 20
0.0
 30
0.0
  9
$UCSYDIR
 10
0.0
 20
1.0
 30
0.0
  9
$UCSORTHOREF
  2

  9
$UCSORTHOVIEW
 70
     0
  9
$UCSORGTOP
 10
0.0
 20
0.0
 30
0.0
  9
$UCSORGBOTTOM
 10
0.0
 20
0.0
 30
0.0
  9
$UCSORGLEFT
 10
0.0
 20
0.0
 30
0.0
  9
$UCSORGRIGHT
 10
0.0
 20
0.0
 30
0.0
  9
$UCSORGFRONT
 10
0.0
 20
0.0
 30
0.0
  9
$UCSORGBACK
 10
0.0
 20
0.0
 30
0.0
  9
$PUCSBASE
  2

  9
$PUCSNAME
  2

  9
$PUCSORG
 10
0.0
 20
0.0
 30
0.0
  9
$PUCSXDIR
 10
1.0
 20
0.0
 30
0.0
  9
$PUCSYDIR
 10
0.0
 20
1.0
 30
0.0
  9
$PUCSORTHOREF
  2

  9
$PUCSORTHOVIEW
 70
     0
  9
$PUCSORGTOP
 10
0.0
 20
0.0
 30
0.0
  9
$PUCSORGBOTTOM
 10
0.0
 20
0.0
 30
0.0
  9
$PUCSORGLEFT
 10
0.0
 20
0.0
 30
0.0
  9
$PUCSORGRIGHT
 10
0.0
 20
0.0
 30
0.0
  9
$PUCSORGFRONT
 10
0.0
 20
0.0
 30
0.0
  9
$PUCSORGBACK
 10
0.0
 20
0.0
 30
0.0
  9
$USERI1
 70
     0
  9
$USERI2
 70
     0
  9
$USERI3
 70
     0
  9
$USERI4
 70
     0
  9
$USERI5
 70
     0
  9
$USERR1
 40
0.0
  9
$USERR2
 40
0.0
  9
$USERR3
 40
0.0
  9
$USERR4
 40
0.0
  9
$USERR5
 40
0.0
  9
$WORLDVIEW
 70
     1
  9
$SHADEDGE
 70
     3
  9
$SHADEDIF
 70
    70
  9
$TILEMODE
 70
     1
  9
$MAXACTVP
 70
    48
  9
$PINSBASE
 10
0.0
 20
0.0
 30
0.0
  9
$PLIMCHECK
 70
     0
  9
$PEXTMIN
 10
0.0
 20
0.0
 30
0.0
  9
$PEXTMAX
 10
0.0
 20
0.0
 30
0.0
  9
$PLIMMIN
 10
0.0
 20
0.0
  9
$PLIMMAX
 10
12.0
 20
9.0
  9
$UNITMODE
 70
     0
  9
$VISRETAIN
 70
     1
  9
$PLINEGEN
 70
     0
  9
$PSLTSCALE
 70
     1
  9
$TREEDEPTH
 70
  3020
  9
$CMLSTYLE
  2
Standard
  9
$CMLJUST
 70
     0
  9
$CMLSCALE
 40
20.0
  9
$PROXYGRAPHICS
 70
     1
  9
$MEASUREMENT
 70
     1
  9
$CELWEIGHT
370
    -1
  9
$ENDCAPS
280
     0
  9
$JOINSTYLE
280
     0
  9
$LWDISPLAY
290
     0
  9
$INSUNITS
 70
     4
  9
$HYPERLINKBASE
  1

  9
$STYLESHEET
  1
monochrome.ctb
  9
$XEDIT
290
     1
  9
$CEPSNTYPE
380
     0
  9
$PSTYLEMODE
290
     1
  9
$FINGERPRINTGUID
  2

  9
$VERSIONGUID
  2
{F3CB82DB-5318-4658-B4DF-4F6DAEC3A475}
  9
$EXTNAMES
290
     1
  9
$PSVPSCALE
 40
0.0
  9
$OLESTARTUP
290
     0
  0
ENDSEC
  0
SECTION
  2
CLASSES
  0
CLASS
  1
ACDBDICTIONARYWDFLT
  2
AcDbDictionaryWithDefault
  3
ObjectDBX Classes
 90
        0
280
     0
281
     0
  0
CLASS
  1
ACDBPLACEHOLDER
  2
AcDbPlaceHolder
  3
ObjectDBX Classes
 90
        0
280
     0
281
     0
  0
CLASS
  1
LAYOUT
  2
AcDbLayout
  3
ObjectDBX Classes
 90
        0
280
     0
281
     0
  0
CLASS
  1
DICTIONARYVAR
  2
AcDbDictionaryVar
  3
ObjectDBX Classes
 90
        0
280
     0
281
     0
  0
CLASS
  1
MATERIAL
  2
AcDbMaterial
  3
ObjectDBX Classes
 90
     1153
280
     0
281
     0
  0
CLASS
  1
VISUALSTYLE
  2
AcDbVisualStyle
  3
ObjectDBX Classes
 90
     4095
280
     0
281
     0
  0
CLASS
  1
TABLESTYLE
  2
AcDbTableStyle
  3
ObjectDBX Classes
 90
     4095
280
     0
281
     0
  0
CLASS
  1
SCALE
  2
AcDbScale
  3
ObjectDBX Classes
 90
     1153
280
     0
281
     0
  0
CLASS
  1
MLEADERSTYLE
  2
AcDbMLeaderStyle
  3
ACDB_MLEADERSTYLE_CLASS
 90
     4095
280
     0
281
     0
  0
CLASS
  1
ACDBSECTIONVIEWSTYLE
  2
AcDbSectionViewStyle
  3
ObjectDBX Classes
 90
     1025
280
     0
281
     0
  0
CLASS
  1
ACDBDETAILVIEWSTYLE
  2
AcDbDetailViewStyle
  3
ObjectDBX Classes
 90
     1025
280
     0
281
     0
  0
CLASS
  1
CELLSTYLEMAP
  2
AcDbCellStyleMap
  3
ObjectDBX Classes
 90
     1152
280
     0
281
     0
  0
CLASS
  1
SORTENTSTABLE
  2
AcDbSortentsTable
  3
ObjectDBX Classes
 90
        0
280
     0
281
     0
  0
CLASS
  1
ACARRAYJIGENTITY
  2
AcArrayJigEntity
  3
ACAD_ARRAY
 90
    32897
280
     0
281
     1
  0
CLASS
  1
ACDBASSOCNETWORK
  2
AcDbAssocNetwork
  3
ObjectDBX Classes
 90
     1025
280
     0
281
     0
  0
CLASS
  1
ACDBASSOCACTION
  2
AcDbAssocAction
  3
ObjectDBX Classes
 90
     1025
280
     0
281
     0
  0
CLASS
  1
ACDBASSOCARRAYACTIONBODY
  2
AcDbAssocArrayActionBody
  3
ObjectDBX Classes
 90
     1025
280
     0
281
     0
  0
CLASS
  1
ACDBASSOCVERTEXACTIONPARAM
  2
AcDbAssocVertexActionParam
  3
ObjectDBX Classes
 90
     1025
280
     0
281
     0
  0
CLASS
  1
ACDBASSOCDEPENDENCY
  2
AcDbAssocDependency
  3
ObjectDBX Classes
 90
     1025
280
     0
281
     0
  0
CLASS
  1
ACDBASSOCARRAYRECTANGULARPARAMETERS
  2
AcDbAssocArrayRectangularParameters
  3
ObjectDBX Classes
 90
    33793
280
     0
281
     0
  0
ENDSEC
  0
SECTION
  2
TABLES
  0
TABLE
  2
VPORT
  5
45B
102
{ACAD_XDICTIONARY
360
1544
102
}
330
0
100
AcDbSymbolTable
 70
     1
  0
VPORT
  5
14D0
330
45B
100
AcDbSymbolTableRecord
100
AcDbViewportTableRecord
  2
*Active
 70
     0
 10
0.0
 20
0.0
 11
1.0
 21
1.0
 12
1394.755606492269
 22
986.6345746263014
 13
0.0
 23
0.0
 14
10.0
 24
10.0
 15
10.0
 25
10.0
 16
0.0
 26
0.0
 36
1.0
 17
0.0
 27
0.0
 37
0.0
 40
1992.60946605506
 41
3.006482982171799
 42
50.0
 43
0.0
 44
0.0
 50
0.0
 51
0.0
 71
     0
 72
   100
 73
     1
 74
     3
 75
     0
 76
     0
 77
     0
 78
     0
281
     0
 65
     1
110
0.0
120
0.0
130
0.0
111
1.0
121
0.0
131
0.0
112
0.0
122
1.0
132
0.0
 79
     0
146
0.0
1001
ACAD_NAV_VCDISPLAY
1070
     3
  0
ENDTAB
  0
TABLE
  2
LTYPE
  5
456
330
0
100
AcDbSymbolTable
 70
     3
  0
LTYPE
  5
457
330
456
100
AcDbSymbolTableRecord
100
AcDbLinetypeTableRecord
  2
ByBlock
 70
     0
  3

 72
    65
 73
     0
 40
0.0
  0
LTYPE
  5
458
330
456
100
AcDbSymbolTableRecord
100
AcDbLinetypeTableRecord
  2
ByLayer
 70
     0
  3

 72
    65
 73
     0
 40
0.0
  0
LTYPE
  5
8
330
456
100
AcDbSymbolTableRecord
100
AcDbLinetypeTableRecord
  2
Continuous
 70
     0
  3
Solid line
 72
    65
 73
     0
 40
0.0
  0
LTYPE
  5
11A
330
456
100
AcDbSymbolTableRecord
100
AcDbLinetypeTableRecord
  2
HIDDEN
 70
     0
  3
Hidden __ __ __ __ __ __ __ __ __ __ __ __ __ _
 72
    65
 73
     2
 40
9.524999999999998
 49
6.349999999999999
 74
     0
 49
-3.174999999999999
 74
     0
  0
LTYPE
  5
18A
330
456
100
AcDbSymbolTableRecord
100
AcDbLinetypeTableRecord
  2
CENTER
 70
     0
  3
------ - ------ - ----
 72
    65
 73
     4
 40
10.0
 49
6.25
 74
     0
 49
-1.25
 74
     0
 49
1.25
 74
     0
 49
-1.25
 74
     0
  0
ENDTAB
  0
TABLE
  2
LAYER
  5
453
102
{ACAD_XDICTIONARY
360
1593
102
}
330
0
100
AcDbSymbolTable
 70
     8
  0
LAYER
  5
64
102
{ACAD_XDICTIONARY
360
1527
102
}
330
453
100
AcDbSymbolTableRecord
100
AcDbLayerTableRecord
  2
0
 70
     0
 62
     7
  6
Continuous
370
    -3
390
5
  0
LAYER
  5
6A
102
{ACAD_XDICTIONARY
360
1529
102
}
330
453
100
AcDbSymbolTableRecord
100
AcDbLayerTableRecord
  2
本体
 70
     0
 62
     7
  6
Continuous
370
    13
390
5
  0
LAYER
  5
4
102
{ACAD_XDICTIONARY
360
152B
102
}
330
453
100
AcDbSymbolTableRecord
100
AcDbLayerTableRecord
  2
寸法線
 70
     0
 62
     2
  6
Continuous
370
     9
390
5
  0
LAYER
  5
67
102
{ACAD_XDICTIONARY
360
152F
102
}
330
453
100
AcDbSymbolTableRecord
100
AcDbLayerTableRecord
  2
エンボス
 70
     0
 62
     4
  6
Continuous
370
     5
390
5
  0
LAYER
  5
11
102
{ACAD_XDICTIONARY
360
1531
102
}
330
453
100
AcDbSymbolTableRecord
100
AcDbLayerTableRecord
  2
外枠
 70
     0
 62
     7
  6
Continuous
370
    -3
390
5
  0
LAYER
  5
E5
330
453
100
AcDbSymbolTableRecord
100
AcDbLayerTableRecord
  2
Defpoints
 70
     0
 62
     7
  6
Continuous
290
     0
370
    -3
390
5
  0
LAYER
  5
14B8
102
{ACAD_XDICTIONARY
360
1535
102
}
330
453
100
AcDbSymbolTableRecord
100
AcDbLayerTableRecord
  2
嵩上断面
 70
     0
 62
   112
  6
Continuous
370
    13
390
5
  0
LAYER
  5
14B9
102
{ACAD_XDICTIONARY
360
1537
102
}
330
453
100
AcDbSymbolTableRecord
100
AcDbLayerTableRecord
  2
ゴム
 70
     0
 62
    51
  6
Continuous
370
    13
390
5
  0
ENDTAB
  0
TABLE
  2
STYLE
  5
454
330
0
100
AcDbSymbolTable
 70
     1
  0
STYLE
  5
9
330
454
100
AcDbSymbolTableRecord
100
AcDbTextStyleTableRecord
  2
Standard
 70
     0
 40
0.0
 41
1.0
 50
0.0
 71
     0
 42
2.5
  3

  4

1001
ACAD
1000
MS Gothic
1071
    32817
  0
ENDTAB
  0
TABLE
  2
VIEW
  5
459
330
0
100
AcDbSymbolTable
 70
     0
  0
ENDTAB
  0
TABLE
  2
UCS
  5
45A
330
0
100
AcDbSymbolTable
 70
     0
  0
ENDTAB
  0
TABLE
  2
APPID
  5
45D
330
0
100
AcDbSymbolTable
 70
     5
  0
APPID
  5
A
330
45D
100
AcDbSymbolTableRecord
100
AcDbRegAppTableRecord
  2
ACAD
 70
     0
  0
APPID
  5
1539
330
45D
100
AcDbSymbolTableRecord
100
AcDbRegAppTableRecord
  2
ACAD_NAV_VCDISPLAY
 70
     0
  0
APPID
  5
157A
330
45D
100
AcDbSymbolTableRecord
100
AcDbRegAppTableRecord
  2
ACAD_MLEADERVER
 70
     0
  0
APPID
  5
159F
330
45D
100
AcDbSymbolTableRecord
100
AcDbRegAppTableRecord
  2
ACAD_EXEMPT_FROM_CAD_STANDARDS
 70
     0
  0
APPID
  5
17A2
330
45D
100
AcDbSymbolTableRecord
100
AcDbRegAppTableRecord
  2
AcLayerTools
 70
     0
  0
ENDTAB
  0
TABLE
  2
DIMSTYLE
  5
45E
330
0
100
AcDbSymbolTable
 70
     2
100
AcDbDimStyleTable
 71
     1
340
D9
  0
DIMSTYLE
105
D9
102
{ACAD_REACTORS
330
DA
330
F7
330
104
330
11C
330
129
330
1B1
330
1BE
330
1CD
330
41F
330
10EC
102
}
330
45E
100
AcDbSymbolTableRecord
100
AcDbDimStyleTableRecord
  2
ISO-25
 70
     0
 40
10.0
 41
1.5
 42
2.0
 43
3.75
 44
1.5
 73
     0
 74
     0
 77
     1
 78
     8
140
3.0
141
2.5
143
0.03937007874016
147
0.5
171
     3
172
     1
271
     2
272
     2
274
     3
283
     0
284
     8
289
     0
340
9
341
D2
342
D2
  0
DIMSTYLE
105
1484
330
45E
100
AcDbSymbolTableRecord
100
AcDbDimStyleTableRecord
  2
Standard
 70
     0
340
9
  0
ENDTAB
  0
TABLE
  2
BLOCK_RECORD
  5
1
330
0
100
AcDbSymbolTable
 70
    25
  0
BLOCK_RECORD
  5
2
102
{ACAD_XDICTIONARY
360
441
102
}
330
1
100
AcDbSymbolTableRecord
100
AcDbBlockTableRecord
  2
*Model_Space
340
445
  0
BLOCK_RECORD
  5
447
102
{ACAD_XDICTIONARY
360
448
102
}
330
1
100
AcDbSymbolTableRecord
100
AcDbBlockTableRecord
  2
*Paper_Space
340
44C
  0
BLOCK_RECORD
  5
44D
102
{ACAD_XDICTIONARY
360
44E
102
}
330
1
100
AcDbSymbolTableRecord
100
AcDbBlockTableRecord
  2
*Paper_Space0
340
452
  0
BLOCK_RECORD
  5
D2
330
1
100
AcDbSymbolTableRecord
100
AcDbBlockTableRecord
  2
_Open30
340
0
102
{BLKREFS
331
1650
331
1651
331
1659
331
165A
331
1A66
331
1A67
331
1A6F
331
1A70
331
1ACC
331
1ACD
331
1662
331
1663
331
168A
331
168B
331
1693
331
1694
331
169E
331
169F
331
16A7
331
16A8
331
16B2
331
16B3
102
}
  0
BLOCK_RECORD
  5
65
330
1
100
AcDbSymbolTableRecord
100
AcDbBlockTableRecord
  2
GIB詳細
340
0
102
{BLKREFS
331
14B4
102
}
1001
ACAD
1000
DesignCenter Data
1002
{
1070
     1
1070
     4
1002
}
  0
BLOCK_RECORD
  5
42F
330
1
100
AcDbSymbolTableRecord
100
AcDbBlockTableRecord
  2
平ゴムパッキン
340
0
102
{BLKREFS
331
42E
331
440
102
}
  0
BLOCK_RECORD
  5
187
330
1
100
AcDbSymbolTableRecord
100
AcDbBlockTableRecord
  2
TB6
340
0
102
{BLKREFS
331
186
331
18F
331
190
331
10E6
331
10E7
331
10E8
331
10E9
331
10EA
331
10EB
331
29B
331
2E7
331
416
102
}
1001
ACAD
1000
DesignCenter Data
1002
{
1070
     1
1070
     4
1002
}
  0
BLOCK_RECORD
  5
2E9
330
1
100
AcDbSymbolTableRecord
100
AcDbBlockTableRecord
  2
IB5x3x32
340
0
102
{BLKREFS
331
2E8
331
350
331
17AE
102
}
  0
BLOCK_RECORD
  5
DB
330
1
100
AcDbSymbolTableRecord
100
AcDbBlockTableRecord
  2
*D6
340
0
  0
BLOCK_RECORD
  5
F8
330
1
100
AcDbSymbolTableRecord
100
AcDbBlockTableRecord
  2
*D7
340
0
  0
BLOCK_RECORD
  5
105
330
1
100
AcDbSymbolTableRecord
100
AcDbBlockTableRecord
  2
*D8
340
0
  0
BLOCK_RECORD
  5
11D
330
1
100
AcDbSymbolTableRecord
100
AcDbBlockTableRecord
  2
*D9
340
0
  0
BLOCK_RECORD
  5
12A
330
1
100
AcDbSymbolTableRecord
100
AcDbBlockTableRecord
  2
*D10
340
0
  0
BLOCK_RECORD
  5
1B2
330
1
100
AcDbSymbolTableRecord
100
AcDbBlockTableRecord
  2
*D11
340
0
  0
BLOCK_RECORD
  5
1BF
330
1
100
AcDbSymbolTableRecord
100
AcDbBlockTableRecord
  2
*D12
340
0
  0
BLOCK_RECORD
  5
1CE
330
1
100
AcDbSymbolTableRecord
100
AcDbBlockTableRecord
  2
*D13
340
0
  0
BLOCK_RECORD
  5
420
330
1
100
AcDbSymbolTableRecord
100
AcDbBlockTableRecord
  2
*D14
340
0
  0
BLOCK_RECORD
  5
10ED
330
1
100
AcDbSymbolTableRecord
100
AcDbBlockTableRecord
  2
*D15
340
0
  0
BLOCK_RECORD
  5
1485
330
1
100
AcDbSymbolTableRecord
100
AcDbBlockTableRecord
  2
P-H85
340
0
102
{BLKREFS
331
149C
331
149D
102
}
  0
BLOCK_RECORD
  5
14A6
330
1
100
AcDbSymbolTableRecord
100
AcDbBlockTableRecord
  2
清水
340
0
102
{BLKREFS
331
14B6
102
}
1001
ACAD
1000
DesignCenter Data
1002
{
1070
     1
1070
     4
1002
}
  0
BLOCK_RECORD
  5
15E6
102
{ACAD_XDICTIONARY
360
15EA
102
}
330
1
100
AcDbSymbolTableRecord
100
AcDbBlockTableRecord
  2
鎌下
340
0
102
{BLKREFS
331
15ED
102
}
1001
ACAD
1000
DesignCenter Data
1002
{
1070
     1
1070
     4
1002
}
  0
BLOCK_RECORD
  5
17A4
102
{ACAD_REACTORS
330
17BA
102
}
330
1
100
AcDbSymbolTableRecord
100
AcDbBlockTableRecord
  2
*U19
340
0
102
{BLKREFS
331
17BE
331
17BF
331
17C0
331
17C1
331
17C2
331
17C3
331
17C4
331
17C5
331
17C6
331
17C7
331
17C8
331
17C9
331
17CA
331
17CB
331
17CC
331
17CD
102
}
  0
BLOCK_RECORD
  5
17A7
102
{ACAD_XDICTIONARY
360
1AB9
102
}
102
{ACAD_REACTORS
330
17B9
102
}
330
1
100
AcDbSymbolTableRecord
100
AcDbBlockTableRecord
  2
*U20
340
0
102
{BLKREFS
331
17AA
102
}
  0
BLOCK_RECORD
  5
19CC
102
{ACAD_REACTORS
330
1A48
102
}
330
1
100
AcDbSymbolTableRecord
100
AcDbBlockTableRecord
  2
*U21
340
0
102
{BLKREFS
331
1A4C
331
1A4D
331
1A4E
331
1A4F
331
1A50
331
1A51
331
1A52
331
1A53
331
1A54
331
1A55
331
1A56
331
1A57
331
1A58
331
1A59
331
1A5A
331
1A5B
102
}
  0
BLOCK_RECORD
  5
19CF
102
{ACAD_XDICTIONARY
360
1ABC
102
}
102
{ACAD_REACTORS
330
1A47
102
}
330
1
100
AcDbSymbolTableRecord
100
AcDbBlockTableRecord
  2
*U22
340
0
102
{BLKREFS
331
19D2
102
}
  0
BLOCK_RECORD
  5
1AC5
330
1
100
AcDbSymbolTableRecord
100
AcDbBlockTableRecord
  2
*D23
340
0
  0
BLOCK_RECORD
  5
1AD3
102
{ACAD_XDICTIONARY
360
1AD5
102
}
330
1
100
AcDbSymbolTableRecord
100
AcDbBlockTableRecord
  2
A$C21F24E11
340
0
1001
ACAD
1000
DesignCenter Data
1002
{
1070
     1
1070
     4
1002
}
  0
ENDTAB
  0
ENDSEC
  0
SECTION
  2
BLOCKS
  0
BLOCK
  5
443
330
2
100
AcDbEntity
  8
0
100
AcDbBlockBegin
  2
*Model_Space
 70
     0
 10
0.0
 20
0.0
 30
0.0
  3
*Model_Space
  1

  0
ENDBLK
  5
444
330
2
100
AcDbEntity
  8
0
100
AcDbBlockEnd
  0
BLOCK
  5
44A
330
447
100
AcDbEntity
 67
     1
  8
0
100
AcDbBlockBegin
  2
*Paper_Space
 70
     0
 10
0.0
 20
0.0
 30
0.0
  3
*Paper_Space
  1

  0
ENDBLK
  5
44B
330
447
100
AcDbEntity
 67
     1
  8
0
100
AcDbBlockEnd
  0
BLOCK
  5
450
330
44D
100
AcDbEntity
 67
     1
  8
0
100
AcDbBlockBegin
  2
*Paper_Space0
 70
     0
 10
0.0
 20
0.0
 30
0.0
  3
*Paper_Space0
  1

  0
ENDBLK
  5
451
330
44D
100
AcDbEntity
 67
     1
  8
0
100
AcDbBlockEnd
  0
BLOCK
  5
D6
330
D2
100
AcDbEntity
  8
0
100
AcDbBlockBegin
  2
_Open30
 70
     0
 10
0.0
 20
0.0
 30
0.0
  3
_Open30
  1

  0
LINE
  5
D3
330
D2
100
AcDbEntity
  8
0
  6
ByBlock
 62
     0
370
    -2
100
AcDbLine
 10
-1.0
 20
0.26794919
 30
0.0
 11
0.0
 21
0.0
 31
0.0
  0
LINE
  5
D4
330
D2
100
AcDbEntity
  8
0
  6
ByBlock
 62
     0
370
    -2
100
AcDbLine
 10
0.0
 20
0.0
 30
0.0
 11
-1.0
 21
-0.26794919
 31
0.0
  0
LINE
  5
D5
330
D2
100
AcDbEntity
  8
0
  6
ByBlock
 62
     0
370
    -2
100
AcDbLine
 10
0.0
 20
0.0
 30
0.0
 11
-1.0
 21
0.0
 31
0.0
  0
ENDBLK
  5
D7
330
D2
100
AcDbEntity
  8
0
100
AcDbBlockEnd
  0
BLOCK
  5
A9
330
65
100
AcDbEntity
  8
0
100
AcDbBlockBegin
  2
GIB詳細
 70
     0
 10
0.0
 20
0.0
 30
0.0
  3
GIB詳細
  1

  0
LINE
  5
66
330
65
100
AcDbEntity
  8
エンボス
  6
Continuous
370
     0
100
AcDbLine
 10
26.66967878750091
 20
-77.78386766485943
 30
0.0
 11
26.66967878750109
 21
-100.7518676648589
 31
0.0
  0
LINE
  5
68
330
65
100
AcDbEntity
  8
エンボス
  6
Continuous
370
     0
100
AcDbLine
 10
20.62167878750051
 20
-97.43986766485926
 30
0.0
 11
20.62167878750057
 21
-100.7518676648589
 31
0.0
  0
LINE
  5
69
330
65
100
AcDbEntity
  8
本体
370
     0
100
AcDbLine
 10
37.90167878750151
 20
79.24813233514118
 30
0.0
 11
37.90167878750151
 21
-100.7518676648589
 31
0.0
  0
LINE
  5
6B
330
65
100
AcDbEntity
  8
エンボス
370
     0
100
AcDbLine
 10
26.66967878750091
 20
38.64013233514075
 30
0.0
 11
26.66967878750091
 21
12.93613233514055
 31
0.0
  0
LINE
  5
6C
330
65
100
AcDbEntity
  8
エンボス
370
     0
100
AcDbLine
 10
26.66967878750091
 20
40.15213233514034
 30
0.0
 11
26.66967878750091
 21
12.93613233514055
 31
0.0
  0
LINE
  5
6D
330
65
100
AcDbEntity
  8
エンボス
370
     0
100
AcDbLine
 10
20.62167878750051
 20
59.80813233514115
 30
0.0
 11
20.62167878750051
 21
32.59213233514036
 31
0.0
  0
LINE
  5
6E
330
65
100
AcDbEntity
  8
エンボス
  6
Continuous
370
     0
100
AcDbLine
 10
8.525678787500737
 20
26.54413233514095
 30
0.0
 11
20.62167878750051
 21
20.49613233514056
 31
0.0
  0
LINE
  5
6F
330
65
100
AcDbEntity
  8
エンボス
  6
Continuous
370
     0
100
AcDbLine
 10
8.525678787500737
 20
26.54413233514095
 30
0.0
 11
20.62167878750051
 21
32.59213233514036
 31
0.0
  0
LINE
  5
70
330
65
100
AcDbEntity
  8
エンボス
  6
Continuous
370
     0
100
AcDbLine
 10
8.525678787500737
 20
-91.39186766485886
 30
0.0
 11
20.62167878750051
 21
-85.34386766485942
 31
0.0
  0
LINE
  5
71
330
65
100
AcDbEntity
  8
エンボス
  6
Continuous
370
     0
100
AcDbLine
 10
8.525678787500737
 20
-91.39186766485886
 30
0.0
 11
20.62167878750051
 21
-97.43986766485926
 31
0.0
  0
LINE
  5
72
330
65
100
AcDbEntity
  8
エンボス
  6
Continuous
370
     0
100
AcDbLine
 10
8.525678787500737
 20
-52.07986766485925
 30
0.0
 11
20.62167878750051
 21
-58.12786766485965
 31
0.0
  0
LINE
  5
73
330
65
100
AcDbEntity
  8
エンボス
  6
Continuous
370
     0
100
AcDbLine
 10
8.525678787500737
 20
-52.07986766485925
 30
0.0
 11
20.62167878750051
 21
-46.03186766485886
 31
0.0
  0
LINE
  5
74
330
65
100
AcDbEntity
  8
エンボス
  6
Continuous
370
     0
100
AcDbLine
 10
8.525678787500737
 20
-12.76786766485964
 30
0.0
 11
20.62167878750051
 21
-6.719867664859251
 31
0.0
  0
LINE
  5
75
330
65
100
AcDbEntity
  8
エンボス
  6
Continuous
370
     0
100
AcDbLine
 10
8.525678787500737
 20
-12.76786766485964
 30
0.0
 11
20.62167878750051
 21
-18.81586766485905
 31
0.0
  0
LINE
  5
76
330
65
100
AcDbEntity
  8
エンボス
  6
Continuous
370
     0
100
AcDbLine
 10
38.76567878750075
 20
6.888132335141136
 30
0.0
 11
26.66967878750091
 21
12.93613233514055
 31
0.0
  0
LINE
  5
77
330
65
100
AcDbEntity
  8
エンボス
  6
Continuous
370
     0
100
AcDbLine
 10
38.76567878750075
 20
-32.42386766485945
 30
0.0
 11
26.66967878750091
 21
-26.37586766485906
 31
0.0
  0
LINE
  5
78
330
65
100
AcDbEntity
  8
エンボス
  6
Continuous
370
     0
100
AcDbLine
 10
38.76567878750075
 20
-32.42386766485945
 30
0.0
 11
26.66967878750091
 21
-26.37586766485906
 31
0.0
  0
LINE
  5
79
330
65
100
AcDbEntity
  8
エンボス
  6
Continuous
370
     0
100
AcDbLine
 10
38.76567878750075
 20
-71.73586766485906
 30
0.0
 11
26.66967878750091
 21
-77.78386766485943
 31
0.0
  0
LINE
  5
7A
330
65
100
AcDbEntity
  8
エンボス
  6
Continuous
370
     0
100
AcDbLine
 10
38.76567878750075
 20
-71.73586766485906
 30
0.0
 11
26.66967878750091
 21
-77.78386766485943
 31
0.0
  0
LINE
  5
7B
330
65
100
AcDbEntity
  8
エンボス
  6
Continuous
370
     0
100
AcDbLine
 10
38.76567878750075
 20
-71.73586766485906
 30
0.0
 11
26.66967878750091
 21
-77.78386766485943
 31
0.0
  0
LINE
  5
7C
330
65
100
AcDbEntity
  8
エンボス
  6
Continuous
370
     0
100
AcDbLine
 10
38.76567878750075
 20
-32.42386766485945
 30
0.0
 11
26.66967878750091
 21
-38.47186766485886
 31
0.0
  0
LINE
  5
7D
330
65
100
AcDbEntity
  8
エンボス
  6
Continuous
370
     0
100
AcDbLine
 10
38.76567878750075
 20
-32.42386766485945
 30
0.0
 11
26.66967878750091
 21
-38.47186766485886
 31
0.0
  0
LINE
  5
7E
330
65
100
AcDbEntity
  8
エンボス
  6
Continuous
370
     0
100
AcDbLine
 10
38.76567878750075
 20
-71.73586766485906
 30
0.0
 11
26.66967878750091
 21
-65.68786766485965
 31
0.0
  0
LINE
  5
7F
330
65
100
AcDbEntity
  8
エンボス
  6
Continuous
370
     0
100
AcDbLine
 10
38.76567878750075
 20
-71.73586766485906
 30
0.0
 11
26.66967878750091
 21
-65.68786766485965
 31
0.0
  0
LINE
  5
80
330
65
100
AcDbEntity
  8
エンボス
  6
Continuous
370
     0
100
AcDbLine
 10
38.76567878750075
 20
-71.73586766485906
 30
0.0
 11
26.66967878750091
 21
-65.68786766485965
 31
0.0
  0
LINE
  5
81
330
65
100
AcDbEntity
  8
エンボス
  6
Continuous
370
     0
100
AcDbLine
 10
26.66967878750091
 20
-38.47186766485886
 30
0.0
 11
26.66967878750091
 21
-65.68786766485965
 31
0.0
  0
LINE
  5
82
330
65
100
AcDbEntity
  8
エンボス
  6
Continuous
370
     0
100
AcDbLine
 10
26.66967878750091
 20
0.8401323351407512
 30
0.0
 11
26.66967878750091
 21
-26.37586766485906
 31
0.0
  0
LINE
  5
83
330
65
100
AcDbEntity
  8
エンボス
  6
Continuous
370
     0
100
AcDbLine
 10
20.62167878750051
 20
-18.81586766485905
 30
0.0
 11
20.62167878750051
 21
-46.03186766485886
 31
0.0
  0
LINE
  5
84
330
65
100
AcDbEntity
  8
エンボス
  6
Continuous
370
     0
100
AcDbLine
 10
20.62167878750051
 20
-58.12786766485965
 30
0.0
 11
20.62167878750051
 21
-85.34386766485942
 31
0.0
  0
LINE
  5
85
330
65
100
AcDbEntity
  8
エンボス
  6
Continuous
370
     0
100
AcDbLine
 10
20.62167878750051
 20
20.49613233514056
 30
0.0
 11
20.62167878750051
 21
-6.719867664859251
 31
0.0
  0
LINE
  5
86
330
65
100
AcDbEntity
  8
エンボス
  6
Continuous
370
     0
100
AcDbLine
 10
38.76567878750075
 20
6.888132335141136
 30
0.0
 11
26.66967878750091
 21
0.8401323351407512
 31
0.0
  0
LINE
  5
87
330
65
100
AcDbEntity
  8
エンボス
  6
Continuous
370
     0
100
AcDbLine
 10
8.525678787500737
 20
73.20013233514075
 30
0.0
 11
20.62167878750051
 21
79.24813233514118
 31
0.0
  0
LINE
  5
88
330
65
100
AcDbEntity
  8
エンボス
  6
Continuous
370
     0
100
AcDbLine
 10
8.525678787500737
 20
73.20013233514075
 30
0.0
 11
20.62167878750051
 21
59.80813233514115
 31
0.0
  0
LINE
  5
89
330
65
100
AcDbEntity
  8
エンボス
370
     0
100
AcDbLine
 10
26.66967878750091
 20
79.24813233514118
 30
0.0
 11
26.66967878750091
 21
52.24813233514115
 31
0.0
  0
LINE
  5
8A
330
65
100
AcDbEntity
  8
エンボス
  6
Continuous
370
     0
100
AcDbLine
 10
38.76567878750075
 20
46.20013233514074
 30
0.0
 11
26.66967878750091
 21
52.24813233514115
 31
0.0
  0
LINE
  5
8B
330
65
100
AcDbEntity
  8
エンボス
  6
Continuous
370
     0
100
AcDbLine
 10
38.76567878750075
 20
46.20013233514074
 30
0.0
 11
26.66967878750091
 21
40.15213233514034
 31
0.0
  0
LINE
  5
8C
330
65
100
AcDbEntity
  8
本体
370
     0
100
AcDbLine
 10
7.6616787875015
 20
79.24813233514118
 30
0.0
 11
7.6616787875015
 21
-100.7518676648589
 31
0.0
  0
MTEXT
  5
8D
330
65
100
AcDbEntity
  8
本体
  6
Continuous
370
     0
100
AcDbMText
 10
-96.91195000051369
 20
158.2682376554469
 30
0.0
 40
30.0
 41
252.8401
 71
     1
 72
     5
  1
GIB形状詳細
 73
     1
 44
1.0
1001
ACAD
1000
MTEXTBEGIN
1070
    73
1070
     1
1070
    44
1040
1.0
1070
    74
1070
     0
1000
MTEXTEND
  0
MTEXT
  5
8E
330
65
100
AcDbEntity
  8
寸法線
  6
Continuous
100
AcDbMText
 10
-147.3028652710904
 20
1772.180188660315
 30
0.0
 40
20.0
 41
17.2146
 71
     7
 72
     1
  1

 73
     1
 44
1.0
1001
ACAD
1000
MTEXTBEGIN
1070
    73
1070
     1
1070
    44
1040
1.0
1070
    74
1070
     0
1000
MTEXTEND
  0
MTEXT
  5
8F
330
65
100
AcDbEntity
  8
寸法線
  6
Continuous
100
AcDbMText
 10
125.7829597280838
 20
3773.683923873501
 30
0.0
 40
30.0
 41
17.2146
 71
     7
 72
     1
  1

 73
     1
 44
1.0
1001
ACAD
1000
MTEXTBEGIN
1070
    73
1070
     1
1070
    44
1040
1.0
1070
    74
1070
     0
1000
MTEXTEND
  0
MTEXT
  5
90
330
65
100
AcDbEntity
  8
寸法線
  6
Continuous
100
AcDbMText
 10
-609.4758544225992
 20
3746.116575025764
 30
0.0
 40
20.0
 41
17.2146
 71
     7
 72
     1
  1

 73
     1
 44
1.0
1001
ACAD
1000
MTEXTBEGIN
1070
    73
1070
     1
1070
    44
1040
1.0
1070
    74
1070
     0
1000
MTEXTEND
  0
MTEXT
  5
91
330
65
100
AcDbEntity
  8
寸法線
  6
Continuous
100
AcDbMText
 10
-147.3028652710904
 20
1754.680188660315
 30
0.0
 40
20.0
 41
17.2146
 71
     7
 72
     1
  1

 73
     1
 44
1.0
1001
ACAD
1000
MTEXTBEGIN
1070
    73
1070
     1
1070
    44
1040
1.0
1070
    74
1070
     0
1000
MTEXTEND
  0
MTEXT
  5
92
330
65
100
AcDbEntity
  8
寸法線
  6
Continuous
100
AcDbMText
 10
125.7829597280838
 20
3756.183923873501
 30
0.0
 40
30.0
 41
17.2146
 71
     7
 72
     1
  1

 73
     1
 44
1.0
1001
ACAD
1000
MTEXTBEGIN
1070
    73
1070
     1
1070
    44
1040
1.0
1070
    74
1070
     0
1000
MTEXTEND
  0
MTEXT
  5
93
330
65
100
AcDbEntity
  8
寸法線
  6
Continuous
100
AcDbMText
 10
-609.4758544225992
 20
3728.616575025763
 30
0.0
 40
20.0
 41
17.2146
 71
     7
 72
     1
  1

 73
     1
 44
1.0
1001
ACAD
1000
MTEXTBEGIN
1070
    73
1070
     1
1070
    44
1040
1.0
1070
    74
1070
     0
1000
MTEXTEND
  0
MTEXT
  5
94
330
65
100
AcDbEntity
  8
寸法線
  6
Continuous
100
AcDbMText
 10
-147.3028652710904
 20
1704.680188660315
 30
0.0
 40
20.0
 41
17.2146
 71
     7
 72
     1
  1

 73
     1
 44
1.0
1001
ACAD
1000
MTEXTBEGIN
1070
    73
1070
     1
1070
    44
1040
1.0
1070
    74
1070
     0
1000
MTEXTEND
  0
MTEXT
  5
95
330
65
100
AcDbEntity
  8
寸法線
  6
Continuous
100
AcDbMText
 10
125.7829597280838
 20
3706.183923873501
 30
0.0
 40
30.0
 41
17.2146
 71
     7
 72
     1
  1

 73
     1
 44
1.0
1001
ACAD
1000
MTEXTBEGIN
1070
    73
1070
     1
1070
    44
1040
1.0
1070
    74
1070
     0
1000
MTEXTEND
  0
MTEXT
  5
96
330
65
100
AcDbEntity
  8
寸法線
  6
Continuous
100
AcDbMText
 10
-609.4758544225992
 20
3678.616575025763
 30
0.0
 40
20.0
 41
17.2146
 71
     7
 72
     1
  1

 73
     1
 44
1.0
1001
ACAD
1000
MTEXTBEGIN
1070
    73
1070
     1
1070
    44
1040
1.0
1070
    74
1070
     0
1000
MTEXTEND
  0
MTEXT
  5
97
330
65
100
AcDbEntity
  8
寸法線
  6
Continuous
100
AcDbMText
 10
-147.3028652710904
 20
1654.680188660315
 30
0.0
 40
20.0
 41
17.2146
 71
     7
 72
     1
  1

 73
     1
 44
1.0
1001
ACAD
1000
MTEXTBEGIN
1070
    73
1070
     1
1070
    44
1040
1.0
1070
    74
1070
     0
1000
MTEXTEND
  0
MTEXT
  5
98
330
65
100
AcDbEntity
  8
寸法線
  6
Continuous
100
AcDbMText
 10
125.7829597280838
 20
3656.183923873501
 30
0.0
 40
30.0
 41
17.2146
 71
     7
 72
     1
  1

 73
     1
 44
1.0
1001
ACAD
1000
MTEXTBEGIN
1070
    73
1070
     1
1070
    44
1040
1.0
1070
    74
1070
     0
1000
MTEXTEND
  0
MTEXT
  5
99
330
65
100
AcDbEntity
  8
寸法線
  6
Continuous
100
AcDbMText
 10
-609.4758544225992
 20
3628.616575025763
 30
0.0
 40
20.0
 41
17.2146
 71
     7
 72
     1
  1

 73
     1
 44
1.0
1001
ACAD
1000
MTEXTBEGIN
1070
    73
1070
     1
1070
    44
1040
1.0
1070
    74
1070
     0
1000
MTEXTEND
  0
MTEXT
  5
9A
330
65
100
AcDbEntity
  8
寸法線
  6
Continuous
100
AcDbMText
 10
-147.3028652710904
 20
1604.680188660315
 30
0.0
 40
20.0
 41
17.2146
 71
     7
 72
     1
  1

 73
     1
 44
1.0
1001
ACAD
1000
MTEXTBEGIN
1070
    73
1070
     1
1070
    44
1040
1.0
1070
    74
1070
     0
1000
MTEXTEND
  0
MTEXT
  5
9B
330
65
100
AcDbEntity
  8
寸法線
  6
Continuous
100
AcDbMText
 10
125.7829597280838
 20
3606.183923873501
 30
0.0
 40
30.0
 41
17.2146
 71
     7
 72
     1
  1

 73
     1
 44
1.0
1001
ACAD
1000
MTEXTBEGIN
1070
    73
1070
     1
1070
    44
1040
1.0
1070
    74
1070
     0
1000
MTEXTEND
  0
MTEXT
  5
9C
330
65
100
AcDbEntity
  8
寸法線
  6
Continuous
100
AcDbMText
 10
-609.4758544225992
 20
3578.616575025763
 30
0.0
 40
20.0
 41
17.2146
 71
     7
 72
     1
  1

 73
     1
 44
1.0
1001
ACAD
1000
MTEXTBEGIN
1070
    73
1070
     1
1070
    44
1040
1.0
1070
    74
1070
     0
1000
MTEXTEND
  0
MTEXT
  5
9D
330
65
100
AcDbEntity
  8
寸法線
  6
Continuous
100
AcDbMText
 10
-147.3028652710904
 20
1554.680188660315
 30
0.0
 40
20.0
 41
17.2146
 71
     7
 72
     1
  1

 73
     1
 44
1.0
1001
ACAD
1000
MTEXTBEGIN
1070
    73
1070
     1
1070
    44
1040
1.0
1070
    74
1070
     0
1000
MTEXTEND
  0
MTEXT
  5
9E
330
65
100
AcDbEntity
  8
寸法線
  6
Continuous
100
AcDbMText
 10
125.7829597280838
 20
3556.183923873501
 30
0.0
 40
30.0
 41
17.2146
 71
     7
 72
     1
  1

 73
     1
 44
1.0
1001
ACAD
1000
MTEXTBEGIN
1070
    73
1070
     1
1070
    44
1040
1.0
1070
    74
1070
     0
1000
MTEXTEND
  0
MTEXT
  5
9F
330
65
100
AcDbEntity
  8
寸法線
  6
Continuous
100
AcDbMText
 10
-609.4758544225992
 20
3528.616575025763
 30
0.0
 40
20.0
 41
17.2146
 71
     7
 72
     1
  1

 73
     1
 44
1.0
1001
ACAD
1000
MTEXTBEGIN
1070
    73
1070
     1
1070
    44
1040
1.0
1070
    74
1070
     0
1000
MTEXTEND
  0
MTEXT
  5
A0
330
65
100
AcDbEntity
  8
寸法線
  6
Continuous
100
AcDbMText
 10
-147.3028652710904
 20
1504.680188660315
 30
0.0
 40
20.0
 41
17.2146
 71
     7
 72
     1
  1

 73
     1
 44
1.0
1001
ACAD
1000
MTEXTBEGIN
1070
    73
1070
     1
1070
    44
1040
1.0
1070
    74
1070
     0
1000
MTEXTEND
  0
MTEXT
  5
A1
330
65
100
AcDbEntity
  8
寸法線
  6
Continuous
100
AcDbMText
 10
125.7829597280838
 20
3506.183923873501
 30
0.0
 40
30.0
 41
17.2146
 71
     7
 72
     1
  1

 73
     1
 44
1.0
1001
ACAD
1000
MTEXTBEGIN
1070
    73
1070
     1
1070
    44
1040
1.0
1070
    74
1070
     0
1000
MTEXTEND
  0
MTEXT
  5
A2
330
65
100
AcDbEntity
  8
寸法線
  6
Continuous
100
AcDbMText
 10
-609.4758544225992
 20
3478.616575025763
 30
0.0
 40
20.0
 41
17.2146
 71
     7
 72
     1
  1

 73
     1
 44
1.0
1001
ACAD
1000
MTEXTBEGIN
1070
    73
1070
     1
1070
    44
1040
1.0
1070
    74
1070
     0
1000
MTEXTEND
  0
MTEXT
  5
A3
330
65
100
AcDbEntity
  8
寸法線
  6
Continuous
100
AcDbMText
 10
-147.3028652710904
 20
1454.680188660315
 30
0.0
 40
20.0
 41
17.2146
 71
     7
 72
     1
  1

 73
     1
 44
1.0
1001
ACAD
1000
MTEXTBEGIN
1070
    73
1070
     1
1070
    44
1040
1.0
1070
    74
1070
     0
1000
MTEXTEND
  0
MTEXT
  5
A4
330
65
100
AcDbEntity
  8
寸法線
  6
Continuous
100
AcDbMText
 10
125.7829597280838
 20
3456.183923873501
 30
0.0
 40
30.0
 41
17.2146
 71
     7
 72
     1
  1

 73
     1
 44
1.0
1001
ACAD
1000
MTEXTBEGIN
1070
    73
1070
     1
1070
    44
1040
1.0
1070
    74
1070
     0
1000
MTEXTEND
  0
MTEXT
  5
A5
330
65
100
AcDbEntity
  8
寸法線
  6
Continuous
100
AcDbMText
 10
-609.4758544225992
 20
3428.616575025763
 30
0.0
 40
20.0
 41
17.2146
 71
     7
 72
     1
  1

 73
     1
 44
1.0
1001
ACAD
1000
MTEXTBEGIN
1070
    73
1070
     1
1070
    44
1040
1.0
1070
    74
1070
     0
1000
MTEXTEND
  0
LWPOLYLINE
  5
A6
330
65
100
AcDbEntity
  8
本体
  6
Continuous
100
AcDbPolyline
 90
        4
 70
     1
 43
0.0
 10
-139.6145379512674
 20
168.6157088891093
 10
194.701175139303
 20
168.6157088891093
 10
194.701175139303
 20
-117.6274822929807
 10
-139.6145379512674
 20
-117.6274822929807
  0
HATCH
  5
A7
330
65
100
AcDbEntity
  8
エンボス
  6
Continuous
100
AcDbHatch
 10
0.0
 20
0.0
 30
0.0
210
0.0
220
0.0
230
1.0
  2
ANSI31
 70
     0
 71
     0
 91
        1
 92
        7
 72
     0
 73
     1
 93
       34
 10
26.66967878750092
 20
40.15213233514035
 10
37.90167878750151
 20
45.76813233514108
 10
37.90167878750151
 20
46.63213233514041
 10
26.66967878750092
 20
52.24813233514115
 10
26.66967878750091
 20
79.24813233514116
 10
20.62167878750047
 20
79.24813233514116
 10
8.525678787500744
 20
73.20013233514076
 10
20.62167878750051
 20
59.80813233514115
 10
20.62167878750051
 20
32.59213233514036
 10
8.525678787500737
 20
26.54413233514094
 10
20.62167878750051
 20
20.49613233514056
 10
20.62167878750051
 20
-6.719867664859251
 10
8.525678787500737
 20
-12.76786766485964
 10
20.62167878750051
 20
-18.81586766485905
 10
20.62167878750051
 20
-46.03186766485887
 10
8.525678787500737
 20
-52.07986766485925
 10
20.62167878750051
 20
-58.12786766485965
 10
20.62167878750051
 20
-85.34386766485944
 10
8.525678787500737
 20
-91.39186766485885
 10
20.62167878750051
 20
-97.43986766485924
 10
20.62167878750057
 20
-100.7518676648588
 10
26.66967878750109
 20
-100.7518676648589
 10
26.66967878750091
 20
-77.78386766485944
 10
37.90167878750151
 20
-72.16786766485872
 10
37.90167878750151
 20
-71.30386766485948
 10
26.66967878750091
 20
-65.68786766485963
 10
26.66967878750091
 20
-38.47186766485886
 10
37.90167878750151
 20
-32.85586766485902
 10
37.90167878750151
 20
-31.99186766485979
 10
26.66967878750091
 20
-26.37586766485906
 10
26.66967878750091
 20
0.8401323351407494
 10
37.90167878750151
 20
6.456132335141482
 10
37.90167878750151
 20
7.320132335140719
 10
26.66967878750091
 20
12.93613233514056
 97
        0
 75
     0
 76
     1
 52
0.0
 41
0.5
 77
     0
 78
     1
 53
45.0
 43
8.525678787500737
 44
-12.76786766485964
 45
-1.122532015133643
 46
1.122532015133644
 79
     0
 47
0.5074757335946297
 98
        1
 10
23.11907519037527
 20
30.63971558616095
  0
MTEXT
  5
A8
330
65
100
AcDbEntity
  8
本体
  6
Continuous
100
AcDbMText
 10
-79.8847425412946
 20
110.9530386434795
 30
0.0
 40
15.0
 41
230.6957
 71
     1
 72
     5
  1
※塗りつぶし部分突起
 73
     1
 44
1.0
1001
ACAD
1000
MTEXTBEGIN
1070
    73
1070
     1
1070
    44
1040
1.0
1070
    74
1070
     0
1000
MTEXTEND
  0
ENDBLK
  5
AA
330
65
100
AcDbEntity
  8
0
100
AcDbBlockEnd
  0
BLOCK
  5
43E
330
42F
100
AcDbEntity
  8
0
100
AcDbBlockBegin
  2
平ゴムパッキン
 70
     0
 10
0.0
 20
0.0
 30
0.0
  3
平ゴムパッキン
  1

  0
LINE
  5
14BA
330
42F
100
AcDbEntity
  8
ゴム
100
AcDbLine
 10
3.000005000000001
 20
-0.0000109999999998
 30
0.0
 11
3.000005000000001
 21
-40.000011
 31
0.0
  0
LINE
  5
14BB
330
42F
100
AcDbEntity
  8
ゴム
100
AcDbLine
 10
3.000005000000001
 20
-0.0000109999999998
 30
0.0
 11
8.000005000000001
 21
-0.0000109999999998
 31
0.0
  0
LINE
  5
14BC
330
42F
100
AcDbEntity
  8
ゴム
100
AcDbLine
 10
3.000005000000001
 20
-40.000011
 30
0.0
 11
8.000005000000001
 21
-40.000011
 31
0.0
  0
LINE
  5
14BD
330
42F
100
AcDbEntity
  8
ゴム
100
AcDbLine
 10
8.000005000000001
 20
-0.0000109999999998
 30
0.0
 11
8.000005000000001
 21
-10.000011
 31
0.0
  0
LINE
  5
14BE
330
42F
100
AcDbEntity
  8
ゴム
100
AcDbLine
 10
8.000005000000001
 20
-30.000011
 30
0.0
 11
8.000005000000001
 21
-40.000011
 31
0.0
  0
LINE
  5
14BF
330
42F
100
AcDbEntity
  8
ゴム
100
AcDbLine
 10
8.000005000000001
 20
-10.000011
 30
0.0
 11
8.000005000000001
 21
-30.000011
 31
0.0
  0
LINE
  5
14C0
330
42F
100
AcDbEntity
  8
ゴム
100
AcDbLine
 10
5.874546000000002
 20
-40.000011
 30
0.0
 11
8.000005000000001
 21
-36.318608
 31
0.0
  0
LINE
  5
14C1
330
42F
100
AcDbEntity
  8
ゴム
100
AcDbLine
 10
3.000005000000001
 20
-38.978862
 30
0.0
 11
8.000005000000001
 21
-30.318608
 31
0.0
  0
LINE
  5
14C2
330
42F
100
AcDbEntity
  8
ゴム
100
AcDbLine
 10
3.000005000000001
 20
-32.978862
 30
0.0
 11
8.000005000000001
 21
-24.31860866666666
 31
0.0
  0
LINE
  5
14C3
330
42F
100
AcDbEntity
  8
ゴム
100
AcDbLine
 10
3.000005000000001
 20
-26.978862
 30
0.0
 11
8.000005000000001
 21
-18.31860866666667
 31
0.0
  0
LINE
  5
14C4
330
42F
100
AcDbEntity
  8
ゴム
100
AcDbLine
 10
3.000005000000001
 20
-20.978862
 30
0.0
 11
8.000005000000001
 21
-12.31860866666666
 31
0.0
  0
LINE
  5
14C5
330
42F
100
AcDbEntity
  8
ゴム
100
AcDbLine
 10
3.000005000000001
 20
-14.978862
 30
0.0
 11
8.000005000000001
 21
-6.318608000000001
 31
0.0
  0
LINE
  5
14C6
330
42F
100
AcDbEntity
  8
ゴム
100
AcDbLine
 10
3.000005000000001
 20
-8.978861999999999
 30
0.0
 11
8.000005000000001
 21
-0.3186080000000002
 31
0.0
  0
LINE
  5
14C7
330
42F
100
AcDbEntity
  8
ゴム
100
AcDbLine
 10
3.000005000000001
 20
-2.978861999999999
 30
0.0
 11
4.719844999999999
 21
-0.0000109999999998
 31
0.0
  0
ENDBLK
  5
43F
330
42F
100
AcDbEntity
  8
0
100
AcDbBlockEnd
  0
BLOCK
  5
18D
330
187
100
AcDbEntity
  8
0
100
AcDbBlockBegin
  2
TB6
 70
     0
 10
0.0
 20
0.0
 30
0.0
  3
TB6
  1

  0
MTEXT
  5
188
330
187
100
AcDbEntity
  8
寸法線
  6
Continuous
100
AcDbMText
 10
917.3216494432054
 20
235.349302881973
 30
0.0
 40
20.0
 41
17.2146
 71
     7
 72
     1
  1

 73
     1
 44
1.0
1001
ACAD
1000
MTEXTBEGIN
1070
    73
1070
     1
1070
    44
1040
1.0
1070
    74
1070
     0
1000
MTEXTEND
  0
LINE
  5
189
330
187
100
AcDbEntity
  8
本体
  6
CENTER
 62
     1
 48
0.3
100
AcDbLine
 10
9.0
 20
0.0
 30
0.0
 11
-3.0
 21
0.0
 31
0.0
  0
LINE
  5
18B
330
187
100
AcDbEntity
  8
本体
  6
CENTER
 62
     1
 48
0.3
100
AcDbLine
 10
3.0
 20
6.0
 30
0.0
 11
3.0
 21
-6.0
 31
0.0
  0
CIRCLE
  5
18C
330
187
100
AcDbEntity
  8
本体
  6
Continuous
 62
     0
100
AcDbCircle
 10
3.0
 20
0.0
 30
0.0
 40
3.0
  0
ENDBLK
  5
18E
330
187
100
AcDbEntity
  8
0
100
AcDbBlockEnd
  0
BLOCK
  5
30E
330
2E9
100
AcDbEntity
  8
0
100
AcDbBlockBegin
  2
IB5x3x32
 70
     0
 10
0.0
 20
0.0
 30
0.0
  3
IB5x3x32
  1

  0
LINE
  5
2EA
330
2E9
100
AcDbEntity
  8
0
100
AcDbLine
 10
0.003081
 20
0.000044
 30
0.0
 11
5.003080999999999
 21
0.000044
 31
0.0
  0
LINE
  5
2EB
330
2E9
100
AcDbEntity
  8
0
100
AcDbLine
 10
5.003080999999999
 20
0.000044
 30
0.0
 11
5.003080999999999
 21
-5.999956
 31
0.0
  0
LINE
  5
2EC
330
2E9
100
AcDbEntity
  8
0
100
AcDbLine
 10
5.003080999999999
 20
-5.999956
 30
0.0
 11
4.003080999999999
 21
-6.999956
 31
0.0
  0
LINE
  5
2ED
330
2E9
100
AcDbEntity
  8
0
100
AcDbLine
 10
0.003081
 20
0.000044
 30
0.0
 11
0.003081
 21
-5.999956
 31
0.0
  0
LINE
  5
2EE
330
2E9
100
AcDbEntity
  8
0
100
AcDbLine
 10
0.003081
 20
-5.999956
 30
0.0
 11
1.003080999999999
 21
-6.999956
 31
0.0
  0
LINE
  5
2EF
330
2E9
100
AcDbEntity
  8
0
100
AcDbLine
 10
0.003081
 20
-31.999956
 30
0.0
 11
5.003080999999999
 21
-31.999956
 31
0.0
  0
LINE
  5
2F0
330
2E9
100
AcDbEntity
  8
0
100
AcDbLine
 10
5.003080999999999
 20
-31.999956
 30
0.0
 11
5.003080999999999
 21
-25.999956
 31
0.0
  0
LINE
  5
2F1
330
2E9
100
AcDbEntity
  8
0
100
AcDbLine
 10
5.003080999999999
 20
-25.999956
 30
0.0
 11
4.003080999999999
 21
-24.999956
 31
0.0
  0
LINE
  5
2F2
330
2E9
100
AcDbEntity
  8
0
100
AcDbLine
 10
0.003081
 20
-31.999956
 30
0.0
 11
0.003081
 21
-25.999956
 31
0.0
  0
LINE
  5
2F3
330
2E9
100
AcDbEntity
  8
0
100
AcDbLine
 10
0.003081
 20
-25.999956
 30
0.0
 11
1.003080999999999
 21
-24.999956
 31
0.0
  0
LINE
  5
2F4
330
2E9
100
AcDbEntity
  8
0
100
AcDbLine
 10
1.003080999999999
 20
-6.999956
 30
0.0
 11
1.003080999999999
 21
-24.999956
 31
0.0
  0
LINE
  5
2F5
330
2E9
100
AcDbEntity
  8
0
100
AcDbLine
 10
4.003080999999999
 20
-6.999956
 30
0.0
 11
4.003080999999999
 21
-24.999956
 31
0.0
  0
LINE
  5
2F6
330
2E9
100
AcDbEntity
  8
0
100
AcDbLine
 10
0.003081
 20
0.000044
 30
0.0
 11
5.003080999999999
 21
0.000044
 31
0.0
  0
LINE
  5
2F7
330
2E9
100
AcDbEntity
  8
0
100
AcDbLine
 10
5.003080999999999
 20
0.000044
 30
0.0
 11
5.003080999999999
 21
-5.999956
 31
0.0
  0
LINE
  5
2F8
330
2E9
100
AcDbEntity
  8
0
100
AcDbLine
 10
5.003080999999999
 20
-5.999956
 30
0.0
 11
4.003080999999999
 21
-6.999956
 31
0.0
  0
LINE
  5
2F9
330
2E9
100
AcDbEntity
  8
0
100
AcDbLine
 10
0.003081
 20
0.000044
 30
0.0
 11
0.003081
 21
-5.999956
 31
0.0
  0
LINE
  5
2FA
330
2E9
100
AcDbEntity
  8
0
100
AcDbLine
 10
0.003081
 20
-5.999956
 30
0.0
 11
1.003080999999999
 21
-6.999956
 31
0.0
  0
LINE
  5
2FB
330
2E9
100
AcDbEntity
  8
0
100
AcDbLine
 10
0.003081
 20
-31.999956
 30
0.0
 11
5.003080999999999
 21
-31.999956
 31
0.0
  0
LINE
  5
2FC
330
2E9
100
AcDbEntity
  8
0
100
AcDbLine
 10
5.003080999999999
 20
-31.999956
 30
0.0
 11
5.003080999999999
 21
-25.999956
 31
0.0
  0
LINE
  5
2FD
330
2E9
100
AcDbEntity
  8
0
100
AcDbLine
 10
5.003080999999999
 20
-25.999956
 30
0.0
 11
4.003080999999999
 21
-24.999956
 31
0.0
  0
LINE
  5
2FE
330
2E9
100
AcDbEntity
  8
0
100
AcDbLine
 10
0.003081
 20
-31.999956
 30
0.0
 11
0.003081
 21
-25.999956
 31
0.0
  0
LINE
  5
2FF
330
2E9
100
AcDbEntity
  8
0
100
AcDbLine
 10
0.003081
 20
-25.999956
 30
0.0
 11
1.003080999999999
 21
-24.999956
 31
0.0
  0
LINE
  5
300
330
2E9
100
AcDbEntity
  8
0
100
AcDbLine
 10
1.003080999999999
 20
-6.999956
 30
0.0
 11
1.003080999999999
 21
-24.999956
 31
0.0
  0
LINE
  5
301
330
2E9
100
AcDbEntity
  8
0
100
AcDbLine
 10
4.003080999999999
 20
-6.999956
 30
0.0
 11
4.003080999999999
 21
-24.999956
 31
0.0
  0
LINE
  5
302
330
2E9
100
AcDbEntity
  8
0
100
AcDbLine
 10
0.003081
 20
0.000044
 30
0.0
 11
5.003080999999999
 21
0.000044
 31
0.0
  0
LINE
  5
303
330
2E9
100
AcDbEntity
  8
0
100
AcDbLine
 10
5.003080999999999
 20
0.000044
 30
0.0
 11
5.003080999999999
 21
-5.999956
 31
0.0
  0
LINE
  5
304
330
2E9
100
AcDbEntity
  8
0
100
AcDbLine
 10
5.003080999999999
 20
-5.999956
 30
0.0
 11
4.003080999999999
 21
-6.999956
 31
0.0
  0
LINE
  5
305
330
2E9
100
AcDbEntity
  8
0
100
AcDbLine
 10
0.003081
 20
0.000044
 30
0.0
 11
0.003081
 21
-5.999956
 31
0.0
  0
LINE
  5
306
330
2E9
100
AcDbEntity
  8
0
100
AcDbLine
 10
0.003081
 20
-5.999956
 30
0.0
 11
1.003080999999999
 21
-6.999956
 31
0.0
  0
LINE
  5
307
330
2E9
100
AcDbEntity
  8
0
100
AcDbLine
 10
0.003081
 20
-31.999956
 30
0.0
 11
5.003080999999999
 21
-31.999956
 31
0.0
  0
LINE
  5
308
330
2E9
100
AcDbEntity
  8
0
100
AcDbLine
 10
5.003080999999999
 20
-31.999956
 30
0.0
 11
5.003080999999999
 21
-25.999956
 31
0.0
  0
LINE
  5
309
330
2E9
100
AcDbEntity
  8
0
100
AcDbLine
 10
5.003080999999999
 20
-25.999956
 30
0.0
 11
4.003080999999999
 21
-24.999956
 31
0.0
  0
LINE
  5
30A
330
2E9
100
AcDbEntity
  8
0
100
AcDbLine
 10
0.003081
 20
-31.999956
 30
0.0
 11
0.003081
 21
-25.999956
 31
0.0
  0
LINE
  5
30B
330
2E9
100
AcDbEntity
  8
0
100
AcDbLine
 10
0.003081
 20
-25.999956
 30
0.0
 11
1.003080999999999
 21
-24.999956
 31
0.0
  0
LINE
  5
30C
330
2E9
100
AcDbEntity
  8
0
100
AcDbLine
 10
1.003080999999999
 20
-6.999956
 30
0.0
 11
1.003080999999999
 21
-24.999956
 31
0.0
  0
LINE
  5
30D
330
2E9
100
AcDbEntity
  8
0
100
AcDbLine
 10
4.003080999999999
 20
-6.999956
 30
0.0
 11
4.003080999999999
 21
-24.999956
 31
0.0
  0
ENDBLK
  5
30F
330
2E9
100
AcDbEntity
  8
0
100
AcDbBlockEnd
  0
BLOCK
  5
E8
330
DB
100
AcDbEntity
  8
0
 48
3.0
100
AcDbBlockBegin
  2
*D6
 70
     1
 10
0.0
 20
0.0
 30
0.0
  3
*D6
  1

  0
LINE
  5
1A61
330
DB
100
AcDbEntity
  8
寸法線
  6
Continuous
 62
     0
370
    -2
100
AcDbLine
 10
864.4587626244593
 20
631.9802181496757
 30
0.0
 11
864.4587626244593
 21
706.9802181496757
 31
0.0
  0
LINE
  5
1A62
330
DB
100
AcDbEntity
  8
寸法線
  6
Continuous
 62
     0
370
    -2
100
AcDbLine
 10
894.4587626244592
 20
631.9802181496757
 30
0.0
 11
894.4587626244592
 21
706.9802181496757
 31
0.0
  0
LINE
  5
1A63
330
DB
100
AcDbEntity
  8
寸法線
  6
Continuous
 62
     0
370
    -2
100
AcDbLine
 10
849.4587626244593
 20
691.9802181496756
 30
0.0
 11
834.4587626244592
 21
691.9802181496756
 31
0.0
  0
LINE
  5
1A64
330
DB
100
AcDbEntity
  8
寸法線
  6
Continuous
 62
     0
370
    -2
100
AcDbLine
 10
909.4587626244592
 20
691.9802181496756
 30
0.0
 11
970.2455646549161
 21
691.9802181496756
 31
0.0
  0
LINE
  5
1A65
330
DB
100
AcDbEntity
  8
寸法線
  6
Continuous
 62
     0
370
    -2
100
AcDbLine
 10
864.4587626244593
 20
691.9802181496756
 30
0.0
 11
894.4587626244592
 21
691.9802181496756
 31
0.0
  0
INSERT
  5
1A66
330
DB
100
AcDbEntity
  8
寸法線
  6
Continuous
 62
     0
370
    -2
100
AcDbBlockReference
  2
_Open30
 10
864.4587626244593
 20
691.9802181496756
 30
0.0
 41
15.0
 42
15.0
 43
15.0
  0
INSERT
  5
1A67
330
DB
100
AcDbEntity
  8
寸法線
  6
Continuous
 62
     0
370
    -2
100
AcDbBlockReference
  2
_Open30
 10
894.4587626244592
 20
691.9802181496756
 30
0.0
 41
15.0
 42
15.0
 43
15.0
 50
180.0
  0
MTEXT
  5
1A68
330
DB
100
AcDbEntity
  8
寸法線
  6
Continuous
 62
     0
100
AcDbMText
 10
947.3521636396876
 20
711.9802181496757
 30
0.0
 40
30.0
 41
0.0
 71
     5
 72
     1
  1
30
 73
     1
 44
1.0
1001
ACAD
1000
MTEXTBEGIN
1070
    73
1070
     1
1070
    44
1040
1.0
1070
    74
1070
     0
1000
MTEXTEND
  0
POINT
  5
1A69
330
DB
100
AcDbEntity
  8
Defpoints
  6
Continuous
 62
     0
100
AcDbPoint
 10
864.4587626244593
 20
611.9802181496757
 30
0.0
  0
POINT
  5
1A6A
330
DB
100
AcDbEntity
  8
Defpoints
  6
Continuous
 62
     0
100
AcDbPoint
 10
894.4587626244592
 20
611.9802181496757
 30
0.0
  0
POINT
  5
1A6B
330
DB
100
AcDbEntity
  8
Defpoints
  6
Continuous
 62
     0
100
AcDbPoint
 10
894.4587626244592
 20
691.9802181496756
 30
0.0
  0
ENDBLK
  5
E9
330
DB
100
AcDbEntity
  8
0
 48
3.0
100
AcDbBlockEnd
  0
BLOCK
  5
102
330
F8
100
AcDbEntity
  8
0
 48
3.0
100
AcDbBlockBegin
  2
*D7
 70
     1
 10
0.0
 20
0.0
 30
0.0
  3
*D7
  1

  0
LINE
  5
164D
330
F8
100
AcDbEntity
  8
寸法線
  6
Continuous
 62
     0
370
    -2
100
AcDbLine
 10
1837.269233124792
 20
1709.070709712993
 30
0.0
 11
1682.269233124793
 21
1709.070709712993
 31
0.0
  0
LINE
  5
164E
330
F8
100
AcDbEntity
  8
寸法線
  6
Continuous
 62
     0
370
    -2
100
AcDbLine
 10
1837.269233124792
 20
1089.070709712993
 30
0.0
 11
1682.269233124793
 21
1089.070709712993
 31
0.0
  0
LINE
  5
164F
330
F8
100
AcDbEntity
  8
寸法線
  6
Continuous
 62
     0
370
    -2
100
AcDbLine
 10
1697.269233124793
 20
1694.070709712993
 30
0.0
 11
1697.269233124792
 21
1104.070709712993
 31
0.0
  0
INSERT
  5
1650
330
F8
100
AcDbEntity
  8
寸法線
  6
Continuous
 62
     0
370
    -2
100
AcDbBlockReference
  2
_Open30
 10
1697.269233124793
 20
1709.070709712993
 30
0.0
 41
15.0
 42
15.0
 43
15.0
 50
90.0
  0
INSERT
  5
1651
330
F8
100
AcDbEntity
  8
寸法線
  6
Continuous
 62
     0
370
    -2
100
AcDbBlockReference
  2
_Open30
 10
1697.269233124792
 20
1089.070709712993
 30
0.0
 41
15.0
 42
15.0
 43
15.0
 50
270.0
  0
MTEXT
  5
1652
330
F8
100
AcDbEntity
  8
寸法線
  6
Continuous
 62
     0
100
AcDbMText
 10
1677.269233124792
 20
1399.070709712993
 30
0.0
 40
30.0
 41
0.0
 71
     5
 72
     1
  1
620
 11
0.0000000000000001
 21
1.0
 31
0.0
 73
     1
 44
1.0
1001
ACAD
1000
MTEXTBEGIN
1070
    73
1070
     1
1070
    44
1040
1.0
1070
    74
1070
     0
1000
MTEXTEND
  0
POINT
  5
1653
330
F8
100
AcDbEntity
  8
Defpoints
  6
Continuous
 62
     0
100
AcDbPoint
 10
1857.269233124793
 20
1709.070709712993
 30
0.0
  0
POINT
  5
1654
330
F8
100
AcDbEntity
  8
Defpoints
  6
Continuous
 62
     0
100
AcDbPoint
 10
1857.269233124793
 20
1089.070709712993
 30
0.0
  0
POINT
  5
1655
330
F8
100
AcDbEntity
  8
Defpoints
  6
Continuous
 62
     0
100
AcDbPoint
 10
1697.269233124792
 20
1089.070709712993
 30
0.0
  0
ENDBLK
  5
103
330
F8
100
AcDbEntity
  8
0
 48
3.0
100
AcDbBlockEnd
  0
BLOCK
  5
10F
330
105
100
AcDbEntity
  8
0
 48
3.0
100
AcDbBlockBegin
  2
*D8
 70
     1
 10
0.0
 20
0.0
 30
0.0
  3
*D8
  1

  0
LINE
  5
165F
330
105
100
AcDbEntity
  8
寸法線
  6
Continuous
 62
     0
370
    -2
100
AcDbLine
 10
1991.269230124792
 20
1699.070710712993
 30
0.0
 11
2073.709690878731
 21
1699.070710712993
 31
0.0
  0
LINE
  5
1660
330
105
100
AcDbEntity
  8
寸法線
  6
Continuous
 62
     0
370
    -2
100
AcDbLine
 10
1991.269230124792
 20
1099.070708712993
 30
0.0
 11
2073.709690878731
 21
1099.070708712993
 31
0.0
  0
LINE
  5
1661
330
105
100
AcDbEntity
  8
寸法線
  6
Continuous
 62
     0
370
    -2
100
AcDbLine
 10
2058.709690878731
 20
1684.070710712993
 30
0.0
 11
2058.709690878731
 21
1114.070708712993
 31
0.0
  0
INSERT
  5
1662
330
105
100
AcDbEntity
  8
寸法線
  6
Continuous
 62
     0
370
    -2
100
AcDbBlockReference
  2
_Open30
 10
2058.709690878731
 20
1699.070710712993
 30
0.0
 41
15.0
 42
15.0
 43
15.0
 50
90.0
  0
INSERT
  5
1663
330
105
100
AcDbEntity
  8
寸法線
  6
Continuous
 62
     0
370
    -2
100
AcDbBlockReference
  2
_Open30
 10
2058.709690878731
 20
1099.070708712993
 30
0.0
 41
15.0
 42
15.0
 43
15.0
 50
270.0
  0
MTEXT
  5
1664
330
105
100
AcDbEntity
  8
寸法線
  6
Continuous
 62
     0
100
AcDbMText
 10
2038.70969087873
 20
1399.070709712993
 30
0.0
 40
30.0
 41
0.0
 71
     5
 72
     1
  1
600
 11
0.0000000000000001
 21
1.0
 31
0.0
 73
     1
 44
1.0
1001
ACAD
1000
MTEXTBEGIN
1070
    73
1070
     1
1070
    44
1040
1.0
1070
    74
1070
     0
1000
MTEXTEND
  0
POINT
  5
1665
330
105
100
AcDbEntity
  8
Defpoints
  6
Continuous
 62
     0
100
AcDbPoint
 10
1971.269230124793
 20
1699.070710712993
 30
0.0
  0
POINT
  5
1666
330
105
100
AcDbEntity
  8
Defpoints
  6
Continuous
 62
     0
100
AcDbPoint
 10
1971.269230124793
 20
1099.070708712993
 30
0.0
  0
POINT
  5
1667
330
105
100
AcDbEntity
  8
Defpoints
  6
Continuous
 62
     0
100
AcDbPoint
 10
2058.709690878731
 20
1099.070708712993
 30
0.0
  0
ENDBLK
  5
110
330
105
100
AcDbEntity
  8
0
 48
3.0
100
AcDbBlockEnd
  0
BLOCK
  5
127
330
11D
100
AcDbEntity
  8
0
 48
3.0
100
AcDbBlockBegin
  2
*D9
 70
     1
 10
0.0
 20
0.0
 30
0.0
  3
*D9
  1

  0
LINE
  5
1687
330
11D
100
AcDbEntity
  8
寸法線
  6
Continuous
 62
     0
370
    -2
100
AcDbLine
 10
534.4587626244592
 20
469.9802181496757
 30
0.0
 11
534.4587626244592
 21
394.9802181496757
 31
0.0
  0
LINE
  5
1688
330
11D
100
AcDbEntity
  8
寸法線
  6
Continuous
 62
     0
370
    -2
100
AcDbLine
 10
1029.458762624459
 20
469.9802181496757
 30
0.0
 11
1029.458762624459
 21
394.9802181496757
 31
0.0
  0
LINE
  5
1689
330
11D
100
AcDbEntity
  8
寸法線
  6
Continuous
 62
     0
370
    -2
100
AcDbLine
 10
549.4587626244593
 20
409.9802181496756
 30
0.0
 11
1014.458762624459
 21
409.9802181496756
 31
0.0
  0
INSERT
  5
168A
330
11D
100
AcDbEntity
  8
寸法線
  6
Continuous
 62
     0
370
    -2
100
AcDbBlockReference
  2
_Open30
 10
534.4587626244592
 20
409.9802181496756
 30
0.0
 41
15.0
 42
15.0
 43
15.0
 50
180.0
  0
INSERT
  5
168B
330
11D
100
AcDbEntity
  8
寸法線
  6
Continuous
 62
     0
370
    -2
100
AcDbBlockReference
  2
_Open30
 10
1029.458762624459
 20
409.9802181496756
 30
0.0
 41
15.0
 42
15.0
 43
15.0
  0
MTEXT
  5
168C
330
11D
100
AcDbEntity
  8
寸法線
  6
Continuous
 62
     0
100
AcDbMText
 10
781.9587626244592
 20
429.9802181496756
 30
0.0
 40
30.0
 41
0.0
 71
     5
 72
     1
  1
495
 73
     1
 44
1.0
1001
ACAD
1000
MTEXTBEGIN
1070
    73
1070
     1
1070
    44
1040
1.0
1070
    74
1070
     0
1000
MTEXTEND
  0
POINT
  5
168D
330
11D
100
AcDbEntity
  8
Defpoints
  6
Continuous
 62
     0
100
AcDbPoint
 10
534.4587626244592
 20
489.9802181496757
 30
0.0
  0
POINT
  5
168E
330
11D
100
AcDbEntity
  8
Defpoints
  6
Continuous
 62
     0
100
AcDbPoint
 10
1029.458762624459
 20
489.9802181496757
 30
0.0
  0
POINT
  5
168F
330
11D
100
AcDbEntity
  8
Defpoints
  6
Continuous
 62
     0
100
AcDbPoint
 10
1029.458762624459
 20
409.9802181496756
 30
0.0
  0
ENDBLK
  5
128
330
11D
100
AcDbEntity
  8
0
 48
3.0
100
AcDbBlockEnd
  0
BLOCK
  5
134
330
12A
100
AcDbEntity
  8
0
 48
3.0
100
AcDbBlockBegin
  2
*D10
 70
     1
 10
0.0
 20
0.0
 30
0.0
  3
*D10
  1

  0
LINE
  5
1690
330
12A
100
AcDbEntity
  8
寸法線
  6
Continuous
 62
     0
370
    -2
100
AcDbLine
 10
1049.458762624459
 20
579.9802181496756
 30
0.0
 11
1156.958762624459
 21
579.9802181496756
 31
0.0
  0
LINE
  5
1691
330
12A
100
AcDbEntity
  8
寸法線
  6
Continuous
 62
     0
370
    -2
100
AcDbLine
 10
1049.458762624459
 20
494.9802181496757
 30
0.0
 11
1156.958762624459
 21
494.9802181496756
 31
0.0
  0
LINE
  5
1692
330
12A
100
AcDbEntity
  8
寸法線
  6
Continuous
 62
     0
370
    -2
100
AcDbLine
 10
1141.958762624459
 20
564.9802181496757
 30
0.0
 11
1141.958762624459
 21
509.9802181496756
 31
0.0
  0
INSERT
  5
1693
330
12A
100
AcDbEntity
  8
寸法線
  6
Continuous
 62
     0
370
    -2
100
AcDbBlockReference
  2
_Open30
 10
1141.958762624459
 20
579.9802181496756
 30
0.0
 41
15.0
 42
15.0
 43
15.0
 50
90.0
  0
INSERT
  5
1694
330
12A
100
AcDbEntity
  8
寸法線
  6
Continuous
 62
     0
370
    -2
100
AcDbBlockReference
  2
_Open30
 10
1141.958762624459
 20
494.9802181496757
 30
0.0
 41
15.0
 42
15.0
 43
15.0
 50
270.0
  0
MTEXT
  5
1695
330
12A
100
AcDbEntity
  8
寸法線
  6
Continuous
 62
     0
100
AcDbMText
 10
1121.958762624459
 20
537.4802181496757
 30
0.0
 40
30.0
 41
0.0
 71
     5
 72
     1
  1
85
 11
0.0000000000000001
 21
1.0
 31
0.0
 73
     1
 44
1.0
1001
ACAD
1000
MTEXTBEGIN
1070
    73
1070
     1
1070
    44
1040
1.0
1070
    74
1070
     0
1000
MTEXTEND
  0
POINT
  5
1696
330
12A
100
AcDbEntity
  8
Defpoints
  6
Continuous
 62
     0
100
AcDbPoint
 10
1029.458762624459
 20
579.9802181496756
 30
0.0
  0
POINT
  5
1697
330
12A
100
AcDbEntity
  8
Defpoints
  6
Continuous
 62
     0
100
AcDbPoint
 10
1029.458762624459
 20
494.9802181496757
 30
0.0
  0
POINT
  5
1698
330
12A
100
AcDbEntity
  8
Defpoints
  6
Continuous
 62
     0
100
AcDbPoint
 10
1141.958762624459
 20
494.9802181496757
 30
0.0
  0
ENDBLK
  5
135
330
12A
100
AcDbEntity
  8
0
 48
3.0
100
AcDbBlockEnd
  0
BLOCK
  5
1BC
330
1B2
100
AcDbEntity
  8
0
 48
3.0
100
AcDbBlockBegin
  2
*D11
 70
     1
 10
0.0
 20
0.0
 30
0.0
  3
*D11
  1

  0
LINE
  5
1A6C
330
1B2
100
AcDbEntity
  8
寸法線
  6
Continuous
 62
     0
370
    -2
100
AcDbLine
 10
531.9587626244592
 20
631.9802181496757
 30
0.0
 11
531.9587626244592
 21
786.9802181496757
 31
0.0
  0
LINE
  5
1A6D
330
1B2
100
AcDbEntity
  8
寸法線
  6
Continuous
 62
     0
370
    -2
100
AcDbLine
 10
1031.958762624459
 20
631.9802181496757
 30
0.0
 11
1031.958762624459
 21
786.9802181496757
 31
0.0
  0
LINE
  5
1A6E
330
1B2
100
AcDbEntity
  8
寸法線
  6
Continuous
 62
     0
370
    -2
100
AcDbLine
 10
546.9587626244592
 20
771.9802181496756
 30
0.0
 11
1016.958762624459
 21
771.9802181496756
 31
0.0
  0
INSERT
  5
1A6F
330
1B2
100
AcDbEntity
  8
寸法線
  6
Continuous
 62
     0
370
    -2
100
AcDbBlockReference
  2
_Open30
 10
531.9587626244592
 20
771.9802181496756
 30
0.0
 41
15.0
 42
15.0
 43
15.0
 50
180.0
  0
INSERT
  5
1A70
330
1B2
100
AcDbEntity
  8
寸法線
  6
Continuous
 62
     0
370
    -2
100
AcDbBlockReference
  2
_Open30
 10
1031.958762624459
 20
771.9802181496756
 30
0.0
 41
15.0
 42
15.0
 43
15.0
  0
MTEXT
  5
1A71
330
1B2
100
AcDbEntity
  8
寸法線
  6
Continuous
 62
     0
100
AcDbMText
 10
781.9587626244592
 20
791.9802181496756
 30
0.0
 40
30.0
 41
0.0
 71
     5
 72
     1
  1
500
 73
     1
 44
1.0
1001
ACAD
1000
MTEXTBEGIN
1070
    73
1070
     1
1070
    44
1040
1.0
1070
    74
1070
     0
1000
MTEXTEND
  0
POINT
  5
1A72
330
1B2
100
AcDbEntity
  8
Defpoints
  6
Continuous
 62
     0
100
AcDbPoint
 10
531.9587626244592
 20
611.9802181496757
 30
0.0
  0
POINT
  5
1A73
330
1B2
100
AcDbEntity
  8
Defpoints
  6
Continuous
 62
     0
100
AcDbPoint
 10
1031.958762624459
 20
611.9802181496757
 30
0.0
  0
POINT
  5
1A74
330
1B2
100
AcDbEntity
  8
Defpoints
  6
Continuous
 62
     0
100
AcDbPoint
 10
1031.958762624459
 20
771.9802181496756
 30
0.0
  0
ENDBLK
  5
1BD
330
1B2
100
AcDbEntity
  8
0
 48
3.0
100
AcDbBlockEnd
  0
BLOCK
  5
1CB
330
1BF
100
AcDbEntity
  8
0
 48
3.0
100
AcDbBlockBegin
  2
*D12
 70
     1
 10
0.0
 20
0.0
 30
0.0
  3
*D12
  1

  0
LINE
  5
1699
330
1BF
100
AcDbEntity
  8
寸法線
  6
Continuous
 62
     0
370
    -2
100
AcDbLine
 10
1049.458762624459
 20
579.9802181496756
 30
0.0
 11
1156.958762624459
 21
579.9802181496756
 31
0.0
  0
LINE
  5
169A
330
1BF
100
AcDbEntity
  8
寸法線
  6
Continuous
 62
     0
370
    -2
100
AcDbLine
 10
1049.458762624459
 20
611.9802181496757
 30
0.0
 11
1156.958762624459
 21
611.9802181496757
 31
0.0
  0
LINE
  5
169B
330
1BF
100
AcDbEntity
  8
寸法線
  6
Continuous
 62
     0
370
    -2
100
AcDbLine
 10
1141.958762624459
 20
564.9802181496757
 30
0.0
 11
1141.958762624459
 21
549.9802181496757
 31
0.0
  0
LINE
  5
169C
330
1BF
100
AcDbEntity
  8
寸法線
  6
Continuous
 62
     0
370
    -2
100
AcDbLine
 10
1141.958762624459
 20
626.9802181496757
 30
0.0
 11
1141.958762624459
 21
687.1578831242949
 31
0.0
  0
LINE
  5
169D
330
1BF
100
AcDbEntity
  8
寸法線
  6
Continuous
 62
     0
370
    -2
100
AcDbLine
 10
1141.958762624459
 20
579.9802181496756
 30
0.0
 11
1141.958762624459
 21
611.9802181496757
 31
0.0
  0
INSERT
  5
169E
330
1BF
100
AcDbEntity
  8
寸法線
  6
Continuous
 62
     0
370
    -2
100
AcDbBlockReference
  2
_Open30
 10
1141.958762624459
 20
579.9802181496756
 30
0.0
 41
15.0
 42
15.0
 43
15.0
 50
90.0
  0
INSERT
  5
169F
330
1BF
100
AcDbEntity
  8
寸法線
  6
Continuous
 62
     0
370
    -2
100
AcDbBlockReference
  2
_Open30
 10
1141.958762624459
 20
611.9802181496757
 30
0.0
 41
15.0
 42
15.0
 43
15.0
 50
270.0
  0
MTEXT
  5
16A0
330
1BF
100
AcDbEntity
  8
寸法線
  6
Continuous
 62
     0
100
AcDbMText
 10
1121.958762624459
 20
664.5690506369854
 30
0.0
 40
30.0
 41
0.0
 71
     5
 72
     1
  1
32
 11
0.0000000000000001
 21
1.0
 31
0.0
 73
     1
 44
1.0
1001
ACAD
1000
MTEXTBEGIN
1070
    73
1070
     1
1070
    44
1040
1.0
1070
    74
1070
     0
1000
MTEXTEND
  0
POINT
  5
16A1
330
1BF
100
AcDbEntity
  8
Defpoints
  6
Continuous
 62
     0
100
AcDbPoint
 10
1029.458762624459
 20
579.9802181496756
 30
0.0
  0
POINT
  5
16A2
330
1BF
100
AcDbEntity
  8
Defpoints
  6
Continuous
 62
     0
100
AcDbPoint
 10
1029.458762624459
 20
611.9802181496757
 30
0.0
  0
POINT
  5
16A3
330
1BF
100
AcDbEntity
  8
Defpoints
  6
Continuous
 62
     0
100
AcDbPoint
 10
1141.958762624459
 20
611.9802181496757
 30
0.0
  0
ENDBLK
  5
1CC
330
1BF
100
AcDbEntity
  8
0
 48
3.0
100
AcDbBlockEnd
  0
BLOCK
  5
1D8
330
1CE
100
AcDbEntity
  8
0
 48
3.0
100
AcDbBlockBegin
  2
*D13
 70
     1
 10
0.0
 20
0.0
 30
0.0
  3
*D13
  1

  0
LINE
  5
16A4
330
1CE
100
AcDbEntity
  8
寸法線
  6
Continuous
 62
     0
370
    -2
100
AcDbLine
 10
1049.458762624459
 20
611.9802181496757
 30
0.0
 11
1236.958762624459
 21
611.9802181496757
 31
0.0
  0
LINE
  5
16A5
330
1CE
100
AcDbEntity
  8
寸法線
  6
Continuous
 62
     0
370
    -2
100
AcDbLine
 10
1049.458762624459
 20
489.9802181496757
 30
0.0
 11
1236.958762624459
 21
489.9802181496756
 31
0.0
  0
LINE
  5
16A6
330
1CE
100
AcDbEntity
  8
寸法線
  6
Continuous
 62
     0
370
    -2
100
AcDbLine
 10
1221.958762624459
 20
596.9802181496756
 30
0.0
 11
1221.958762624459
 21
504.9802181496756
 31
0.0
  0
INSERT
  5
16A7
330
1CE
100
AcDbEntity
  8
寸法線
  6
Continuous
 62
     0
370
    -2
100
AcDbBlockReference
  2
_Open30
 10
1221.958762624459
 20
611.9802181496757
 30
0.0
 41
15.0
 42
15.0
 43
15.0
 50
90.0
  0
INSERT
  5
16A8
330
1CE
100
AcDbEntity
  8
寸法線
  6
Continuous
 62
     0
370
    -2
100
AcDbBlockReference
  2
_Open30
 10
1221.958762624459
 20
489.9802181496756
 30
0.0
 41
15.0
 42
15.0
 43
15.0
 50
270.0
  0
MTEXT
  5
16A9
330
1CE
100
AcDbEntity
  8
寸法線
  6
Continuous
 62
     0
100
AcDbMText
 10
1201.958762624459
 20
550.9802181496758
 30
0.0
 40
30.0
 41
0.0
 71
     5
 72
     1
  1
122
 11
0.0000000000000001
 21
1.0
 31
0.0
 73
     1
 44
1.0
1001
ACAD
1000
MTEXTBEGIN
1070
    73
1070
     1
1070
    44
1040
1.0
1070
    74
1070
     0
1000
MTEXTEND
  0
POINT
  5
16AA
330
1CE
100
AcDbEntity
  8
Defpoints
  6
Continuous
 62
     0
100
AcDbPoint
 10
1029.458762624459
 20
611.9802181496757
 30
0.0
  0
POINT
  5
16AB
330
1CE
100
AcDbEntity
  8
Defpoints
  6
Continuous
 62
     0
100
AcDbPoint
 10
1029.458762624459
 20
489.9802181496757
 30
0.0
  0
POINT
  5
16AC
330
1CE
100
AcDbEntity
  8
Defpoints
  6
Continuous
 62
     0
100
AcDbPoint
 10
1221.958762624459
 20
489.9802181496756
 30
0.0
  0
ENDBLK
  5
1D9
330
1CE
100
AcDbEntity
  8
0
 48
3.0
100
AcDbBlockEnd
  0
BLOCK
  5
42C
330
420
100
AcDbEntity
  8
0
 48
3.0
100
AcDbBlockBegin
  2
*D14
 70
     1
 10
0.0
 20
0.0
 30
0.0
  3
*D14
  1

  0
LINE
  5
16AD
330
420
100
AcDbEntity
  8
寸法線
  6
Continuous
 62
     0
370
    -2
100
AcDbLine
 10
1049.458762624459
 20
494.9802181496757
 30
0.0
 11
1156.958762624459
 21
494.9802181496756
 31
0.0
  0
LINE
  5
16AE
330
420
100
AcDbEntity
  8
寸法線
  6
Continuous
 62
     0
370
    -2
100
AcDbLine
 10
1049.458762624459
 20
489.9802181496757
 30
0.0
 11
1156.958762624459
 21
489.9802181496756
 31
0.0
  0
LINE
  5
16AF
330
420
100
AcDbEntity
  8
寸法線
  6
Continuous
 62
     0
370
    -2
100
AcDbLine
 10
1141.958762624459
 20
509.9802181496756
 30
0.0
 11
1141.958762624459
 21
524.9802181496757
 31
0.0
  0
LINE
  5
16B0
330
420
100
AcDbEntity
  8
寸法線
  6
Continuous
 62
     0
370
    -2
100
AcDbLine
 10
1141.958762624459
 20
474.9802181496757
 30
0.0
 11
1141.958762624459
 21
434.4472232258178
 31
0.0
  0
LINE
  5
16B1
330
420
100
AcDbEntity
  8
寸法線
  6
Continuous
 62
     0
370
    -2
100
AcDbLine
 10
1141.958762624459
 20
494.9802181496757
 30
0.0
 11
1141.958762624459
 21
489.9802181496757
 31
0.0
  0
INSERT
  5
16B2
330
420
100
AcDbEntity
  8
寸法線
  6
Continuous
 62
     0
370
    -2
100
AcDbBlockReference
  2
_Open30
 10
1141.958762624459
 20
494.9802181496757
 30
0.0
 41
15.0
 42
15.0
 43
15.0
 50
270.0
  0
INSERT
  5
16B3
330
420
100
AcDbEntity
  8
寸法線
  6
Continuous
 62
     0
370
    -2
100
AcDbBlockReference
  2
_Open30
 10
1141.958762624459
 20
489.9802181496757
 30
0.0
 41
15.0
 42
15.0
 43
15.0
 50
90.0
  0
MTEXT
  5
16B4
330
420
100
AcDbEntity
  8
寸法線
  6
Continuous
 62
     0
100
AcDbMText
 10
1121.958762624459
 20
447.2137206877469
 30
0.0
 40
30.0
 41
0.0
 71
     5
 72
     1
  1
5
 11
0.0000000000000001
 21
1.0
 31
0.0
 73
     1
 44
1.0
1001
ACAD
1000
MTEXTBEGIN
1070
    73
1070
     1
1070
    44
1040
1.0
1070
    74
1070
     0
1000
MTEXTEND
  0
POINT
  5
16B5
330
420
100
AcDbEntity
  8
Defpoints
  6
Continuous
 62
     0
100
AcDbPoint
 10
1029.458762624459
 20
494.9802181496757
 30
0.0
  0
POINT
  5
16B6
330
420
100
AcDbEntity
  8
Defpoints
  6
Continuous
 62
     0
100
AcDbPoint
 10
1029.458762624459
 20
489.9802181496757
 30
0.0
  0
POINT
  5
16B7
330
420
100
AcDbEntity
  8
Defpoints
  6
Continuous
 62
     0
100
AcDbPoint
 10
1141.958762624459
 20
489.9802181496757
 30
0.0
  0
ENDBLK
  5
42D
330
420
100
AcDbEntity
  8
0
 48
3.0
100
AcDbBlockEnd
  0
BLOCK
  5
10F7
330
10ED
100
AcDbEntity
  8
0
 48
3.0
100
AcDbBlockBegin
  2
*D15
 70
     1
 10
0.0
 20
0.0
 30
0.0
  3
*D15
  1

  0
LINE
  5
1656
330
10ED
100
AcDbEntity
  8
寸法線
 62
     0
 48
3.0
370
    -2
100
AcDbLine
 10
1834.269233124793
 20
1671.570709712993
 30
0.0
 11
1762.269233124792
 21
1671.570709712993
 31
0.0
  0
LINE
  5
1657
330
10ED
100
AcDbEntity
  8
寸法線
 62
     0
 48
3.0
370
    -2
100
AcDbLine
 10
1834.269233124793
 20
1621.570709712993
 30
0.0
 11
1762.269233124792
 21
1621.570709712993
 31
0.0
  0
LINE
  5
1658
330
10ED
100
AcDbEntity
  8
寸法線
 62
     0
 48
3.0
370
    -2
100
AcDbLine
 10
1777.269233124792
 20
1656.570709712993
 30
0.0
 11
1777.269233124792
 21
1636.570709712993
 31
0.0
  0
INSERT
  5
1659
330
10ED
100
AcDbEntity
  8
寸法線
 62
     0
 48
3.0
370
    -2
100
AcDbBlockReference
  2
_Open30
 10
1777.269233124792
 20
1671.570709712993
 30
0.0
 41
15.0
 42
15.0
 43
15.0
 50
90.0
  0
INSERT
  5
165A
330
10ED
100
AcDbEntity
  8
寸法線
 62
     0
 48
3.0
370
    -2
100
AcDbBlockReference
  2
_Open30
 10
1777.269233124792
 20
1621.570709712993
 30
0.0
 41
15.0
 42
15.0
 43
15.0
 50
270.0
  0
MTEXT
  5
165B
330
10ED
100
AcDbEntity
  8
寸法線
 62
     0
 48
3.0
100
AcDbMText
 10
1757.269233124792
 20
1646.570709712993
 30
0.0
 40
30.0
 41
0.0
 71
     5
 72
     1
  1
50
 11
0.0000000000000001
 21
1.0
 31
0.0
 73
     1
 44
1.0
1001
ACAD
1000
MTEXTBEGIN
1070
    73
1070
     1
1070
    44
1040
1.0
1070
    74
1070
     0
1000
MTEXTEND
  0
POINT
  5
165C
330
10ED
100
AcDbEntity
  8
Defpoints
 62
     0
 48
3.0
100
AcDbPoint
 10
1854.269233124792
 20
1671.570709712993
 30
0.0
  0
POINT
  5
165D
330
10ED
100
AcDbEntity
  8
Defpoints
 62
     0
 48
3.0
100
AcDbPoint
 10
1854.269233124792
 20
1621.570709712993
 30
0.0
  0
POINT
  5
165E
330
10ED
100
AcDbEntity
  8
Defpoints
 62
     0
 48
3.0
100
AcDbPoint
 10
1777.269233124792
 20
1621.570709712993
 30
0.0
  0
ENDBLK
  5
10F8
330
10ED
100
AcDbEntity
  8
0
 48
3.0
100
AcDbBlockEnd
  0
BLOCK
  5
1498
330
1485
100
AcDbEntity
  8
0
 48
3.0
100
AcDbBlockBegin
  2
P-H85
 70
     0
 10
0.0
 20
0.0
 30
0.0
  3
P-H85
  1

  0
LINE
  5
1486
330
1485
100
AcDbEntity
  8
0
100
AcDbLine
 10
2.999997
 20
0.000001
 30
0.0
 11
41.99999699999999
 21
0.000001
 31
0.0
  0
LINE
  5
1487
330
1485
100
AcDbEntity
  8
0
100
AcDbLine
 10
-0.000003
 20
-2.999999
 30
0.0
 11
-0.000003
 21
-36.999999
 31
0.0
  0
LINE
  5
1488
330
1485
100
AcDbEntity
  8
0
100
AcDbLine
 10
2.999997
 20
-39.999999
 30
0.0
 11
41.99999699999999
 21
-39.999999
 31
0.0
  0
ARC
  5
1489
330
1485
100
AcDbEntity
  8
0
100
AcDbCircle
 10
2.999997
 20
-36.999999
 30
0.0
 40
3.0
100
AcDbArc
 50
180.0
 51
270.0
  0
ARC
  5
148A
330
1485
100
AcDbEntity
  8
0
100
AcDbCircle
 10
2.999997
 20
-2.999999
 30
0.0
 40
3.0
100
AcDbArc
 50
90.0
 51
180.0
  0
LINE
  5
148B
330
1485
100
AcDbEntity
  8
0
100
AcDbLine
 10
44.99999699999999
 20
-2.999999
 30
0.0
 11
44.99999699999999
 21
-36.999999
 31
0.0
  0
ARC
  5
148C
330
1485
100
AcDbEntity
  8
0
100
AcDbCircle
 10
41.99999699999999
 20
-2.999999
 30
0.0
 40
3.0
100
AcDbArc
 50
0.0
 51
90.0
  0
ARC
  5
148D
330
1485
100
AcDbEntity
  8
0
100
AcDbCircle
 10
41.99999699999999
 20
-36.999999
 30
0.0
 40
3.0
100
AcDbArc
 50
270.0
 51
0.0
  0
LWPOLYLINE
  5
148E
330
1485
100
AcDbEntity
  8
0
  6
Continuous
100
AcDbPolyline
 90
        4
 70
     1
 43
0.0
 10
2.299996999999999
 20
-37.69999900000001
 10
42.69999699999999
 20
-37.69999900000001
 10
42.69999699999999
 20
-2.299998999999999
 10
2.299996999999999
 20
-2.299998999999999
  0
LWPOLYLINE
  5
148F
330
1485
100
AcDbEntity
  8
0
  6
Continuous
100
AcDbPolyline
 90
        4
 70
     1
 43
0.0
 10
47.29999699999999
 20
-37.69999900000001
 10
82.69999699999999
 20
-37.69999900000001
 10
82.69999699999999
 20
-2.299998999999999
 10
47.29999699999999
 20
-2.299998999999999
  0
ARC
  5
1490
330
1485
100
AcDbEntity
  8
0
100
AcDbCircle
 10
81.99999699999999
 20
-2.999998999999998
 30
0.0
 40
3.0
100
AcDbArc
 50
0.0
 51
90.0
  0
ARC
  5
1491
330
1485
100
AcDbEntity
  8
0
100
AcDbCircle
 10
81.99999699999999
 20
-36.999999
 30
0.0
 40
3.0
100
AcDbArc
 50
270.0
 51
0.0
  0
LINE
  5
1492
330
1485
100
AcDbEntity
  8
0
100
AcDbLine
 10
44.999997
 20
-2.999998999999998
 30
0.0
 11
44.999997
 21
-36.999999
 31
0.0
  0
LINE
  5
1493
330
1485
100
AcDbEntity
  8
0
100
AcDbLine
 10
47.99999699999999
 20
-39.999999
 30
0.0
 11
81.99999699999999
 21
-39.999999
 31
0.0
  0
ARC
  5
1494
330
1485
100
AcDbEntity
  8
0
100
AcDbCircle
 10
47.99999699999999
 20
-36.999999
 30
0.0
 40
3.0
100
AcDbArc
 50
180.0
 51
270.0
  0
LINE
  5
1495
330
1485
100
AcDbEntity
  8
0
100
AcDbLine
 10
47.99999699999999
 20
0.0000009999999975
 30
0.0
 11
81.99999699999999
 21
0.0000009999999975
 31
0.0
  0
ARC
  5
1496
330
1485
100
AcDbEntity
  8
0
100
AcDbCircle
 10
47.99999699999999
 20
-2.999998999999998
 30
0.0
 40
3.0
100
AcDbArc
 50
90.0
 51
180.0
  0
LINE
  5
1497
330
1485
100
AcDbEntity
  8
0
100
AcDbLine
 10
84.999997
 20
-2.999998999999998
 30
0.0
 11
84.999997
 21
-36.999999
 31
0.0
  0
ENDBLK
  5
1499
330
1485
100
AcDbEntity
  8
0
 48
3.0
100
AcDbBlockEnd
  0
BLOCK
  5
14AA
330
14A6
100
AcDbEntity
  8
0
 48
3.0
100
AcDbBlockBegin
  2
清水
 70
     0
 10
0.0
 20
0.0
 30
0.0
  3
清水
  1

  0
ELLIPSE
  5
14A7
330
14A6
100
AcDbEntity
  8
外枠
  6
Continuous
100
AcDbEllipse
 10
61.95950207238002
 20
-84.98104152054944
 30
0.0
 11
0.0
 21
-48.07578326062735
 31
0.0
210
0.0
220
0.0
230
1.0
 40
0.7999999999999857
 41
0.0
 42
6.283185307179586
  0
MTEXT
  5
14A8
330
14A6
100
AcDbEntity
  8
外枠
  6
Continuous
100
AcDbMText
 10
43.62136371980841
 20
-91.25020745848743
 30
0.0
 40
25.0
 41
38.0342
 71
     1
 72
     5
  1
{\fHG正楷書体-PRO|b0|i0|c128|p65;水}
 73
     1
 44
1.0
1001
ACAD
1000
MTEXTBEGIN
1070
    73
1070
     1
1070
    44
1040
1.0
1070
    74
1070
     0
1000
MTEXTEND
  0
MTEXT
  5
14A9
330
14A6
100
AcDbEntity
  8
外枠
  6
Continuous
100
AcDbMText
 10
44.0164673811646
 20
-47.73028505679667
 30
0.0
 40
25.0
 41
37.8613
 71
     1
 72
     5
  1
{\fHG正楷書体-PRO|b0|i0|c128|p65;清}
 73
     1
 44
1.0
1001
ACAD
1000
MTEXTBEGIN
1070
    73
1070
     1
1070
    44
1040
1.0
1070
    74
1070
     0
1000
MTEXTEND
  0
ENDBLK
  5
14AB
330
14A6
100
AcDbEntity
  8
0
 48
3.0
100
AcDbBlockEnd
  0
BLOCK
  5
15EB
330
15E6
100
AcDbEntity
  8
0
 48
3.0
100
AcDbBlockBegin
  2
鎌下
 70
     0
 10
0.0
 20
0.0
 30
0.0
  3
鎌下
  1

  0
MTEXT
  5
15E7
330
15E6
100
AcDbEntity
  8
外枠
  6
Continuous
100
AcDbMText
 10
40.55333581259037
 20
-88.14888116777728
 30
0.0
 40
28.17460800000001
 41
43.8527
 71
     1
 72
     5
  1
{\fHGSeikaishotaiPRO|b0|i0|c128|p65;下}
 73
     1
 44
1.0
1001
ACAD
1000
MTEXTBEGIN
1070
    73
1070
     1
1070
    44
1040
1.0
1070
    74
1070
     0
1000
MTEXTEND
  0
MTEXT
  5
15E8
330
15E6
100
AcDbEntity
  8
外枠
  6
Continuous
100
AcDbMText
 10
40.55333581259037
 20
-45.61885629864991
 30
0.0
 40
28.17460800000001
 41
43.8527
 71
     1
 72
     5
  1
{\fHGSeikaishotaiPRO|b0|i0|c128|p65;鎌}
 73
     1
 44
1.0
1001
ACAD
1000
MTEXTBEGIN
1070
    73
1070
     1
1070
    44
1040
1.0
1070
    74
1070
     0
1000
MTEXTEND
  0
ELLIPSE
  5
15E9
330
15E6
100
AcDbEntity
  8
外枠
  6
Continuous
100
AcDbEllipse
 10
61.68068686355036
 20
-84.59863033186412
 30
0.0
 11
0.0
 21
-47.8594442149426
 31
0.0
210
0.0
220
0.0
230
1.0
 40
0.7999999999999857
 41
0.0
 42
6.283185307179586
  0
ENDBLK
  5
15EC
330
15E6
100
AcDbEntity
  8
0
 48
3.0
100
AcDbBlockEnd
  0
BLOCK
  5
17A5
330
17A4
100
AcDbEntity
  8
0
 48
3.0
100
AcDbBlockBegin
  2
*U19
 70
     1
 10
0.0
 20
0.0
 30
0.0
  3
*U19
  1

  0
LINE
  5
17AB
330
17A4
100
AcDbEntity
  8
本体
  6
Continuous
100
AcDbLine
 10
-14.5
 20
15.99999999999988
 30
0.0
 11
10.5
 21
15.99999999999988
 31
0.0
  0
LINE
  5
17AC
330
17A4
100
AcDbEntity
  8
本体
  6
Continuous
100
AcDbLine
 10
-14.5
 20
9.999999999999886
 30
0.0
 11
10.5
 21
9.999999999999886
 31
0.0
  0
LINE
  5
17AD
330
17A4
100
AcDbEntity
  8
本体
  6
Continuous
100
AcDbLine
 10
-14.5
 20
9.999999999999886
 30
0.0
 11
10.5
 21
15.99999999999988
 31
0.0
  0
INSERT
  5
17AE
330
17A4
100
AcDbEntity
  8
本体
  6
Continuous
100
AcDbBlockReference
  2
IB5x3x32
 10
10.49691900000016
 20
15.99995599999999
 30
0.0
  0
LINE
  5
17AF
330
17A4
100
AcDbEntity
  8
本体
  6
Continuous
100
AcDbLine
 10
-15.5
 20
-9.000000000000113
 30
0.0
 11
11.5
 21
-9.000000000000113
 31
0.0
  0
ENDBLK
  5
17A6
330
17A4
100
AcDbEntity
  8
0
 48
3.0
100
AcDbBlockEnd
  0
BLOCK
  5
17A8
330
17A7
100
AcDbEntity
  8
0
 48
3.0
100
AcDbBlockBegin
  2
*U20
 70
     1
 10
0.0
 20
0.0
 30
0.0
  3
*U20
  1

  0
INSERT
  5
17BE
330
17A7
100
AcDbEntity
  8
本体
  6
ByBlock
 62
     0
370
    -2
380
     1
100
AcDbBlockReference
  2
*U19
 10
0.0
 20
0.0
 30
0.0
  0
INSERT
  5
17BF
330
17A7
100
AcDbEntity
  8
本体
  6
ByBlock
 62
     0
370
    -2
380
     1
100
AcDbBlockReference
  2
*U19
 10
30.0
 20
0.0
 30
0.0
  0
INSERT
  5
17C0
330
17A7
100
AcDbEntity
  8
本体
  6
ByBlock
 62
     0
370
    -2
380
     1
100
AcDbBlockReference
  2
*U19
 10
60.0
 20
0.0
 30
0.0
  0
INSERT
  5
17C1
330
17A7
100
AcDbEntity
  8
本体
  6
ByBlock
 62
     0
370
    -2
380
     1
100
AcDbBlockReference
  2
*U19
 10
90.0
 20
0.0
 30
0.0
  0
INSERT
  5
17C2
330
17A7
100
AcDbEntity
  8
本体
  6
ByBlock
 62
     0
370
    -2
380
     1
100
AcDbBlockReference
  2
*U19
 10
120.0
 20
0.0
 30
0.0
  0
INSERT
  5
17C3
330
17A7
100
AcDbEntity
  8
本体
  6
ByBlock
 62
     0
370
    -2
380
     1
100
AcDbBlockReference
  2
*U19
 10
150.0
 20
0.0
 30
0.0
  0
INSERT
  5
17C4
330
17A7
100
AcDbEntity
  8
本体
  6
ByBlock
 62
     0
370
    -2
380
     1
100
AcDbBlockReference
  2
*U19
 10
180.0
 20
0.0
 30
0.0
  0
INSERT
  5
17C5
330
17A7
100
AcDbEntity
  8
本体
  6
ByBlock
 62
     0
370
    -2
380
     1
100
AcDbBlockReference
  2
*U19
 10
210.0
 20
0.0
 30
0.0
  0
INSERT
  5
17C6
330
17A7
100
AcDbEntity
  8
本体
  6
ByBlock
 62
     0
370
    -2
380
     1
100
AcDbBlockReference
  2
*U19
 10
240.0
 20
0.0
 30
0.0
  0
INSERT
  5
17C7
330
17A7
100
AcDbEntity
  8
本体
  6
ByBlock
 62
     0
370
    -2
380
     1
100
AcDbBlockReference
  2
*U19
 10
270.0
 20
0.0
 30
0.0
  0
INSERT
  5
17C8
330
17A7
100
AcDbEntity
  8
本体
  6
ByBlock
 62
     0
370
    -2
380
     1
100
AcDbBlockReference
  2
*U19
 10
300.0
 20
0.0
 30
0.0
  0
INSERT
  5
17C9
330
17A7
100
AcDbEntity
  8
本体
  6
ByBlock
 62
     0
370
    -2
380
     1
100
AcDbBlockReference
  2
*U19
 10
330.0
 20
0.0
 30
0.0
  0
INSERT
  5
17CA
330
17A7
100
AcDbEntity
  8
本体
  6
ByBlock
 62
     0
370
    -2
380
     1
100
AcDbBlockReference
  2
*U19
 10
360.0
 20
0.0
 30
0.0
  0
INSERT
  5
17CB
330
17A7
100
AcDbEntity
  8
本体
  6
ByBlock
 62
     0
370
    -2
380
     1
100
AcDbBlockReference
  2
*U19
 10
390.0
 20
0.0
 30
0.0
  0
INSERT
  5
17CC
330
17A7
100
AcDbEntity
  8
本体
  6
ByBlock
 62
     0
370
    -2
380
     1
100
AcDbBlockReference
  2
*U19
 10
420.0
 20
0.0
 30
0.0
  0
INSERT
  5
17CD
330
17A7
100
AcDbEntity
  8
本体
  6
ByBlock
 62
     0
370
    -2
380
     1
100
AcDbBlockReference
  2
*U19
 10
450.0
 20
0.0
 30
0.0
  0
ENDBLK
  5
17A9
330
17A7
100
AcDbEntity
  8
0
 48
3.0
100
AcDbBlockEnd
  0
BLOCK
  5
19CD
330
19CC
100
AcDbEntity
  8
0
 48
3.0
100
AcDbBlockBegin
  2
*U21
 70
     1
 10
0.0
 20
0.0
 30
0.0
  3
*U21
  1

  0
LINE
  5
19D3
330
19CC
100
AcDbEntity
  8
本体
  6
Continuous
100
AcDbLine
 10
12.5
 20
272.0
 30
0.0
 11
12.5
 21
228.0
 31
0.0
  0
LINE
  5
19D4
330
19CC
100
AcDbEntity
  8
本体
  6
Continuous
100
AcDbLine
 10
-17.5
 20
272.0
 30
0.0
 11
12.5
 21
278.0
 31
0.0
  0
LINE
  5
19D5
330
19CC
100
AcDbEntity
  8
本体
  6
Continuous
100
AcDbLine
 10
17.5
 20
272.0
 30
0.0
 11
17.5
 21
228.0
 31
0.0
  0
LINE
  5
19D6
330
19CC
100
AcDbEntity
  8
本体
  6
Continuous
100
AcDbLine
 10
12.5
 20
-278.0
 30
0.0
 11
12.5
 21
-305.5
 31
0.0
  0
LINE
  5
19D7
330
19CC
100
AcDbEntity
  8
本体
  6
Continuous
100
AcDbLine
 10
17.5
 20
-278.0
 30
0.0
 11
17.5
 21
-305.5
 31
0.0
  0
LINE
  5
19D8
330
19CC
100
AcDbEntity
  8
本体
  6
Continuous
100
AcDbLine
 10
12.5
 20
305.5
 30
0.0
 11
12.5
 21
278.0
 31
0.0
  0
LINE
  5
19D9
330
19CC
100
AcDbEntity
  8
本体
  6
Continuous
100
AcDbLine
 10
17.5
 20
305.5
 30
0.0
 11
17.5
 21
278.0
 31
0.0
  0
LINE
  5
19DA
330
19CC
100
AcDbEntity
  8
エンボス
  6
Continuous
100
AcDbLine
 10
12.5
 20
256.5
 30
0.0
 11
17.5
 21
254.5
 31
0.0
  0
LINE
  5
19DB
330
19CC
100
AcDbEntity
  8
エンボス
  6
Continuous
100
AcDbLine
 10
12.5
 20
240.5
 30
0.0
 11
17.5
 21
242.5
 31
0.0
  0
LINE
  5
19DC
330
19CC
100
AcDbEntity
  8
エンボス
  6
Continuous
100
AcDbLine
 10
17.5
 20
235.5
 30
0.0
 11
12.5
 21
237.5
 31
0.0
  0
LINE
  5
19DD
330
19CC
100
AcDbEntity
  8
エンボス
  6
Continuous
100
AcDbLine
 10
17.5
 20
251.5
 30
0.0
 11
12.5
 21
249.5
 31
0.0
  0
LINE
  5
19DE
330
19CC
100
AcDbEntity
  8
エンボス
  6
Continuous
100
AcDbLine
 10
12.5
 20
268.5
 30
0.0
 11
17.5
 21
270.5
 31
0.0
  0
LINE
  5
19DF
330
19CC
100
AcDbEntity
  8
エンボス
  6
Continuous
100
AcDbLine
 10
17.5
 20
263.5
 30
0.0
 11
12.5
 21
265.5
 31
0.0
  0
LINE
  5
19E0
330
19CC
100
AcDbEntity
  8
エンボス
  6
Continuous
100
AcDbLine
 10
12.5
 20
-295.5
 30
0.0
 11
17.5
 21
-297.5
 31
0.0
  0
LINE
  5
19E1
330
19CC
100
AcDbEntity
  8
エンボス
  6
Continuous
100
AcDbLine
 10
17.5
 20
-288.5
 30
0.0
 11
12.5
 21
-286.5
 31
0.0
  0
LINE
  5
19E2
330
19CC
100
AcDbEntity
  8
エンボス
  6
Continuous
100
AcDbLine
 10
12.5
 20
-283.5
 30
0.0
 11
17.5
 21
-281.5
 31
0.0
  0
LINE
  5
19E3
330
19CC
100
AcDbEntity
  8
エンボス
  6
Continuous
100
AcDbLine
 10
17.5
 20
286.0
 30
0.0
 11
12.5
 21
284.0
 31
0.0
  0
LINE
  5
19E4
330
19CC
100
AcDbEntity
  8
エンボス
  6
Continuous
100
AcDbLine
 10
12.5
 20
291.0
 30
0.0
 11
17.5
 21
289.0
 31
0.0
  0
LINE
  5
19E5
330
19CC
100
AcDbEntity
  8
エンボス
  6
Continuous
100
AcDbLine
 10
12.5
 20
303.0
 30
0.0
 11
17.5
 21
305.0
 31
0.0
  0
LINE
  5
19E6
330
19CC
100
AcDbEntity
  8
エンボス
  6
Continuous
100
AcDbLine
 10
17.5
 20
298.0
 30
0.0
 11
12.5
 21
300.0
 31
0.0
  0
LINE
  5
19E7
330
19CC
100
AcDbEntity
  8
本体
  6
Continuous
100
AcDbLine
 10
17.5
 20
222.0
 30
0.0
 11
17.5
 21
178.0
 31
0.0
  0
LINE
  5
19E8
330
19CC
100
AcDbEntity
  8
本体
  6
Continuous
100
AcDbLine
 10
12.5
 20
222.0
 30
0.0
 11
12.5
 21
178.0
 31
0.0
  0
LINE
  5
19E9
330
19CC
100
AcDbEntity
  8
エンボス
  6
Continuous
100
AcDbLine
 10
12.5
 20
190.5
 30
0.0
 11
17.5
 21
192.5
 31
0.0
  0
LINE
  5
19EA
330
19CC
100
AcDbEntity
  8
エンボス
  6
Continuous
100
AcDbLine
 10
17.5
 20
185.5
 30
0.0
 11
12.5
 21
187.5
 31
0.0
  0
LINE
  5
19EB
330
19CC
100
AcDbEntity
  8
本体
  6
Continuous
100
AcDbLine
 10
-17.5
 20
222.0
 30
0.0
 11
12.5
 21
228.0
 31
0.0
  0
LINE
  5
19EC
330
19CC
100
AcDbEntity
  8
エンボス
  6
Continuous
100
AcDbLine
 10
12.5
 20
218.5
 30
0.0
 11
17.5
 21
220.5
 31
0.0
  0
LINE
  5
19ED
330
19CC
100
AcDbEntity
  8
エンボス
  6
Continuous
100
AcDbLine
 10
12.5
 20
206.5
 30
0.0
 11
17.5
 21
204.5
 31
0.0
  0
LINE
  5
19EE
330
19CC
100
AcDbEntity
  8
エンボス
  6
Continuous
100
AcDbLine
 10
17.5
 20
201.5
 30
0.0
 11
12.5
 21
199.5
 31
0.0
  0
LINE
  5
19EF
330
19CC
100
AcDbEntity
  8
エンボス
  6
Continuous
100
AcDbLine
 10
17.5
 20
213.5
 30
0.0
 11
12.5
 21
215.5
 31
0.0
  0
LINE
  5
19F0
330
19CC
100
AcDbEntity
  8
本体
  6
Continuous
100
AcDbLine
 10
17.5
 20
172.0
 30
0.0
 11
17.5
 21
128.0
 31
0.0
  0
LINE
  5
19F1
330
19CC
100
AcDbEntity
  8
本体
  6
Continuous
100
AcDbLine
 10
12.5
 20
172.0
 30
0.0
 11
12.5
 21
128.0
 31
0.0
  0
LINE
  5
19F2
330
19CC
100
AcDbEntity
  8
エンボス
  6
Continuous
100
AcDbLine
 10
12.5
 20
140.5
 30
0.0
 11
17.5
 21
142.5
 31
0.0
  0
LINE
  5
19F3
330
19CC
100
AcDbEntity
  8
エンボス
  6
Continuous
100
AcDbLine
 10
17.5
 20
135.5
 30
0.0
 11
12.5
 21
137.5
 31
0.0
  0
LINE
  5
19F4
330
19CC
100
AcDbEntity
  8
本体
  6
Continuous
100
AcDbLine
 10
-17.5
 20
172.0
 30
0.0
 11
12.5
 21
178.0
 31
0.0
  0
LINE
  5
19F5
330
19CC
100
AcDbEntity
  8
エンボス
  6
Continuous
100
AcDbLine
 10
12.5
 20
168.5
 30
0.0
 11
17.5
 21
170.5
 31
0.0
  0
LINE
  5
19F6
330
19CC
100
AcDbEntity
  8
エンボス
  6
Continuous
100
AcDbLine
 10
12.5
 20
156.5
 30
0.0
 11
17.5
 21
154.5
 31
0.0
  0
LINE
  5
19F7
330
19CC
100
AcDbEntity
  8
エンボス
  6
Continuous
100
AcDbLine
 10
17.5
 20
151.5
 30
0.0
 11
12.5
 21
149.5
 31
0.0
  0
LINE
  5
19F8
330
19CC
100
AcDbEntity
  8
エンボス
  6
Continuous
100
AcDbLine
 10
17.5
 20
163.5
 30
0.0
 11
12.5
 21
165.5
 31
0.0
  0
LINE
  5
19F9
330
19CC
100
AcDbEntity
  8
本体
  6
Continuous
100
AcDbLine
 10
17.5
 20
122.0
 30
0.0
 11
17.5
 21
78.0
 31
0.0
  0
LINE
  5
19FA
330
19CC
100
AcDbEntity
  8
本体
  6
Continuous
100
AcDbLine
 10
12.5
 20
122.0
 30
0.0
 11
12.5
 21
78.0
 31
0.0
  0
LINE
  5
19FB
330
19CC
100
AcDbEntity
  8
エンボス
  6
Continuous
100
AcDbLine
 10
12.5
 20
90.5
 30
0.0
 11
17.5
 21
92.5
 31
0.0
  0
LINE
  5
19FC
330
19CC
100
AcDbEntity
  8
エンボス
  6
Continuous
100
AcDbLine
 10
17.5
 20
85.5
 30
0.0
 11
12.5
 21
87.5
 31
0.0
  0
LINE
  5
19FD
330
19CC
100
AcDbEntity
  8
本体
  6
Continuous
100
AcDbLine
 10
-17.5
 20
122.0
 30
0.0
 11
12.5
 21
128.0
 31
0.0
  0
LINE
  5
19FE
330
19CC
100
AcDbEntity
  8
エンボス
  6
Continuous
100
AcDbLine
 10
12.5
 20
118.5
 30
0.0
 11
17.5
 21
120.5
 31
0.0
  0
LINE
  5
19FF
330
19CC
100
AcDbEntity
  8
エンボス
  6
Continuous
100
AcDbLine
 10
12.5
 20
106.5
 30
0.0
 11
17.5
 21
104.5
 31
0.0
  0
LINE
  5
1A00
330
19CC
100
AcDbEntity
  8
エンボス
  6
Continuous
100
AcDbLine
 10
17.5
 20
101.5
 30
0.0
 11
12.5
 21
99.50000000000001
 31
0.0
  0
LINE
  5
1A01
330
19CC
100
AcDbEntity
  8
エンボス
  6
Continuous
100
AcDbLine
 10
17.5
 20
113.5
 30
0.0
 11
12.5
 21
115.5
 31
0.0
  0
LINE
  5
1A02
330
19CC
100
AcDbEntity
  8
本体
  6
Continuous
100
AcDbLine
 10
17.5
 20
72.0
 30
0.0
 11
17.5
 21
28.0
 31
0.0
  0
LINE
  5
1A03
330
19CC
100
AcDbEntity
  8
本体
  6
Continuous
100
AcDbLine
 10
12.5
 20
72.0
 30
0.0
 11
12.5
 21
28.0
 31
0.0
  0
LINE
  5
1A04
330
19CC
100
AcDbEntity
  8
エンボス
  6
Continuous
100
AcDbLine
 10
12.5
 20
40.49999999999999
 30
0.0
 11
17.5
 21
42.5
 31
0.0
  0
LINE
  5
1A05
330
19CC
100
AcDbEntity
  8
エンボス
  6
Continuous
100
AcDbLine
 10
17.5
 20
35.5
 30
0.0
 11
12.5
 21
37.5
 31
0.0
  0
LINE
  5
1A06
330
19CC
100
AcDbEntity
  8
本体
  6
Continuous
100
AcDbLine
 10
-17.5
 20
72.0
 30
0.0
 11
12.5
 21
78.0
 31
0.0
  0
LINE
  5
1A07
330
19CC
100
AcDbEntity
  8
エンボス
  6
Continuous
100
AcDbLine
 10
12.5
 20
68.5
 30
0.0
 11
17.5
 21
70.5
 31
0.0
  0
LINE
  5
1A08
330
19CC
100
AcDbEntity
  8
エンボス
  6
Continuous
100
AcDbLine
 10
12.5
 20
56.5
 30
0.0
 11
17.5
 21
54.5
 31
0.0
  0
LINE
  5
1A09
330
19CC
100
AcDbEntity
  8
エンボス
  6
Continuous
100
AcDbLine
 10
17.5
 20
51.5
 30
0.0
 11
12.5
 21
49.5
 31
0.0
  0
LINE
  5
1A0A
330
19CC
100
AcDbEntity
  8
エンボス
  6
Continuous
100
AcDbLine
 10
17.5
 20
63.5
 30
0.0
 11
12.5
 21
65.5
 31
0.0
  0
LINE
  5
1A0B
330
19CC
100
AcDbEntity
  8
本体
  6
Continuous
100
AcDbLine
 10
17.5
 20
22.0
 30
0.0
 11
17.5
 21
-22.0
 31
0.0
  0
LINE
  5
1A0C
330
19CC
100
AcDbEntity
  8
本体
  6
Continuous
100
AcDbLine
 10
12.5
 20
22.0
 30
0.0
 11
12.5
 21
-22.0
 31
0.0
  0
LINE
  5
1A0D
330
19CC
100
AcDbEntity
  8
エンボス
  6
Continuous
100
AcDbLine
 10
12.5
 20
-9.5
 30
0.0
 11
17.5
 21
-7.5
 31
0.0
  0
LINE
  5
1A0E
330
19CC
100
AcDbEntity
  8
エンボス
  6
Continuous
100
AcDbLine
 10
17.5
 20
-14.5
 30
0.0
 11
12.5
 21
-12.5
 31
0.0
  0
LINE
  5
1A0F
330
19CC
100
AcDbEntity
  8
本体
  6
Continuous
100
AcDbLine
 10
-17.5
 20
22.0
 30
0.0
 11
12.5
 21
28.0
 31
0.0
  0
LINE
  5
1A10
330
19CC
100
AcDbEntity
  8
エンボス
  6
Continuous
100
AcDbLine
 10
12.5
 20
18.5
 30
0.0
 11
17.5
 21
20.5
 31
0.0
  0
LINE
  5
1A11
330
19CC
100
AcDbEntity
  8
エンボス
  6
Continuous
100
AcDbLine
 10
12.5
 20
6.5
 30
0.0
 11
17.5
 21
4.5
 31
0.0
  0
LINE
  5
1A12
330
19CC
100
AcDbEntity
  8
エンボス
  6
Continuous
100
AcDbLine
 10
17.5
 20
1.5
 30
0.0
 11
12.5
 21
-0.5
 31
0.0
  0
LINE
  5
1A13
330
19CC
100
AcDbEntity
  8
エンボス
  6
Continuous
100
AcDbLine
 10
17.5
 20
13.5
 30
0.0
 11
12.5
 21
15.5
 31
0.0
  0
LINE
  5
1A14
330
19CC
100
AcDbEntity
  8
本体
  6
Continuous
100
AcDbLine
 10
17.5
 20
-28.0
 30
0.0
 11
17.5
 21
-72.0
 31
0.0
  0
LINE
  5
1A15
330
19CC
100
AcDbEntity
  8
本体
  6
Continuous
100
AcDbLine
 10
12.5
 20
-28.0
 30
0.0
 11
12.5
 21
-72.0
 31
0.0
  0
LINE
  5
1A16
330
19CC
100
AcDbEntity
  8
エンボス
  6
Continuous
100
AcDbLine
 10
12.5
 20
-59.5
 30
0.0
 11
17.5
 21
-57.5
 31
0.0
  0
LINE
  5
1A17
330
19CC
100
AcDbEntity
  8
エンボス
  6
Continuous
100
AcDbLine
 10
17.5
 20
-64.5
 30
0.0
 11
12.5
 21
-62.5
 31
0.0
  0
LINE
  5
1A18
330
19CC
100
AcDbEntity
  8
本体
  6
Continuous
100
AcDbLine
 10
-17.5
 20
-28.0
 30
0.0
 11
12.5
 21
-22.0
 31
0.0
  0
LINE
  5
1A19
330
19CC
100
AcDbEntity
  8
エンボス
  6
Continuous
100
AcDbLine
 10
12.5
 20
-31.5
 30
0.0
 11
17.5
 21
-29.5
 31
0.0
  0
LINE
  5
1A1A
330
19CC
100
AcDbEntity
  8
エンボス
  6
Continuous
100
AcDbLine
 10
12.5
 20
-43.5
 30
0.0
 11
17.5
 21
-45.49999999999999
 31
0.0
  0
LINE
  5
1A1B
330
19CC
100
AcDbEntity
  8
エンボス
  6
Continuous
100
AcDbLine
 10
17.5
 20
-48.5
 30
0.0
 11
12.5
 21
-50.5
 31
0.0
  0
LINE
  5
1A1C
330
19CC
100
AcDbEntity
  8
エンボス
  6
Continuous
100
AcDbLine
 10
17.5
 20
-36.5
 30
0.0
 11
12.5
 21
-34.5
 31
0.0
  0
LINE
  5
1A1D
330
19CC
100
AcDbEntity
  8
本体
  6
Continuous
100
AcDbLine
 10
17.5
 20
-78.0
 30
0.0
 11
17.5
 21
-122.0
 31
0.0
  0
LINE
  5
1A1E
330
19CC
100
AcDbEntity
  8
本体
  6
Continuous
100
AcDbLine
 10
12.5
 20
-78.0
 30
0.0
 11
12.5
 21
-122.0
 31
0.0
  0
LINE
  5
1A1F
330
19CC
100
AcDbEntity
  8
エンボス
  6
Continuous
100
AcDbLine
 10
12.5
 20
-109.5
 30
0.0
 11
17.5
 21
-107.5
 31
0.0
  0
LINE
  5
1A20
330
19CC
100
AcDbEntity
  8
エンボス
  6
Continuous
100
AcDbLine
 10
17.5
 20
-114.5
 30
0.0
 11
12.5
 21
-112.5
 31
0.0
  0
LINE
  5
1A21
330
19CC
100
AcDbEntity
  8
本体
  6
Continuous
100
AcDbLine
 10
-17.5
 20
-78.0
 30
0.0
 11
12.5
 21
-72.0
 31
0.0
  0
LINE
  5
1A22
330
19CC
100
AcDbEntity
  8
エンボス
  6
Continuous
100
AcDbLine
 10
12.5
 20
-81.5
 30
0.0
 11
17.5
 21
-79.5
 31
0.0
  0
LINE
  5
1A23
330
19CC
100
AcDbEntity
  8
エンボス
  6
Continuous
100
AcDbLine
 10
12.5
 20
-93.49999999999999
 30
0.0
 11
17.5
 21
-95.5
 31
0.0
  0
LINE
  5
1A24
330
19CC
100
AcDbEntity
  8
エンボス
  6
Continuous
100
AcDbLine
 10
17.5
 20
-98.50000000000001
 30
0.0
 11
12.5
 21
-100.5
 31
0.0
  0
LINE
  5
1A25
330
19CC
100
AcDbEntity
  8
エンボス
  6
Continuous
100
AcDbLine
 10
17.5
 20
-86.5
 30
0.0
 11
12.5
 21
-84.50000000000001
 31
0.0
  0
LINE
  5
1A26
330
19CC
100
AcDbEntity
  8
本体
  6
Continuous
100
AcDbLine
 10
17.5
 20
-128.0
 30
0.0
 11
17.5
 21
-172.0
 31
0.0
  0
LINE
  5
1A27
330
19CC
100
AcDbEntity
  8
本体
  6
Continuous
100
AcDbLine
 10
12.5
 20
-128.0
 30
0.0
 11
12.5
 21
-172.0
 31
0.0
  0
LINE
  5
1A28
330
19CC
100
AcDbEntity
  8
エンボス
  6
Continuous
100
AcDbLine
 10
12.5
 20
-159.5
 30
0.0
 11
17.5
 21
-157.5
 31
0.0
  0
LINE
  5
1A29
330
19CC
100
AcDbEntity
  8
エンボス
  6
Continuous
100
AcDbLine
 10
17.5
 20
-164.5
 30
0.0
 11
12.5
 21
-162.5
 31
0.0
  0
LINE
  5
1A2A
330
19CC
100
AcDbEntity
  8
本体
  6
Continuous
100
AcDbLine
 10
-17.5
 20
-128.0
 30
0.0
 11
12.5
 21
-122.0
 31
0.0
  0
LINE
  5
1A2B
330
19CC
100
AcDbEntity
  8
エンボス
  6
Continuous
100
AcDbLine
 10
12.5
 20
-131.5
 30
0.0
 11
17.5
 21
-129.5
 31
0.0
  0
LINE
  5
1A2C
330
19CC
100
AcDbEntity
  8
エンボス
  6
Continuous
100
AcDbLine
 10
12.5
 20
-143.5
 30
0.0
 11
17.5
 21
-145.5
 31
0.0
  0
LINE
  5
1A2D
330
19CC
100
AcDbEntity
  8
エンボス
  6
Continuous
100
AcDbLine
 10
17.5
 20
-148.5
 30
0.0
 11
12.5
 21
-150.5
 31
0.0
  0
LINE
  5
1A2E
330
19CC
100
AcDbEntity
  8
エンボス
  6
Continuous
100
AcDbLine
 10
17.5
 20
-136.5
 30
0.0
 11
12.5
 21
-134.5
 31
0.0
  0
LINE
  5
1A2F
330
19CC
100
AcDbEntity
  8
本体
  6
Continuous
100
AcDbLine
 10
17.5
 20
-178.0
 30
0.0
 11
17.5
 21
-222.0
 31
0.0
  0
LINE
  5
1A30
330
19CC
100
AcDbEntity
  8
本体
  6
Continuous
100
AcDbLine
 10
12.5
 20
-178.0
 30
0.0
 11
12.5
 21
-222.0
 31
0.0
  0
LINE
  5
1A31
330
19CC
100
AcDbEntity
  8
エンボス
  6
Continuous
100
AcDbLine
 10
12.5
 20
-209.5
 30
0.0
 11
17.5
 21
-207.5
 31
0.0
  0
LINE
  5
1A32
330
19CC
100
AcDbEntity
  8
エンボス
  6
Continuous
100
AcDbLine
 10
17.5
 20
-214.5
 30
0.0
 11
12.5
 21
-212.5
 31
0.0
  0
LINE
  5
1A33
330
19CC
100
AcDbEntity
  8
本体
  6
Continuous
100
AcDbLine
 10
-17.5
 20
-178.0
 30
0.0
 11
12.5
 21
-172.0
 31
0.0
  0
LINE
  5
1A34
330
19CC
100
AcDbEntity
  8
エンボス
  6
Continuous
100
AcDbLine
 10
12.5
 20
-181.5
 30
0.0
 11
17.5
 21
-179.5
 31
0.0
  0
LINE
  5
1A35
330
19CC
100
AcDbEntity
  8
エンボス
  6
Continuous
100
AcDbLine
 10
12.5
 20
-193.5
 30
0.0
 11
17.5
 21
-195.5
 31
0.0
  0
LINE
  5
1A36
330
19CC
100
AcDbEntity
  8
エンボス
  6
Continuous
100
AcDbLine
 10
17.5
 20
-198.5
 30
0.0
 11
12.5
 21
-200.5
 31
0.0
  0
LINE
  5
1A37
330
19CC
100
AcDbEntity
  8
エンボス
  6
Continuous
100
AcDbLine
 10
17.5
 20
-186.5
 30
0.0
 11
12.5
 21
-184.5
 31
0.0
  0
LINE
  5
1A38
330
19CC
100
AcDbEntity
  8
本体
  6
Continuous
100
AcDbLine
 10
17.5
 20
-228.0
 30
0.0
 11
17.5
 21
-272.0
 31
0.0
  0
LINE
  5
1A39
330
19CC
100
AcDbEntity
  8
本体
  6
Continuous
100
AcDbLine
 10
12.5
 20
-228.0
 30
0.0
 11
12.5
 21
-272.0
 31
0.0
  0
LINE
  5
1A3A
330
19CC
100
AcDbEntity
  8
エンボス
  6
Continuous
100
AcDbLine
 10
12.5
 20
-259.5
 30
0.0
 11
17.5
 21
-257.5
 31
0.0
  0
LINE
  5
1A3B
330
19CC
100
AcDbEntity
  8
エンボス
  6
Continuous
100
AcDbLine
 10
17.5
 20
-264.5
 30
0.0
 11
12.5
 21
-262.5
 31
0.0
  0
LINE
  5
1A3C
330
19CC
100
AcDbEntity
  8
本体
  6
Continuous
100
AcDbLine
 10
-17.5
 20
-228.0
 30
0.0
 11
12.5
 21
-222.0
 31
0.0
  0
LINE
  5
1A3D
330
19CC
100
AcDbEntity
  8
エンボス
  6
Continuous
100
AcDbLine
 10
12.5
 20
-231.5
 30
0.0
 11
17.5
 21
-229.5
 31
0.0
  0
LINE
  5
1A3E
330
19CC
100
AcDbEntity
  8
エンボス
  6
Continuous
100
AcDbLine
 10
12.5
 20
-243.5
 30
0.0
 11
17.5
 21
-245.5
 31
0.0
  0
LINE
  5
1A3F
330
19CC
100
AcDbEntity
  8
エンボス
  6
Continuous
100
AcDbLine
 10
17.5
 20
-248.5
 30
0.0
 11
12.5
 21
-250.5
 31
0.0
  0
LINE
  5
1A40
330
19CC
100
AcDbEntity
  8
エンボス
  6
Continuous
100
AcDbLine
 10
17.5
 20
-236.5
 30
0.0
 11
12.5
 21
-234.5
 31
0.0
  0
LINE
  5
1A41
330
19CC
100
AcDbEntity
  8
本体
  6
Continuous
100
AcDbLine
 10
-17.5
 20
-278.0
 30
0.0
 11
12.5
 21
-272.0
 31
0.0
  0
ENDBLK
  5
19CE
330
19CC
100
AcDbEntity
  8
0
 48
3.0
100
AcDbBlockEnd
  0
BLOCK
  5
19D0
330
19CF
100
AcDbEntity
  8
0
 48
3.0
100
AcDbBlockBegin
  2
*U22
 70
     1
 10
0.0
 20
0.0
 30
0.0
  3
*U22
  1

  0
INSERT
  5
1A4C
330
19CF
100
AcDbEntity
  8
本体
  6
ByBlock
 62
     0
370
    -2
380
     1
100
AcDbBlockReference
  2
*U21
 10
0.0
 20
0.0
 30
0.0
  0
INSERT
  5
1A4D
330
19CF
100
AcDbEntity
  8
本体
  6
ByBlock
 62
     0
370
    -2
380
     1
100
AcDbBlockReference
  2
*U21
 10
30.0
 20
0.0
 30
0.0
  0
INSERT
  5
1A4E
330
19CF
100
AcDbEntity
  8
本体
  6
ByBlock
 62
     0
370
    -2
380
     1
100
AcDbBlockReference
  2
*U21
 10
60.0
 20
0.0
 30
0.0
  0
INSERT
  5
1A4F
330
19CF
100
AcDbEntity
  8
本体
  6
ByBlock
 62
     0
370
    -2
380
     1
100
AcDbBlockReference
  2
*U21
 10
90.0
 20
0.0
 30
0.0
  0
INSERT
  5
1A50
330
19CF
100
AcDbEntity
  8
本体
  6
ByBlock
 62
     0
370
    -2
380
     1
100
AcDbBlockReference
  2
*U21
 10
120.0
 20
0.0
 30
0.0
  0
INSERT
  5
1A51
330
19CF
100
AcDbEntity
  8
本体
  6
ByBlock
 62
     0
370
    -2
380
     1
100
AcDbBlockReference
  2
*U21
 10
150.0
 20
0.0
 30
0.0
  0
INSERT
  5
1A52
330
19CF
100
AcDbEntity
  8
本体
  6
ByBlock
 62
     0
370
    -2
380
     1
100
AcDbBlockReference
  2
*U21
 10
180.0
 20
0.0
 30
0.0
  0
INSERT
  5
1A53
330
19CF
100
AcDbEntity
  8
本体
  6
ByBlock
 62
     0
370
    -2
380
     1
100
AcDbBlockReference
  2
*U21
 10
210.0
 20
0.0
 30
0.0
  0
INSERT
  5
1A54
330
19CF
100
AcDbEntity
  8
本体
  6
ByBlock
 62
     0
370
    -2
380
     1
100
AcDbBlockReference
  2
*U21
 10
240.0
 20
0.0
 30
0.0
  0
INSERT
  5
1A55
330
19CF
100
AcDbEntity
  8
本体
  6
ByBlock
 62
     0
370
    -2
380
     1
100
AcDbBlockReference
  2
*U21
 10
270.0
 20
0.0
 30
0.0
  0
INSERT
  5
1A56
330
19CF
100
AcDbEntity
  8
本体
  6
ByBlock
 62
     0
370
    -2
380
     1
100
AcDbBlockReference
  2
*U21
 10
300.0
 20
0.0
 30
0.0
  0
INSERT
  5
1A57
330
19CF
100
AcDbEntity
  8
本体
  6
ByBlock
 62
     0
370
    -2
380
     1
100
AcDbBlockReference
  2
*U21
 10
330.0
 20
0.0
 30
0.0
  0
INSERT
  5
1A58
330
19CF
100
AcDbEntity
  8
本体
  6
ByBlock
 62
     0
370
    -2
380
     1
100
AcDbBlockReference
  2
*U21
 10
360.0
 20
0.0
 30
0.0
  0
INSERT
  5
1A59
330
19CF
100
AcDbEntity
  8
本体
  6
ByBlock
 62
     0
370
    -2
380
     1
100
AcDbBlockReference
  2
*U21
 10
390.0
 20
0.0
 30
0.0
  0
INSERT
  5
1A5A
330
19CF
100
AcDbEntity
  8
本体
  6
ByBlock
 62
     0
370
    -2
380
     1
100
AcDbBlockReference
  2
*U21
 10
420.0
 20
0.0
 30
0.0
  0
INSERT
  5
1A5B
330
19CF
100
AcDbEntity
  8
本体
  6
ByBlock
 62
     0
370
    -2
380
     1
100
AcDbBlockReference
  2
*U21
 10
450.0
 20
0.0
 30
0.0
  0
ENDBLK
  5
19D1
330
19CF
100
AcDbEntity
  8
0
 48
3.0
100
AcDbBlockEnd
  0
BLOCK
  5
1AC6
330
1AC5
100
AcDbEntity
  8
0
 48
3.0
100
AcDbBlockBegin
  2
*D23
 70
     1
 10
0.0
 20
0.0
 30
0.0
  3
*D23
  1

  0
LINE
  5
1AC7
330
1AC5
100
AcDbEntity
  8
本体
 62
     0
 48
3.0
370
    -2
100
AcDbLine
 10
998.3945972221627
 20
522.9692677332953
 30
0.0
 11
1002.894597222163
 21
522.9692677332953
 31
0.0
  0
LINE
  5
1AC8
330
1AC5
100
AcDbEntity
  8
本体
 62
     0
 48
3.0
370
    -2
100
AcDbLine
 10
997.8945972221627
 20
519.769267733295
 30
0.0
 11
1002.894597222163
 21
519.769267733295
 31
0.0
  0
LINE
  5
1AC9
330
1AC5
100
AcDbEntity
  8
本体
 62
     0
 48
3.0
370
    -2
100
AcDbLine
 10
1017.894597222162
 20
537.9692677332952
 30
0.0
 11
1017.894597222162
 21
552.9692677332953
 31
0.0
  0
LINE
  5
1ACA
330
1AC5
100
AcDbEntity
  8
本体
 62
     0
 48
3.0
370
    -2
100
AcDbLine
 10
1017.894597222162
 20
504.769267733295
 30
0.0
 11
1017.894597222162
 21
425.0992169718736
 31
0.0
  0
LINE
  5
1ACB
330
1AC5
100
AcDbEntity
  8
本体
 62
     0
 48
3.0
370
    -2
100
AcDbLine
 10
1017.894597222162
 20
522.9692677332953
 30
0.0
 11
1017.894597222162
 21
519.769267733295
 31
0.0
  0
INSERT
  5
1ACC
330
1AC5
100
AcDbEntity
  8
本体
 62
     0
 48
3.0
370
    -2
100
AcDbBlockReference
  2
_Open30
 10
1017.894597222162
 20
522.9692677332953
 30
0.0
 41
15.0
 42
15.0
 43
15.0
 50
270.0
  0
INSERT
  5
1ACD
330
1AC5
100
AcDbEntity
  8
本体
 62
     0
 48
3.0
370
    -2
100
AcDbBlockReference
  2
_Open30
 10
1017.894597222162
 20
519.769267733295
 30
0.0
 41
15.0
 42
15.0
 43
15.0
 50
90.0
  0
MTEXT
  5
1ACE
330
1AC5
100
AcDbEntity
  8
本体
 62
     0
 48
3.0
100
AcDbMText
 10
997.8945972221625
 20
457.4342423525845
 30
0.0
 40
30.0
 41
0.0
 71
     5
 72
     1
  1
3.2
 11
0.0000000000000001
 21
1.0
 31
0.0
 73
     1
 44
1.0
1001
ACAD
1000
MTEXTBEGIN
1070
    73
1070
     1
1070
    44
1040
1.0
1070
    74
1070
     0
1000
MTEXTEND
  0
POINT
  5
1ACF
330
1AC5
100
AcDbEntity
  8
Defpoints
 62
     0
 48
3.0
100
AcDbPoint
 10
1018.394597222163
 20
522.9692677332953
 30
0.0
  0
POINT
  5
1AD0
330
1AC5
100
AcDbEntity
  8
Defpoints
 62
     0
 48
3.0
100
AcDbPoint
 10
1017.894597222162
 20
519.769267733295
 30
0.0
  0
POINT
  5
1AD1
330
1AC5
100
AcDbEntity
  8
Defpoints
 62
     0
 48
3.0
100
AcDbPoint
 10
1017.894597222162
 20
519.769267733295
 30
0.0
  0
ENDBLK
  5
1AD2
330
1AC5
100
AcDbEntity
  8
0
 48
3.0
100
AcDbBlockEnd
  0
BLOCK
  5
1AD6
330
1AD3
100
AcDbEntity
  8
0
 48
3.0
100
AcDbBlockBegin
  2
A$C21F24E11
 70
     0
 10
0.0
 20
0.0
 30
0.0
  3
A$C21F24E11
  1

  0
DIMENSION
  5
1AD4
330
1AD3
100
AcDbEntity
  8
本体
 48
3.0
100
AcDbDimension
  2
*D23
 10
24.67948719999959
 20
-3.200000000000272
 30
0.0
 11
4.679487199999471
 21
-65.53502538071075
 31
0.0
 12
-993.2151100221631
 22
-522.9692677332953
 32
0.0
 71
     5
 42
3.200000000000272
  3
ISO-25
100
AcDbAlignedDimension
 13
25.17948719999959
 23
0.0
 33
0.0
 14
24.67948719999959
 24
-3.200000000000272
 34
0.0
 50
90.0
100
AcDbRotatedDimension
  0
ENDBLK
  5
1AD7
330
1AD3
100
AcDbEntity
  8
0
 48
3.0
100
AcDbBlockEnd
  0
ENDSEC
  0
SECTION
  2
ENTITIES
  0
LINE
  5
12
330
2
100
AcDbEntity
  8
外枠
 48
80.0
370
     9
100
AcDbLine
 10
0.0
 20
0.0
 30
0.0
 11
2789.511161023067
 21
0.0
 31
0.0
  0
LINE
  5
13
330
2
100
AcDbEntity
  8
外枠
 48
80.0
370
     9
100
AcDbLine
 10
2789.511161023071
 20
1973.26911249564
 30
0.0
 11
0.0
 21
1973.26911249564
 31
0.0
  0
LINE
  5
14
330
2
100
AcDbEntity
  8
外枠
 48
100.0
370
     9
100
AcDbLine
 10
10.0
 20
10.0
 30
0.0
 11
2780.119625023061
 21
10.0
 31
0.0
  0
LINE
  5
17
330
2
100
AcDbEntity
  8
外枠
  6
Continuous
 48
100.0
370
     9
100
AcDbLine
 10
9.999999999996362
 20
155.3992728208031
 30
0.0
 11
2780.119625023061
 21
155.3992728207995
 31
0.0
  0
LINE
  5
18
330
2
100
AcDbEntity
  8
外枠
  6
Continuous
 48
100.0
370
     9
100
AcDbLine
 10
9.999999999996362
 20
160.0950408208045
 30
0.0
 11
2780.119625023061
 21
160.0950408207973
 31
0.0
  0
LINE
  5
19
330
2
100
AcDbEntity
  8
外枠
 48
100.0
370
     9
100
AcDbLine
 10
10.0
 20
1963.877576495633
 30
0.0
 11
2780.119625023053
 21
1963.877576495637
 31
0.0
  0
LINE
  5
1A
330
2
100
AcDbEntity
  8
外枠
 48
80.0
370
     9
100
AcDbLine
 10
0.0
 20
0.0
 30
0.0
 11
0.0
 21
1973.26911249564
 31
0.0
  0
LINE
  5
1B
330
2
100
AcDbEntity
  8
外枠
 48
100.0
370
     9
100
AcDbLine
 10
10.0
 20
1963.877576495633
 30
0.0
 11
10.0
 21
10.0
 31
0.0
  0
LINE
  5
1C
330
2
100
AcDbEntity
  8
外枠
  6
Continuous
 48
100.0
370
     9
100
AcDbLine
 10
10.0
 20
82.69963641040158
 30
0.0
 11
1153.530108552004
 21
82.69963641039794
 31
0.0
  0
MTEXT
  5
1D
330
2
100
AcDbEntity
  8
外枠
  6
Continuous
 48
100.0
370
     9
100
AcDbMText
 10
575.5535797151078
 20
136.1535564242149
 30
0.0
 40
29.0
 41
664.6118999999999
 71
     1
 72
     5
  1
JIS道路側溝用グレーチング
 73
     1
 44
1.0
1001
ACAD
1000
MTEXTBEGIN
1070
    73
1070
     1
1070
    44
1040
1.0
1070
    74
1070
     0
1000
MTEXTEND
  0
MTEXT
  5
1E
330
2
100
AcDbEntity
  8
外枠
  6
Continuous
 48
100.0
370
     9
100
AcDbMText
 10
246.8574963386418
 20
64.81814764649607
 30
0.0
 40
35.0
 41
532.9183
 71
     1
 72
     5
  1
620\U+00D7500\U+00D732/122
 73
     1
 44
1.0
1001
ACAD
1000
MTEXTBEGIN
1070
    73
1070
     1
1070
    44
1040
1.0
1070
    74
1070
     0
1000
MTEXTEND
  0
MTEXT
  5
1F
330
2
100
AcDbEntity
  8
外枠
  6
Continuous
 48
100.0
370
     9
100
AcDbMText
 10
76.61659604009765
 20
137.3760680266387
 30
0.0
 40
30.0
 41
126.3036
 71
     1
 72
     5
  1
T-2
 73
     1
 44
1.0
1001
ACAD
1000
MTEXTBEGIN
1070
    73
1070
     1
1070
    44
1040
1.0
1070
    74
1070
     0
1000
MTEXTEND
  0
MTEXT
  5
20
330
2
100
AcDbEntity
  8
外枠
  6
Continuous
 48
100.0
370
     9
100
AcDbMText
 10
67.93258377064922
 20
59.95966632915224
 30
0.0
 40
35.0
 41
88.86979999999999
 71
     1
 72
     5
  1
TFJP
 73
     1
 44
1.0
1001
ACAD
1000
MTEXTBEGIN
1070
    73
1070
     1
1070
    44
1040
1.0
1070
    74
1070
     0
1000
MTEXTEND
  0
LINE
  5
21
330
2
100
AcDbEntity
  8
外枠
 48
100.0
370
     9
100
AcDbLine
 10
45.0
 20
155.3992728208031
 30
0.0
 11
45.0
 21
10.0
 31
0.0
  0
MTEXT
  5
22
330
2
100
AcDbEntity
  8
外枠
  6
Continuous
 48
100.0
370
     9
100
AcDbMText
 10
15.05670849094895
 20
75.82038473524153
 30
0.0
 40
20.0
 41
23.52947333656417
 71
     1
 72
     5
  1
品\P番
 73
     1
 44
1.0
1001
ACAD
1000
MTEXTBEGIN
1070
    73
1070
     1
1070
    44
1040
1.0
1070
    74
1070
     0
1000
MTEXTEND
  0
MTEXT
  5
23
330
2
100
AcDbEntity
  8
外枠
  6
Continuous
 48
100.0
370
     9
100
AcDbMText
 10
14.92010060012399
 20
149.3317229429121
 30
0.0
 40
20.0
 41
30.07989939987533
 71
     1
 72
     5
  1
荷\P重
 73
     1
 44
1.0
1001
ACAD
1000
MTEXTBEGIN
1070
    73
1070
     1
1070
    44
1040
1.0
1070
    74
1070
     0
1000
MTEXTEND
  0
LINE
  5
24
330
2
100
AcDbEntity
  8
外枠
 48
100.0
370
     9
100
AcDbLine
 10
179.1040495562847
 20
155.3992728208031
 30
0.0
 11
179.1040495562847
 21
10.0
 31
0.0
  0
MTEXT
  5
25
330
2
100
AcDbEntity
  8
外枠
  6
Continuous
 48
100.0
370
     9
100
AcDbMText
 10
271.7517807368968
 20
133.8572910967996
 30
0.0
 40
30.0
 41
271.6208
 71
     1
 72
     5
  1
500用
 73
     1
 44
1.0
1001
ACAD
1000
MTEXTBEGIN
1070
    73
1070
     1
1070
    44
1040
1.0
1070
    74
1070
     0
1000
MTEXTEND
  0
MTEXT
  5
26
330
2
100
AcDbEntity
  8
外枠
  6
Continuous
 48
100.0
370
     9
100
AcDbMText
 10
184.4346535744698
 20
149.3074501239389
 30
0.0
 40
20.0
 41
29.6694
 71
     1
 72
     5
  1
溝幅
 73
     1
 44
1.0
1001
ACAD
1000
MTEXTBEGIN
1070
    73
1070
     1
1070
    44
1040
1.0
1070
    74
1070
     0
1000
MTEXTEND
  0
LINE
  5
27
330
2
100
AcDbEntity
  8
外枠
 48
100.0
370
     9
100
AcDbLine
 10
214.1040495562847
 20
155.3992728208031
 30
0.0
 11
214.1040495562847
 21
82.69963641040158
 31
0.0
  0
MTEXT
  5
28
330
2
100
AcDbEntity
  8
外枠
  6
Continuous
 48
100.0
370
     9
100
AcDbMText
 10
477.8955451146976
 20
149.3074501239389
 30
0.0
 40
20.0
 41
29.6694
 71
     1
 72
     5
  1
品名
 73
     1
 44
1.0
1001
ACAD
1000
MTEXTBEGIN
1070
    73
1070
     1
1070
    44
1040
1.0
1070
    74
1070
     0
1000
MTEXTEND
  0
LINE
  5
29
330
2
100
AcDbEntity
  8
外枠
 48
100.0
370
     9
100
AcDbLine
 10
472.5649410965124
 20
155.3992728208031
 30
0.0
 11
472.5649410965124
 21
82.69963641040158
 31
0.0
  0
LINE
  5
2A
330
2
100
AcDbEntity
  8
外枠
 48
100.0
370
     9
100
AcDbLine
 10
507.5649410965125
 20
155.3992728208031
 30
0.0
 11
507.5649410965125
 21
82.69963641040158
 31
0.0
  0
MTEXT
  5
2B
330
2
100
AcDbEntity
  8
外枠
  6
Continuous
 48
100.0
370
     9
100
AcDbMText
 10
728.477887653953
 20
76.92551173516403
 30
0.0
 40
20.0
 41
664.6118999999999
 71
     1
 72
     5
  1
摘\P要
 73
     1
 44
1.0
1001
ACAD
1000
MTEXTBEGIN
1070
    73
1070
     1
1070
    44
1040
1.0
1070
    74
1070
     0
1000
MTEXTEND
  0
LINE
  5
2C
330
2
100
AcDbEntity
  8
外枠
 48
100.0
370
     9
100
AcDbLine
 10
723.8282373115871
 20
82.6996364103943
 30
0.0
 11
723.8282373115871
 21
9.999999999992724
 31
0.0
  0
LINE
  5
2F
330
2
100
AcDbEntity
  8
外枠
 48
100.0
370
     9
100
AcDbLine
 10
758.8282373115871
 20
82.6996364103943
 30
0.0
 11
758.8282373115871
 21
9.999999999992724
 31
0.0
  0
LINE
  5
31
330
2
100
AcDbEntity
  8
外枠
 48
100.0
370
     9
100
AcDbLine
 10
974.9513069700951
 20
82.6996364103943
 30
0.0
 11
974.9513069700951
 21
9.999999999992724
 31
0.0
  0
MTEXT
  5
32
330
2
100
AcDbEntity
  8
外枠
  6
Continuous
 48
100.0
370
     9
100
AcDbMText
 10
979.7329598959768
 20
74.84825461820583
 30
0.0
 40
20.0
 41
31.38947761565365
 71
     1
 72
     5
  1
材\P質
 73
     1
 44
1.0
1001
ACAD
1000
MTEXTBEGIN
1070
    73
1070
     1
1070
    44
1040
1.0
1070
    74
1070
     0
1000
MTEXTEND
  0
LINE
  5
33
330
2
100
AcDbEntity
  8
外枠
 48
100.0
370
     9
100
AcDbLine
 10
1009.951306970095
 20
82.6996364103943
 30
0.0
 11
1009.951306970095
 21
9.999999999992724
 31
0.0
  0
LINE
  5
37
330
2
100
AcDbEntity
  8
外枠
 48
80.0
370
     9
100
AcDbLine
 10
2789.511161023067
 20
0.0
 30
0.0
 11
2789.511161023071
 21
1973.26911249564
 31
0.0
  0
LINE
  5
38
330
2
100
AcDbEntity
  8
外枠
 48
100.0
370
     9
100
AcDbLine
 10
2780.119625023053
 20
1963.877576495637
 30
0.0
 11
2780.119625023061
 21
10.0
 31
0.0
  0
LINE
  5
3A
330
2
100
AcDbEntity
  8
外枠
 48
3.0
100
AcDbLine
 10
1607.072254912545
 20
61.67068719952067
 30
0.0
 11
2262.173600934632
 21
61.67068719952067
 31
0.0
  0
MTEXT
  5
3B
330
2
100
AcDbEntity
  8
外枠
  6
Continuous
 48
100.0
370
     9
100
AcDbMText
 10
1683.622173868318
 20
50.71504764095289
 30
0.0
 40
30.00024
 41
539.4827578564582
 71
     1
 72
     5
  1
T A K A R A   G R A T I N G
 73
     1
 44
1.0
1001
ACAD
1000
MTEXTBEGIN
1070
    73
1070
     1
1070
    44
1040
1.0
1070
    74
1070
     0
1000
MTEXTEND
  0
MTEXT
  5
3C
330
2
100
AcDbEntity
  8
外枠
  6
Continuous
 48
100.0
370
     9
100
AcDbMText
 10
1728.02061463669
 20
127.1672938476838
 30
0.0
 40
30.0
 41
282.8297
 71
     1
 72
     5
  1
株 式 会 社
 73
     1
 44
1.0
1001
ACAD
1000
MTEXTBEGIN
1070
    73
1070
     1
1070
    44
1040
1.0
1070
    74
1070
     0
1000
MTEXTEND
  0
LINE
  5
3D
330
2
100
AcDbEntity
  8
外枠
  6
Continuous
 48
100.0
370
     9
100
AcDbLine
 10
1508.680137877982
 20
155.3992728208068
 30
0.0
 11
1508.680137877982
 21
10.00000000000364
 31
0.0
  0
LINE
  5
3E
330
2
100
AcDbEntity
  8
外枠
  6
Continuous
 48
100.0
370
     9
100
AcDbLine
 10
1593.95141853916
 20
155.3992728207995
 30
0.0
 11
1593.95141853916
 21
9.999999999996362
 31
0.0
  0
LINE
  5
3F
330
2
100
AcDbEntity
  8
外枠
  6
Continuous
 48
100.0
370
     9
100
AcDbLine
 10
1616.777813337499
 20
106.634063069062
 30
0.0
 11
1612.463999974505
 21
110.08511375945
 31
0.0
  0
LINE
  5
40
330
2
100
AcDbEntity
  8
外枠
  6
Continuous
 48
100.0
370
     9
100
AcDbLine
 10
1616.777813337499
 20
106.634063069062
 30
0.0
 11
1612.463999974505
 21
103.183012378663
 31
0.0
  0
LINE
  5
41
330
2
100
AcDbEntity
  8
外枠
  6
Continuous
 48
100.0
370
     9
100
AcDbLine
 10
1616.777813337505
 20
113.5361644498489
 30
0.0
 11
1612.463999974505
 21
110.08511375945
 31
0.0
  0
LINE
  5
42
330
2
100
AcDbEntity
  8
外枠
  6
Continuous
 48
100.0
370
     9
100
AcDbLine
 10
1616.777813337499
 20
99.73196168827508
 30
0.0
 11
1612.463999974505
 21
103.183012378663
 31
0.0
  0
MTEXT
  5
43
330
2
100
AcDbEntity
  8
外枠
  6
Continuous
 48
100.0
370
     9
100
AcDbMText
 10
1520.476936402745
 20
137.4995509975779
 30
0.0
 40
20.0
 41
1015.1375
 71
     1
 72
     5
  1
19.0
 73
     1
 44
1.0
1001
ACAD
1000
MTEXTBEGIN
1070
    73
1070
     1
1070
    44
1040
1.0
1070
    74
1070
     0
1000
MTEXTEND
  0
MTEXT
  5
44
330
2
100
AcDbEntity
  8
外枠
  6
Continuous
 48
100.0
370
     9
100
AcDbMText
 10
1568.464698185987
 20
108.4136993179927
 30
0.0
 40
18.0
 41
25.456
 71
     1
 72
     5
  1
kg
 73
     1
 44
1.0
1001
ACAD
1000
MTEXTBEGIN
1070
    73
1070
     1
1070
    44
1040
1.0
1070
    74
1070
     0
1000
MTEXTEND
  0
LINE
  5
45
330
2
100
AcDbEntity
  8
外枠
  6
Continuous
 48
100.0
370
     9
100
AcDbLine
 10
1649.122643507042
 20
139.4120285854742
 30
0.0
 11
1653.436456870031
 21
135.9609778950862
 31
0.0
  0
LINE
  5
46
330
2
100
AcDbEntity
  8
外枠
  6
Continuous
 48
100.0
370
     9
100
AcDbLine
 10
1666.377896959009
 20
139.4120285854742
 30
0.0
 11
1662.06408359602
 21
135.9609778950862
 31
0.0
  0
MTEXT
  5
47
330
2
100
AcDbEntity
  8
外枠
  6
Continuous
 48
100.0
370
     9
100
AcDbMText
 10
1642.840555134189
 20
120.8184913847756
 30
0.0
 40
23.95393639053264
 41
23.85059431815661
 71
     1
 72
     5
  1
{\fＭＳ ゴシック|b0|i0|c128|p49;宝}
 73
     1
 44
1.0
1001
ACAD
1000
MTEXTBEGIN
1070
    73
1070
     1
1070
    44
1040
1.0
1070
    74
1070
     0
1000
MTEXTEND
  0
LINE
  5
48
330
2
100
AcDbEntity
  8
外枠
  6
Continuous
 48
100.0
370
     9
100
AcDbLine
 10
1662.06408359602
 20
135.9609778950862
 30
0.0
 11
1694.408913765557
 21
110.08511375945
 31
0.0
  0
LINE
  5
49
330
2
100
AcDbEntity
  8
外枠
  6
Continuous
 48
100.0
370
     9
100
AcDbLine
 10
1657.750270233026
 20
132.5099272046927
 30
0.0
 11
1690.095100402563
 21
106.634063069062
 31
0.0
  0
LINE
  5
4A
330
2
100
AcDbEntity
  8
外枠
  6
Continuous
 48
100.0
370
     9
100
AcDbLine
 10
1690.095100402563
 20
106.634063069062
 30
0.0
 11
1657.750270233026
 21
80.75819893343123
 31
0.0
  0
LINE
  5
4B
330
2
100
AcDbEntity
  8
外枠
  6
Continuous
 48
100.0
370
     9
100
AcDbLine
 10
1694.408913765557
 20
103.183012378663
 30
0.0
 11
1662.06408359602
 21
77.30714824303777
 31
0.0
  0
LINE
  5
4C
330
2
100
AcDbEntity
  8
外枠
  6
Continuous
 48
100.0
370
     9
100
AcDbLine
 10
1657.750270233026
 20
80.75819893342577
 30
0.0
 11
1625.405440063488
 21
106.634063069062
 31
0.0
  0
LINE
  5
4D
330
2
100
AcDbEntity
  8
外枠
  6
Continuous
 48
100.0
370
     9
100
AcDbLine
 10
1653.436456870031
 20
77.30714824303777
 30
0.0
 11
1621.0916267005
 21
103.183012378663
 31
0.0
  0
LINE
  5
4E
330
2
100
AcDbEntity
  8
外枠
  6
Continuous
 48
100.0
370
     9
100
AcDbLine
 10
1621.0916267005
 20
103.183012378663
 30
0.0
 11
1616.777813337505
 21
99.73196168827508
 31
0.0
  0
LINE
  5
4F
330
2
100
AcDbEntity
  8
外枠
  6
Continuous
 48
100.0
370
     9
100
AcDbLine
 10
1653.436456870031
 20
77.30714824303777
 30
0.0
 11
1649.122643507042
 21
73.85609755263885
 31
0.0
  0
LINE
  5
50
330
2
100
AcDbEntity
  8
外枠
  6
Continuous
 48
100.0
370
     9
100
AcDbLine
 10
1653.436456870031
 20
70.4050468622454
 30
0.0
 11
1649.122643507042
 21
73.85609755263885
 31
0.0
  0
LINE
  5
51
330
2
100
AcDbEntity
  8
外枠
  6
Continuous
 48
100.0
370
     9
100
AcDbLine
 10
1657.750270233026
 20
73.85609755263885
 30
0.0
 11
1653.436456870031
 21
70.4050468622454
 31
0.0
  0
LINE
  5
52
330
2
100
AcDbEntity
  8
外枠
  6
Continuous
 48
100.0
370
     9
100
AcDbLine
 10
1666.377896959009
 20
73.85609755263885
 30
0.0
 11
1662.06408359602
 21
70.4050468622454
 31
0.0
  0
LINE
  5
53
330
2
100
AcDbEntity
  8
外枠
  6
Continuous
 48
100.0
370
     9
100
AcDbLine
 10
1662.06408359602
 20
70.4050468622454
 30
0.0
 11
1657.750270233026
 21
73.85609755263885
 31
0.0
  0
LINE
  5
54
330
2
100
AcDbEntity
  8
外枠
  6
Continuous
 48
100.0
370
     9
100
AcDbLine
 10
1666.377896959009
 20
73.85609755263885
 30
0.0
 11
1662.06408359602
 21
77.30714824303777
 31
0.0
  0
LINE
  5
55
330
2
100
AcDbEntity
  8
外枠
  6
Continuous
 48
100.0
370
     9
100
AcDbLine
 10
1657.750270233026
 20
132.5099272046927
 30
0.0
 11
1625.405440063483
 21
106.634063069062
 31
0.0
  0
LINE
  5
56
330
2
100
AcDbEntity
  8
外枠
  6
Continuous
 48
100.0
370
     9
100
AcDbLine
 10
1653.436456870031
 20
135.9609778950862
 30
0.0
 11
1621.0916267005
 21
110.08511375945
 31
0.0
  0
LINE
  5
57
330
2
100
AcDbEntity
  8
外枠
  6
Continuous
 48
100.0
370
     9
100
AcDbLine
 10
1621.0916267005
 20
110.08511375945
 30
0.0
 11
1616.777813337505
 21
113.5361644498489
 31
0.0
  0
LINE
  5
58
330
2
100
AcDbEntity
  8
外枠
  6
Continuous
 48
100.0
370
     9
100
AcDbLine
 10
1694.408913765557
 20
103.183012378663
 30
0.0
 11
1698.722727128541
 21
99.73196168827508
 31
0.0
  0
LINE
  5
59
330
2
100
AcDbEntity
  8
外枠
  6
Continuous
 48
100.0
370
     9
100
AcDbLine
 10
1703.036540491541
 20
103.183012378663
 30
0.0
 11
1698.722727128541
 21
99.73196168827508
 31
0.0
  0
LINE
  5
5A
330
2
100
AcDbEntity
  8
外枠
  6
Continuous
 48
100.0
370
     9
100
AcDbLine
 10
1698.722727128541
 20
113.5361644498489
 30
0.0
 11
1694.408913765557
 21
110.08511375945
 31
0.0
  0
LINE
  5
5B
330
2
100
AcDbEntity
  8
外枠
  6
Continuous
 48
100.0
370
     9
100
AcDbLine
 10
1698.722727128541
 20
106.634063069062
 30
0.0
 11
1703.036540491541
 21
103.183012378663
 31
0.0
  0
LINE
  5
5C
330
2
100
AcDbEntity
  8
外枠
  6
Continuous
 48
100.0
370
     9
100
AcDbLine
 10
1698.722727128541
 20
113.5361644498489
 30
0.0
 11
1703.036540491541
 21
110.08511375945
 31
0.0
  0
LINE
  5
5D
330
2
100
AcDbEntity
  8
外枠
  6
Continuous
 48
100.0
370
     9
100
AcDbLine
 10
1703.036540491541
 20
110.08511375945
 30
0.0
 11
1698.722727128541
 21
106.634063069062
 31
0.0
  0
LINE
  5
5E
330
2
100
AcDbEntity
  8
外枠
  6
Continuous
 48
100.0
370
     9
100
AcDbLine
 10
1653.436456870031
 20
142.8630792758676
 30
0.0
 11
1649.122643507042
 21
139.4120285854742
 31
0.0
  0
LINE
  5
5F
330
2
100
AcDbEntity
  8
外枠
  6
Continuous
 48
100.0
370
     9
100
AcDbLine
 10
1662.06408359602
 20
142.8630792758676
 30
0.0
 11
1666.377896959009
 21
139.4120285854742
 31
0.0
  0
LINE
  5
60
330
2
100
AcDbEntity
  8
外枠
  6
Continuous
 48
100.0
370
     9
100
AcDbLine
 10
1653.436456870031
 20
142.8630792758676
 30
0.0
 11
1657.750270233026
 21
139.4120285854742
 31
0.0
  0
LINE
  5
61
330
2
100
AcDbEntity
  8
外枠
  6
Continuous
 48
100.0
370
     9
100
AcDbLine
 10
1662.06408359602
 20
142.8630792758676
 30
0.0
 11
1657.750270233026
 21
139.4120285854742
 31
0.0
  0
MTEXT
  5
62
330
2
100
AcDbEntity
  8
外枠
  6
Continuous
 48
100.0
370
     9
100
AcDbMText
 10
1982.246612759803
 20
141.5312822365363
 30
0.0
 40
50.0
 41
269.1378
 71
     1
 72
     5
  1
宝 機 材
 73
     1
 44
1.0
1001
ACAD
1000
MTEXTBEGIN
1070
    73
1070
     1
1070
    44
1040
1.0
1070
    74
1070
     0
1000
MTEXTEND
  0
LINE
  5
AB
330
2
100
AcDbEntity
  8
外枠
  6
Continuous
 48
100.0
370
     9
100
AcDbLine
 10
2694.775480668144
 20
78.59726492113622
 30
0.0
 11
2729.639779322774
 21
43.73296626650699
 31
0.0
  0
LINE
  5
AC
330
2
100
AcDbEntity
  8
外枠
  6
Continuous
 48
100.0
370
     9
100
AcDbLine
 10
2729.639779322774
 20
113.4615635757691
 30
0.0
 11
2694.775480668144
 21
78.59726492113622
 31
0.0
  0
LINE
  5
AE
330
2
100
AcDbEntity
  8
外枠
  6
Continuous
 48
100.0
370
     9
100
AcDbLine
 10
2271.730765417811
 20
155.3992728207995
 30
0.0
 11
2271.730765417811
 21
10.0
 31
0.0
  0
LINE
  5
AF
330
2
100
AcDbEntity
  8
外枠
  6
Continuous
 48
100.0
370
     9
100
AcDbLine
 10
2387.385592047314
 20
155.3992728207995
 30
0.0
 11
2387.385592047314
 21
9.999999999996362
 31
0.0
  0
MTEXT
  5
B0
330
2
100
AcDbEntity
  8
外枠
  6
Continuous
 48
100.0
370
     9
100
AcDbMText
 10
2518.897970034654
 20
80.52451510381798
 30
0.0
 40
16.435188
 41
274.138099993296
 71
     1
 72
     5
  1
縮尺（A4用紙)
 73
     1
 44
1.0
1001
ACAD
1000
MTEXTBEGIN
1070
    73
1070
     1
1070
    44
1040
1.0
1070
    74
1070
     0
1000
MTEXTEND
  0
LINE
  5
B1
330
2
100
AcDbEntity
  8
外枠
  6
Continuous
 48
100.0
370
     9
100
AcDbLine
 10
2503.04041867681
 20
155.3992728207995
 30
0.0
 11
2503.04041867681
 21
9.999999999996362
 31
0.0
  0
LINE
  5
B2
330
2
100
AcDbEntity
  8
外枠
  6
Continuous
 48
100.0
370
     9
100
AcDbLine
 10
2676.662359028593
 20
155.3992728207995
 30
0.0
 11
2676.662359028593
 21
10.0
 31
0.0
  0
MTEXT
  5
B3
330
2
100
AcDbEntity
  8
外枠
  6
Continuous
 48
100.0
370
     9
100
AcDbMText
 10
2557.587330290393
 20
42.24161905183791
 30
0.0
 40
23.47884
 41
274.138099993296
 71
     1
 72
     5
  1
1：10
 73
     1
 44
1.0
1001
ACAD
1000
MTEXTBEGIN
1070
    73
1070
     1
1070
    44
1040
1.0
1070
    74
1070
     0
1000
MTEXTEND
  0
MTEXT
  5
B4
330
2
100
AcDbEntity
  8
外枠
  6
Continuous
 48
100.0
370
     9
100
AcDbMText
 10
2280.290404386422
 20
149.5129012429788
 30
0.0
 40
18.783072
 41
274.13809060176
 71
     1
 72
     5
  1
Check
 73
     1
 44
1.0
1001
ACAD
1000
MTEXTBEGIN
1070
    73
1070
     1
1070
    44
1040
1.0
1070
    74
1070
     0
1000
MTEXTEND
  0
MTEXT
  5
B5
330
2
100
AcDbEntity
  8
外枠
  6
Continuous
 48
100.0
370
     9
100
AcDbMText
 10
2398.03460165154
 20
149.5129012429788
 30
0.0
 40
18.783072
 41
274.13809060176
 71
     1
 72
     5
  1
Draw
 73
     1
 44
1.0
1001
ACAD
1000
MTEXTBEGIN
1070
    73
1070
     1
1070
    44
1040
1.0
1070
    74
1070
     0
1000
MTEXTEND
  0
LINE
  5
B7
330
2
100
AcDbEntity
  8
外枠
  6
Continuous
 48
100.0
370
     9
100
AcDbLine
 10
2676.662359028593
 20
85.04752041039683
 30
0.0
 11
2503.04041867681
 21
85.04752041039683
 31
0.0
  0
MTEXT
  5
B8
330
2
100
AcDbEntity
  8
外枠
  6
Continuous
 48
100.0
370
     9
100
AcDbMText
 10
2518.897970034654
 20
153.7304166203976
 30
0.0
 40
16.435188
 41
274.138099993296
 71
     1
 72
     5
  1
図面作成日
 73
     1
 44
1.0
1001
ACAD
1000
MTEXTBEGIN
1070
    73
1070
     1
1070
    44
1040
1.0
1070
    74
1070
     0
1000
MTEXTEND
  0
LINE
  5
BA
330
2
100
AcDbEntity
  8
外枠
  6
Continuous
 48
100.0
370
     9
100
AcDbLine
 10
2729.639779322774
 20
43.73296626650699
 30
0.0
 11
2764.504077977396
 21
78.59726492113622
 31
0.0
  0
LINE
  5
BB
330
2
100
AcDbEntity
  8
外枠
  6
Continuous
 48
100.0
370
     9
100
AcDbLine
 10
2764.504077977396
 20
78.59726492113622
 30
0.0
 11
2729.639779322774
 21
113.4615635757691
 31
0.0
  0
LINE
  5
CA
330
2
100
AcDbEntity
  8
本体
  6
Continuous
100
AcDbLine
 10
1857.269233124793
 20
1709.070709712993
 30
0.0
 11
1857.269233124793
 21
1704.570709712993
 31
0.0
  0
LINE
  5
CB
330
2
100
AcDbEntity
  8
本体
  6
Continuous
100
AcDbLine
 10
1857.269233124793
 20
1704.570709712993
 30
0.0
 11
1889.269233124792
 21
1704.570709712993
 31
0.0
  0
LINE
  5
CC
330
2
100
AcDbEntity
  8
本体
  6
Continuous
100
AcDbLine
 10
1882.269233124793
 20
1704.570709712993
 30
0.0
 11
1882.269233124793
 21
1709.070709712993
 31
0.0
  0
LINE
  5
CD
330
2
100
AcDbEntity
  8
本体
  6
Continuous
100
AcDbLine
 10
1882.269233124793
 20
1709.070709712993
 30
0.0
 11
1857.269233124793
 21
1709.070709712993
 31
0.0
  0
LINE
  5
CE
330
2
100
AcDbEntity
  8
本体
  6
Continuous
100
AcDbLine
 10
1857.269233124793
 20
1704.570709712993
 30
0.0
 11
1857.269233124793
 21
1093.570709712993
 31
0.0
  0
LINE
  5
CF
330
2
100
AcDbEntity
  8
本体
  6
Continuous
100
AcDbLine
 10
1889.269233124792
 20
1704.570709712993
 30
0.0
 11
1889.269233124792
 21
1093.570709712993
 31
0.0
  0
LINE
  5
D0
330
2
100
AcDbEntity
  8
本体
  6
Continuous
100
AcDbLine
 10
1863.269233124793
 20
1704.570709712993
 30
0.0
 11
1863.269233124793
 21
1093.570709712993
 31
0.0
  0
DIMENSION
  5
DA
330
2
100
AcDbEntity
  8
寸法線
  6
Continuous
100
AcDbDimension
  2
*D6
 10
894.4587626244592
 20
691.9802181496756
 30
0.0
 11
947.3521636396876
 21
711.9802181496757
 31
0.0
 70
    32
 71
     5
 42
30.0
  3
ISO-25
100
AcDbAlignedDimension
 13
864.4587626244593
 23
611.9802181496757
 33
0.0
 14
894.4587626244592
 24
611.9802181496757
 34
0.0
100
AcDbRotatedDimension
1001
ACAD
1000
DSTYLE
1002
{
1070
   279
1070
     0
1002
}
  0
DIMENSION
  5
F7
330
2
100
AcDbEntity
  8
寸法線
  6
Continuous
100
AcDbDimension
  2
*D7
 10
1697.269233124792
 20
1089.070709712993
 30
0.0
 11
1677.269233124792
 21
1399.070709712993
 31
0.0
 70
    32
 71
     5
 42
620.0
  3
ISO-25
100
AcDbAlignedDimension
 13
1857.269233124793
 23
1709.070709712993
 33
0.0
 14
1857.269233124793
 24
1089.070709712993
 34
0.0
 50
90.0
100
AcDbRotatedDimension
  0
DIMENSION
  5
104
330
2
100
AcDbEntity
  8
寸法線
  6
Continuous
100
AcDbDimension
  2
*D8
 10
2058.709690878731
 20
1099.070708712993
 30
0.0
 11
2038.70969087873
 21
1399.070709712993
 31
0.0
 70
    32
 71
     5
 42
600.0000019999999
  3
ISO-25
100
AcDbAlignedDimension
 13
1971.269230124793
 23
1699.070710712993
 33
0.0
 14
1971.269230124793
 24
1099.070708712993
 34
0.0
 50
90.0
100
AcDbRotatedDimension
  0
LEADER
  5
111
330
2
100
AcDbEntity
  8
寸法線
  6
Continuous
100
AcDbLeader
  3
ISO-25
 73
     0
 74
     0
 75
     1
 40
30.0
 41
171.1675126903553
 76
     3
 10
1029.730858097325
 20
1709.070709712993
 30
0.0
 10
1085.44153621598
 20
1774.781387831648
 30
0.0
 10
1100.44153621598
 20
1774.781387831648
 30
0.0
340
112
1001
ACAD
1000
DSTYLE
1002
{
1070
     5
1000
OPEN30
1070
    77
1070
     1
1070
   147
1040
0.5
1070
   342
1005
D2
1002
}
  0
MTEXT
  5
112
102
{ACAD_REACTORS
330
111
102
}
330
2
100
AcDbEntity
  8
寸法線
  6
Continuous
100
AcDbMText
 10
1105.441536215979
 20
1779.781387831648
 30
0.0
 40
30.0
 41
0.0
 71
     7
 72
     1
  1
FB4.5\U+00D725
 73
     1
 44
1.0
1001
ACAD
1000
MTEXTBEGIN
1070
    73
1070
     1
1070
    44
1040
1.0
1070
    74
1070
     0
1000
MTEXTEND
  0
LEADER
  5
113
330
2
100
AcDbEntity
  8
寸法線
  6
Continuous
100
AcDbLeader
  3
ISO-25
 73
     0
 74
     0
 75
     1
 40
35.0253807106599
 41
482.8934010152283
 76
     3
 10
1931.769230124793
 20
1699.070710712993
 30
0.0
 10
1997.479907243447
 20
1779.781387831648
 30
0.0
 10
2012.479907243447
 20
1779.781387831648
 30
0.0
340
114
1001
ACAD
1000
DSTYLE
1002
{
1070
     5
1000
OPEN30
1070
    77
1070
     1
1070
   147
1040
0.5
1070
   342
1005
D2
1002
}
  0
MTEXT
  5
114
102
{ACAD_REACTORS
330
113
102
}
330
2
100
AcDbEntity
  8
寸法線
  6
Continuous
100
AcDbMText
 10
2017.479907243447
 20
1784.781387831648
 30
0.0
 40
30.0
 41
0.0
 71
     7
 72
     1
  1
P2.3\U+00D7(45+40)\U+00D740+HGRゴム
 73
     1
 44
1.0
1001
ACAD
1000
MTEXTBEGIN
1070
    73
1070
     1
1070
    44
1040
1.0
1070
    74
1070
     0
1000
MTEXTEND
  0
LINE
  5
115
330
2
100
AcDbEntity
  8
嵩上断面
  6
Continuous
100
AcDbLine
 10
534.4587626244592
 20
579.9802181496756
 30
0.0
 11
534.4587626244592
 21
494.9802181496757
 31
0.0
  0
LINE
  5
116
330
2
100
AcDbEntity
  8
嵩上断面
  6
Continuous
100
AcDbLine
 10
1029.458762624459
 20
579.9802181496756
 30
0.0
 11
1029.458762624459
 21
494.9802181496757
 31
0.0
  0
LINE
  5
117
102
{ACAD_REACTORS
330
41C
102
}
330
2
100
AcDbEntity
  8
嵩上断面
  6
Continuous
100
AcDbLine
 10
1029.458762624459
 20
494.9802181496757
 30
0.0
 11
534.4587626244592
 21
494.9802181496757
 31
0.0
  0
LINE
  5
118
330
2
100
AcDbEntity
  8
嵩上断面
  6
Continuous
100
AcDbLine
 10
1029.458762624459
 20
579.9802181496756
 30
0.0
 11
534.4587626244592
 21
579.9802181496756
 31
0.0
  0
LINE
  5
119
330
2
100
AcDbEntity
  8
嵩上断面
  6
HIDDEN
 48
2.0
100
AcDbLine
 10
1029.458762624459
 20
577.6802181496756
 30
0.0
 11
534.4587626244592
 21
577.6802181496756
 31
0.0
  0
LINE
  5
11B
330
2
100
AcDbEntity
  8
嵩上断面
  6
HIDDEN
 48
2.0
100
AcDbLine
 10
1029.458762624459
 20
497.2802181496757
 30
0.0
 11
534.4587626244592
 21
497.2802181496757
 31
0.0
  0
DIMENSION
  5
11C
330
2
100
AcDbEntity
  8
寸法線
  6
Continuous
100
AcDbDimension
  2
*D9
 10
1029.458762624459
 20
409.9802181496756
 30
0.0
 11
781.9587626244592
 21
429.9802181496756
 31
0.0
 70
    32
 71
     5
 42
495.0
  3
ISO-25
100
AcDbAlignedDimension
 13
534.4587626244592
 23
489.9802181496757
 33
0.0
 14
1029.458762624459
 24
489.9802181496757
 34
0.0
100
AcDbRotatedDimension
  0
DIMENSION
  5
129
330
2
100
AcDbEntity
  8
寸法線
  6
Continuous
100
AcDbDimension
  2
*D10
 10
1141.958762624459
 20
494.9802181496757
 30
0.0
 11
1121.958762624459
 21
537.4802181496757
 31
0.0
 70
    32
 71
     5
 42
85.0
  3
ISO-25
100
AcDbAlignedDimension
 13
1029.458762624459
 23
579.9802181496756
 33
0.0
 14
1029.458762624459
 24
494.9802181496757
 34
0.0
 50
90.0
100
AcDbRotatedDimension
  0
LINE
  5
136
330
2
100
AcDbEntity
  8
寸法線
  6
Continuous
100
AcDbLine
 10
864.4587626244593
 20
619.9802181496757
 30
0.0
 11
864.4587626244593
 21
571.9802181496756
 31
0.0
  0
LINE
  5
137
330
2
100
AcDbEntity
  8
寸法線
  6
Continuous
100
AcDbLine
 10
894.4587626244592
 20
619.9802181496757
 30
0.0
 11
894.4587626244592
 21
571.9802181496756
 31
0.0
  0
INSERT
  5
186
330
2
100
AcDbEntity
  8
本体
  6
Continuous
100
AcDbBlockReference
  2
TB6
 10
1857.269233124793
 20
1621.570709712993
 30
0.0
  0
INSERT
  5
18F
330
2
100
AcDbEntity
  8
本体
  6
Continuous
100
AcDbBlockReference
  2
TB6
 10
1857.269233124793
 20
1521.570709712993
 30
0.0
  0
INSERT
  5
190
330
2
100
AcDbEntity
  8
本体
  6
Continuous
100
AcDbBlockReference
  2
TB6
 10
1857.269233124793
 20
1421.570709712993
 30
0.0
  0
DIMENSION
  5
1B1
330
2
100
AcDbEntity
  8
寸法線
  6
Continuous
100
AcDbDimension
  2
*D11
 10
1031.958762624459
 20
771.9802181496756
 30
0.0
 11
781.9587626244592
 21
771.9802181496756
 31
0.0
 70
   160
 71
     5
 42
500.0
  3
ISO-25
100
AcDbAlignedDimension
 13
531.9587626244592
 23
611.9802181496757
 33
0.0
 14
1031.958762624459
 24
611.9802181496757
 34
0.0
100
AcDbRotatedDimension
1001
ACAD
1000
DSTYLE
1002
{
1070
   279
1070
     0
1002
}
  0
DIMENSION
  5
1BE
330
2
100
AcDbEntity
  8
寸法線
  6
Continuous
100
AcDbDimension
  2
*D12
 10
1141.958762624459
 20
611.9802181496757
 30
0.0
 11
1121.958762624459
 21
664.5690506369854
 31
0.0
 70
    32
 71
     5
 42
32.0
  3
ISO-25
100
AcDbAlignedDimension
 13
1029.458762624459
 23
579.9802181496756
 33
0.0
 14
1029.458762624459
 24
611.9802181496757
 34
0.0
 50
90.0
100
AcDbRotatedDimension
  0
DIMENSION
  5
1CD
330
2
100
AcDbEntity
  8
寸法線
  6
Continuous
100
AcDbDimension
  2
*D13
 10
1221.958762624459
 20
489.9802181496756
 30
0.0
 11
1201.958762624459
 21
550.9802181496758
 31
0.0
 70
    32
 71
     5
 42
122.0
  3
ISO-25
100
AcDbAlignedDimension
 13
1029.458762624459
 23
611.9802181496757
 33
0.0
 14
1029.458762624459
 24
489.9802181496757
 34
0.0
 50
90.0
100
AcDbRotatedDimension
  0
LINE
  5
1FC
330
2
100
AcDbEntity
  8
本体
  6
Continuous
100
AcDbLine
 10
1883.269233124792
 20
1704.570709712993
 30
0.0
 11
1883.269233124792
 21
1093.570709712993
 31
0.0
  0
LINE
  5
1FD
330
2
100
AcDbEntity
  8
本体
  6
Continuous
100
AcDbLine
 10
1882.269233124793
 20
1089.070709712993
 30
0.0
 11
1857.269233124793
 21
1089.070709712993
 31
0.0
  0
LINE
  5
1FE
330
2
100
AcDbEntity
  8
本体
  6
Continuous
100
AcDbLine
 10
1857.269233124793
 20
1093.570709712993
 30
0.0
 11
1889.269233124792
 21
1093.570709712993
 31
0.0
  0
LINE
  5
1FF
330
2
100
AcDbEntity
  8
本体
  6
Continuous
100
AcDbLine
 10
1857.269233124793
 20
1089.070709712993
 30
0.0
 11
1857.269233124793
 21
1093.570709712993
 31
0.0
  0
LINE
  5
200
330
2
100
AcDbEntity
  8
本体
  6
Continuous
100
AcDbLine
 10
1882.269233124793
 20
1093.570709712993
 30
0.0
 11
1882.269233124793
 21
1089.070709712993
 31
0.0
  0
LINE
  5
24C
330
2
100
AcDbEntity
  8
本体
  6
Continuous
100
AcDbLine
 10
531.9587626244592
 20
1671.070709712993
 30
0.0
 11
1031.958762624459
 21
1671.070709712993
 31
0.0
  0
LINE
  5
24D
330
2
100
AcDbEntity
  8
本体
  6
Continuous
100
AcDbLine
 10
531.9587626244592
 20
1677.070709712993
 30
0.0
 11
1031.958762624459
 21
1677.070709712993
 31
0.0
  0
LINE
  5
292
330
2
100
AcDbEntity
  8
本体
  6
Continuous
100
AcDbLine
 10
1011.958762624459
 20
1671.070709712993
 30
0.0
 11
1031.958762624459
 21
1675.070709712993
 31
0.0
  0
LINE
  5
297
330
2
100
AcDbEntity
  8
本体
  6
Continuous
100
AcDbLine
 10
531.9587626244592
 20
1704.570709712993
 30
0.0
 11
1031.958762624459
 21
1704.570709712993
 31
0.0
  0
LINE
  5
298
330
2
100
AcDbEntity
  8
本体
  6
Continuous
100
AcDbLine
 10
531.9587626244592
 20
1709.070709712993
 30
0.0
 11
1031.958762624459
 21
1709.070709712993
 31
0.0
  0
INSERT
  5
29B
330
2
100
AcDbEntity
  8
本体
  6
Continuous
100
AcDbBlockReference
  2
TB6
 10
1857.269233124793
 20
1121.570709712993
 30
0.0
  0
INSERT
  5
2E7
330
2
100
AcDbEntity
  8
本体
  6
Continuous
100
AcDbBlockReference
  2
TB6
 10
1857.269233124793
 20
1321.570709712993
 30
0.0
  0
INSERT
  5
2E8
330
2
100
AcDbEntity
  8
本体
  6
Continuous
100
AcDbBlockReference
  2
IB5x3x32
 10
531.9556816244594
 20
611.9801741496758
 30
0.0
  0
LINE
  5
34C
330
2
100
AcDbEntity
  8
本体
  6
Continuous
100
AcDbLine
 10
1016.958762624459
 20
605.9802181496756
 30
0.0
 11
1026.958762624459
 21
608.3802181496757
 31
0.0
  0
LINE
  5
34E
330
2
100
AcDbEntity
  8
本体
  6
Continuous
100
AcDbLine
 10
1016.958762624459
 20
605.9802181496756
 30
0.0
 11
1026.958762624459
 21
605.9802181496756
 31
0.0
  0
LINE
  5
34F
330
2
100
AcDbEntity
  8
本体
  6
Continuous
100
AcDbLine
 10
1016.958762624459
 20
611.9802181496757
 30
0.0
 11
1026.958762624459
 21
611.9802181496757
 31
0.0
  0
INSERT
  5
350
330
2
100
AcDbEntity
  8
本体
  6
Continuous
100
AcDbBlockReference
  2
IB5x3x32
 10
1026.955681624459
 20
611.9801741496758
 30
0.0
  0
LINE
  5
351
330
2
100
AcDbEntity
  8
本体
  6
Continuous
100
AcDbLine
 10
531.9587626244592
 20
1089.070709712993
 30
0.0
 11
1031.958762624459
 21
1089.070709712993
 31
0.0
  0
LINE
  5
352
330
2
100
AcDbEntity
  8
本体
  6
Continuous
100
AcDbLine
 10
531.9587626244592
 20
1093.570709712993
 30
0.0
 11
1031.958762624459
 21
1093.570709712993
 31
0.0
  0
INSERT
  5
416
330
2
100
AcDbEntity
  8
本体
  6
Continuous
100
AcDbBlockReference
  2
TB6
 10
1857.269233124793
 20
1221.570709712993
 30
0.0
  0
LINE
  5
419
102
{ACAD_REACTORS
330
41C
102
}
330
2
100
AcDbEntity
  8
ゴム
  6
Continuous
100
AcDbLine
 10
534.4587626244592
 20
494.9802181496757
 30
0.0
 11
534.4587626244592
 21
489.9802181496757
 31
0.0
  0
LINE
  5
41A
102
{ACAD_REACTORS
330
41C
102
}
330
2
100
AcDbEntity
  8
ゴム
  6
Continuous
100
AcDbLine
 10
534.4587626244592
 20
489.9802181496757
 30
0.0
 11
1029.458762624459
 21
489.9802181496757
 31
0.0
  0
LINE
  5
41B
102
{ACAD_REACTORS
330
41C
102
}
330
2
100
AcDbEntity
  8
ゴム
  6
Continuous
100
AcDbLine
 10
1029.458762624459
 20
489.9802181496757
 30
0.0
 11
1029.458762624459
 21
494.9802181496757
 31
0.0
  0
HATCH
  5
41C
330
2
100
AcDbEntity
  8
ゴム
  6
Continuous
100
AcDbHatch
 10
0.0
 20
0.0
 30
0.0
210
0.0
220
0.0
230
1.0
  2
ANSI31
 70
     0
 71
     1
 91
        1
 92
        1
 93
        4
 72
     1
 10
1029.458762624459
 20
489.9802181496757
 11
1029.458762624459
 21
494.9802181496757
 72
     1
 10
1029.458762624459
 20
494.9802181496757
 11
534.4587626244592
 21
494.9802181496757
 72
     1
 10
534.4587626244592
 20
494.9802181496757
 11
534.4587626244592
 21
489.9802181496757
 72
     1
 10
534.4587626244592
 20
489.9802181496757
 11
1029.458762624459
 21
489.9802181496757
 97
        4
330
41B
330
117
330
419
330
41A
 75
     0
 76
     1
 52
0.0
 41
1.0
 77
     0
 78
     1
 53
45.0
 43
-54.82276679524329
 44
311.4246039339646
 45
-2.245064030267287
 46
2.245064030267288
 79
     0
 98
        1
 10
-54.82276679524329
 20
311.4246039339646
  0
DIMENSION
  5
41F
330
2
100
AcDbEntity
  8
寸法線
  6
Continuous
100
AcDbDimension
  2
*D14
 10
1141.958762624459
 20
489.9802181496757
 30
0.0
 11
1121.958762624459
 21
447.2137206877469
 31
0.0
 70
    32
 71
     5
 42
5.0
  3
ISO-25
100
AcDbAlignedDimension
 13
1029.458762624459
 23
494.9802181496757
 33
0.0
 14
1029.458762624459
 24
489.9802181496757
 34
0.0
 50
90.0
100
AcDbRotatedDimension
  0
INSERT
  5
42E
330
2
100
AcDbEntity
  8
ゴム
  6
Continuous
100
AcDbBlockReference
  2
平ゴムパッキン
 10
1971.269230124793
 20
1699.070710712993
 30
0.0
  0
INSERT
  5
440
330
2
100
AcDbEntity
  8
ゴム
  6
Continuous
100
AcDbBlockReference
  2
平ゴムパッキン
 10
1971.269230124793
 20
1099.070708712992
 30
0.0
 41
-1.0
 50
180.0
  0
LINE
  5
468
330
2
100
AcDbEntity
  8
嵩上断面
  6
HIDDEN
 48
3.0
370
     9
100
AcDbLine
 10
534.4587626244592
 20
1699.070710712993
 30
0.0
 11
1029.458762624459
 21
1699.070710712993
 31
0.0
  0
LINE
  5
46B
330
2
100
AcDbEntity
  8
嵩上断面
  6
HIDDEN
 48
3.0
370
     9
100
AcDbLine
 10
1029.458762624459
 20
1099.070708712993
 30
0.0
 11
534.4587626244592
 21
1099.070708712993
 31
0.0
  0
LINE
  5
46C
330
2
100
AcDbEntity
  8
嵩上断面
  6
HIDDEN
 48
3.0
370
     9
100
AcDbLine
 10
1029.458762624459
 20
1699.070710712993
 30
0.0
 11
1029.458762624459
 21
1659.070710712993
 31
0.0
  0
LINE
  5
46D
330
2
100
AcDbEntity
  8
嵩上断面
  6
HIDDEN
 48
3.0
370
     9
100
AcDbLine
 10
534.4587626244592
 20
1699.070710712993
 30
0.0
 11
534.4587626244592
 21
1659.070710712993
 31
0.0
  0
LINE
  5
46E
330
2
100
AcDbEntity
  8
嵩上断面
  6
HIDDEN
 48
3.0
370
     9
100
AcDbLine
 10
534.4587626244592
 20
1139.070708712993
 30
0.0
 11
534.4587626244592
 21
1099.070708712993
 31
0.0
  0
LINE
  5
46F
330
2
100
AcDbEntity
  8
嵩上断面
  6
HIDDEN
 48
3.0
370
     9
100
AcDbLine
 10
1029.458762624459
 20
1139.070708712993
 30
0.0
 11
1029.458762624459
 21
1099.070708712993
 31
0.0
  0
LINE
  5
A5D
330
2
100
AcDbEntity
  8
本体
  6
Continuous
100
AcDbLine
 10
531.9587626244592
 20
1621.070709712993
 30
0.0
 11
1031.958762624459
 21
1621.070709712993
 31
0.0
  0
LINE
  5
A5E
330
2
100
AcDbEntity
  8
本体
  6
Continuous
100
AcDbLine
 10
531.9587626244592
 20
1627.070709712993
 30
0.0
 11
1031.958762624459
 21
1627.070709712993
 31
0.0
  0
LINE
  5
AE7
330
2
100
AcDbEntity
  8
本体
  6
Continuous
100
AcDbLine
 10
1011.958762624459
 20
1621.070709712993
 30
0.0
 11
1031.958762624459
 21
1625.070709712993
 31
0.0
  0
LINE
  5
B02
330
2
100
AcDbEntity
  8
本体
  6
Continuous
100
AcDbLine
 10
531.9587626244592
 20
1571.070709712993
 30
0.0
 11
1031.958762624459
 21
1571.070709712993
 31
0.0
  0
LINE
  5
B03
330
2
100
AcDbEntity
  8
本体
  6
Continuous
100
AcDbLine
 10
531.9587626244592
 20
1577.070709712993
 30
0.0
 11
1031.958762624459
 21
1577.070709712993
 31
0.0
  0
LINE
  5
B8C
330
2
100
AcDbEntity
  8
本体
  6
Continuous
100
AcDbLine
 10
1011.958762624459
 20
1571.070709712993
 30
0.0
 11
1031.958762624459
 21
1575.070709712993
 31
0.0
  0
LINE
  5
BA7
330
2
100
AcDbEntity
  8
本体
  6
Continuous
100
AcDbLine
 10
531.9587626244592
 20
1521.070709712993
 30
0.0
 11
1031.958762624459
 21
1521.070709712993
 31
0.0
  0
LINE
  5
BA8
330
2
100
AcDbEntity
  8
本体
  6
Continuous
100
AcDbLine
 10
531.9587626244592
 20
1527.070709712993
 30
0.0
 11
1031.958762624459
 21
1527.070709712993
 31
0.0
  0
LINE
  5
C31
330
2
100
AcDbEntity
  8
本体
  6
Continuous
100
AcDbLine
 10
1011.958762624459
 20
1521.070709712993
 30
0.0
 11
1031.958762624459
 21
1525.070709712993
 31
0.0
  0
LINE
  5
C4C
330
2
100
AcDbEntity
  8
本体
  6
Continuous
100
AcDbLine
 10
531.9587626244592
 20
1471.070709712993
 30
0.0
 11
1031.958762624459
 21
1471.070709712993
 31
0.0
  0
LINE
  5
C4D
330
2
100
AcDbEntity
  8
本体
  6
Continuous
100
AcDbLine
 10
531.9587626244592
 20
1477.070709712993
 30
0.0
 11
1031.958762624459
 21
1477.070709712993
 31
0.0
  0
LINE
  5
CD6
330
2
100
AcDbEntity
  8
本体
  6
Continuous
100
AcDbLine
 10
1011.958762624459
 20
1471.070709712993
 30
0.0
 11
1031.958762624459
 21
1475.070709712993
 31
0.0
  0
LINE
  5
CF1
330
2
100
AcDbEntity
  8
本体
  6
Continuous
100
AcDbLine
 10
531.9587626244592
 20
1421.070709712993
 30
0.0
 11
1031.958762624459
 21
1421.070709712993
 31
0.0
  0
LINE
  5
CF2
330
2
100
AcDbEntity
  8
本体
  6
Continuous
100
AcDbLine
 10
531.9587626244592
 20
1427.070709712993
 30
0.0
 11
1031.958762624459
 21
1427.070709712993
 31
0.0
  0
LINE
  5
D7B
330
2
100
AcDbEntity
  8
本体
  6
Continuous
100
AcDbLine
 10
1011.958762624459
 20
1421.070709712993
 30
0.0
 11
1031.958762624459
 21
1425.070709712993
 31
0.0
  0
LINE
  5
D96
330
2
100
AcDbEntity
  8
本体
  6
Continuous
100
AcDbLine
 10
531.9587626244592
 20
1371.070709712993
 30
0.0
 11
1031.958762624459
 21
1371.070709712993
 31
0.0
  0
LINE
  5
D97
330
2
100
AcDbEntity
  8
本体
  6
Continuous
100
AcDbLine
 10
531.9587626244592
 20
1377.070709712993
 30
0.0
 11
1031.958762624459
 21
1377.070709712993
 31
0.0
  0
LINE
  5
E20
330
2
100
AcDbEntity
  8
本体
  6
Continuous
100
AcDbLine
 10
1011.958762624459
 20
1371.070709712993
 30
0.0
 11
1031.958762624459
 21
1375.070709712993
 31
0.0
  0
LINE
  5
E3B
330
2
100
AcDbEntity
  8
本体
  6
Continuous
100
AcDbLine
 10
531.9587626244592
 20
1321.070709712993
 30
0.0
 11
1031.958762624459
 21
1321.070709712993
 31
0.0
  0
LINE
  5
E3C
330
2
100
AcDbEntity
  8
本体
  6
Continuous
100
AcDbLine
 10
531.9587626244592
 20
1327.070709712993
 30
0.0
 11
1031.958762624459
 21
1327.070709712993
 31
0.0
  0
LINE
  5
EC5
330
2
100
AcDbEntity
  8
本体
  6
Continuous
100
AcDbLine
 10
1011.958762624459
 20
1321.070709712993
 30
0.0
 11
1031.958762624459
 21
1325.070709712993
 31
0.0
  0
LINE
  5
EE0
330
2
100
AcDbEntity
  8
本体
  6
Continuous
100
AcDbLine
 10
531.9587626244592
 20
1271.070709712993
 30
0.0
 11
1031.958762624459
 21
1271.070709712993
 31
0.0
  0
LINE
  5
EE1
330
2
100
AcDbEntity
  8
本体
  6
Continuous
100
AcDbLine
 10
531.9587626244592
 20
1277.070709712993
 30
0.0
 11
1031.958762624459
 21
1277.070709712993
 31
0.0
  0
LINE
  5
F6A
330
2
100
AcDbEntity
  8
本体
  6
Continuous
100
AcDbLine
 10
1011.958762624459
 20
1271.070709712993
 30
0.0
 11
1031.958762624459
 21
1275.070709712993
 31
0.0
  0
LINE
  5
F85
330
2
100
AcDbEntity
  8
本体
  6
Continuous
100
AcDbLine
 10
531.9587626244592
 20
1221.070709712993
 30
0.0
 11
1031.958762624459
 21
1221.070709712993
 31
0.0
  0
LINE
  5
F86
330
2
100
AcDbEntity
  8
本体
  6
Continuous
100
AcDbLine
 10
531.9587626244592
 20
1227.070709712993
 30
0.0
 11
1031.958762624459
 21
1227.070709712993
 31
0.0
  0
LINE
  5
100F
330
2
100
AcDbEntity
  8
本体
  6
Continuous
100
AcDbLine
 10
1011.958762624459
 20
1221.070709712993
 30
0.0
 11
1031.958762624459
 21
1225.070709712993
 31
0.0
  0
LINE
  5
102A
330
2
100
AcDbEntity
  8
本体
  6
Continuous
100
AcDbLine
 10
531.9587626244592
 20
1171.070709712993
 30
0.0
 11
1031.958762624459
 21
1171.070709712993
 31
0.0
  0
LINE
  5
102B
330
2
100
AcDbEntity
  8
本体
  6
Continuous
100
AcDbLine
 10
531.9587626244592
 20
1177.070709712993
 30
0.0
 11
1031.958762624459
 21
1177.070709712993
 31
0.0
  0
LINE
  5
10B4
330
2
100
AcDbEntity
  8
本体
  6
Continuous
100
AcDbLine
 10
1011.958762624459
 20
1171.070709712993
 30
0.0
 11
1031.958762624459
 21
1175.070709712993
 31
0.0
  0
LINE
  5
10D0
330
2
100
AcDbEntity
  8
本体
  6
Continuous
100
AcDbLine
 10
531.9587626244592
 20
1127.070709712993
 30
0.0
 11
1031.958762624459
 21
1127.070709712993
 31
0.0
  0
LINE
  5
10D1
330
2
100
AcDbEntity
  8
本体
  6
Continuous
100
AcDbLine
 10
531.9587626244592
 20
1121.070709712993
 30
0.0
 11
1031.958762624459
 21
1121.070709712993
 31
0.0
  0
LINE
  5
10E1
330
2
100
AcDbEntity
  8
本体
  6
Continuous
100
AcDbLine
 10
1011.958762624459
 20
1121.070709712993
 30
0.0
 11
1031.958762624459
 21
1125.070709712993
 31
0.0
  0
LINE
  5
10E4
330
2
100
AcDbEntity
  8
嵩上断面
  6
HIDDEN
 48
3.0
370
     9
100
AcDbLine
 10
1029.458762624459
 20
1139.070708712993
 30
0.0
 11
534.4587626244592
 21
1139.070708712993
 31
0.0
  0
LINE
  5
10E5
330
2
100
AcDbEntity
  8
嵩上断面
  6
HIDDEN
 48
3.0
370
     9
100
AcDbLine
 10
534.4587626244592
 20
1659.070710712993
 30
0.0
 11
1029.458762624459
 21
1659.070710712993
 31
0.0
  0
INSERT
  5
10E6
330
2
100
AcDbEntity
  8
本体
  6
Continuous
100
AcDbBlockReference
  2
TB6
 10
1857.269233124793
 20
1171.570709712993
 30
0.0
  0
INSERT
  5
10E7
330
2
100
AcDbEntity
  8
本体
  6
Continuous
100
AcDbBlockReference
  2
TB6
 10
1857.269233124793
 20
1271.570709712993
 30
0.0
  0
INSERT
  5
10E8
330
2
100
AcDbEntity
  8
本体
  6
Continuous
100
AcDbBlockReference
  2
TB6
 10
1857.269233124793
 20
1471.570709712993
 30
0.0
  0
INSERT
  5
10E9
330
2
100
AcDbEntity
  8
本体
  6
Continuous
100
AcDbBlockReference
  2
TB6
 10
1857.269233124793
 20
1371.570709712993
 30
0.0
  0
INSERT
  5
10EA
330
2
100
AcDbEntity
  8
本体
  6
Continuous
100
AcDbBlockReference
  2
TB6
 10
1857.269233124793
 20
1571.570709712993
 30
0.0
  0
INSERT
  5
10EB
330
2
100
AcDbEntity
  8
本体
  6
Continuous
100
AcDbBlockReference
  2
TB6
 10
1857.269233124793
 20
1671.570709712993
 30
0.0
  0
DIMENSION
  5
10EC
330
2
100
AcDbEntity
  8
寸法線
 48
3.0
100
AcDbDimension
  2
*D15
 10
1777.269233124792
 20
1621.570709712993
 30
0.0
 11
1757.269233124792
 21
1646.570709712993
 31
0.0
 70
    32
 71
     5
 42
50.0
  3
ISO-25
100
AcDbAlignedDimension
 13
1854.269233124792
 23
1671.570709712993
 33
0.0
 14
1854.269233124792
 24
1621.570709712993
 34
0.0
 50
90.0
100
AcDbRotatedDimension
  0
MTEXT
  5
12B5
330
2
100
AcDbEntity
  8
外枠
  6
Continuous
 48
100.0
370
     9
100
AcDbMText
 10
1022.193186254242
 20
77.61017986570005
 30
0.0
 40
18.0
 41
122.0406
 71
     1
 72
     5
  1
【主部材】
 73
     1
 44
1.0
1001
ACAD
1000
MTEXTBEGIN
1070
    73
1070
     1
1070
    44
1040
1.0
1070
    74
1070
     0
1000
MTEXTEND
  0
MTEXT
  5
12B6
330
2
100
AcDbEntity
  8
外枠
  6
Continuous
 48
100.0
370
     9
100
AcDbMText
 10
1038.975343934131
 20
43.7816999552906
 30
0.0
 40
25.0
 41
122.0406
 71
     1
 72
     5
  1
SS400
 73
     1
 44
1.0
1001
ACAD
1000
MTEXTBEGIN
1070
    73
1070
     1
1070
    44
1040
1.0
1070
    74
1070
     0
1000
MTEXTEND
  0
MTEXT
  5
12B8
330
2
100
AcDbEntity
  8
外枠
  6
Continuous
 48
100.0
370
     9
100
AcDbMText
 10
1199.761738767627
 20
151.0819879350613
 30
0.0
 40
18.0
 41
301.8661
 71
     1
 72
     5
  1
【グレーチング】JIS　H8641
 73
     1
 44
1.0
1001
ACAD
1000
MTEXTBEGIN
1070
    73
1070
     1
1070
    44
1040
1.0
1070
    74
1070
     0
1000
MTEXTEND
  0
MTEXT
  5
12B9
330
2
100
AcDbEntity
  8
外枠
  6
Continuous
 48
100.0
370
     9
100
AcDbMText
 10
1159.385398923399
 20
148.6111115828462
 30
0.0
 40
20.0
 41
1015.1375
 71
     1
 72
     5
  1
表\P面\P処\P理
 73
     1
 44
1.0
1001
ACAD
1000
MTEXTBEGIN
1070
    73
1070
     1
1070
    44
1040
1.0
1070
    74
1070
     0
1000
MTEXTEND
  0
LINE
  5
12BA
330
2
100
AcDbEntity
  8
外枠
  6
Continuous
 48
100.0
370
     9
100
AcDbLine
 10
1188.531791166651
 20
155.3992728207959
 30
0.0
 11
1188.531791166651
 21
9.999999999992724
 31
0.0
  0
LINE
  5
12BB
330
2
100
AcDbEntity
  8
外枠
  6
Continuous
 48
100.0
370
     9
100
AcDbLine
 10
1153.531306970095
 20
155.3992728207959
 30
0.0
 11
1153.531306970095
 21
9.999999999992724
 31
0.0
  0
LINE
  5
12BC
330
2
100
AcDbEntity
  8
外枠
 48
3.0
100
AcDbLine
 10
1188.531791166651
 20
82.6996364103943
 30
0.0
 11
1593.951336296073
 21
82.6996364103943
 31
0.0
  0
LINE
  5
12D4
330
2
100
AcDbEntity
  8
本体
  6
Continuous
100
AcDbLine
 10
1015.958762624459
 20
586.9802181496757
 30
0.0
 11
1027.958762624459
 21
586.9802181496757
 31
0.0
  0
LINE
  5
141C
330
2
100
AcDbEntity
  8
嵩上断面
  6
Continuous
100
AcDbLine
 10
1029.458762624459
 20
534.9802181496756
 30
0.0
 11
534.4587626244592
 21
534.9802181496756
 31
0.0
  0
LINE
  5
141D
330
2
100
AcDbEntity
  8
嵩上断面
  6
HIDDEN
 48
2.0
100
AcDbLine
 10
1029.458762624459
 20
537.2802181496758
 30
0.0
 11
534.4587626244592
 21
537.2802181496758
 31
0.0
  0
LINE
  5
141E
330
2
100
AcDbEntity
  8
嵩上断面
  6
HIDDEN
 48
2.0
100
AcDbLine
 10
1029.458762624459
 20
532.6802181496756
 30
0.0
 11
534.4587626244592
 21
532.6802181496756
 31
0.0
  0
INSERT
  5
149C
330
2
100
AcDbEntity
  8
嵩上断面
 48
3.0
100
AcDbBlockReference
  2
P-H85
 10
1889.269233124792
 20
1699.070710712993
 30
0.0
  0
INSERT
  5
149D
330
2
100
AcDbEntity
  8
嵩上断面
 48
3.0
100
AcDbBlockReference
  2
P-H85
 10
1889.269233124792
 20
1099.070708712993
 30
0.0
 41
-1.0
 50
180.0
  0
INSERT
  5
14B4
330
2
100
AcDbEntity
  8
0
100
AcDbBlockReference
  2
GIB詳細
 10
2565.418449883758
 20
297.722523113778
 30
0.0
  0
MTEXT
  5
14B5
330
2
100
AcDbEntity
  8
外枠
  6
Continuous
 48
100.0
370
     9
100
AcDbMText
 10
2509.985545378613
 20
121.2206105686568
 30
0.0
 40
23.47884
 41
274.1381
 71
     1
 72
     5
  1
'14・09・01
 73
     1
 44
1.0
1001
ACAD
1000
MTEXTBEGIN
1070
    73
1070
     1
1070
    44
1040
1.0
1070
    74
1070
     0
1000
MTEXTEND
  0
INSERT
  5
14B6
330
2
100
AcDbEntity
  8
本体
 48
3.0
100
AcDbBlockReference
  2
清水
 10
2387.385592047314
 20
155.3992728208
 30
0.0
  0
MTEXT
  5
14B7
330
2
100
AcDbEntity
  8
外枠
  6
Continuous
 48
100.0
370
     9
100
AcDbMText
 10
1202.677957061338
 20
120.1377642323818
 30
0.0
 40
25.0
 41
1015.1375
 71
     1
 72
     5
  1
溶融亜鉛めっき仕上
 73
     1
 44
1.0
1001
ACAD
1000
MTEXTBEGIN
1070
    73
1070
     1
1070
    44
1040
1.0
1070
    74
1070
     0
1000
MTEXTEND
  0
INSERT
  5
15ED
330
2
100
AcDbEntity
  8
本体
 48
3.0
100
AcDbBlockReference
  2
鎌下
 10
2271.730765417811
 20
155.3992728208001
 30
0.0
  0
INSERT
  5
17AA
102
{ACAD_REACTORS
330
17BB
102
}
330
2
100
AcDbEntity
  8
本体
100
AcDbBlockReference
  2
*U20
 10
551.4587626244592
 20
595.9802181496757
 30
0.0
  0
LINE
  5
17D1
330
2
100
AcDbEntity
  8
本体
 48
3.0
100
AcDbLine
 10
531.9587626244592
 20
1709.070709712993
 30
0.0
 11
531.9587626244592
 21
1089.070709712993
 31
0.0
  0
LINE
  5
17D2
330
2
100
AcDbEntity
  8
本体
 48
3.0
100
AcDbLine
 10
1031.958762624459
 20
1709.070709712993
 30
0.0
 11
1031.958762624459
 21
1089.070709712993
 31
0.0
  0
LINE
  5
17D3
330
2
100
AcDbEntity
  8
本体
  6
Continuous
100
AcDbLine
 10
531.9587626244592
 20
1671.070709712993
 30
0.0
 11
531.9587626244592
 21
1627.070709712993
 31
0.0
  0
LINE
  5
17D4
330
2
100
AcDbEntity
  8
本体
  6
Continuous
100
AcDbLine
 10
536.9587626244593
 20
1671.070709712993
 30
0.0
 11
536.9587626244593
 21
1627.070709712993
 31
0.0
  0
LINE
  5
17D5
330
2
100
AcDbEntity
  8
本体
  6
Continuous
100
AcDbLine
 10
531.9587626244592
 20
1121.070709712993
 30
0.0
 11
531.9587626244592
 21
1093.570709712993
 31
0.0
  0
LINE
  5
17D6
330
2
100
AcDbEntity
  8
本体
  6
Continuous
100
AcDbLine
 10
536.9587626244593
 20
1121.070709712993
 30
0.0
 11
536.9587626244593
 21
1093.570709712993
 31
0.0
  0
LINE
  5
17D7
330
2
100
AcDbEntity
  8
本体
  6
Continuous
100
AcDbLine
 10
531.9587626244592
 20
1704.570709712993
 30
0.0
 11
531.9587626244592
 21
1677.070709712993
 31
0.0
  0
LINE
  5
17D8
330
2
100
AcDbEntity
  8
本体
  6
Continuous
100
AcDbLine
 10
536.9587626244593
 20
1704.570709712993
 30
0.0
 11
536.9587626244593
 21
1677.070709712993
 31
0.0
  0
LINE
  5
17D9
330
2
100
AcDbEntity
  8
エンボス
  6
Continuous
100
AcDbLine
 10
531.9587626244592
 20
1655.570709712993
 30
0.0
 11
536.9587626244593
 21
1653.570709712993
 31
0.0
  0
LINE
  5
17DA
330
2
100
AcDbEntity
  8
エンボス
  6
Continuous
100
AcDbLine
 10
531.9587626244592
 20
1639.570709712993
 30
0.0
 11
536.9587626244593
 21
1641.570709712993
 31
0.0
  0
LINE
  5
17DB
330
2
100
AcDbEntity
  8
エンボス
  6
Continuous
100
AcDbLine
 10
536.9587626244593
 20
1634.570709712993
 30
0.0
 11
531.9587626244592
 21
1636.570709712993
 31
0.0
  0
LINE
  5
17DC
330
2
100
AcDbEntity
  8
エンボス
  6
Continuous
100
AcDbLine
 10
536.9587626244593
 20
1650.570709712993
 30
0.0
 11
531.9587626244592
 21
1648.570709712993
 31
0.0
  0
LINE
  5
17DD
330
2
100
AcDbEntity
  8
エンボス
  6
Continuous
100
AcDbLine
 10
531.9587626244592
 20
1667.570709712993
 30
0.0
 11
536.9587626244593
 21
1669.570709712993
 31
0.0
  0
LINE
  5
17DE
330
2
100
AcDbEntity
  8
エンボス
  6
Continuous
100
AcDbLine
 10
536.9587626244593
 20
1662.570709712993
 30
0.0
 11
531.9587626244592
 21
1664.570709712993
 31
0.0
  0
LINE
  5
17DF
330
2
100
AcDbEntity
  8
エンボス
  6
Continuous
100
AcDbLine
 10
531.9587626244592
 20
1103.570709712993
 30
0.0
 11
536.9587626244593
 21
1101.570709712993
 31
0.0
  0
LINE
  5
17E0
330
2
100
AcDbEntity
  8
エンボス
  6
Continuous
100
AcDbLine
 10
536.9587626244593
 20
1110.570709712993
 30
0.0
 11
531.9587626244592
 21
1112.570709712993
 31
0.0
  0
LINE
  5
17E1
330
2
100
AcDbEntity
  8
エンボス
  6
Continuous
100
AcDbLine
 10
531.9587626244592
 20
1115.570709712993
 30
0.0
 11
536.9587626244593
 21
1117.570709712993
 31
0.0
  0
LINE
  5
17E2
330
2
100
AcDbEntity
  8
エンボス
  6
Continuous
100
AcDbLine
 10
536.9587626244593
 20
1685.070709712993
 30
0.0
 11
531.9587626244592
 21
1683.070709712993
 31
0.0
  0
LINE
  5
17E3
330
2
100
AcDbEntity
  8
エンボス
  6
Continuous
100
AcDbLine
 10
531.9587626244592
 20
1690.070709712993
 30
0.0
 11
536.9587626244593
 21
1688.070709712993
 31
0.0
  0
LINE
  5
17E4
330
2
100
AcDbEntity
  8
エンボス
  6
Continuous
100
AcDbLine
 10
531.9587626244592
 20
1702.070709712993
 30
0.0
 11
536.9587626244593
 21
1704.070709712993
 31
0.0
  0
LINE
  5
17E5
330
2
100
AcDbEntity
  8
エンボス
  6
Continuous
100
AcDbLine
 10
536.9587626244593
 20
1697.070709712993
 30
0.0
 11
531.9587626244592
 21
1699.070709712993
 31
0.0
  0
LINE
  5
17E6
330
2
100
AcDbEntity
  8
本体
  6
Continuous
100
AcDbLine
 10
536.9587626244593
 20
1621.070709712993
 30
0.0
 11
536.9587626244593
 21
1577.070709712993
 31
0.0
  0
LINE
  5
17E7
330
2
100
AcDbEntity
  8
本体
  6
Continuous
100
AcDbLine
 10
531.9587626244592
 20
1621.070709712993
 30
0.0
 11
531.9587626244592
 21
1577.070709712993
 31
0.0
  0
LINE
  5
17E8
330
2
100
AcDbEntity
  8
エンボス
  6
Continuous
100
AcDbLine
 10
531.9587626244592
 20
1589.570709712993
 30
0.0
 11
536.9587626244593
 21
1591.570709712993
 31
0.0
  0
LINE
  5
17E9
330
2
100
AcDbEntity
  8
エンボス
  6
Continuous
100
AcDbLine
 10
536.9587626244593
 20
1584.570709712993
 30
0.0
 11
531.9587626244592
 21
1586.570709712993
 31
0.0
  0
LINE
  5
17EA
330
2
100
AcDbEntity
  8
エンボス
  6
Continuous
100
AcDbLine
 10
531.9587626244592
 20
1617.570709712993
 30
0.0
 11
536.9587626244593
 21
1619.570709712993
 31
0.0
  0
LINE
  5
17EB
330
2
100
AcDbEntity
  8
エンボス
  6
Continuous
100
AcDbLine
 10
531.9587626244592
 20
1605.570709712993
 30
0.0
 11
536.9587626244593
 21
1603.570709712993
 31
0.0
  0
LINE
  5
17EC
330
2
100
AcDbEntity
  8
エンボス
  6
Continuous
100
AcDbLine
 10
536.9587626244593
 20
1600.570709712993
 30
0.0
 11
531.9587626244592
 21
1598.570709712993
 31
0.0
  0
LINE
  5
17ED
330
2
100
AcDbEntity
  8
エンボス
  6
Continuous
100
AcDbLine
 10
536.9587626244593
 20
1612.570709712993
 30
0.0
 11
531.9587626244592
 21
1614.570709712993
 31
0.0
  0
LINE
  5
17EE
330
2
100
AcDbEntity
  8
本体
  6
Continuous
100
AcDbLine
 10
536.9587626244593
 20
1571.070709712993
 30
0.0
 11
536.9587626244593
 21
1527.070709712993
 31
0.0
  0
LINE
  5
17EF
330
2
100
AcDbEntity
  8
本体
  6
Continuous
100
AcDbLine
 10
531.9587626244592
 20
1571.070709712993
 30
0.0
 11
531.9587626244592
 21
1527.070709712993
 31
0.0
  0
LINE
  5
17F0
330
2
100
AcDbEntity
  8
エンボス
  6
Continuous
100
AcDbLine
 10
531.9587626244592
 20
1539.570709712993
 30
0.0
 11
536.9587626244593
 21
1541.570709712993
 31
0.0
  0
LINE
  5
17F1
330
2
100
AcDbEntity
  8
エンボス
  6
Continuous
100
AcDbLine
 10
536.9587626244593
 20
1534.570709712993
 30
0.0
 11
531.9587626244592
 21
1536.570709712993
 31
0.0
  0
LINE
  5
17F2
330
2
100
AcDbEntity
  8
エンボス
  6
Continuous
100
AcDbLine
 10
531.9587626244592
 20
1567.570709712993
 30
0.0
 11
536.9587626244593
 21
1569.570709712993
 31
0.0
  0
LINE
  5
17F3
330
2
100
AcDbEntity
  8
エンボス
  6
Continuous
100
AcDbLine
 10
531.9587626244592
 20
1555.570709712993
 30
0.0
 11
536.9587626244593
 21
1553.570709712993
 31
0.0
  0
LINE
  5
17F4
330
2
100
AcDbEntity
  8
エンボス
  6
Continuous
100
AcDbLine
 10
536.9587626244593
 20
1550.570709712993
 30
0.0
 11
531.9587626244592
 21
1548.570709712993
 31
0.0
  0
LINE
  5
17F5
330
2
100
AcDbEntity
  8
エンボス
  6
Continuous
100
AcDbLine
 10
536.9587626244593
 20
1562.570709712993
 30
0.0
 11
531.9587626244592
 21
1564.570709712993
 31
0.0
  0
LINE
  5
17F6
330
2
100
AcDbEntity
  8
本体
  6
Continuous
100
AcDbLine
 10
536.9587626244593
 20
1521.070709712993
 30
0.0
 11
536.9587626244593
 21
1477.070709712993
 31
0.0
  0
LINE
  5
17F7
330
2
100
AcDbEntity
  8
本体
  6
Continuous
100
AcDbLine
 10
531.9587626244592
 20
1521.070709712993
 30
0.0
 11
531.9587626244592
 21
1477.070709712993
 31
0.0
  0
LINE
  5
17F8
330
2
100
AcDbEntity
  8
エンボス
  6
Continuous
100
AcDbLine
 10
531.9587626244592
 20
1489.570709712993
 30
0.0
 11
536.9587626244593
 21
1491.570709712993
 31
0.0
  0
LINE
  5
17F9
330
2
100
AcDbEntity
  8
エンボス
  6
Continuous
100
AcDbLine
 10
536.9587626244593
 20
1484.570709712993
 30
0.0
 11
531.9587626244592
 21
1486.570709712993
 31
0.0
  0
LINE
  5
17FA
330
2
100
AcDbEntity
  8
エンボス
  6
Continuous
100
AcDbLine
 10
531.9587626244592
 20
1517.570709712993
 30
0.0
 11
536.9587626244593
 21
1519.570709712993
 31
0.0
  0
LINE
  5
17FB
330
2
100
AcDbEntity
  8
エンボス
  6
Continuous
100
AcDbLine
 10
531.9587626244592
 20
1505.570709712993
 30
0.0
 11
536.9587626244593
 21
1503.570709712993
 31
0.0
  0
LINE
  5
17FC
330
2
100
AcDbEntity
  8
エンボス
  6
Continuous
100
AcDbLine
 10
536.9587626244593
 20
1500.570709712993
 30
0.0
 11
531.9587626244592
 21
1498.570709712993
 31
0.0
  0
LINE
  5
17FD
330
2
100
AcDbEntity
  8
エンボス
  6
Continuous
100
AcDbLine
 10
536.9587626244593
 20
1512.570709712993
 30
0.0
 11
531.9587626244592
 21
1514.570709712993
 31
0.0
  0
LINE
  5
17FE
330
2
100
AcDbEntity
  8
本体
  6
Continuous
100
AcDbLine
 10
536.9587626244593
 20
1471.070709712993
 30
0.0
 11
536.9587626244593
 21
1427.070709712993
 31
0.0
  0
LINE
  5
17FF
330
2
100
AcDbEntity
  8
本体
  6
Continuous
100
AcDbLine
 10
531.9587626244592
 20
1471.070709712993
 30
0.0
 11
531.9587626244592
 21
1427.070709712993
 31
0.0
  0
LINE
  5
1800
330
2
100
AcDbEntity
  8
エンボス
  6
Continuous
100
AcDbLine
 10
531.9587626244592
 20
1439.570709712993
 30
0.0
 11
536.9587626244593
 21
1441.570709712993
 31
0.0
  0
LINE
  5
1801
330
2
100
AcDbEntity
  8
エンボス
  6
Continuous
100
AcDbLine
 10
536.9587626244593
 20
1434.570709712993
 30
0.0
 11
531.9587626244592
 21
1436.570709712993
 31
0.0
  0
LINE
  5
1802
330
2
100
AcDbEntity
  8
エンボス
  6
Continuous
100
AcDbLine
 10
531.9587626244592
 20
1467.570709712993
 30
0.0
 11
536.9587626244593
 21
1469.570709712993
 31
0.0
  0
LINE
  5
1803
330
2
100
AcDbEntity
  8
エンボス
  6
Continuous
100
AcDbLine
 10
531.9587626244592
 20
1455.570709712993
 30
0.0
 11
536.9587626244593
 21
1453.570709712993
 31
0.0
  0
LINE
  5
1804
330
2
100
AcDbEntity
  8
エンボス
  6
Continuous
100
AcDbLine
 10
536.9587626244593
 20
1450.570709712993
 30
0.0
 11
531.9587626244592
 21
1448.570709712993
 31
0.0
  0
LINE
  5
1805
330
2
100
AcDbEntity
  8
エンボス
  6
Continuous
100
AcDbLine
 10
536.9587626244593
 20
1462.570709712993
 30
0.0
 11
531.9587626244592
 21
1464.570709712993
 31
0.0
  0
LINE
  5
1806
330
2
100
AcDbEntity
  8
本体
  6
Continuous
100
AcDbLine
 10
536.9587626244593
 20
1421.070709712993
 30
0.0
 11
536.9587626244593
 21
1377.070709712993
 31
0.0
  0
LINE
  5
1807
330
2
100
AcDbEntity
  8
本体
  6
Continuous
100
AcDbLine
 10
531.9587626244592
 20
1421.070709712993
 30
0.0
 11
531.9587626244592
 21
1377.070709712993
 31
0.0
  0
LINE
  5
1808
330
2
100
AcDbEntity
  8
エンボス
  6
Continuous
100
AcDbLine
 10
531.9587626244592
 20
1389.570709712993
 30
0.0
 11
536.9587626244593
 21
1391.570709712993
 31
0.0
  0
LINE
  5
1809
330
2
100
AcDbEntity
  8
エンボス
  6
Continuous
100
AcDbLine
 10
536.9587626244593
 20
1384.570709712993
 30
0.0
 11
531.9587626244592
 21
1386.570709712993
 31
0.0
  0
LINE
  5
180A
330
2
100
AcDbEntity
  8
エンボス
  6
Continuous
100
AcDbLine
 10
531.9587626244592
 20
1417.570709712993
 30
0.0
 11
536.9587626244593
 21
1419.570709712993
 31
0.0
  0
LINE
  5
180B
330
2
100
AcDbEntity
  8
エンボス
  6
Continuous
100
AcDbLine
 10
531.9587626244592
 20
1405.570709712993
 30
0.0
 11
536.9587626244593
 21
1403.570709712993
 31
0.0
  0
LINE
  5
180C
330
2
100
AcDbEntity
  8
エンボス
  6
Continuous
100
AcDbLine
 10
536.9587626244593
 20
1400.570709712993
 30
0.0
 11
531.9587626244592
 21
1398.570709712993
 31
0.0
  0
LINE
  5
180D
330
2
100
AcDbEntity
  8
エンボス
  6
Continuous
100
AcDbLine
 10
536.9587626244593
 20
1412.570709712993
 30
0.0
 11
531.9587626244592
 21
1414.570709712993
 31
0.0
  0
LINE
  5
180E
330
2
100
AcDbEntity
  8
本体
  6
Continuous
100
AcDbLine
 10
536.9587626244593
 20
1371.070709712993
 30
0.0
 11
536.9587626244593
 21
1327.070709712993
 31
0.0
  0
LINE
  5
180F
330
2
100
AcDbEntity
  8
本体
  6
Continuous
100
AcDbLine
 10
531.9587626244592
 20
1371.070709712993
 30
0.0
 11
531.9587626244592
 21
1327.070709712993
 31
0.0
  0
LINE
  5
1810
330
2
100
AcDbEntity
  8
エンボス
  6
Continuous
100
AcDbLine
 10
531.9587626244592
 20
1339.570709712993
 30
0.0
 11
536.9587626244593
 21
1341.570709712993
 31
0.0
  0
LINE
  5
1811
330
2
100
AcDbEntity
  8
エンボス
  6
Continuous
100
AcDbLine
 10
536.9587626244593
 20
1334.570709712993
 30
0.0
 11
531.9587626244592
 21
1336.570709712993
 31
0.0
  0
LINE
  5
1812
330
2
100
AcDbEntity
  8
エンボス
  6
Continuous
100
AcDbLine
 10
531.9587626244592
 20
1367.570709712993
 30
0.0
 11
536.9587626244593
 21
1369.570709712993
 31
0.0
  0
LINE
  5
1813
330
2
100
AcDbEntity
  8
エンボス
  6
Continuous
100
AcDbLine
 10
531.9587626244592
 20
1355.570709712993
 30
0.0
 11
536.9587626244593
 21
1353.570709712993
 31
0.0
  0
LINE
  5
1814
330
2
100
AcDbEntity
  8
エンボス
  6
Continuous
100
AcDbLine
 10
536.9587626244593
 20
1350.570709712993
 30
0.0
 11
531.9587626244592
 21
1348.570709712993
 31
0.0
  0
LINE
  5
1815
330
2
100
AcDbEntity
  8
エンボス
  6
Continuous
100
AcDbLine
 10
536.9587626244593
 20
1362.570709712993
 30
0.0
 11
531.9587626244592
 21
1364.570709712993
 31
0.0
  0
LINE
  5
1816
330
2
100
AcDbEntity
  8
本体
  6
Continuous
100
AcDbLine
 10
536.9587626244593
 20
1321.070709712993
 30
0.0
 11
536.9587626244593
 21
1277.070709712993
 31
0.0
  0
LINE
  5
1817
330
2
100
AcDbEntity
  8
本体
  6
Continuous
100
AcDbLine
 10
531.9587626244592
 20
1321.070709712993
 30
0.0
 11
531.9587626244592
 21
1277.070709712993
 31
0.0
  0
LINE
  5
1818
330
2
100
AcDbEntity
  8
エンボス
  6
Continuous
100
AcDbLine
 10
531.9587626244592
 20
1289.570709712993
 30
0.0
 11
536.9587626244593
 21
1291.570709712993
 31
0.0
  0
LINE
  5
1819
330
2
100
AcDbEntity
  8
エンボス
  6
Continuous
100
AcDbLine
 10
536.9587626244593
 20
1284.570709712993
 30
0.0
 11
531.9587626244592
 21
1286.570709712993
 31
0.0
  0
LINE
  5
181A
330
2
100
AcDbEntity
  8
エンボス
  6
Continuous
100
AcDbLine
 10
531.9587626244592
 20
1317.570709712993
 30
0.0
 11
536.9587626244593
 21
1319.570709712993
 31
0.0
  0
LINE
  5
181B
330
2
100
AcDbEntity
  8
エンボス
  6
Continuous
100
AcDbLine
 10
531.9587626244592
 20
1305.570709712993
 30
0.0
 11
536.9587626244593
 21
1303.570709712993
 31
0.0
  0
LINE
  5
181C
330
2
100
AcDbEntity
  8
エンボス
  6
Continuous
100
AcDbLine
 10
536.9587626244593
 20
1300.570709712993
 30
0.0
 11
531.9587626244592
 21
1298.570709712993
 31
0.0
  0
LINE
  5
181D
330
2
100
AcDbEntity
  8
エンボス
  6
Continuous
100
AcDbLine
 10
536.9587626244593
 20
1312.570709712993
 30
0.0
 11
531.9587626244592
 21
1314.570709712993
 31
0.0
  0
LINE
  5
181E
330
2
100
AcDbEntity
  8
本体
  6
Continuous
100
AcDbLine
 10
536.9587626244593
 20
1271.070709712993
 30
0.0
 11
536.9587626244593
 21
1227.070709712993
 31
0.0
  0
LINE
  5
181F
330
2
100
AcDbEntity
  8
本体
  6
Continuous
100
AcDbLine
 10
531.9587626244592
 20
1271.070709712993
 30
0.0
 11
531.9587626244592
 21
1227.070709712993
 31
0.0
  0
LINE
  5
1820
330
2
100
AcDbEntity
  8
エンボス
  6
Continuous
100
AcDbLine
 10
531.9587626244592
 20
1239.570709712993
 30
0.0
 11
536.9587626244593
 21
1241.570709712993
 31
0.0
  0
LINE
  5
1821
330
2
100
AcDbEntity
  8
エンボス
  6
Continuous
100
AcDbLine
 10
536.9587626244593
 20
1234.570709712993
 30
0.0
 11
531.9587626244592
 21
1236.570709712993
 31
0.0
  0
LINE
  5
1822
330
2
100
AcDbEntity
  8
エンボス
  6
Continuous
100
AcDbLine
 10
531.9587626244592
 20
1267.570709712993
 30
0.0
 11
536.9587626244593
 21
1269.570709712993
 31
0.0
  0
LINE
  5
1823
330
2
100
AcDbEntity
  8
エンボス
  6
Continuous
100
AcDbLine
 10
531.9587626244592
 20
1255.570709712993
 30
0.0
 11
536.9587626244593
 21
1253.570709712993
 31
0.0
  0
LINE
  5
1824
330
2
100
AcDbEntity
  8
エンボス
  6
Continuous
100
AcDbLine
 10
536.9587626244593
 20
1250.570709712993
 30
0.0
 11
531.9587626244592
 21
1248.570709712993
 31
0.0
  0
LINE
  5
1825
330
2
100
AcDbEntity
  8
エンボス
  6
Continuous
100
AcDbLine
 10
536.9587626244593
 20
1262.570709712993
 30
0.0
 11
531.9587626244592
 21
1264.570709712993
 31
0.0
  0
LINE
  5
1826
330
2
100
AcDbEntity
  8
本体
  6
Continuous
100
AcDbLine
 10
536.9587626244593
 20
1221.070709712993
 30
0.0
 11
536.9587626244593
 21
1177.070709712993
 31
0.0
  0
LINE
  5
1827
330
2
100
AcDbEntity
  8
本体
  6
Continuous
100
AcDbLine
 10
531.9587626244592
 20
1221.070709712993
 30
0.0
 11
531.9587626244592
 21
1177.070709712993
 31
0.0
  0
LINE
  5
1828
330
2
100
AcDbEntity
  8
エンボス
  6
Continuous
100
AcDbLine
 10
531.9587626244592
 20
1189.570709712993
 30
0.0
 11
536.9587626244593
 21
1191.570709712993
 31
0.0
  0
LINE
  5
1829
330
2
100
AcDbEntity
  8
エンボス
  6
Continuous
100
AcDbLine
 10
536.9587626244593
 20
1184.570709712993
 30
0.0
 11
531.9587626244592
 21
1186.570709712993
 31
0.0
  0
LINE
  5
182A
330
2
100
AcDbEntity
  8
エンボス
  6
Continuous
100
AcDbLine
 10
531.9587626244592
 20
1217.570709712993
 30
0.0
 11
536.9587626244593
 21
1219.570709712993
 31
0.0
  0
LINE
  5
182B
330
2
100
AcDbEntity
  8
エンボス
  6
Continuous
100
AcDbLine
 10
531.9587626244592
 20
1205.570709712993
 30
0.0
 11
536.9587626244593
 21
1203.570709712993
 31
0.0
  0
LINE
  5
182C
330
2
100
AcDbEntity
  8
エンボス
  6
Continuous
100
AcDbLine
 10
536.9587626244593
 20
1200.570709712993
 30
0.0
 11
531.9587626244592
 21
1198.570709712993
 31
0.0
  0
LINE
  5
182D
330
2
100
AcDbEntity
  8
エンボス
  6
Continuous
100
AcDbLine
 10
536.9587626244593
 20
1212.570709712993
 30
0.0
 11
531.9587626244592
 21
1214.570709712993
 31
0.0
  0
LINE
  5
182E
330
2
100
AcDbEntity
  8
本体
  6
Continuous
100
AcDbLine
 10
536.9587626244593
 20
1171.070709712993
 30
0.0
 11
536.9587626244593
 21
1127.070709712993
 31
0.0
  0
LINE
  5
182F
330
2
100
AcDbEntity
  8
本体
  6
Continuous
100
AcDbLine
 10
531.9587626244592
 20
1171.070709712993
 30
0.0
 11
531.9587626244592
 21
1127.070709712993
 31
0.0
  0
LINE
  5
1830
330
2
100
AcDbEntity
  8
エンボス
  6
Continuous
100
AcDbLine
 10
531.9587626244592
 20
1139.570709712993
 30
0.0
 11
536.9587626244593
 21
1141.570709712993
 31
0.0
  0
LINE
  5
1831
330
2
100
AcDbEntity
  8
エンボス
  6
Continuous
100
AcDbLine
 10
536.9587626244593
 20
1134.570709712993
 30
0.0
 11
531.9587626244592
 21
1136.570709712993
 31
0.0
  0
LINE
  5
1832
330
2
100
AcDbEntity
  8
エンボス
  6
Continuous
100
AcDbLine
 10
531.9587626244592
 20
1167.570709712993
 30
0.0
 11
536.9587626244593
 21
1169.570709712993
 31
0.0
  0
LINE
  5
1833
330
2
100
AcDbEntity
  8
エンボス
  6
Continuous
100
AcDbLine
 10
531.9587626244592
 20
1155.570709712993
 30
0.0
 11
536.9587626244593
 21
1153.570709712993
 31
0.0
  0
LINE
  5
1834
330
2
100
AcDbEntity
  8
エンボス
  6
Continuous
100
AcDbLine
 10
536.9587626244593
 20
1150.570709712993
 30
0.0
 11
531.9587626244592
 21
1148.570709712993
 31
0.0
  0
LINE
  5
1835
330
2
100
AcDbEntity
  8
エンボス
  6
Continuous
100
AcDbLine
 10
536.9587626244593
 20
1162.570709712993
 30
0.0
 11
531.9587626244592
 21
1164.570709712993
 31
0.0
  0
LINE
  5
195F
330
2
100
AcDbEntity
  8
本体
  6
Continuous
100
AcDbLine
 10
1026.958762624459
 20
1671.070709712993
 30
0.0
 11
1026.958762624459
 21
1627.070709712993
 31
0.0
  0
LINE
  5
1960
330
2
100
AcDbEntity
  8
本体
  6
Continuous
100
AcDbLine
 10
1031.958762624459
 20
1671.070709712993
 30
0.0
 11
1031.958762624459
 21
1627.070709712993
 31
0.0
  0
LINE
  5
1961
330
2
100
AcDbEntity
  8
本体
  6
Continuous
100
AcDbLine
 10
1026.958762624459
 20
1121.070709712993
 30
0.0
 11
1026.958762624459
 21
1093.570709712993
 31
0.0
  0
LINE
  5
1962
330
2
100
AcDbEntity
  8
本体
  6
Continuous
100
AcDbLine
 10
1031.958762624459
 20
1121.070709712993
 30
0.0
 11
1031.958762624459
 21
1093.570709712993
 31
0.0
  0
LINE
  5
1963
330
2
100
AcDbEntity
  8
本体
  6
Continuous
100
AcDbLine
 10
1026.958762624459
 20
1704.570709712993
 30
0.0
 11
1026.958762624459
 21
1677.070709712993
 31
0.0
  0
LINE
  5
1964
330
2
100
AcDbEntity
  8
本体
  6
Continuous
100
AcDbLine
 10
1031.958762624459
 20
1704.570709712993
 30
0.0
 11
1031.958762624459
 21
1677.070709712993
 31
0.0
  0
LINE
  5
1965
330
2
100
AcDbEntity
  8
エンボス
  6
Continuous
100
AcDbLine
 10
1026.958762624459
 20
1655.570709712993
 30
0.0
 11
1031.958762624459
 21
1653.570709712993
 31
0.0
  0
LINE
  5
1966
330
2
100
AcDbEntity
  8
エンボス
  6
Continuous
100
AcDbLine
 10
1026.958762624459
 20
1639.570709712993
 30
0.0
 11
1031.958762624459
 21
1641.570709712993
 31
0.0
  0
LINE
  5
1967
330
2
100
AcDbEntity
  8
エンボス
  6
Continuous
100
AcDbLine
 10
1031.958762624459
 20
1634.570709712993
 30
0.0
 11
1026.958762624459
 21
1636.570709712993
 31
0.0
  0
LINE
  5
1968
330
2
100
AcDbEntity
  8
エンボス
  6
Continuous
100
AcDbLine
 10
1031.958762624459
 20
1650.570709712993
 30
0.0
 11
1026.958762624459
 21
1648.570709712993
 31
0.0
  0
LINE
  5
1969
330
2
100
AcDbEntity
  8
エンボス
  6
Continuous
100
AcDbLine
 10
1026.958762624459
 20
1667.570709712993
 30
0.0
 11
1031.958762624459
 21
1669.570709712993
 31
0.0
  0
LINE
  5
196A
330
2
100
AcDbEntity
  8
エンボス
  6
Continuous
100
AcDbLine
 10
1031.958762624459
 20
1662.570709712993
 30
0.0
 11
1026.958762624459
 21
1664.570709712993
 31
0.0
  0
LINE
  5
196B
330
2
100
AcDbEntity
  8
エンボス
  6
Continuous
100
AcDbLine
 10
1026.958762624459
 20
1103.570709712993
 30
0.0
 11
1031.958762624459
 21
1101.570709712993
 31
0.0
  0
LINE
  5
196C
330
2
100
AcDbEntity
  8
エンボス
  6
Continuous
100
AcDbLine
 10
1031.958762624459
 20
1110.570709712993
 30
0.0
 11
1026.958762624459
 21
1112.570709712993
 31
0.0
  0
LINE
  5
196D
330
2
100
AcDbEntity
  8
エンボス
  6
Continuous
100
AcDbLine
 10
1026.958762624459
 20
1115.570709712993
 30
0.0
 11
1031.958762624459
 21
1117.570709712993
 31
0.0
  0
LINE
  5
196E
330
2
100
AcDbEntity
  8
エンボス
  6
Continuous
100
AcDbLine
 10
1031.958762624459
 20
1685.070709712993
 30
0.0
 11
1026.958762624459
 21
1683.070709712993
 31
0.0
  0
LINE
  5
196F
330
2
100
AcDbEntity
  8
エンボス
  6
Continuous
100
AcDbLine
 10
1026.958762624459
 20
1690.070709712993
 30
0.0
 11
1031.958762624459
 21
1688.070709712993
 31
0.0
  0
LINE
  5
1970
330
2
100
AcDbEntity
  8
エンボス
  6
Continuous
100
AcDbLine
 10
1026.958762624459
 20
1702.070709712993
 30
0.0
 11
1031.958762624459
 21
1704.070709712993
 31
0.0
  0
LINE
  5
1971
330
2
100
AcDbEntity
  8
エンボス
  6
Continuous
100
AcDbLine
 10
1031.958762624459
 20
1697.070709712993
 30
0.0
 11
1026.958762624459
 21
1699.070709712993
 31
0.0
  0
LINE
  5
1972
330
2
100
AcDbEntity
  8
本体
  6
Continuous
100
AcDbLine
 10
1031.958762624459
 20
1621.070709712993
 30
0.0
 11
1031.958762624459
 21
1577.070709712993
 31
0.0
  0
LINE
  5
1973
330
2
100
AcDbEntity
  8
本体
  6
Continuous
100
AcDbLine
 10
1026.958762624459
 20
1621.070709712993
 30
0.0
 11
1026.958762624459
 21
1577.070709712993
 31
0.0
  0
LINE
  5
1974
330
2
100
AcDbEntity
  8
エンボス
  6
Continuous
100
AcDbLine
 10
1026.958762624459
 20
1589.570709712993
 30
0.0
 11
1031.958762624459
 21
1591.570709712993
 31
0.0
  0
LINE
  5
1975
330
2
100
AcDbEntity
  8
エンボス
  6
Continuous
100
AcDbLine
 10
1031.958762624459
 20
1584.570709712993
 30
0.0
 11
1026.958762624459
 21
1586.570709712993
 31
0.0
  0
LINE
  5
1976
330
2
100
AcDbEntity
  8
エンボス
  6
Continuous
100
AcDbLine
 10
1026.958762624459
 20
1617.570709712993
 30
0.0
 11
1031.958762624459
 21
1619.570709712993
 31
0.0
  0
LINE
  5
1977
330
2
100
AcDbEntity
  8
エンボス
  6
Continuous
100
AcDbLine
 10
1026.958762624459
 20
1605.570709712993
 30
0.0
 11
1031.958762624459
 21
1603.570709712993
 31
0.0
  0
LINE
  5
1978
330
2
100
AcDbEntity
  8
エンボス
  6
Continuous
100
AcDbLine
 10
1031.958762624459
 20
1600.570709712993
 30
0.0
 11
1026.958762624459
 21
1598.570709712993
 31
0.0
  0
LINE
  5
1979
330
2
100
AcDbEntity
  8
エンボス
  6
Continuous
100
AcDbLine
 10
1031.958762624459
 20
1612.570709712993
 30
0.0
 11
1026.958762624459
 21
1614.570709712993
 31
0.0
  0
LINE
  5
197A
330
2
100
AcDbEntity
  8
本体
  6
Continuous
100
AcDbLine
 10
1031.958762624459
 20
1571.070709712993
 30
0.0
 11
1031.958762624459
 21
1527.070709712993
 31
0.0
  0
LINE
  5
197B
330
2
100
AcDbEntity
  8
本体
  6
Continuous
100
AcDbLine
 10
1026.958762624459
 20
1571.070709712993
 30
0.0
 11
1026.958762624459
 21
1527.070709712993
 31
0.0
  0
LINE
  5
197C
330
2
100
AcDbEntity
  8
エンボス
  6
Continuous
100
AcDbLine
 10
1026.958762624459
 20
1539.570709712993
 30
0.0
 11
1031.958762624459
 21
1541.570709712993
 31
0.0
  0
LINE
  5
197D
330
2
100
AcDbEntity
  8
エンボス
  6
Continuous
100
AcDbLine
 10
1031.958762624459
 20
1534.570709712993
 30
0.0
 11
1026.958762624459
 21
1536.570709712993
 31
0.0
  0
LINE
  5
197E
330
2
100
AcDbEntity
  8
エンボス
  6
Continuous
100
AcDbLine
 10
1026.958762624459
 20
1567.570709712993
 30
0.0
 11
1031.958762624459
 21
1569.570709712993
 31
0.0
  0
LINE
  5
197F
330
2
100
AcDbEntity
  8
エンボス
  6
Continuous
100
AcDbLine
 10
1026.958762624459
 20
1555.570709712993
 30
0.0
 11
1031.958762624459
 21
1553.570709712993
 31
0.0
  0
LINE
  5
1980
330
2
100
AcDbEntity
  8
エンボス
  6
Continuous
100
AcDbLine
 10
1031.958762624459
 20
1550.570709712993
 30
0.0
 11
1026.958762624459
 21
1548.570709712993
 31
0.0
  0
LINE
  5
1981
330
2
100
AcDbEntity
  8
エンボス
  6
Continuous
100
AcDbLine
 10
1031.958762624459
 20
1562.570709712993
 30
0.0
 11
1026.958762624459
 21
1564.570709712993
 31
0.0
  0
LINE
  5
1982
330
2
100
AcDbEntity
  8
本体
  6
Continuous
100
AcDbLine
 10
1031.958762624459
 20
1521.070709712993
 30
0.0
 11
1031.958762624459
 21
1477.070709712993
 31
0.0
  0
LINE
  5
1983
330
2
100
AcDbEntity
  8
本体
  6
Continuous
100
AcDbLine
 10
1026.958762624459
 20
1521.070709712993
 30
0.0
 11
1026.958762624459
 21
1477.070709712993
 31
0.0
  0
LINE
  5
1984
330
2
100
AcDbEntity
  8
エンボス
  6
Continuous
100
AcDbLine
 10
1026.958762624459
 20
1489.570709712993
 30
0.0
 11
1031.958762624459
 21
1491.570709712993
 31
0.0
  0
LINE
  5
1985
330
2
100
AcDbEntity
  8
エンボス
  6
Continuous
100
AcDbLine
 10
1031.958762624459
 20
1484.570709712993
 30
0.0
 11
1026.958762624459
 21
1486.570709712993
 31
0.0
  0
LINE
  5
1986
330
2
100
AcDbEntity
  8
エンボス
  6
Continuous
100
AcDbLine
 10
1026.958762624459
 20
1517.570709712993
 30
0.0
 11
1031.958762624459
 21
1519.570709712993
 31
0.0
  0
LINE
  5
1987
330
2
100
AcDbEntity
  8
エンボス
  6
Continuous
100
AcDbLine
 10
1026.958762624459
 20
1505.570709712993
 30
0.0
 11
1031.958762624459
 21
1503.570709712993
 31
0.0
  0
LINE
  5
1988
330
2
100
AcDbEntity
  8
エンボス
  6
Continuous
100
AcDbLine
 10
1031.958762624459
 20
1500.570709712993
 30
0.0
 11
1026.958762624459
 21
1498.570709712993
 31
0.0
  0
LINE
  5
1989
330
2
100
AcDbEntity
  8
エンボス
  6
Continuous
100
AcDbLine
 10
1031.958762624459
 20
1512.570709712993
 30
0.0
 11
1026.958762624459
 21
1514.570709712993
 31
0.0
  0
LINE
  5
198A
330
2
100
AcDbEntity
  8
本体
  6
Continuous
100
AcDbLine
 10
1031.958762624459
 20
1471.070709712993
 30
0.0
 11
1031.958762624459
 21
1427.070709712993
 31
0.0
  0
LINE
  5
198B
330
2
100
AcDbEntity
  8
本体
  6
Continuous
100
AcDbLine
 10
1026.958762624459
 20
1471.070709712993
 30
0.0
 11
1026.958762624459
 21
1427.070709712993
 31
0.0
  0
LINE
  5
198C
330
2
100
AcDbEntity
  8
エンボス
  6
Continuous
100
AcDbLine
 10
1026.958762624459
 20
1439.570709712993
 30
0.0
 11
1031.958762624459
 21
1441.570709712993
 31
0.0
  0
LINE
  5
198D
330
2
100
AcDbEntity
  8
エンボス
  6
Continuous
100
AcDbLine
 10
1031.958762624459
 20
1434.570709712993
 30
0.0
 11
1026.958762624459
 21
1436.570709712993
 31
0.0
  0
LINE
  5
198E
330
2
100
AcDbEntity
  8
エンボス
  6
Continuous
100
AcDbLine
 10
1026.958762624459
 20
1467.570709712993
 30
0.0
 11
1031.958762624459
 21
1469.570709712993
 31
0.0
  0
LINE
  5
198F
330
2
100
AcDbEntity
  8
エンボス
  6
Continuous
100
AcDbLine
 10
1026.958762624459
 20
1455.570709712993
 30
0.0
 11
1031.958762624459
 21
1453.570709712993
 31
0.0
  0
LINE
  5
1990
330
2
100
AcDbEntity
  8
エンボス
  6
Continuous
100
AcDbLine
 10
1031.958762624459
 20
1450.570709712993
 30
0.0
 11
1026.958762624459
 21
1448.570709712993
 31
0.0
  0
LINE
  5
1991
330
2
100
AcDbEntity
  8
エンボス
  6
Continuous
100
AcDbLine
 10
1031.958762624459
 20
1462.570709712993
 30
0.0
 11
1026.958762624459
 21
1464.570709712993
 31
0.0
  0
LINE
  5
1992
330
2
100
AcDbEntity
  8
本体
  6
Continuous
100
AcDbLine
 10
1031.958762624459
 20
1421.070709712993
 30
0.0
 11
1031.958762624459
 21
1377.070709712993
 31
0.0
  0
LINE
  5
1993
330
2
100
AcDbEntity
  8
本体
  6
Continuous
100
AcDbLine
 10
1026.958762624459
 20
1421.070709712993
 30
0.0
 11
1026.958762624459
 21
1377.070709712993
 31
0.0
  0
LINE
  5
1994
330
2
100
AcDbEntity
  8
エンボス
  6
Continuous
100
AcDbLine
 10
1026.958762624459
 20
1389.570709712993
 30
0.0
 11
1031.958762624459
 21
1391.570709712993
 31
0.0
  0
LINE
  5
1995
330
2
100
AcDbEntity
  8
エンボス
  6
Continuous
100
AcDbLine
 10
1031.958762624459
 20
1384.570709712993
 30
0.0
 11
1026.958762624459
 21
1386.570709712993
 31
0.0
  0
LINE
  5
1996
330
2
100
AcDbEntity
  8
エンボス
  6
Continuous
100
AcDbLine
 10
1026.958762624459
 20
1417.570709712993
 30
0.0
 11
1031.958762624459
 21
1419.570709712993
 31
0.0
  0
LINE
  5
1997
330
2
100
AcDbEntity
  8
エンボス
  6
Continuous
100
AcDbLine
 10
1026.958762624459
 20
1405.570709712993
 30
0.0
 11
1031.958762624459
 21
1403.570709712993
 31
0.0
  0
LINE
  5
1998
330
2
100
AcDbEntity
  8
エンボス
  6
Continuous
100
AcDbLine
 10
1031.958762624459
 20
1400.570709712993
 30
0.0
 11
1026.958762624459
 21
1398.570709712993
 31
0.0
  0
LINE
  5
1999
330
2
100
AcDbEntity
  8
エンボス
  6
Continuous
100
AcDbLine
 10
1031.958762624459
 20
1412.570709712993
 30
0.0
 11
1026.958762624459
 21
1414.570709712993
 31
0.0
  0
LINE
  5
199A
330
2
100
AcDbEntity
  8
本体
  6
Continuous
100
AcDbLine
 10
1031.958762624459
 20
1371.070709712993
 30
0.0
 11
1031.958762624459
 21
1327.070709712993
 31
0.0
  0
LINE
  5
199B
330
2
100
AcDbEntity
  8
本体
  6
Continuous
100
AcDbLine
 10
1026.958762624459
 20
1371.070709712993
 30
0.0
 11
1026.958762624459
 21
1327.070709712993
 31
0.0
  0
LINE
  5
199C
330
2
100
AcDbEntity
  8
エンボス
  6
Continuous
100
AcDbLine
 10
1026.958762624459
 20
1339.570709712993
 30
0.0
 11
1031.958762624459
 21
1341.570709712993
 31
0.0
  0
LINE
  5
199D
330
2
100
AcDbEntity
  8
エンボス
  6
Continuous
100
AcDbLine
 10
1031.958762624459
 20
1334.570709712993
 30
0.0
 11
1026.958762624459
 21
1336.570709712993
 31
0.0
  0
LINE
  5
199E
330
2
100
AcDbEntity
  8
エンボス
  6
Continuous
100
AcDbLine
 10
1026.958762624459
 20
1367.570709712993
 30
0.0
 11
1031.958762624459
 21
1369.570709712993
 31
0.0
  0
LINE
  5
199F
330
2
100
AcDbEntity
  8
エンボス
  6
Continuous
100
AcDbLine
 10
1026.958762624459
 20
1355.570709712993
 30
0.0
 11
1031.958762624459
 21
1353.570709712993
 31
0.0
  0
LINE
  5
19A0
330
2
100
AcDbEntity
  8
エンボス
  6
Continuous
100
AcDbLine
 10
1031.958762624459
 20
1350.570709712993
 30
0.0
 11
1026.958762624459
 21
1348.570709712993
 31
0.0
  0
LINE
  5
19A1
330
2
100
AcDbEntity
  8
エンボス
  6
Continuous
100
AcDbLine
 10
1031.958762624459
 20
1362.570709712993
 30
0.0
 11
1026.958762624459
 21
1364.570709712993
 31
0.0
  0
LINE
  5
19A2
330
2
100
AcDbEntity
  8
本体
  6
Continuous
100
AcDbLine
 10
1031.958762624459
 20
1321.070709712993
 30
0.0
 11
1031.958762624459
 21
1277.070709712993
 31
0.0
  0
LINE
  5
19A3
330
2
100
AcDbEntity
  8
本体
  6
Continuous
100
AcDbLine
 10
1026.958762624459
 20
1321.070709712993
 30
0.0
 11
1026.958762624459
 21
1277.070709712993
 31
0.0
  0
LINE
  5
19A4
330
2
100
AcDbEntity
  8
エンボス
  6
Continuous
100
AcDbLine
 10
1026.958762624459
 20
1289.570709712993
 30
0.0
 11
1031.958762624459
 21
1291.570709712993
 31
0.0
  0
LINE
  5
19A5
330
2
100
AcDbEntity
  8
エンボス
  6
Continuous
100
AcDbLine
 10
1031.958762624459
 20
1284.570709712993
 30
0.0
 11
1026.958762624459
 21
1286.570709712993
 31
0.0
  0
LINE
  5
19A6
330
2
100
AcDbEntity
  8
エンボス
  6
Continuous
100
AcDbLine
 10
1026.958762624459
 20
1317.570709712993
 30
0.0
 11
1031.958762624459
 21
1319.570709712993
 31
0.0
  0
LINE
  5
19A7
330
2
100
AcDbEntity
  8
エンボス
  6
Continuous
100
AcDbLine
 10
1026.958762624459
 20
1305.570709712993
 30
0.0
 11
1031.958762624459
 21
1303.570709712993
 31
0.0
  0
LINE
  5
19A8
330
2
100
AcDbEntity
  8
エンボス
  6
Continuous
100
AcDbLine
 10
1031.958762624459
 20
1300.570709712993
 30
0.0
 11
1026.958762624459
 21
1298.570709712993
 31
0.0
  0
LINE
  5
19A9
330
2
100
AcDbEntity
  8
エンボス
  6
Continuous
100
AcDbLine
 10
1031.958762624459
 20
1312.570709712993
 30
0.0
 11
1026.958762624459
 21
1314.570709712993
 31
0.0
  0
LINE
  5
19AA
330
2
100
AcDbEntity
  8
本体
  6
Continuous
100
AcDbLine
 10
1031.958762624459
 20
1271.070709712993
 30
0.0
 11
1031.958762624459
 21
1227.070709712993
 31
0.0
  0
LINE
  5
19AB
330
2
100
AcDbEntity
  8
本体
  6
Continuous
100
AcDbLine
 10
1026.958762624459
 20
1271.070709712993
 30
0.0
 11
1026.958762624459
 21
1227.070709712993
 31
0.0
  0
LINE
  5
19AC
330
2
100
AcDbEntity
  8
エンボス
  6
Continuous
100
AcDbLine
 10
1026.958762624459
 20
1239.570709712993
 30
0.0
 11
1031.958762624459
 21
1241.570709712993
 31
0.0
  0
LINE
  5
19AD
330
2
100
AcDbEntity
  8
エンボス
  6
Continuous
100
AcDbLine
 10
1031.958762624459
 20
1234.570709712993
 30
0.0
 11
1026.958762624459
 21
1236.570709712993
 31
0.0
  0
LINE
  5
19AE
330
2
100
AcDbEntity
  8
エンボス
  6
Continuous
100
AcDbLine
 10
1026.958762624459
 20
1267.570709712993
 30
0.0
 11
1031.958762624459
 21
1269.570709712993
 31
0.0
  0
LINE
  5
19AF
330
2
100
AcDbEntity
  8
エンボス
  6
Continuous
100
AcDbLine
 10
1026.958762624459
 20
1255.570709712993
 30
0.0
 11
1031.958762624459
 21
1253.570709712993
 31
0.0
  0
LINE
  5
19B0
330
2
100
AcDbEntity
  8
エンボス
  6
Continuous
100
AcDbLine
 10
1031.958762624459
 20
1250.570709712993
 30
0.0
 11
1026.958762624459
 21
1248.570709712993
 31
0.0
  0
LINE
  5
19B1
330
2
100
AcDbEntity
  8
エンボス
  6
Continuous
100
AcDbLine
 10
1031.958762624459
 20
1262.570709712993
 30
0.0
 11
1026.958762624459
 21
1264.570709712993
 31
0.0
  0
LINE
  5
19B2
330
2
100
AcDbEntity
  8
本体
  6
Continuous
100
AcDbLine
 10
1031.958762624459
 20
1221.070709712993
 30
0.0
 11
1031.958762624459
 21
1177.070709712993
 31
0.0
  0
LINE
  5
19B3
330
2
100
AcDbEntity
  8
本体
  6
Continuous
100
AcDbLine
 10
1026.958762624459
 20
1221.070709712993
 30
0.0
 11
1026.958762624459
 21
1177.070709712993
 31
0.0
  0
LINE
  5
19B4
330
2
100
AcDbEntity
  8
エンボス
  6
Continuous
100
AcDbLine
 10
1026.958762624459
 20
1189.570709712993
 30
0.0
 11
1031.958762624459
 21
1191.570709712993
 31
0.0
  0
LINE
  5
19B5
330
2
100
AcDbEntity
  8
エンボス
  6
Continuous
100
AcDbLine
 10
1031.958762624459
 20
1184.570709712993
 30
0.0
 11
1026.958762624459
 21
1186.570709712993
 31
0.0
  0
LINE
  5
19B6
330
2
100
AcDbEntity
  8
エンボス
  6
Continuous
100
AcDbLine
 10
1026.958762624459
 20
1217.570709712993
 30
0.0
 11
1031.958762624459
 21
1219.570709712993
 31
0.0
  0
LINE
  5
19B7
330
2
100
AcDbEntity
  8
エンボス
  6
Continuous
100
AcDbLine
 10
1026.958762624459
 20
1205.570709712993
 30
0.0
 11
1031.958762624459
 21
1203.570709712993
 31
0.0
  0
LINE
  5
19B8
330
2
100
AcDbEntity
  8
エンボス
  6
Continuous
100
AcDbLine
 10
1031.958762624459
 20
1200.570709712993
 30
0.0
 11
1026.958762624459
 21
1198.570709712993
 31
0.0
  0
LINE
  5
19B9
330
2
100
AcDbEntity
  8
エンボス
  6
Continuous
100
AcDbLine
 10
1031.958762624459
 20
1212.570709712993
 30
0.0
 11
1026.958762624459
 21
1214.570709712993
 31
0.0
  0
LINE
  5
19BA
330
2
100
AcDbEntity
  8
本体
  6
Continuous
100
AcDbLine
 10
1031.958762624459
 20
1171.070709712993
 30
0.0
 11
1031.958762624459
 21
1127.070709712993
 31
0.0
  0
LINE
  5
19BB
330
2
100
AcDbEntity
  8
本体
  6
Continuous
100
AcDbLine
 10
1026.958762624459
 20
1171.070709712993
 30
0.0
 11
1026.958762624459
 21
1127.070709712993
 31
0.0
  0
LINE
  5
19BC
330
2
100
AcDbEntity
  8
エンボス
  6
Continuous
100
AcDbLine
 10
1026.958762624459
 20
1139.570709712993
 30
0.0
 11
1031.958762624459
 21
1141.570709712993
 31
0.0
  0
LINE
  5
19BD
330
2
100
AcDbEntity
  8
エンボス
  6
Continuous
100
AcDbLine
 10
1031.958762624459
 20
1134.570709712993
 30
0.0
 11
1026.958762624459
 21
1136.570709712993
 31
0.0
  0
LINE
  5
19BE
330
2
100
AcDbEntity
  8
エンボス
  6
Continuous
100
AcDbLine
 10
1026.958762624459
 20
1167.570709712993
 30
0.0
 11
1031.958762624459
 21
1169.570709712993
 31
0.0
  0
LINE
  5
19BF
330
2
100
AcDbEntity
  8
エンボス
  6
Continuous
100
AcDbLine
 10
1026.958762624459
 20
1155.570709712993
 30
0.0
 11
1031.958762624459
 21
1153.570709712993
 31
0.0
  0
LINE
  5
19C0
330
2
100
AcDbEntity
  8
エンボス
  6
Continuous
100
AcDbLine
 10
1031.958762624459
 20
1150.570709712993
 30
0.0
 11
1026.958762624459
 21
1148.570709712993
 31
0.0
  0
LINE
  5
19C1
330
2
100
AcDbEntity
  8
エンボス
  6
Continuous
100
AcDbLine
 10
1031.958762624459
 20
1162.570709712993
 30
0.0
 11
1026.958762624459
 21
1164.570709712993
 31
0.0
  0
INSERT
  5
19D2
102
{ACAD_REACTORS
330
1A49
102
}
330
2
100
AcDbEntity
  8
本体
100
AcDbBlockReference
  2
*U22
 10
549.4587626244593
 20
1399.070709712993
 30
0.0
  0
LEADER
  5
1A5C
330
2
100
AcDbEntity
  8
寸法線
  6
Continuous
100
AcDbLeader
  3
ISO-25
 73
     0
 74
     0
 75
     1
 40
30.0
 41
210.7614213197969
 76
     3
 10
1029.730858097325
 20
1586.925415038844
 30
0.0
 10
1085.44153621598
 20
1652.636093157498
 30
0.0
 10
1100.44153621598
 20
1652.636093157498
 30
0.0
340
1A5D
1001
ACAD
1000
DSTYLE
1002
{
1070
     5
1000
OPEN30
1070
    77
1070
     1
1070
   147
1040
0.5
1070
   342
1005
D2
1002
}
  0
MTEXT
  5
1A5D
102
{ACAD_REACTORS
330
1A5C
102
}
330
2
100
AcDbEntity
  8
寸法線
  6
Continuous
100
AcDbMText
 10
1105.441536215979
 20
1657.636093157498
 30
0.0
 40
30.0
 41
0.0
 71
     7
 72
     1
  1
GIB5\U+00D73\U+00D732
 73
     1
 44
1.0
1001
ACAD
1000
MTEXTBEGIN
1070
    73
1070
     1
1070
    44
1040
1.0
1070
    74
1070
     0
1000
MTEXTEND
  0
LEADER
  5
1A5E
330
2
100
AcDbEntity
  8
寸法線
  6
Continuous
100
AcDbLeader
  3
ISO-25
 73
     0
 74
     0
 75
     1
 40
30.0
 41
35.78680203045685
 76
     3
 10
1029.730858097325
 20
1472.671165107179
 30
0.0
 10
1085.44153621598
 20
1538.381843225834
 30
0.0
 10
1100.44153621598
 20
1538.381843225834
 30
0.0
340
1A5F
1001
ACAD
1000
DSTYLE
1002
{
1070
     5
1000
OPEN30
1070
    77
1070
     1
1070
   147
1040
0.5
1070
   342
1005
D2
1002
}
  0
MTEXT
  5
1A5F
102
{ACAD_REACTORS
330
1A5E
102
}
330
2
100
AcDbEntity
  8
寸法線
  6
Continuous
100
AcDbMText
 10
1105.441536215979
 20
1543.381843225834
 30
0.0
 40
30.0
 41
0.0
 71
     7
 72
     1
  1
TB
 73
     1
 44
1.0
1001
ACAD
1000
MTEXTBEGIN
1070
    73
1070
     1
1070
    44
1040
1.0
1070
    74
1070
     0
1000
MTEXTEND
  0
ENDSEC
  0
SECTION
  2
OBJECTS
  0
DICTIONARY
  5
7
330
0
100
AcDbDictionary
281
     1
  3
ACAD_ASSOCNETWORK
350
17B3
  3
ACAD_CIP_PREVIOUS_PRODUCT_INFO
350
1526
  3
ACAD_COLOR
350
1504
  3
ACAD_DETAILVIEWSTYLE
350
151D
  3
ACAD_GROUP
350
460
  3
ACAD_LAYOUT
350
446
  3
ACAD_MATERIAL
350
14D2
  3
ACAD_MLEADERSTYLE
350
1519
  3
ACAD_MLINESTYLE
350
461
  3
ACAD_PLOTSETTINGS
350
462
  3
ACAD_PLOTSTYLENAME
350
6
  3
ACAD_SCALELIST
350
1507
  3
ACAD_SECTIONVIEWSTYLE
350
151B
  3
ACAD_TABLESTYLE
350
1505
  3
ACAD_VISUALSTYLE
350
14EB
  3
ACDB_RECOMPOSE_DATA
350
1B23
  3
AcDbVariableDictionary
350
1581
  3
DWGPROPS
350
1B24
  0
DICTIONARY
  5
1544
330
45B
100
AcDbDictionary
280
     1
281
     1
  0
DICTIONARY
  5
1593
330
453
100
AcDbDictionary
280
     1
281
     1
  3
ACAD_LAYERSTATES
360
1594
  0
DICTIONARY
  5
1527
330
64
100
AcDbDictionary
280
     1
281
     1
  3
ADSK_XREC_LAYER_RECONCILED
360
1528
  0
DICTIONARY
  5
1529
330
6A
100
AcDbDictionary
280
     1
281
     1
  3
ADSK_XREC_LAYER_RECONCILED
360
152A
  0
DICTIONARY
  5
152B
330
4
100
AcDbDictionary
280
     1
281
     1
  3
ADSK_XREC_LAYER_RECONCILED
360
152C
  0
DICTIONARY
  5
152F
330
67
100
AcDbDictionary
280
     1
281
     1
  3
ADSK_XREC_LAYER_RECONCILED
360
1530
  0
DICTIONARY
  5
1531
330
11
100
AcDbDictionary
280
     1
281
     1
  3
ADSK_XREC_LAYER_RECONCILED
360
1532
  0
DICTIONARY
  5
1535
330
14B8
100
AcDbDictionary
280
     1
281
     1
  3
ADSK_XREC_LAYER_RECONCILED
360
1536
  0
DICTIONARY
  5
1537
330
14B9
100
AcDbDictionary
280
     1
281
     1
  3
ADSK_XREC_LAYER_RECONCILED
360
1538
  0
DICTIONARY
  5
441
330
2
100
AcDbDictionary
280
     1
281
     1
  3
ACAD_ASSOCNETWORK
360
17B1
  3
ACAD_LAYOUTSELFREF
360
1404
  3
ACAD_SORTENTS
360
1649
  0
DICTIONARY
  5
448
330
447
100
AcDbDictionary
280
     1
281
     1
  3
ACAD_LAYOUTSELFREF
360
1411
  0
DICTIONARY
  5
44E
330
44D
100
AcDbDictionary
280
     1
281
     1
  3
ACAD_LAYOUTSELFREF
360
1412
  0
DICTIONARY
  5
15EA
330
15E6
100
AcDbDictionary
280
     1
281
     1
  0
DICTIONARY
  5
1AB9
330
17A7
100
AcDbDictionary
280
     1
281
     1
  3
AcDbBlockTableRecordData
360
1B65
  0
DICTIONARY
  5
1ABC
330
19CF
100
AcDbDictionary
280
     1
281
     1
  3
AcDbBlockTableRecordData
360
1B67
  0
DICTIONARY
  5
1AD5
330
1AD3
100
AcDbDictionary
280
     1
281
     1
  0
DICTIONARY
  5
17B3
102
{ACAD_REACTORS
330
7
102
}
330
7
100
AcDbDictionary
281
     1
  3
ACAD_ASSOCNETWORK
350
17B4
  0
XRECORD
  5
1526
102
{ACAD_REACTORS
330
7
102
}
330
7
100
AcDbXrecord
280
     1
300
ACDLT
300
2014
300
ACDLT_F_S
  0
DICTIONARY
  5
1504
102
{ACAD_REACTORS
330
7
102
}
330
7
100
AcDbDictionary
281
     1
  0
DICTIONARY
  5
151D
102
{ACAD_REACTORS
330
7
102
}
330
7
100
AcDbDictionary
281
     1
  3
Metric50
350
151E
  0
DICTIONARY
  5
460
102
{ACAD_REACTORS
330
7
102
}
330
7
100
AcDbDictionary
281
     1
  0
DICTIONARY
  5
446
102
{ACAD_REACTORS
330
7
102
}
330
7
100
AcDbDictionary
281
     1
  3
Layout1
350
44C
  3
Layout2
350
452
  3
Model
350
445
  0
DICTIONARY
  5
14D2
102
{ACAD_REACTORS
330
7
102
}
330
7
100
AcDbDictionary
281
     1
  3
ByBlock
350
14DB
  3
ByLayer
350
14D3
  3
Global
350
14E3
  0
DICTIONARY
  5
1519
102
{ACAD_REACTORS
330
7
102
}
330
7
100
AcDbDictionary
281
     1
  3
Standard
350
151A
  0
DICTIONARY
  5
461
102
{ACAD_REACTORS
330
7
102
}
330
7
100
AcDbDictionary
281
     1
  3
Standard
350
463
  0
DICTIONARY
  5
462
102
{ACAD_REACTORS
330
7
102
}
330
7
100
AcDbDictionary
281
     1
  0
ACDBDICTIONARYWDFLT
  5
6
102
{ACAD_REACTORS
330
7
102
}
330
7
100
AcDbDictionary
281
     1
  3
Normal
350
5
100
AcDbDictionaryWithDefault
340
5
  0
DICTIONARY
  5
1507
102
{ACAD_REACTORS
330
7
102
}
330
7
100
AcDbDictionary
281
     1
  3
A0
350
1508
  3
A1
350
1509
  3
A2
350
150A
  3
A3
350
150B
  3
A4
350
150C
  3
A5
350
150D
  3
A6
350
150E
  3
A7
350
150F
  3
A8
350
1510
  3
A9
350
1511
  3
B0
350
1512
  3
B1
350
1513
  3
B2
350
1514
  3
B3
350
1515
  3
B4
350
1516
  3
B5
350
1517
  3
B6
350
1518
  0
DICTIONARY
  5
151B
102
{ACAD_REACTORS
330
7
102
}
330
7
100
AcDbDictionary
281
     1
  3
Metric50
350
151C
  0
DICTIONARY
  5
1505
102
{ACAD_REACTORS
330
7
102
}
330
7
100
AcDbDictionary
281
     1
  3
Standard
350
1506
  0
DICTIONARY
  5
14EB
102
{ACAD_REACTORS
330
7
102
}
330
7
100
AcDbDictionary
281
     1
  3
2dWireframe
350
14F1
  3
Basic
350
14F0
  3
Brighten
350
14F7
  3
ColorChange
350
14FB
  3
Conceptual
350
14F4
  3
Dim
350
14F6
  3
EdgeColorOff
350
1503
  3
Facepattern
350
14FA
  3
Flat
350
14EC
  3
FlatWithEdges
350
14ED
  3
Gouraud
350
14EE
  3
GouraudWithEdges
350
14EF
  3
Hidden
350
14F3
  3
JitterOff
350
1501
  3
Linepattern
350
14F9
  3
OverhangOff
350
1502
  3
Realistic
350
14F5
  3
Shaded
350
1500
  3
Shaded with edges
350
14FF
  3
Shades of Gray
350
14FC
  3
Sketchy
350
14FD
  3
Thicken
350
14F8
  3
Wireframe
350
14F2
  3
X-Ray
350
14FE
  0
XRECORD
  5
1B23
102
{ACAD_REACTORS
330
7
102
}
330
7
100
AcDbXrecord
280
     1
 90
        1
330
1506
  0
DICTIONARY
  5
1581
102
{ACAD_REACTORS
330
7
102
}
330
7
100
AcDbDictionary
281
     1
  3
CANNOSCALE
350
1586
  3
CMLEADERSTYLE
350
1583
  3
CTABLESTYLE
350
1582
  3
CVIEWDETAILSTYLE
350
1584
  3
CVIEWSECTIONSTYLE
350
1585
  3
DIMASSOC
350
1589
  3
INDEXCTL
350
1588
  3
SORTENTS
350
1587
  3
XCLIPFRAME
350
1B21
  0
XRECORD
  5
1B24
102
{ACAD_REACTORS
330
7
102
}
330
7
100
AcDbXrecord
280
     1
  1
DWGPROPS COOKIE
  2

  3

  4

  6

  7

  8
takara
  9

300
=
301
=
302
=
303
=
304
=
305
=
306
=
307
=
308
=
309
=
 40
0.044717962962963
 41
2453510.558637211
 42
2457557.663531134
  1

 90
        0
  0
DICTIONARY
  5
1594
102
{ACAD_REACTORS
330
1593
102
}
330
1593
100
AcDbDictionary
281
     1
  3
_LAYISO_STATE
350
17CE
1001
AcLayerTools
1000
445
1000
0
  0
XRECORD
  5
1528
102
{ACAD_REACTORS
330
1527
102
}
330
1527
100
AcDbXrecord
280
     1
290
     1
  0
XRECORD
  5
152A
102
{ACAD_REACTORS
330
1529
102
}
330
1529
100
AcDbXrecord
280
     1
290
     1
  0
XRECORD
  5
152C
102
{ACAD_REACTORS
330
152B
102
}
330
152B
100
AcDbXrecord
280
     1
290
     1
  0
XRECORD
  5
1530
102
{ACAD_REACTORS
330
152F
102
}
330
152F
100
AcDbXrecord
280
     1
290
     1
  0
XRECORD
  5
1532
102
{ACAD_REACTORS
330
1531
102
}
330
1531
100
AcDbXrecord
280
     1
290
     1
  0
XRECORD
  5
1536
102
{ACAD_REACTORS
330
1535
102
}
330
1535
100
AcDbXrecord
280
     1
290
     1
  0
XRECORD
  5
1538
102
{ACAD_REACTORS
330
1537
102
}
330
1537
100
AcDbXrecord
280
     1
290
     1
  0
DICTIONARY
  5
17B1
102
{ACAD_REACTORS
330
441
102
}
330
441
100
AcDbDictionary
281
     1
  3
ACAD_ASSOCNETWORK
350
17B2
  0
XRECORD
  5
1404
102
{ACAD_REACTORS
330
441
102
}
330
441
100
AcDbXrecord
280
     1
340
2
  0
SORTENTSTABLE
  5
1649
102
{ACAD_REACTORS
330
441
102
}
330
441
100
AcDbSortentsTable
330
2
331
5C
  5
5C
331
1F
  5
1F
331
B8C
  5
B8C
331
E20
  5
E20
331
DA
  5
DA
331
2C
  5
2C
331
1CD
  5
1CD
331
10EB
  5
10EB
331
12B6
  5
12B6
331
AF
  5
AF
331
46
  5
46
331
14B6
  5
14B6
331
53
  5
53
331
112
  5
112
331
F85
  5
F85
331
60
  5
60
331
23
  5
23
331
3E
  5
3E
331
46E
  5
46E
331
141D
  5
141D
331
102A
  5
102A
331
B4
  5
B4
331
4B
  5
4B
331
18F
  5
18F
331
1B
  5
1B
331
58
  5
58
331
12BA
  5
12BA
331
117
  5
117
331
28
  5
28
331
42E
  5
42E
331
200
  5
200
331
24D
  5
24D
331
AB
  5
AB
331
CE
  5
CE
331
42
  5
42
331
5D
  5
5D
331
149C
  5
149C
331
186
  5
186
331
B8
  5
B8
331
12
  5
12
331
C31
  5
C31
331
3A
  5
3A
331
292
  5
292
331
10EC
  5
10EC
331
11B
  5
11B
331
B0
  5
B0
331
136
  5
136
331
47
  5
47
331
12D4
  5
12D4
331
14B7
  5
14B7
331
17
  5
17
331
54
  5
54
331
419
  5
419
331
10E4
  5
10E4
331
113
  5
113
331
F86
  5
F86
331
61
  5
61
331
24
  5
24
331
3F
  5
3F
331
46F
  5
46F
331
1FC
  5
1FC
331
141E
  5
141E
331
34C
  5
34C
331
297
  5
297
331
102B
  5
102B
331
D96
  5
D96
331
31
  5
31
331
B5
  5
B5
331
4C
  5
4C
331
BA7
  5
BA7
331
E3B
  5
E3B
331
CA
  5
CA
331
1C
  5
1C
331
59
  5
59
331
12BB
  5
12BB
331
EE0
  5
EE0
331
29
  5
29
331
10E8
  5
10E8
331
416
  5
416
331
AC
  5
AC
331
43
  5
43
331
CF
  5
CF
331
5E
  5
5E
331
350
  5
350
331
29B
  5
29B
331
149D
  5
149D
331
50
  5
50
331
13
  5
13
331
2E8
  5
2E8
331
20
  5
20
331
3B
  5
3B
331
46B
  5
46B
331
11C
  5
11C
331
100F
  5
100F
331
B1
  5
B1
331
137
  5
137
331
48
  5
48
331
129
  5
129
331
10B4
  5
10B4
331
55
  5
55
331
18
  5
18
331
41A
  5
41A
331
10E5
  5
10E5
331
114
  5
114
331
1B1
  5
1B1
331
62
  5
62
331
25
  5
25
331
1FD
  5
1FD
331
D97
  5
D97
331
1BE
  5
1BE
331
32
  5
32
331
4D
  5
4D
331
440
  5
440
331
E3C
  5
E3C
331
CB
  5
CB
331
5A
  5
5A
331
1D
  5
1D
331
12BC
  5
12BC
331
41F
  5
41F
331
EE1
  5
EE1
331
C4C
  5
C4C
331
2A
  5
2A
331
A5D
  5
A5D
331
CF1
  5
CF1
331
190
  5
190
331
37
  5
37
331
10E9
  5
10E9
331
B02
  5
B02
331
118
  5
118
331
44
  5
44
331
5F
  5
5F
331
351
  5
351
331
BA
  5
BA
331
14B4
  5
14B4
331
51
  5
51
331
14
  5
14
331
2F
  5
2F
331
10E1
  5
10E1
331
21
  5
21
331
3C
  5
3C
331
46C
  5
46C
331
F7
  5
F7
331
B2
  5
B2
331
49
  5
49
331
56
  5
56
331
19
  5
19
331
12B8
  5
12B8
331
41B
  5
41B
331
10E6
  5
10E6
331
EC5
  5
EC5
331
115
  5
115
331
26
  5
26
331
10D0
  5
10D0
331
1FE
  5
1FE
331
F6A
  5
F6A
331
34E
  5
34E
331
B7
  5
B7
331
33
  5
33
331
4E
  5
4E
331
CC
  5
CC
331
40
  5
40
331
5B
  5
5B
331
1E
  5
1E
331
298
  5
298
331
C4D
  5
C4D
331
2B
  5
2B
331
BA8
  5
BA8
331
A5E
  5
A5E
331
CF2
  5
CF2
331
38
  5
38
331
468
  5
468
331
10EA
  5
10EA
331
B03
  5
B03
331
12B5
  5
12B5
331
119
  5
119
331
AE
  5
AE
331
45
  5
45
331
352
  5
352
331
BB
  5
BB
331
104
  5
104
331
14B5
  5
14B5
331
52
  5
52
331
111
  5
111
331
D0
  5
D0
331
22
  5
22
331
3D
  5
3D
331
46D
  5
46D
331
141C
  5
141C
331
B3
  5
B3
331
4A
  5
4A
331
15ED
  5
15ED
331
1A
  5
1A
331
57
  5
57
331
41C
  5
41C
331
12B9
  5
12B9
331
10E7
  5
10E7
331
116
  5
116
331
27
  5
27
331
10D1
  5
10D1
331
1FF
  5
1FF
331
34F
  5
34F
331
CD6
  5
CD6
331
4F
  5
4F
331
AE7
  5
AE7
331
24C
  5
24C
331
2E7
  5
2E7
331
D7B
  5
D7B
331
CD
  5
CD
331
41
  5
41
  0
XRECORD
  5
1411
102
{ACAD_REACTORS
330
448
102
}
330
448
100
AcDbXrecord
280
     1
340
447
  0
XRECORD
  5
1412
102
{ACAD_REACTORS
330
44E
102
}
330
44E
100
AcDbXrecord
280
     1
340
44D
  0
DICTIONARY
  5
1B65
102
{ACAD_REACTORS
330
1AB9
102
}
330
1AB9
100
AcDbDictionary
280
     1
281
     1
  3
Edit
360
1B66
  0
DICTIONARY
  5
1B67
102
{ACAD_REACTORS
330
1ABC
102
}
330
1ABC
100
AcDbDictionary
280
     1
281
     1
  3
Edit
360
1B68
  0
ACDBASSOCNETWORK
  5
17B4
102
{ACAD_REACTORS
330
17B3
102
}
330
17B3
100
AcDbAssocAction
 90
        1
 90
        1
330
0
360
0
 90
        0
 90
        0
 90
        0
100
AcDbAssocNetwork
 90
        0
 90
        1
 90
        1
330
17B2
 90
        1
330
17B2
  0
ACDBDETAILVIEWSTYLE
  5
151E
102
{ACAD_XDICTIONARY
360
1B63
102
}
102
{ACAD_REACTORS
330
151D
102
}
330
151D
100
AcDbModelDocViewStyle
 70
     0
  3
Metric50
290
     0
100
AcDbDetailViewStyle
 70
     0
 71
     0
 90
        3
 71
     1
340
9
 40
5.0
340
0
 40
5.0
300

 40
0.0
280
     1
 71
     2
340
8
 90
       25
 71
     3
340
9
 40
5.0
 90
        0
 40
15.0
 90
        1
300
%<\AcVar ViewDetailId>% (%<\AcVar ViewScale \f "%sn">%)
 71
     4
340
8
 90
       25
340
8
 90
       25
280
     0
  0
LAYOUT
  5
44C
102
{ACAD_XDICTIONARY
360
1B27
102
}
102
{ACAD_REACTORS
330
446
102
}
330
446
100
AcDbPlotSettings
  1

  2
None
  4

  6

 40
0.0
 41
0.0
 42
0.0
 43
0.0
 44
0.0
 45
0.0
 46
0.0
 47
0.0
 48
0.0
 49
0.0
140
0.0
141
0.0
142
1.0
143
1.0
 70
   688
 72
     0
 73
     0
 74
     5
  7
monochrome.ctb
 75
    16
147
1.0
148
0.0
149
0.0
100
AcDbLayout
  1
Layout1
 70
     1
 71
     1
 10
0.0
 20
0.0
 11
12.0
 21
9.0
 12
0.0
 22
0.0
 32
0.0
 14
0.0
 24
0.0
 34
0.0
 15
0.0
 25
0.0
 35
0.0
146
0.0
 13
0.0
 23
0.0
 33
0.0
 16
1.0
 26
0.0
 36
0.0
 17
0.0
 27
1.0
 37
0.0
 76
     0
330
447
  0
LAYOUT
  5
452
102
{ACAD_XDICTIONARY
360
1B29
102
}
102
{ACAD_REACTORS
330
446
102
}
330
446
100
AcDbPlotSettings
  1

  2
None
  4

  6

 40
0.0
 41
0.0
 42
0.0
 43
0.0
 44
0.0
 45
0.0
 46
0.0
 47
0.0
 48
0.0
 49
0.0
140
0.0
141
0.0
142
1.0
143
1.0
 70
   688
 72
     0
 73
     0
 74
     5
  7
monochrome.ctb
 75
    16
147
1.0
148
0.0
149
0.0
100
AcDbLayout
  1
Layout2
 70
     1
 71
     2
 10
0.0
 20
0.0
 11
12.0
 21
9.0
 12
0.0
 22
0.0
 32
0.0
 14
0.0
 24
0.0
 34
0.0
 15
0.0
 25
0.0
 35
0.0
146
0.0
 13
0.0
 23
0.0
 33
0.0
 16
1.0
 26
0.0
 36
0.0
 17
0.0
 27
1.0
 37
0.0
 76
     0
330
44D
  0
LAYOUT
  5
445
102
{ACAD_XDICTIONARY
360
1B25
102
}
102
{ACAD_REACTORS
330
446
102
}
330
446
100
AcDbPlotSettings
  1

  2
EPSON LP-9400
  4
A4
  6

 40
5.873749732971191
 41
5.873747825622558
 42
5.873748779296875
 43
5.873748779296875
 44
209.9733276367187
 45
297.0106506347656
 46
2.339999999999999
 47
0.0
 48
0.0
 49
0.0
140
0.0
141
0.0
142
1.0
143
9.816891609963194
 70
 11956
 72
     1
 73
     1
 74
     1
  7
monochrome.ctb
 75
     0
147
0.1018652379725877
148
1264.94917075748
149
959.6633564695521
100
AcDbLayout
  1
Model
 70
     1
 71
     0
 10
0.0
 20
0.0
 11
12.0
 21
9.0
 12
0.0
 22
0.0
 32
0.0
 14
0.0
 24
0.0
 34
0.0
 15
0.0
 25
0.0
 35
0.0
146
0.0
 13
0.0
 23
0.0
 33
0.0
 16
1.0
 26
0.0
 36
0.0
 17
0.0
 27
1.0
 37
0.0
 76
     0
330
2
331
14D0
  0
MATERIAL
  5
14DB
102
{ACAD_XDICTIONARY
360
14DC
102
}
102
{ACAD_REACTORS
330
14D2
102
}
330
14D2
100
AcDbMaterial
  1
ByBlock
 72
     0
 43
0.0008202099737533
 43
0.0
 43
0.0
 43
0.0
 43
0.0
 43
0.0008202099737533
 43
0.0
 43
0.0
 43
0.0
 43
0.0
 43
1.0
 43
0.0
 43
0.0
 43
0.0
 43
0.0
 43
1.0
 77
     0
 47
0.0008202099737533
 47
0.0
 47
0.0
 47
0.0
 47
0.0
 47
0.0008202099737533
 47
0.0
 47
0.0
 47
0.0
 47
0.0
 47
1.0
 47
0.0
 47
0.0
 47
0.0
 47
0.0
 47
1.0
171
     0
 49
0.0008202099737533
 49
0.0
 49
0.0
 49
0.0
 49
0.0
 49
0.0008202099737533
 49
0.0
 49
0.0
 49
0.0
 49
0.0
 49
1.0
 49
0.0
 49
0.0
 49
0.0
 49
0.0
 49
1.0
175
     0
142
0.0008202099737533
142
0.0
142
0.0
142
0.0
142
0.0
142
0.0008202099737533
142
0.0
142
0.0
142
0.0
142
0.0
142
1.0
142
0.0
142
0.0
142
0.0
142
0.0
142
1.0
179
     0
144
0.0008202099737533
144
0.0
144
0.0
144
0.0
144
0.0
144
0.0008202099737533
144
0.0
144
0.0
144
0.0
144
0.0
144
1.0
144
0.0
144
0.0
144
0.0
144
0.0
144
1.0
147
0.0008202099737533
147
0.0
147
0.0
147
0.0
147
0.0
147
0.0008202099737533
147
0.0
147
0.0
147
0.0
147
0.0
147
1.0
147
0.0
147
0.0
147
0.0
147
0.0
147
1.0
  0
MATERIAL
  5
14D3
102
{ACAD_XDICTIONARY
360
14D4
102
}
102
{ACAD_REACTORS
330
14D2
102
}
330
14D2
100
AcDbMaterial
  1
ByLayer
 72
     0
 43
0.0008202099737533
 43
0.0
 43
0.0
 43
0.0
 43
0.0
 43
0.0008202099737533
 43
0.0
 43
0.0
 43
0.0
 43
0.0
 43
1.0
 43
0.0
 43
0.0
 43
0.0
 43
0.0
 43
1.0
 77
     0
 47
0.0008202099737533
 47
0.0
 47
0.0
 47
0.0
 47
0.0
 47
0.0008202099737533
 47
0.0
 47
0.0
 47
0.0
 47
0.0
 47
1.0
 47
0.0
 47
0.0
 47
0.0
 47
0.0
 47
1.0
171
     0
 49
0.0008202099737533
 49
0.0
 49
0.0
 49
0.0
 49
0.0
 49
0.0008202099737533
 49
0.0
 49
0.0
 49
0.0
 49
0.0
 49
1.0
 49
0.0
 49
0.0
 49
0.0
 49
0.0
 49
1.0
175
     0
142
0.0008202099737533
142
0.0
142
0.0
142
0.0
142
0.0
142
0.0008202099737533
142
0.0
142
0.0
142
0.0
142
0.0
142
1.0
142
0.0
142
0.0
142
0.0
142
0.0
142
1.0
179
     0
144
0.0008202099737533
144
0.0
144
0.0
144
0.0
144
0.0
144
0.0008202099737533
144
0.0
144
0.0
144
0.0
144
0.0
144
1.0
144
0.0
144
0.0
144
0.0
144
0.0
144
1.0
147
0.0008202099737533
147
0.0
147
0.0
147
0.0
147
0.0
147
0.0008202099737533
147
0.0
147
0.0
147
0.0
147
0.0
147
1.0
147
0.0
147
0.0
147
0.0
147
0.0
147
1.0
  0
MATERIAL
  5
14E3
102
{ACAD_XDICTIONARY
360
14E4
102
}
102
{ACAD_REACTORS
330
14D2
102
}
330
14D2
100
AcDbMaterial
  1
Global
 72
     0
 43
0.0008202099737533
 43
0.0
 43
0.0
 43
0.0
 43
0.0
 43
0.0008202099737533
 43
0.0
 43
0.0
 43
0.0
 43
0.0
 43
1.0
 43
0.0
 43
0.0
 43
0.0
 43
0.0
 43
1.0
 77
     0
 47
0.0008202099737533
 47
0.0
 47
0.0
 47
0.0
 47
0.0
 47
0.0008202099737533
 47
0.0
 47
0.0
 47
0.0
 47
0.0
 47
1.0
 47
0.0
 47
0.0
 47
0.0
 47
0.0
 47
1.0
171
     0
 49
0.0008202099737533
 49
0.0
 49
0.0
 49
0.0
 49
0.0
 49
0.0008202099737533
 49
0.0
 49
0.0
 49
0.0
 49
0.0
 49
1.0
 49
0.0
 49
0.0
 49
0.0
 49
0.0
 49
1.0
175
     0
142
0.0008202099737533
142
0.0
142
0.0
142
0.0
142
0.0
142
0.0008202099737533
142
0.0
142
0.0
142
0.0
142
0.0
142
1.0
142
0.0
142
0.0
142
0.0
142
0.0
142
1.0
179
     0
144
0.0008202099737533
144
0.0
144
0.0
144
0.0
144
0.0
144
0.0008202099737533
144
0.0
144
0.0
144
0.0
144
0.0
144
1.0
144
0.0
144
0.0
144
0.0
144
0.0
144
1.0
147
0.0008202099737533
147
0.0
147
0.0
147
0.0
147
0.0
147
0.0008202099737533
147
0.0
147
0.0
147
0.0
147
0.0
147
1.0
147
0.0
147
0.0
147
0.0
147
0.0
147
1.0
  0
MLEADERSTYLE
  5
151A
102
{ACAD_XDICTIONARY
360
1B5F
102
}
102
{ACAD_REACTORS
330
1519
102
}
330
1519
100
AcDbMLeaderStyle
170
     2
171
     1
172
     0
 90
        2
 40
0.0
 41
0.0
173
     1
 91
-1056964608
340
457
 92
       -2
290
     1
 42
2.0
291
     1
 43
0.36
  3
Standard
 44
4.0
300

342
9
174
     1
178
     6
175
     1
176
     0
 93
-1056964608
 45
4.0
292
     0
297
     0
 46
4.0
 94
-1056964608
 47
1.0
 49
1.0
140
1.0
293
     1
141
0.0
294
     1
177
     0
142
1.0
295
     0
296
     0
143
0.125
1001
ACAD_MLEADERVER
1070
     2
  0
MLINESTYLE
  5
463
102
{ACAD_REACTORS
330
461
102
}
330
461
100
AcDbMlineStyle
  2
STANDARD
 70
     0
  3

 62
   256
 51
90.0
 52
90.0
 71
     2
 49
0.5
 62
   256
  6
BYLAYER
 49
-0.5
 62
   256
  6
BYLAYER
  0
ACDBPLACEHOLDER
  5
5
102
{ACAD_REACTORS
330
6
102
}
330
6
  0
SCALE
  5
1508
102
{ACAD_REACTORS
330
1507
102
}
330
1507
100
AcDbScale
 70
     0
300
1:1
140
1.0
141
1.0
290
     1
  0
SCALE
  5
1509
102
{ACAD_REACTORS
330
1507
102
}
330
1507
100
AcDbScale
 70
     0
300
1:2
140
1.0
141
2.0
290
     0
  0
SCALE
  5
150A
102
{ACAD_REACTORS
330
1507
102
}
330
1507
100
AcDbScale
 70
     0
300
1:4
140
1.0
141
4.0
290
     0
  0
SCALE
  5
150B
102
{ACAD_REACTORS
330
1507
102
}
330
1507
100
AcDbScale
 70
     0
300
1:5
140
1.0
141
5.0
290
     0
  0
SCALE
  5
150C
102
{ACAD_REACTORS
330
1507
102
}
330
1507
100
AcDbScale
 70
     0
300
1:8
140
1.0
141
8.0
290
     0
  0
SCALE
  5
150D
102
{ACAD_REACTORS
330
1507
102
}
330
1507
100
AcDbScale
 70
     0
300
1:10
140
1.0
141
10.0
290
     0
  0
SCALE
  5
150E
102
{ACAD_REACTORS
330
1507
102
}
330
1507
100
AcDbScale
 70
     0
300
1:16
140
1.0
141
16.0
290
     0
  0
SCALE
  5
150F
102
{ACAD_REACTORS
330
1507
102
}
330
1507
100
AcDbScale
 70
     0
300
1:20
140
1.0
141
20.0
290
     0
  0
SCALE
  5
1510
102
{ACAD_REACTORS
330
1507
102
}
330
1507
100
AcDbScale
 70
     0
300
1:30
140
1.0
141
30.0
290
     0
  0
SCALE
  5
1511
102
{ACAD_REACTORS
330
1507
102
}
330
1507
100
AcDbScale
 70
     0
300
1:40
140
1.0
141
40.0
290
     0
  0
SCALE
  5
1512
102
{ACAD_REACTORS
330
1507
102
}
330
1507
100
AcDbScale
 70
     0
300
1:50
140
1.0
141
50.0
290
     0
  0
SCALE
  5
1513
102
{ACAD_REACTORS
330
1507
102
}
330
1507
100
AcDbScale
 70
     0
300
1:100
140
1.0
141
100.0
290
     0
  0
SCALE
  5
1514
102
{ACAD_REACTORS
330
1507
102
}
330
1507
100
AcDbScale
 70
     0
300
2:1
140
2.0
141
1.0
290
     0
  0
SCALE
  5
1515
102
{ACAD_REACTORS
330
1507
102
}
330
1507
100
AcDbScale
 70
     0
300
4:1
140
4.0
141
1.0
290
     0
  0
SCALE
  5
1516
102
{ACAD_REACTORS
330
1507
102
}
330
1507
100
AcDbScale
 70
     0
300
8:1
140
8.0
141
1.0
290
     0
  0
SCALE
  5
1517
102
{ACAD_REACTORS
330
1507
102
}
330
1507
100
AcDbScale
 70
     0
300
10:1
140
10.0
141
1.0
290
     0
  0
SCALE
  5
1518
102
{ACAD_REACTORS
330
1507
102
}
330
1507
100
AcDbScale
 70
     0
300
100:1
140
100.0
141
1.0
290
     0
  0
ACDBSECTIONVIEWSTYLE
  5
151C
102
{ACAD_XDICTIONARY
360
1B61
102
}
102
{ACAD_REACTORS
330
151B
102
}
330
151B
100
AcDbModelDocViewStyle
 70
     0
  3
Metric50
290
     0
100
AcDbSectionViewStyle
 70
     0
 71
     0
 90
      102
 71
     1
340
9
 40
5.0
340
0
340
0
 40
5.0
300
I, O, Q, S, X, Z
 40
10.0
 90
        0
 40
2.5
 90
        0
 71
     2
340
8
 90
       25
340
8
 90
       50
 40
5.0
 40
2.5
 40
5.0
 71
     3
340
9
 40
5.0
 90
        0
 40
15.0
 90
        1
300
%<\AcVar ViewSectionStartId>%-%<\AcVar ViewSectionEndId>% (%<\AcVar ViewScale \f "%sn">%)
 71
     4
300
ANSI31
 40
1.0
 90
        0
290
     0
290
     0
 90
        6
 40
0.0
 40
1.570796326794896
 40
0.2617993877991494
 40
1.308996938995747
 40
-0.2617993877991494
 40
1.832595714594046
  0
TABLESTYLE
  5
1506
102
{ACAD_XDICTIONARY
360
153A
102
}
102
{ACAD_REACTORS
330
1505
102
}
330
1505
100
AcDbTableStyle
  3
Standard
 70
     0
 71
     0
 40
1.5
 41
1.5
280
     0
281
     0
  7
Standard
140
4.5
170
     2
 62
     0
 63
     7
283
     0
274
    -2
284
     1
 64
     0
275
    -2
285
     1
 65
     0
276
    -2
286
     1
 66
     0
277
    -2
287
     1
 67
     0
278
    -2
288
     1
 68
     0
279
    -2
289
     1
 69
     0
  7
Standard
140
6.0
170
     5
 62
     0
 63
     7
283
     0
274
    -2
284
     1
 64
     0
275
    -2
285
     1
 65
     0
276
    -2
286
     1
 66
     0
277
    -2
287
     1
 67
     0
278
    -2
288
     1
 68
     0
279
    -2
289
     1
 69
     0
  7
Standard
140
4.5
170
     5
 62
     0
 63
     7
283
     0
274
    -2
284
     1
 64
     0
275
    -2
285
     1
 65
     0
276
    -2
286
     1
 66
     0
277
    -2
287
     1
 67
     0
278
    -2
288
     1
 68
     0
279
    -2
289
     1
 69
     0
  0
VISUALSTYLE
  5
14F1
102
{ACAD_XDICTIONARY
360
1B38
102
}
102
{ACAD_REACTORS
330
14EB
102
}
330
14EB
100
AcDbVisualStyle
  2
2dWireframe
 70
     4
 71
     0
 72
     2
 73
     0
 90
        0
 40
-0.6
 41
-30.0
 62
     5
 63
     7
 74
     1
 91
        4
 64
     7
 65
   257
 75
     1
175
     1
 42
1.0
 92
        0
 66
   257
 43
1.0
 76
     1
 77
     6
 78
     2
 67
     7
 79
     5
170
     0
171
     0
290
     0
174
     0
 93
        1
 44
0.0
173
     0
291
     0
 45
0.0
1001
ACAD
1000
AcDbSavedByObjectVersion
1070
     0
  0
VISUALSTYLE
  5
14F0
102
{ACAD_XDICTIONARY
360
1B36
102
}
102
{ACAD_REACTORS
330
14EB
102
}
330
14EB
100
AcDbVisualStyle
  2
Basic
 70
     7
 71
     1
 72
     0
 73
     1
 90
        0
 40
-0.6
 41
-30.0
 62
     5
 63
     7
 74
     0
 91
        4
 64
     7
 65
   257
 75
     1
175
     1
 42
1.0
 92
        8
 66
     7
 43
1.0
 76
     1
 77
     6
 78
     2
 67
     7
 79
     5
170
     0
171
     0
290
     0
174
     0
 93
        1
 44
0.0
173
     0
291
     1
 45
0.0
1001
ACAD
1000
AcDbSavedByObjectVersion
1070
     0
  0
VISUALSTYLE
  5
14F7
102
{ACAD_XDICTIONARY
360
1B44
102
}
102
{ACAD_REACTORS
330
14EB
102
}
330
14EB
100
AcDbVisualStyle
  2
Brighten
 70
    12
 71
     2
 72
     2
 73
     0
 90
        0
 40
-0.6
 41
-30.0
 62
     5
 63
     7
 74
     1
 91
        4
 64
     7
 65
   257
 75
     1
175
     1
 42
1.0
 92
        8
 66
     7
 43
1.0
 76
     1
 77
     6
 78
     2
 67
     7
 79
     5
170
     0
171
     0
290
     0
174
     0
 93
        1
 44
50.0
173
     0
291
     1
 45
0.0
1001
ACAD
1000
AcDbSavedByObjectVersion
1070
     0
  0
VISUALSTYLE
  5
14FB
102
{ACAD_XDICTIONARY
360
1B4C
102
}
102
{ACAD_REACTORS
330
14EB
102
}
330
14EB
100
AcDbVisualStyle
  2
ColorChange
 70
    16
 71
     2
 72
     2
 73
     3
 90
        0
 40
-0.6
 41
-30.0
 62
     5
 63
     8
 74
     1
 91
        4
 64
     7
 65
   257
 75
     1
175
     1
 42
1.0
 92
        8
 66
     8
 43
1.0
 76
     1
 77
     6
 78
     2
 67
     7
 79
     5
170
     0
171
     0
290
     0
174
     0
 93
        1
 44
0.0
173
     0
291
     1
 45
0.0
1001
ACAD
1000
AcDbSavedByObjectVersion
1070
     0
  0
VISUALSTYLE
  5
14F4
102
{ACAD_XDICTIONARY
360
1B3E
102
}
102
{ACAD_REACTORS
330
14EB
102
}
330
14EB
100
AcDbVisualStyle
  2
Conceptual
 70
     9
 71
     3
 72
     2
 73
     0
 90
        0
 40
-0.6
 41
-30.0
 62
     5
 63
     7
 74
     2
 91
        2
 64
     7
 65
   257
 75
     1
175
     1
 42
179.0
 92
        8
 66
     7
 43
1.0
 76
     1
 77
     6
 78
     2
 67
     7
 79
     3
170
     0
171
     0
290
     0
174
     0
 93
        1
 44
0.0
173
     0
291
     0
 45
0.0
1001
ACAD
1000
AcDbSavedByObjectVersion
1070
     0
  0
VISUALSTYLE
  5
14F6
102
{ACAD_XDICTIONARY
360
1B42
102
}
102
{ACAD_REACTORS
330
14EB
102
}
330
14EB
100
AcDbVisualStyle
  2
Dim
 70
    11
 71
     2
 72
     2
 73
     0
 90
        0
 40
-0.6
 41
-30.0
 62
     5
 63
     7
 74
     1
 91
        4
 64
     7
 65
   257
 75
     1
175
     1
 42
1.0
 92
        8
 66
     7
 43
1.0
 76
     1
 77
     6
 78
     2
 67
     7
 79
     5
170
     0
171
     0
290
     0
174
     0
 93
        1
 44
-50.0
173
     0
291
     1
 45
0.0
1001
ACAD
1000
AcDbSavedByObjectVersion
1070
     0
  0
VISUALSTYLE
  5
1503
102
{ACAD_XDICTIONARY
360
1B5C
102
}
102
{ACAD_REACTORS
330
14EB
102
}
330
14EB
100
AcDbVisualStyle
  2
EdgeColorOff
 70
    22
 71
     2
 72
     2
 73
     0
 90
        0
 40
-0.6
 41
-30.0
 62
     5
 63
     7
 74
     1
 91
        4
 64
     7
 65
   257
 75
     1
175
     1
 42
1.0
 92
        8
 66
     7
 43
1.0
 76
     1
 77
     6
 78
     2
 67
     7
 79
     5
170
     0
171
     0
290
     0
174
     0
 93
        1
 44
0.0
173
     0
291
     1
 45
0.0
1001
ACAD
1000
AcDbSavedByObjectVersion
1070
     0
  0
VISUALSTYLE
  5
14FA
102
{ACAD_XDICTIONARY
360
1B4A
102
}
102
{ACAD_REACTORS
330
14EB
102
}
330
14EB
100
AcDbVisualStyle
  2
Facepattern
 70
    15
 71
     2
 72
     2
 73
     0
 90
        0
 40
-0.6
 41
-30.0
 62
     5
 63
     7
 74
     1
 91
        4
 64
     7
 65
   257
 75
     1
175
     1
 42
1.0
 92
        8
 66
     7
 43
1.0
 76
     1
 77
     6
 78
     2
 67
     7
 79
     5
170
     0
171
     0
290
     0
174
     0
 93
        1
 44
0.0
173
     0
291
     1
 45
0.0
1001
ACAD
1000
AcDbSavedByObjectVersion
1070
     0
  0
VISUALSTYLE
  5
14EC
102
{ACAD_XDICTIONARY
360
1B2E
102
}
102
{ACAD_REACTORS
330
14EB
102
}
330
14EB
100
AcDbVisualStyle
  2
Flat
 70
     0
 71
     2
 72
     1
 73
     1
 90
        2
 40
-0.6
 41
30.0
 62
     5
 63
     7
 74
     0
 91
        0
 64
     7
 65
   257
 75
     1
175
     1
 42
1.0
 92
        8
 66
     7
 43
1.0
 76
     1
 77
     6
 78
     2
 67
     7
 79
     5
170
     0
171
     0
290
     0
174
     0
 93
       13
 44
0.0
173
     0
291
     1
 45
0.0
1001
ACAD
1000
AcDbSavedByObjectVersion
1070
     0
  0
VISUALSTYLE
  5
14ED
102
{ACAD_XDICTIONARY
360
1B30
102
}
102
{ACAD_REACTORS
330
14EB
102
}
330
14EB
100
AcDbVisualStyle
  2
FlatWithEdges
 70
     1
 71
     2
 72
     1
 73
     1
 90
        2
 40
-0.6
 41
30.0
 62
     5
 63
     7
 74
     1
 91
        0
 64
     7
 65
   257
 75
     1
175
     1
 42
1.0
 92
        0
 66
   257
 43
1.0
 76
     1
 77
     6
 78
     2
 67
     7
 79
     5
170
     0
171
     0
290
     0
174
     0
 93
       13
 44
0.0
173
     0
291
     1
 45
0.0
1001
ACAD
1000
AcDbSavedByObjectVersion
1070
     0
  0
VISUALSTYLE
  5
14EE
102
{ACAD_XDICTIONARY
360
1B32
102
}
102
{ACAD_REACTORS
330
14EB
102
}
330
14EB
100
AcDbVisualStyle
  2
Gouraud
 70
     2
 71
     2
 72
     2
 73
     1
 90
        2
 40
-0.6
 41
30.0
 62
     5
 63
     7
 74
     0
 91
        0
 64
     7
 65
   257
 75
     1
175
     1
 42
1.0
 92
        0
 66
     7
 43
1.0
 76
     1
 77
     6
 78
     2
 67
     7
 79
     5
170
     0
171
     0
290
     0
174
     0
 93
       13
 44
0.0
173
     0
291
     1
 45
0.0
1001
ACAD
1000
AcDbSavedByObjectVersion
1070
     0
  0
VISUALSTYLE
  5
14EF
102
{ACAD_XDICTIONARY
360
1B34
102
}
102
{ACAD_REACTORS
330
14EB
102
}
330
14EB
100
AcDbVisualStyle
  2
GouraudWithEdges
 70
     3
 71
     2
 72
     2
 73
     1
 90
        2
 40
-0.6
 41
30.0
 62
     5
 63
     7
 74
     1
 91
        0
 64
     7
 65
   257
 75
     1
175
     1
 42
1.0
 92
        0
 66
   257
 43
1.0
 76
     1
 77
     6
 78
     2
 67
     7
 79
     5
170
     0
171
     0
290
     0
174
     0
 93
       13
 44
0.0
173
     0
291
     1
 45
0.0
1001
ACAD
1000
AcDbSavedByObjectVersion
1070
     0
  0
VISUALSTYLE
  5
14F3
102
{ACAD_XDICTIONARY
360
1B3C
102
}
102
{ACAD_REACTORS
330
14EB
102
}
330
14EB
100
AcDbVisualStyle
  2
Hidden
 70
     6
 71
     1
 72
     2
 73
     2
 90
        0
 40
-0.6
 41
-30.0
 62
     5
 63
     7
 74
     2
 91
        2
 64
     7
 65
   257
 75
     2
175
     1
 42
40.0
 92
        0
 66
   257
 43
1.0
 76
     1
 77
     6
 78
     2
 67
     7
 79
     3
170
     0
171
     0
290
     0
174
     0
 93
        1
 44
0.0
173
     0
291
     0
 45
0.0
1001
ACAD
1000
AcDbSavedByObjectVersion
1070
     0
  0
VISUALSTYLE
  5
1501
102
{ACAD_XDICTIONARY
360
1B58
102
}
102
{ACAD_REACTORS
330
14EB
102
}
330
14EB
100
AcDbVisualStyle
  2
JitterOff
 70
    20
 71
     2
 72
     2
 73
     0
 90
        0
 40
-0.6
 41
-30.0
 62
     5
 63
     7
 74
     1
 91
        4
 64
     7
 65
   257
 75
     1
175
     1
 42
1.0
 92
       10
 66
     7
 43
1.0
 76
     1
 77
     6
 78
     2
 67
     7
 79
     5
170
     0
171
     0
290
     0
174
     0
 93
        1
 44
0.0
173
     0
291
     1
 45
0.0
1001
ACAD
1000
AcDbSavedByObjectVersion
1070
     0
  0
VISUALSTYLE
  5
14F9
102
{ACAD_XDICTIONARY
360
1B48
102
}
102
{ACAD_REACTORS
330
14EB
102
}
330
14EB
100
AcDbVisualStyle
  2
Linepattern
 70
    14
 71
     2
 72
     2
 73
     0
 90
        0
 40
-0.6
 41
-30.0
 62
     5
 63
     7
 74
     1
 91
        4
 64
     7
 65
   257
 75
     7
175
     7
 42
1.0
 92
        8
 66
     7
 43
1.0
 76
     1
 77
     6
 78
     2
 67
     7
 79
     5
170
     0
171
     0
290
     0
174
     0
 93
        1
 44
0.0
173
     0
291
     1
 45
0.0
1001
ACAD
1000
AcDbSavedByObjectVersion
1070
     0
  0
VISUALSTYLE
  5
1502
102
{ACAD_XDICTIONARY
360
1B5A
102
}
102
{ACAD_REACTORS
330
14EB
102
}
330
14EB
100
AcDbVisualStyle
  2
OverhangOff
 70
    21
 71
     2
 72
     2
 73
     0
 90
        0
 40
-0.6
 41
-30.0
 62
     5
 63
     7
 74
     1
 91
        4
 64
     7
 65
   257
 75
     1
175
     1
 42
1.0
 92
        9
 66
     7
 43
1.0
 76
     1
 77
     6
 78
     2
 67
     7
 79
     5
170
     0
171
     0
290
     0
174
     0
 93
        1
 44
0.0
173
     0
291
     1
 45
0.0
1001
ACAD
1000
AcDbSavedByObjectVersion
1070
     0
  0
VISUALSTYLE
  5
14F5
102
{ACAD_XDICTIONARY
360
1B40
102
}
102
{ACAD_REACTORS
330
14EB
102
}
330
14EB
100
AcDbVisualStyle
  2
Realistic
 70
     8
 71
     2
 72
     2
 73
     0
 90
        2
 40
-0.6
 41
30.0
 62
     5
 63
     7
 74
     0
 91
        0
 64
     7
 65
   257
 75
     1
175
     1
 42
1.0
 92
        8
 66
   257
 43
1.0
 76
     1
 77
     6
 78
     2
 67
     7
 79
     3
170
     0
171
     0
290
     0
174
     0
 93
       13
 44
0.0
173
     0
291
     0
 45
0.0
1001
ACAD
1000
AcDbSavedByObjectVersion
1070
     0
  0
VISUALSTYLE
  5
1500
102
{ACAD_XDICTIONARY
360
1B56
102
}
102
{ACAD_REACTORS
330
14EB
102
}
330
14EB
100
AcDbVisualStyle
  2
Shaded
 70
    27
 71
     2
 72
     2
 73
     1
 90
        2
 40
-0.6
 41
30.0
 62
     5
 63
     7
 74
     0
 91
        4
 64
     7
 65
   257
 75
     1
175
     1
 42
1.0
 92
        8
 66
   257
 43
1.0
 76
     1
 77
     6
 78
     2
 67
     8
 79
     3
170
     0
171
     0
290
     0
174
     0
 93
        5
 44
0.0
173
     0
291
     0
 45
0.0
1001
ACAD
1000
AcDbSavedByObjectVersion
1070
     0
  0
VISUALSTYLE
  5
14FF
102
{ACAD_XDICTIONARY
360
1B54
102
}
102
{ACAD_REACTORS
330
14EB
102
}
330
14EB
100
AcDbVisualStyle
  2
Shaded with edges
 70
    26
 71
     2
 72
     2
 73
     1
 90
        2
 40
-0.6
 41
30.0
 62
     5
 63
     7
 74
     1
 91
       10
 64
     7
 65
   257
 75
     2
175
     1
 42
1.0
 92
        8
 66
   257
 43
1.0
 76
     1
 77
     6
 78
     2
 67
     7
 79
     3
170
     0
171
     0
290
     0
174
     0
 93
        5
 44
0.0
173
     0
291
     0
 45
0.0
1001
ACAD
1000
AcDbSavedByObjectVersion
1070
     0
  0
VISUALSTYLE
  5
14FC
102
{ACAD_XDICTIONARY
360
1B4E
102
}
102
{ACAD_REACTORS
330
14EB
102
}
330
14EB
100
AcDbVisualStyle
  2
Shades of Gray
 70
    23
 71
     2
 72
     2
 73
     3
 90
        0
 40
-0.6
 41
-30.0
 62
     5
 63
     7
 74
     2
 91
        2
 64
     7
 65
     7
 75
     1
175
     1
 42
40.0
 92
        8
 66
     7
 43
1.0
 76
     1
 77
     6
 78
     2
 67
     7
 79
     3
170
     0
171
     0
290
     0
174
     0
 93
        1
 44
0.0
173
     0
291
     0
 45
0.0
1001
ACAD
1000
AcDbSavedByObjectVersion
1070
     0
  0
VISUALSTYLE
  5
14FD
102
{ACAD_XDICTIONARY
360
1B50
102
}
102
{ACAD_REACTORS
330
14EB
102
}
330
14EB
100
AcDbVisualStyle
  2
Sketchy
 70
    24
 71
     1
 72
     2
 73
     2
 90
        0
 40
-0.6
 41
-30.0
 62
     5
 63
     7
 74
     2
 91
        2
 64
     7
 65
     7
 75
     1
175
     1
 42
40.0
 92
       11
 66
     7
 43
1.0
 76
     1
 77
     6
 78
     2
 67
     7
 79
     6
170
     0
171
     0
290
     0
174
     0
 93
        1
 44
0.0
173
     0
291
     0
 45
0.0
1001
ACAD
1000
AcDbSavedByObjectVersion
1070
     0
  0
VISUALSTYLE
  5
14F8
102
{ACAD_XDICTIONARY
360
1B46
102
}
102
{ACAD_REACTORS
330
14EB
102
}
330
14EB
100
AcDbVisualStyle
  2
Thicken
 70
    13
 71
     2
 72
     2
 73
     0
 90
        0
 40
-0.6
 41
-30.0
 62
     5
 63
     7
 74
     1
 91
        4
 64
     7
 65
   257
 75
     1
175
     1
 42
1.0
 92
       12
 66
     7
 43
1.0
 76
     1
 77
     6
 78
     2
 67
     7
 79
     5
170
     0
171
     0
290
     0
174
     0
 93
        1
 44
0.0
173
     0
291
     1
 45
0.0
1001
ACAD
1000
AcDbSavedByObjectVersion
1070
     0
  0
VISUALSTYLE
  5
14F2
102
{ACAD_XDICTIONARY
360
1B3A
102
}
102
{ACAD_REACTORS
330
14EB
102
}
330
14EB
100
AcDbVisualStyle
  2
Wireframe
 70
     5
 71
     0
 72
     2
 73
     0
 90
        0
 40
-0.6
 41
-30.0
 62
     5
 63
     7
 74
     1
 91
        4
 64
     7
 65
   257
 75
     1
175
     1
 42
1.0
 92
        0
 66
   257
 43
1.0
 76
     1
 77
     6
 78
     2
 67
     7
 79
     3
170
     0
171
     0
290
     0
174
     0
 93
        1
 44
0.0
173
     0
291
     0
 45
0.0
1001
ACAD
1000
AcDbSavedByObjectVersion
1070
     0
  0
VISUALSTYLE
  5
14FE
102
{ACAD_XDICTIONARY
360
1B52
102
}
102
{ACAD_REACTORS
330
14EB
102
}
330
14EB
100
AcDbVisualStyle
  2
X-Ray
 70
    25
 71
     2
 72
     2
 73
     1
 90
        1
 40
0.5
 41
-30.0
 62
     5
 63
     7
 74
     1
 91
        0
 64
     7
 65
   257
 75
     1
175
     1
 42
1.0
 92
        8
 66
     7
 43
1.0
 76
     1
 77
     6
 78
     2
 67
     7
 79
     3
170
     0
171
     0
290
     0
174
     0
 93
       13
 44
0.0
173
     0
291
     0
 45
0.0
1001
ACAD
1000
AcDbSavedByObjectVersion
1070
     0
  0
DICTIONARYVAR
  5
1586
102
{ACAD_REACTORS
330
1581
102
}
330
1581
100
DictionaryVariables
280
     0
  1
1:1
  0
DICTIONARYVAR
  5
1583
102
{ACAD_REACTORS
330
1581
102
}
330
1581
100
DictionaryVariables
280
     0
  1
STANDARD
  0
DICTIONARYVAR
  5
1582
102
{ACAD_REACTORS
330
1581
102
}
330
1581
100
DictionaryVariables
280
     0
  1
STANDARD
  0
DICTIONARYVAR
  5
1584
102
{ACAD_REACTORS
330
1581
102
}
330
1581
100
DictionaryVariables
280
     0
  1
Metric50
  0
DICTIONARYVAR
  5
1585
102
{ACAD_REACTORS
330
1581
102
}
330
1581
100
DictionaryVariables
280
     0
  1
Metric50
  0
DICTIONARYVAR
  5
1589
102
{ACAD_REACTORS
330
1581
102
}
330
1581
100
DictionaryVariables
280
     0
  1
1
  0
DICTIONARYVAR
  5
1588
102
{ACAD_REACTORS
330
1581
102
}
330
1581
100
DictionaryVariables
280
     0
  1
0
  0
DICTIONARYVAR
  5
1587
102
{ACAD_REACTORS
330
1581
102
}
330
1581
100
DictionaryVariables
280
     0
  1
127
  0
DICTIONARYVAR
  5
1B21
102
{ACAD_REACTORS
330
1581
102
}
330
1581
100
DictionaryVariables
280
     0
  1
2
  0
XRECORD
  5
17CE
102
{ACAD_XDICTIONARY
360
17CF
102
}
102
{ACAD_REACTORS
330
1594
102
}
330
1594
100
AcDbXrecord
280
     1
 91
      535
301

290
     0
302
本体
330
14B9
 90
        8
 62
    51
370
    13
331
8
  1
色_51
440
        0
330
14B8
 90
        8
 62
   112
370
    13
331
8
  1
色_112
440
        0
330
0
 90
        8
 62
     3
370
     9
331
8
  1
色_3
440
        0
330
E5
 90
        0
 62
     7
370
    -3
331
8
  1
色_7
440
        0
330
11
 90
        8
 62
     7
370
    -3
331
8
  1
色_7
440
        0
330
67
 90
        8
 62
     4
370
     5
331
8
  1
色_4
440
        0
330
0
 90
        8
 62
    31
370
     9
331
8
  1
色_31
440
        0
330
4
 90
        8
 62
     2
370
     9
331
8
  1
色_2
440
        0
330
6A
 90
        8
 62
     7
370
    13
331
8
  1
色_7
440
        0
330
64
 90
        8
 62
     7
370
    -3
331
8
  1
色_7
440
        0
  0
ACDBASSOCNETWORK
  5
17B2
102
{ACAD_REACTORS
330
17B1
102
}
330
17B1
100
AcDbAssocAction
 90
        1
 90
        1
330
17B4
360
0
 90
        1
 90
        0
 90
        0
100
AcDbAssocNetwork
 90
        0
 90
        2
 90
        2
360
17B5
360
1A43
 90
        2
330
17B5
330
1A43
  0
XRECORD
  5
1B66
102
{ACAD_REACTORS
330
1B65
102
}
330
1B65
100
AcDbXrecord
280
     1
1070
     0
1070
     1
1070
     1
  0
XRECORD
  5
1B68
102
{ACAD_REACTORS
330
1B67
102
}
330
1B67
100
AcDbXrecord
280
     1
1070
     0
1070
     1
1070
     1
  0
DICTIONARY
  5
1B63
330
151E
100
AcDbDictionary
280
     1
281
     1
  3
ACAD_XREC_ROUNDTRIP
360
1B64
  0
DICTIONARY
  5
1B27
330
44C
100
AcDbDictionary
280
     1
281
     1
  3
ACAD_XREC_ROUNDTRIP
360
1B28
  0
DICTIONARY
  5
1B29
330
452
100
AcDbDictionary
280
     1
281
     1
  3
ACAD_XREC_ROUNDTRIP
360
1B2A
  0
DICTIONARY
  5
1B25
330
445
100
AcDbDictionary
280
     1
281
     1
  3
ACAD_XREC_ROUNDTRIP
360
1B26
  0
DICTIONARY
  5
14DC
330
14DB
100
AcDbDictionary
280
     1
281
     1
  3
ACAD_XREC_ROUNDTRIP
360
1B2C
  3
BUMPTILE
360
14DE
  3
DIFFUSETILE
360
14DD
  3
OPACITYTILE
360
14E1
  3
REFLECTIONTILE
360
14E0
  3
REFRACTIONTILE
360
14E2
  3
SPECULARTILE
360
14DF
  0
DICTIONARY
  5
14D4
330
14D3
100
AcDbDictionary
280
     1
281
     1
  3
ACAD_XREC_ROUNDTRIP
360
1B2B
  3
BUMPTILE
360
14D6
  3
DIFFUSETILE
360
14D5
  3
OPACITYTILE
360
14D9
  3
REFLECTIONTILE
360
14D8
  3
REFRACTIONTILE
360
14DA
  3
SPECULARTILE
360
14D7
  0
DICTIONARY
  5
14E4
330
14E3
100
AcDbDictionary
280
     1
281
     1
  3
ACAD_XREC_ROUNDTRIP
360
1B2D
  3
BUMPTILE
360
14E6
  3
DIFFUSETILE
360
14E5
  3
OPACITYTILE
360
14E9
  3
REFLECTIONTILE
360
14E8
  3
REFRACTIONTILE
360
14EA
  3
SPECULARTILE
360
14E7
  0
DICTIONARY
  5
1B5F
330
151A
100
AcDbDictionary
280
     1
281
     1
  3
ACAD_XREC_ROUNDTRIP
360
1B60
  0
DICTIONARY
  5
1B61
330
151C
100
AcDbDictionary
280
     1
281
     1
  3
ACAD_XREC_ROUNDTRIP
360
1B62
  0
DICTIONARY
  5
153A
330
1506
100
AcDbDictionary
280
     1
281
     1
  3
ACAD_ROUNDTRIP_2008_TABLESTYLE_CELLSTYLEMAP
360
1B22
  3
ACAD_XREC_ROUNDTRIP
360
1B5E
  0
DICTIONARY
  5
1B38
330
14F1
100
AcDbDictionary
280
     1
281
     1
  3
ACAD_XREC_ROUNDTRIP
360
1B39
  0
DICTIONARY
  5
1B36
330
14F0
100
AcDbDictionary
280
     1
281
     1
  3
ACAD_XREC_ROUNDTRIP
360
1B37
  0
DICTIONARY
  5
1B44
330
14F7
100
AcDbDictionary
280
     1
281
     1
  3
ACAD_XREC_ROUNDTRIP
360
1B45
  0
DICTIONARY
  5
1B4C
330
14FB
100
AcDbDictionary
280
     1
281
     1
  3
ACAD_XREC_ROUNDTRIP
360
1B4D
  0
DICTIONARY
  5
1B3E
330
14F4
100
AcDbDictionary
280
     1
281
     1
  3
ACAD_XREC_ROUNDTRIP
360
1B3F
  0
DICTIONARY
  5
1B42
330
14F6
100
AcDbDictionary
280
     1
281
     1
  3
ACAD_XREC_ROUNDTRIP
360
1B43
  0
DICTIONARY
  5
1B5C
330
1503
100
AcDbDictionary
280
     1
281
     1
  3
ACAD_XREC_ROUNDTRIP
360
1B5D
  0
DICTIONARY
  5
1B4A
330
14FA
100
AcDbDictionary
280
     1
281
     1
  3
ACAD_XREC_ROUNDTRIP
360
1B4B
  0
DICTIONARY
  5
1B2E
330
14EC
100
AcDbDictionary
280
     1
281
     1
  3
ACAD_XREC_ROUNDTRIP
360
1B2F
  0
DICTIONARY
  5
1B30
330
14ED
100
AcDbDictionary
280
     1
281
     1
  3
ACAD_XREC_ROUNDTRIP
360
1B31
  0
DICTIONARY
  5
1B32
330
14EE
100
AcDbDictionary
280
     1
281
     1
  3
ACAD_XREC_ROUNDTRIP
360
1B33
  0
DICTIONARY
  5
1B34
330
14EF
100
AcDbDictionary
280
     1
281
     1
  3
ACAD_XREC_ROUNDTRIP
360
1B35
  0
DICTIONARY
  5
1B3C
330
14F3
100
AcDbDictionary
280
     1
281
     1
  3
ACAD_XREC_ROUNDTRIP
360
1B3D
  0
DICTIONARY
  5
1B58
330
1501
100
AcDbDictionary
280
     1
281
     1
  3
ACAD_XREC_ROUNDTRIP
360
1B59
  0
DICTIONARY
  5
1B48
330
14F9
100
AcDbDictionary
280
     1
281
     1
  3
ACAD_XREC_ROUNDTRIP
360
1B49
  0
DICTIONARY
  5
1B5A
330
1502
100
AcDbDictionary
280
     1
281
     1
  3
ACAD_XREC_ROUNDTRIP
360
1B5B
  0
DICTIONARY
  5
1B40
330
14F5
100
AcDbDictionary
280
     1
281
     1
  3
ACAD_XREC_ROUNDTRIP
360
1B41
  0
DICTIONARY
  5
1B56
330
1500
100
AcDbDictionary
280
     1
281
     1
  3
ACAD_XREC_ROUNDTRIP
360
1B57
  0
DICTIONARY
  5
1B54
330
14FF
100
AcDbDictionary
280
     1
281
     1
  3
ACAD_XREC_ROUNDTRIP
360
1B55
  0
DICTIONARY
  5
1B4E
330
14FC
100
AcDbDictionary
280
     1
281
     1
  3
ACAD_XREC_ROUNDTRIP
360
1B4F
  0
DICTIONARY
  5
1B50
330
14FD
100
AcDbDictionary
280
     1
281
     1
  3
ACAD_XREC_ROUNDTRIP
360
1B51
  0
DICTIONARY
  5
1B46
330
14F8
100
AcDbDictionary
280
     1
281
     1
  3
ACAD_XREC_ROUNDTRIP
360
1B47
  0
DICTIONARY
  5
1B3A
330
14F2
100
AcDbDictionary
280
     1
281
     1
  3
ACAD_XREC_ROUNDTRIP
360
1B3B
  0
DICTIONARY
  5
1B52
330
14FE
100
AcDbDictionary
280
     1
281
     1
  3
ACAD_XREC_ROUNDTRIP
360
1B53
  0
DICTIONARY
  5
17CF
330
17CE
100
AcDbDictionary
280
     1
281
     1
  3
AcadLayerStateAnnoScale
360
17D0
  0
ACDBASSOCACTION
  5
17B5
330
17B2
100
AcDbAssocAction
 90
        1
 90
        1
330
17B2
360
17B6
 90
        1
 90
        3
 90
        3
360
17B9
360
17BA
360
17BB
  0
ACDBASSOCACTION
  5
1A43
330
17B2
100
AcDbAssocAction
 90
        1
 90
        1
330
17B2
360
1A44
 90
        2
 90
        3
 90
        3
360
1A47
360
1A48
360
1A49
  0
XRECORD
  5
1B64
102
{ACAD_REACTORS
330
1B63
102
}
330
1B63
100
AcDbXrecord
280
     1
102
DISPLAYNAME
  1
Metric50
102
FLAGS
 90
        0
  0
XRECORD
  5
1B28
102
{ACAD_REACTORS
330
1B27
102
}
330
1B27
100
AcDbXrecord
280
     1
102
SHADEPLOT
 70
     0
102
SHADEPLOTRESLEVEL
 70
     2
102
SHADEPLOTCUSTOMDPI
 70
   300
  0
XRECORD
  5
1B2A
102
{ACAD_REACTORS
330
1B29
102
}
330
1B29
100
AcDbXrecord
280
     1
102
SHADEPLOT
 70
     0
102
SHADEPLOTRESLEVEL
 70
     2
102
SHADEPLOTCUSTOMDPI
 70
   300
  0
XRECORD
  5
1B26
102
{ACAD_REACTORS
330
1B25
102
}
330
1B25
100
AcDbXrecord
280
     1
102
SHADEPLOT
 70
     0
102
SHADEPLOTRESLEVEL
 70
     2
102
SHADEPLOTCUSTOMDPI
 70
   300
  0
XRECORD
  5
1B2C
102
{ACAD_REACTORS
330
14DC
102
}
330
14DC
100
AcDbXrecord
280
     1
102
MATERIAL
148
0.0
149
0.0
149
0.0
 93
        0
 94
      127
282
     0
 72
     0
 77
     0
171
     0
175
     0
179
     0
273
     0
  0
XRECORD
  5
14DE
102
{ACAD_REACTORS
330
14DC
102
}
330
14DC
100
AcDbXrecord
280
     1
270
     1
271
     1
  0
XRECORD
  5
14DD
102
{ACAD_REACTORS
330
14DC
102
}
330
14DC
100
AcDbXrecord
280
     1
270
     1
271
     1
  0
XRECORD
  5
14E1
102
{ACAD_REACTORS
330
14DC
102
}
330
14DC
100
AcDbXrecord
280
     1
270
     1
271
     1
  0
XRECORD
  5
14E0
102
{ACAD_REACTORS
330
14DC
102
}
330
14DC
100
AcDbXrecord
280
     1
270
     1
271
     1
  0
XRECORD
  5
14E2
102
{ACAD_REACTORS
330
14DC
102
}
330
14DC
100
AcDbXrecord
280
     1
270
     1
271
     1
  0
XRECORD
  5
14DF
102
{ACAD_REACTORS
330
14DC
102
}
330
14DC
100
AcDbXrecord
280
     1
270
     1
271
     1
  0
XRECORD
  5
1B2B
102
{ACAD_REACTORS
330
14D4
102
}
330
14D4
100
AcDbXrecord
280
     1
102
MATERIAL
148
0.0
149
0.0
149
0.0
 93
        0
 94
      127
282
     0
 72
     0
 77
     0
171
     0
175
     0
179
     0
273
     0
  0
XRECORD
  5
14D6
102
{ACAD_REACTORS
330
14D4
102
}
330
14D4
100
AcDbXrecord
280
     1
270
     1
271
     1
  0
XRECORD
  5
14D5
102
{ACAD_REACTORS
330
14D4
102
}
330
14D4
100
AcDbXrecord
280
     1
270
     1
271
     1
  0
XRECORD
  5
14D9
102
{ACAD_REACTORS
330
14D4
102
}
330
14D4
100
AcDbXrecord
280
     1
270
     1
271
     1
  0
XRECORD
  5
14D8
102
{ACAD_REACTORS
330
14D4
102
}
330
14D4
100
AcDbXrecord
280
     1
270
     1
271
     1
  0
XRECORD
  5
14DA
102
{ACAD_REACTORS
330
14D4
102
}
330
14D4
100
AcDbXrecord
280
     1
270
     1
271
     1
  0
XRECORD
  5
14D7
102
{ACAD_REACTORS
330
14D4
102
}
330
14D4
100
AcDbXrecord
280
     1
270
     1
271
     1
  0
XRECORD
  5
1B2D
102
{ACAD_REACTORS
330
14E4
102
}
330
14E4
100
AcDbXrecord
280
     1
102
MATERIAL
148
0.0
149
0.0
149
0.0
 93
        0
 94
      127
282
     0
 72
     0
 77
     0
171
     0
175
     0
179
     0
273
     0
  0
XRECORD
  5
14E6
102
{ACAD_REACTORS
330
14E4
102
}
330
14E4
100
AcDbXrecord
280
     1
270
     1
271
     1
  0
XRECORD
  5
14E5
102
{ACAD_REACTORS
330
14E4
102
}
330
14E4
100
AcDbXrecord
280
     1
270
     1
271
     1
  0
XRECORD
  5
14E9
102
{ACAD_REACTORS
330
14E4
102
}
330
14E4
100
AcDbXrecord
280
     1
270
     1
271
     1
  0
XRECORD
  5
14E8
102
{ACAD_REACTORS
330
14E4
102
}
330
14E4
100
AcDbXrecord
280
     1
270
     1
271
     1
  0
XRECORD
  5
14EA
102
{ACAD_REACTORS
330
14E4
102
}
330
14E4
100
AcDbXrecord
280
     1
270
     1
271
     1
  0
XRECORD
  5
14E7
102
{ACAD_REACTORS
330
14E4
102
}
330
14E4
100
AcDbXrecord
280
     1
270
     1
271
     1
  0
XRECORD
  5
1B60
102
{ACAD_REACTORS
330
1B5F
102
}
330
1B5F
100
AcDbXrecord
280
     1
102
ACAD_ROUNDTRIP_2012_MLEADER_STYLE
298
     1
  0
XRECORD
  5
1B62
102
{ACAD_REACTORS
330
1B61
102
}
330
1B61
100
AcDbXrecord
280
     1
102
DISPLAYNAME
  1
Metric50
102
FLAGS
 90
        0
  0
CELLSTYLEMAP
  5
1B22
102
{ACAD_REACTORS
330
153A
102
}
330
153A
100
AcDbCellStyleMap
 90
        3
300
CELLSTYLE
  1
TABLEFORMAT_BEGIN
 90
        5
170
     1
 91
        0
 92
    32768
 62
   257
 93
        1
300
CONTENTFORMAT
  1
CONTENTFORMAT_BEGIN
 90
        0
 91
        0
 92
      512
 93
        0
300

 40
0.0
140
1.0
 94
        5
 62
     0
340
9
144
6.0
309
CONTENTFORMAT_END
171
     1
301
MARGIN
  1
CELLMARGIN_BEGIN
 40
1.5
 40
1.5
 40
1.5
 40
1.5
 40
4.5
 40
4.5
309
CELLMARGIN_END
 94
        6
 95
        1
302
GRIDFORMAT
  1
GRIDFORMAT_BEGIN
 90
        0
 91
        1
 62
     0
 92
       -2
340
0
 93
        0
 40
1.125
309
GRIDFORMAT_END
 95
        2
302
GRIDFORMAT
  1
GRIDFORMAT_BEGIN
 90
        0
 91
        1
 62
     0
 92
       -2
340
0
 93
        0
 40
1.125
309
GRIDFORMAT_END
 95
        4
302
GRIDFORMAT
  1
GRIDFORMAT_BEGIN
 90
        0
 91
        1
 62
     0
 92
       -2
340
0
 93
        0
 40
1.125
309
GRIDFORMAT_END
 95
        8
302
GRIDFORMAT
  1
GRIDFORMAT_BEGIN
 90
        0
 91
        1
 62
     0
 92
       -2
340
0
 93
        0
 40
1.125
309
GRIDFORMAT_END
 95
       16
302
GRIDFORMAT
  1
GRIDFORMAT_BEGIN
 90
        0
 91
        1
 62
     0
 92
       -2
340
0
 93
        0
 40
1.125
309
GRIDFORMAT_END
 95
       32
302
GRIDFORMAT
  1
GRIDFORMAT_BEGIN
 90
        0
 91
        1
 62
     0
 92
       -2
340
0
 93
        0
 40
1.125
309
GRIDFORMAT_END
309
TABLEFORMAT_END
  1
CELLSTYLE_BEGIN
 90
        1
 91
        1
300
_TITLE
309
CELLSTYLE_END
300
CELLSTYLE
  1
TABLEFORMAT_BEGIN
 90
        5
170
     1
 91
        0
 92
        0
 62
   257
 93
        1
300
CONTENTFORMAT
  1
CONTENTFORMAT_BEGIN
 90
        0
 91
        0
 92
      512
 93
        0
300

 40
0.0
140
1.0
 94
        5
 62
     0
340
9
144
4.5
309
CONTENTFORMAT_END
171
     1
301
MARGIN
  1
CELLMARGIN_BEGIN
 40
1.5
 40
1.5
 40
1.5
 40
1.5
 40
4.5
 40
4.5
309
CELLMARGIN_END
 94
        6
 95
        1
302
GRIDFORMAT
  1
GRIDFORMAT_BEGIN
 90
        0
 91
        1
 62
     0
 92
       -2
340
0
 93
        0
 40
1.125
309
GRIDFORMAT_END
 95
        2
302
GRIDFORMAT
  1
GRIDFORMAT_BEGIN
 90
        0
 91
        1
 62
     0
 92
       -2
340
0
 93
        0
 40
1.125
309
GRIDFORMAT_END
 95
        4
302
GRIDFORMAT
  1
GRIDFORMAT_BEGIN
 90
        0
 91
        1
 62
     0
 92
       -2
340
0
 93
        0
 40
1.125
309
GRIDFORMAT_END
 95
        8
302
GRIDFORMAT
  1
GRIDFORMAT_BEGIN
 90
        0
 91
        1
 62
     0
 92
       -2
340
0
 93
        0
 40
1.125
309
GRIDFORMAT_END
 95
       16
302
GRIDFORMAT
  1
GRIDFORMAT_BEGIN
 90
        0
 91
        1
 62
     0
 92
       -2
340
0
 93
        0
 40
1.125
309
GRIDFORMAT_END
 95
       32
302
GRIDFORMAT
  1
GRIDFORMAT_BEGIN
 90
        0
 91
        1
 62
     0
 92
       -2
340
0
 93
        0
 40
1.125
309
GRIDFORMAT_END
309
TABLEFORMAT_END
  1
CELLSTYLE_BEGIN
 90
        2
 91
        1
300
_HEADER
309
CELLSTYLE_END
300
CELLSTYLE
  1
TABLEFORMAT_BEGIN
 90
        5
170
     1
 91
        0
 92
        0
 62
   257
 93
        1
300
CONTENTFORMAT
  1
CONTENTFORMAT_BEGIN
 90
        0
 91
        0
 92
      512
 93
        0
300

 40
0.0
140
1.0
 94
        2
 62
     0
340
9
144
4.5
309
CONTENTFORMAT_END
171
     1
301
MARGIN
  1
CELLMARGIN_BEGIN
 40
1.5
 40
1.5
 40
1.5
 40
1.5
 40
4.5
 40
4.5
309
CELLMARGIN_END
 94
        6
 95
        1
302
GRIDFORMAT
  1
GRIDFORMAT_BEGIN
 90
        0
 91
        1
 62
     0
 92
       -2
340
0
 93
        0
 40
1.125
309
GRIDFORMAT_END
 95
        2
302
GRIDFORMAT
  1
GRIDFORMAT_BEGIN
 90
        0
 91
        1
 62
     0
 92
       -2
340
0
 93
        0
 40
1.125
309
GRIDFORMAT_END
 95
        4
302
GRIDFORMAT
  1
GRIDFORMAT_BEGIN
 90
        0
 91
        1
 62
     0
 92
       -2
340
0
 93
        0
 40
1.125
309
GRIDFORMAT_END
 95
        8
302
GRIDFORMAT
  1
GRIDFORMAT_BEGIN
 90
        0
 91
        1
 62
     0
 92
       -2
340
0
 93
        0
 40
1.125
309
GRIDFORMAT_END
 95
       16
302
GRIDFORMAT
  1
GRIDFORMAT_BEGIN
 90
        0
 91
        1
 62
     0
 92
       -2
340
0
 93
        0
 40
1.125
309
GRIDFORMAT_END
 95
       32
302
GRIDFORMAT
  1
GRIDFORMAT_BEGIN
 90
        0
 91
        1
 62
     0
 92
       -2
340
0
 93
        0
 40
1.125
309
GRIDFORMAT_END
309
TABLEFORMAT_END
  1
CELLSTYLE_BEGIN
 90
        3
 91
        2
300
_DATA
309
CELLSTYLE_END
  0
XRECORD
  5
1B5E
102
{ACAD_REACTORS
330
153A
102
}
330
153A
100
AcDbXrecord
280
     1
102
ACAD_ROUNDTRIP_PRE2007_TABLESTYLE
 90
      512
 91
        0
  1

 92
      512
 93
        0
  2

 94
      512
 95
        0
  3

  0
XRECORD
  5
1B39
102
{ACAD_REACTORS
330
1B38
102
}
330
1B38
100
AcDbXrecord
280
     1
102
RTVSPost2010Prop28
280
     1
102
RTVSPost2010PropOp28
 70
     1
102
RTVSPost2010Prop29
280
     1
102
RTVSPost2010PropOp29
 70
     1
102
RTVSPost2010Prop30
280
     0
102
RTVSPost2010PropOp30
 70
     1
102
RTVSPost2010Prop31
280
     0
102
RTVSPost2010PropOp31
 70
     1
102
RTVSPost2010Prop32
280
     0
102
RTVSPost2010PropOp32
 70
     1
102
RTVSPost2010Prop33
280
     0
102
RTVSPost2010PropOp33
 70
     1
102
RTVSPost2010Prop34
280
     0
102
RTVSPost2010PropOp34
 70
     1
102
RTVSPost2010Prop35
280
     0
102
RTVSPost2010PropOp35
 70
     1
102
RTVSPost2010Prop36
280
     0
102
RTVSPost2010PropOp36
 70
     1
102
RTVSPost2010Prop37
 90
       50
102
RTVSPost2010PropOp37
 70
     1
102
RTVSPost2010Prop38
140
0.0
102
RTVSPost2010PropOp38
 70
     1
102
RTVSPost2010Prop39
140
1.0
102
RTVSPost2010PropOp39
 70
     1
102
RTVSPost2010Prop40
 90
        0
102
RTVSPost2010PropOp40
 70
     1
102
RTVSPost2010Prop41ColorIndex
 90
       18
102
RTVSPost2010Prop41ColorRGB
 90
        0
102
RTVSPost2010PropOp41
 70
     1
102
RTVSPost2010Prop42
 90
       50
102
RTVSPost2010PropOp42
 70
     1
102
RTVSPost2010Prop43
 90
        3
102
RTVSPost2010PropOp43
 70
     1
102
RTVSPost2010Prop44ColorIndex
 90
        5
102
RTVSPost2010Prop44ColorRGB
 90
      255
102
RTVSPost2010PropOp44
 70
     1
102
RTVSPost2010Prop45
280
     0
102
RTVSPost2010PropOp45
 70
     1
102
RTVSPost2010Prop46
 90
       50
102
RTVSPost2010PropOp46
 70
     1
102
RTVSPost2010Prop47
 90
       50
102
RTVSPost2010PropOp47
 70
     1
102
RTVSPost2010Prop48
 90
       50
102
RTVSPost2010PropOp48
 70
     1
102
RTVSPost2010Prop49
280
     0
102
RTVSPost2010PropOp49
 70
     1
102
RTVSPost2010Prop50
 90
       50
102
RTVSPost2010PropOp50
 70
     1
102
RTVSPost2010Prop51ColorIndex
 90
      256
102
RTVSPost2010Prop51ColorRGB
 90
-16777216
102
RTVSPost2010PropOp51
 70
     0
102
RTVSPost2010Prop52
140
1.0
102
RTVSPost2010PropOp52
 70
     0
102
RTVSPost2010Prop53
 90
        2
102
RTVSPost2010PropOp53
 70
     1
102
RTVSPost2010Prop54
  1
strokes_ogs.tif
102
RTVSPost2010PropOp54
 70
     1
102
RTVSPost2010Prop55
280
     0
102
RTVSPost2010PropOp55
 70
     1
102
RTVSPost2010Prop56
140
1.0
102
RTVSPost2010PropOp56
 70
     1
102
RTVSPost2010Prop57
140
1.0
102
RTVSPost2010PropOp57
 70
     1
102
RTVSPropertyOp0
 70
     1
102
RTVSPropertyOp1
 70
     1
102
RTVSPropertyOp2
 70
     1
102
RTVSPropertyOp3
 70
     1
102
RTVSPropertyOp4
 70
     1
102
RTVSPropertyOp5
 70
     1
102
RTVSPropertyOp6
 70
     1
102
RTVSPropertyOp7
 70
     1
102
RTVSPropertyOp8
 70
     1
102
RTVSPropertyOp9
 70
     1
102
RTVSPropertyOp10
 70
     1
102
RTVSPropertyOp11
 70
     1
102
RTVSPropertyOp12
 70
     1
102
RTVSPropertyOp13
 70
     1
102
RTVSPropertyOp14
 70
     1
102
RTVSPropertyOp15
 70
     1
102
RTVSPropertyOp16
 70
     1
102
RTVSPropertyOp17
 70
     1
102
RTVSPropertyOp18
 70
     1
102
RTVSPropertyOp19
 70
     1
102
RTVSPropertyOp20
 70
     1
102
RTVSPropertyOp21
 70
     1
102
RTVSPropertyOp22
 70
     1
102
RTVSPropertyOp23
 70
     1
102
RTVSPropertyOp24
 70
     1
102
RTVSPropertyOp25
 70
     1
102
RTVSPropertyOp26
 70
     1
102
RTVSPropertyOp27
 70
     1
102
RTVSPropertyOp28
 70
     1
102
RTVSPropertyOp29
 70
     1
102
RTVSPropertyOp30
 70
     1
102
RTVSPropertyOp31
 70
     1
102
RTVSPropertyOp32
 70
     1
102
RTVSPropertyOp33
 70
     1
102
RTVSPropertyOp34
 70
     1
102
RTVSPropertyOp35
 70
     1
102
RTVSPropertyOp36
 70
     1
102
RTVSPropertyOp37
 70
     1
102
RTVSPropertyOp38
 70
     1
102
RTVSPropertyOp39
 70
     1
102
RTVSPropertyOp40
 70
     1
102
RTVSPropertyOp41
 70
     1
102
RTVSPropertyOp42
 70
     1
102
RTVSPropertyOp43
 70
     1
102
RTVSPropertyOp44
 70
     1
102
RTVSPropertyOp45
 70
     1
102
RTVSPropertyOp46
 70
     1
102
RTVSPropertyOp47
 70
     1
102
RTVSPropertyOp48
 70
     1
102
RTVSPropertyOp49
 70
     1
102
RTVSPropertyOp50
 70
     1
102
RTVSPropertyOp51
 70
     0
102
RTVSPropertyOp52
 70
     0
102
RTVSPropertyOp53
 70
     1
102
RTVSPropertyOp54
 70
     1
102
RTVSPropertyOp55
 70
     1
102
RTVSPropertyOp56
 70
     1
102
RTVSPropertyOp57
 70
     1
102
RTVSPropertyOp58
 70
     1
102
RTVSPropertyOp59
 70
     1
102
RTVSPropertyOp60
 70
     1
102
RTVSPropertyOp61
 70
     1
102
RTVSPropertyOp62
 70
     1
  0
XRECORD
  5
1B37
102
{ACAD_REACTORS
330
1B36
102
}
330
1B36
100
AcDbXrecord
280
     1
102
RTVSPost2010Prop28
280
     0
102
RTVSPost2010PropOp28
 70
     1
102
RTVSPost2010Prop29
280
     1
102
RTVSPost2010PropOp29
 70
     1
102
RTVSPost2010Prop30
280
     1
102
RTVSPost2010PropOp30
 70
     1
102
RTVSPost2010Prop31
280
     0
102
RTVSPost2010PropOp31
 70
     1
102
RTVSPost2010Prop32
280
     0
102
RTVSPost2010PropOp32
 70
     1
102
RTVSPost2010Prop33
280
     0
102
RTVSPost2010PropOp33
 70
     1
102
RTVSPost2010Prop34
280
     0
102
RTVSPost2010PropOp34
 70
     1
102
RTVSPost2010Prop35
280
     0
102
RTVSPost2010PropOp35
 70
     1
102
RTVSPost2010Prop36
280
     0
102
RTVSPost2010PropOp36
 70
     1
102
RTVSPost2010Prop37
 90
       50
102
RTVSPost2010PropOp37
 70
     1
102
RTVSPost2010Prop38
140
0.0
102
RTVSPost2010PropOp38
 70
     1
102
RTVSPost2010Prop39
140
1.0
102
RTVSPost2010PropOp39
 70
     1
102
RTVSPost2010Prop40
 90
        0
102
RTVSPost2010PropOp40
 70
     1
102
RTVSPost2010Prop41ColorIndex
 90
       18
102
RTVSPost2010Prop41ColorRGB
 90
        0
102
RTVSPost2010PropOp41
 70
     1
102
RTVSPost2010Prop42
 90
       50
102
RTVSPost2010PropOp42
 70
     1
102
RTVSPost2010Prop43
 90
        3
102
RTVSPost2010PropOp43
 70
     1
102
RTVSPost2010Prop44ColorIndex
 90
        5
102
RTVSPost2010Prop44ColorRGB
 90
      255
102
RTVSPost2010PropOp44
 70
     1
102
RTVSPost2010Prop45
280
     0
102
RTVSPost2010PropOp45
 70
     1
102
RTVSPost2010Prop46
 90
       50
102
RTVSPost2010PropOp46
 70
     1
102
RTVSPost2010Prop47
 90
       50
102
RTVSPost2010PropOp47
 70
     1
102
RTVSPost2010Prop48
 90
       50
102
RTVSPost2010PropOp48
 70
     1
102
RTVSPost2010Prop49
280
     0
102
RTVSPost2010PropOp49
 70
     1
102
RTVSPost2010Prop50
 90
       50
102
RTVSPost2010PropOp50
 70
     1
102
RTVSPost2010Prop51ColorIndex
 90
      256
102
RTVSPost2010Prop51ColorRGB
 90
-16777216
102
RTVSPost2010PropOp51
 70
     0
102
RTVSPost2010Prop52
140
1.0
102
RTVSPost2010PropOp52
 70
     0
102
RTVSPost2010Prop53
 90
        2
102
RTVSPost2010PropOp53
 70
     1
102
RTVSPost2010Prop54
  1
strokes_ogs.tif
102
RTVSPost2010PropOp54
 70
     1
102
RTVSPost2010Prop55
280
     0
102
RTVSPost2010PropOp55
 70
     1
102
RTVSPost2010Prop56
140
1.0
102
RTVSPost2010PropOp56
 70
     1
102
RTVSPost2010Prop57
140
1.0
102
RTVSPost2010PropOp57
 70
     1
102
RTVSPropertyOp0
 70
     1
102
RTVSPropertyOp1
 70
     1
102
RTVSPropertyOp2
 70
     1
102
RTVSPropertyOp3
 70
     1
102
RTVSPropertyOp4
 70
     1
102
RTVSPropertyOp5
 70
     1
102
RTVSPropertyOp6
 70
     1
102
RTVSPropertyOp7
 70
     1
102
RTVSPropertyOp8
 70
     1
102
RTVSPropertyOp9
 70
     1
102
RTVSPropertyOp10
 70
     1
102
RTVSPropertyOp11
 70
     1
102
RTVSPropertyOp12
 70
     1
102
RTVSPropertyOp13
 70
     1
102
RTVSPropertyOp14
 70
     1
102
RTVSPropertyOp15
 70
     1
102
RTVSPropertyOp16
 70
     1
102
RTVSPropertyOp17
 70
     1
102
RTVSPropertyOp18
 70
     1
102
RTVSPropertyOp19
 70
     1
102
RTVSPropertyOp20
 70
     1
102
RTVSPropertyOp21
 70
     1
102
RTVSPropertyOp22
 70
     1
102
RTVSPropertyOp23
 70
     1
102
RTVSPropertyOp24
 70
     1
102
RTVSPropertyOp25
 70
     1
102
RTVSPropertyOp26
 70
     1
102
RTVSPropertyOp27
 70
     1
102
RTVSPropertyOp28
 70
     1
102
RTVSPropertyOp29
 70
     1
102
RTVSPropertyOp30
 70
     1
102
RTVSPropertyOp31
 70
     1
102
RTVSPropertyOp32
 70
     1
102
RTVSPropertyOp33
 70
     1
102
RTVSPropertyOp34
 70
     1
102
RTVSPropertyOp35
 70
     1
102
RTVSPropertyOp36
 70
     1
102
RTVSPropertyOp37
 70
     1
102
RTVSPropertyOp38
 70
     1
102
RTVSPropertyOp39
 70
     1
102
RTVSPropertyOp40
 70
     1
102
RTVSPropertyOp41
 70
     1
102
RTVSPropertyOp42
 70
     1
102
RTVSPropertyOp43
 70
     1
102
RTVSPropertyOp44
 70
     1
102
RTVSPropertyOp45
 70
     1
102
RTVSPropertyOp46
 70
     1
102
RTVSPropertyOp47
 70
     1
102
RTVSPropertyOp48
 70
     1
102
RTVSPropertyOp49
 70
     1
102
RTVSPropertyOp50
 70
     1
102
RTVSPropertyOp51
 70
     0
102
RTVSPropertyOp52
 70
     0
102
RTVSPropertyOp53
 70
     1
102
RTVSPropertyOp54
 70
     1
102
RTVSPropertyOp55
 70
     1
102
RTVSPropertyOp56
 70
     1
102
RTVSPropertyOp57
 70
     1
102
RTVSPropertyOp58
 70
     1
102
RTVSPropertyOp59
 70
     1
102
RTVSPropertyOp60
 70
     1
102
RTVSPropertyOp61
 70
     1
102
RTVSPropertyOp62
 70
     1
  0
XRECORD
  5
1B45
102
{ACAD_REACTORS
330
1B44
102
}
330
1B44
100
AcDbXrecord
280
     1
102
RTVSPost2010Prop28
280
     0
102
RTVSPost2010PropOp28
 70
     1
102
RTVSPost2010Prop29
280
     1
102
RTVSPost2010PropOp29
 70
     1
102
RTVSPost2010Prop30
280
     1
102
RTVSPost2010PropOp30
 70
     1
102
RTVSPost2010Prop31
280
     0
102
RTVSPost2010PropOp31
 70
     1
102
RTVSPost2010Prop32
280
     0
102
RTVSPost2010PropOp32
 70
     1
102
RTVSPost2010Prop33
280
     0
102
RTVSPost2010PropOp33
 70
     1
102
RTVSPost2010Prop34
280
     0
102
RTVSPost2010PropOp34
 70
     1
102
RTVSPost2010Prop35
280
     0
102
RTVSPost2010PropOp35
 70
     1
102
RTVSPost2010Prop36
280
     0
102
RTVSPost2010PropOp36
 70
     1
102
RTVSPost2010Prop37
 90
       50
102
RTVSPost2010PropOp37
 70
     1
102
RTVSPost2010Prop38
140
0.0
102
RTVSPost2010PropOp38
 70
     1
102
RTVSPost2010Prop39
140
1.0
102
RTVSPost2010PropOp39
 70
     1
102
RTVSPost2010Prop40
 90
        0
102
RTVSPost2010PropOp40
 70
     1
102
RTVSPost2010Prop41ColorIndex
 90
       18
102
RTVSPost2010Prop41ColorRGB
 90
        0
102
RTVSPost2010PropOp41
 70
     1
102
RTVSPost2010Prop42
 90
       50
102
RTVSPost2010PropOp42
 70
     1
102
RTVSPost2010Prop43
 90
        3
102
RTVSPost2010PropOp43
 70
     1
102
RTVSPost2010Prop44ColorIndex
 90
        5
102
RTVSPost2010Prop44ColorRGB
 90
      255
102
RTVSPost2010PropOp44
 70
     1
102
RTVSPost2010Prop45
280
     0
102
RTVSPost2010PropOp45
 70
     1
102
RTVSPost2010Prop46
 90
       50
102
RTVSPost2010PropOp46
 70
     1
102
RTVSPost2010Prop47
 90
       50
102
RTVSPost2010PropOp47
 70
     1
102
RTVSPost2010Prop48
 90
       50
102
RTVSPost2010PropOp48
 70
     1
102
RTVSPost2010Prop49
280
     0
102
RTVSPost2010PropOp49
 70
     1
102
RTVSPost2010Prop50
 90
       50
102
RTVSPost2010PropOp50
 70
     1
102
RTVSPost2010Prop51ColorIndex
 90
      256
102
RTVSPost2010Prop51ColorRGB
 90
-16777216
102
RTVSPost2010PropOp51
 70
     0
102
RTVSPost2010Prop52
140
1.0
102
RTVSPost2010PropOp52
 70
     0
102
RTVSPost2010Prop53
 90
        2
102
RTVSPost2010PropOp53
 70
     1
102
RTVSPost2010Prop54
  1
strokes_ogs.tif
102
RTVSPost2010PropOp54
 70
     1
102
RTVSPost2010Prop55
280
     0
102
RTVSPost2010PropOp55
 70
     1
102
RTVSPost2010Prop56
140
1.0
102
RTVSPost2010PropOp56
 70
     1
102
RTVSPost2010Prop57
140
1.0
102
RTVSPost2010PropOp57
 70
     1
102
RTVSPropertyOp0
 70
     1
102
RTVSPropertyOp1
 70
     1
102
RTVSPropertyOp2
 70
     1
102
RTVSPropertyOp3
 70
     1
102
RTVSPropertyOp4
 70
     1
102
RTVSPropertyOp5
 70
     1
102
RTVSPropertyOp6
 70
     1
102
RTVSPropertyOp7
 70
     1
102
RTVSPropertyOp8
 70
     1
102
RTVSPropertyOp9
 70
     1
102
RTVSPropertyOp10
 70
     1
102
RTVSPropertyOp11
 70
     1
102
RTVSPropertyOp12
 70
     1
102
RTVSPropertyOp13
 70
     1
102
RTVSPropertyOp14
 70
     1
102
RTVSPropertyOp15
 70
     1
102
RTVSPropertyOp16
 70
     1
102
RTVSPropertyOp17
 70
     1
102
RTVSPropertyOp18
 70
     1
102
RTVSPropertyOp19
 70
     1
102
RTVSPropertyOp20
 70
     1
102
RTVSPropertyOp21
 70
     1
102
RTVSPropertyOp22
 70
     1
102
RTVSPropertyOp23
 70
     1
102
RTVSPropertyOp24
 70
     1
102
RTVSPropertyOp25
 70
     1
102
RTVSPropertyOp26
 70
     1
102
RTVSPropertyOp27
 70
     1
102
RTVSPropertyOp28
 70
     1
102
RTVSPropertyOp29
 70
     1
102
RTVSPropertyOp30
 70
     1
102
RTVSPropertyOp31
 70
     1
102
RTVSPropertyOp32
 70
     1
102
RTVSPropertyOp33
 70
     1
102
RTVSPropertyOp34
 70
     1
102
RTVSPropertyOp35
 70
     1
102
RTVSPropertyOp36
 70
     1
102
RTVSPropertyOp37
 70
     1
102
RTVSPropertyOp38
 70
     1
102
RTVSPropertyOp39
 70
     1
102
RTVSPropertyOp40
 70
     1
102
RTVSPropertyOp41
 70
     1
102
RTVSPropertyOp42
 70
     1
102
RTVSPropertyOp43
 70
     1
102
RTVSPropertyOp44
 70
     1
102
RTVSPropertyOp45
 70
     1
102
RTVSPropertyOp46
 70
     1
102
RTVSPropertyOp47
 70
     1
102
RTVSPropertyOp48
 70
     1
102
RTVSPropertyOp49
 70
     1
102
RTVSPropertyOp50
 70
     1
102
RTVSPropertyOp51
 70
     0
102
RTVSPropertyOp52
 70
     0
102
RTVSPropertyOp53
 70
     1
102
RTVSPropertyOp54
 70
     1
102
RTVSPropertyOp55
 70
     1
102
RTVSPropertyOp56
 70
     1
102
RTVSPropertyOp57
 70
     1
102
RTVSPropertyOp58
 70
     1
102
RTVSPropertyOp59
 70
     1
102
RTVSPropertyOp60
 70
     1
102
RTVSPropertyOp61
 70
     1
102
RTVSPropertyOp62
 70
     1
  0
XRECORD
  5
1B4D
102
{ACAD_REACTORS
330
1B4C
102
}
330
1B4C
100
AcDbXrecord
280
     1
102
RTVSPost2010Prop28
280
     0
102
RTVSPost2010PropOp28
 70
     1
102
RTVSPost2010Prop29
280
     1
102
RTVSPost2010PropOp29
 70
     1
102
RTVSPost2010Prop30
280
     1
102
RTVSPost2010PropOp30
 70
     1
102
RTVSPost2010Prop31
280
     0
102
RTVSPost2010PropOp31
 70
     1
102
RTVSPost2010Prop32
280
     0
102
RTVSPost2010PropOp32
 70
     1
102
RTVSPost2010Prop33
280
     0
102
RTVSPost2010PropOp33
 70
     1
102
RTVSPost2010Prop34
280
     0
102
RTVSPost2010PropOp34
 70
     1
102
RTVSPost2010Prop35
280
     0
102
RTVSPost2010PropOp35
 70
     1
102
RTVSPost2010Prop36
280
     0
102
RTVSPost2010PropOp36
 70
     1
102
RTVSPost2010Prop37
 90
       50
102
RTVSPost2010PropOp37
 70
     1
102
RTVSPost2010Prop38
140
0.0
102
RTVSPost2010PropOp38
 70
     1
102
RTVSPost2010Prop39
140
1.0
102
RTVSPost2010PropOp39
 70
     1
102
RTVSPost2010Prop40
 90
        0
102
RTVSPost2010PropOp40
 70
     1
102
RTVSPost2010Prop41ColorIndex
 90
       18
102
RTVSPost2010Prop41ColorRGB
 90
        0
102
RTVSPost2010PropOp41
 70
     1
102
RTVSPost2010Prop42
 90
       50
102
RTVSPost2010PropOp42
 70
     1
102
RTVSPost2010Prop43
 90
        3
102
RTVSPost2010PropOp43
 70
     1
102
RTVSPost2010Prop44ColorIndex
 90
        5
102
RTVSPost2010Prop44ColorRGB
 90
      255
102
RTVSPost2010PropOp44
 70
     1
102
RTVSPost2010Prop45
280
     0
102
RTVSPost2010PropOp45
 70
     1
102
RTVSPost2010Prop46
 90
       50
102
RTVSPost2010PropOp46
 70
     1
102
RTVSPost2010Prop47
 90
       50
102
RTVSPost2010PropOp47
 70
     1
102
RTVSPost2010Prop48
 90
       50
102
RTVSPost2010PropOp48
 70
     1
102
RTVSPost2010Prop49
280
     0
102
RTVSPost2010PropOp49
 70
     1
102
RTVSPost2010Prop50
 90
       50
102
RTVSPost2010PropOp50
 70
     1
102
RTVSPost2010Prop51ColorIndex
 90
      256
102
RTVSPost2010Prop51ColorRGB
 90
-16777216
102
RTVSPost2010PropOp51
 70
     0
102
RTVSPost2010Prop52
140
1.0
102
RTVSPost2010PropOp52
 70
     0
102
RTVSPost2010Prop53
 90
        2
102
RTVSPost2010PropOp53
 70
     1
102
RTVSPost2010Prop54
  1
strokes_ogs.tif
102
RTVSPost2010PropOp54
 70
     1
102
RTVSPost2010Prop55
280
     0
102
RTVSPost2010PropOp55
 70
     1
102
RTVSPost2010Prop56
140
1.0
102
RTVSPost2010PropOp56
 70
     1
102
RTVSPost2010Prop57
140
1.0
102
RTVSPost2010PropOp57
 70
     1
102
RTVSPropertyOp0
 70
     1
102
RTVSPropertyOp1
 70
     1
102
RTVSPropertyOp2
 70
     1
102
RTVSPropertyOp3
 70
     1
102
RTVSPropertyOp4
 70
     1
102
RTVSPropertyOp5
 70
     1
102
RTVSPropertyOp6
 70
     1
102
RTVSPropertyOp7
 70
     1
102
RTVSPropertyOp8
 70
     1
102
RTVSPropertyOp9
 70
     1
102
RTVSPropertyOp10
 70
     1
102
RTVSPropertyOp11
 70
     1
102
RTVSPropertyOp12
 70
     1
102
RTVSPropertyOp13
 70
     1
102
RTVSPropertyOp14
 70
     1
102
RTVSPropertyOp15
 70
     1
102
RTVSPropertyOp16
 70
     1
102
RTVSPropertyOp17
 70
     1
102
RTVSPropertyOp18
 70
     1
102
RTVSPropertyOp19
 70
     1
102
RTVSPropertyOp20
 70
     1
102
RTVSPropertyOp21
 70
     1
102
RTVSPropertyOp22
 70
     1
102
RTVSPropertyOp23
 70
     1
102
RTVSPropertyOp24
 70
     1
102
RTVSPropertyOp25
 70
     1
102
RTVSPropertyOp26
 70
     1
102
RTVSPropertyOp27
 70
     1
102
RTVSPropertyOp28
 70
     1
102
RTVSPropertyOp29
 70
     1
102
RTVSPropertyOp30
 70
     1
102
RTVSPropertyOp31
 70
     1
102
RTVSPropertyOp32
 70
     1
102
RTVSPropertyOp33
 70
     1
102
RTVSPropertyOp34
 70
     1
102
RTVSPropertyOp35
 70
     1
102
RTVSPropertyOp36
 70
     1
102
RTVSPropertyOp37
 70
     1
102
RTVSPropertyOp38
 70
     1
102
RTVSPropertyOp39
 70
     1
102
RTVSPropertyOp40
 70
     1
102
RTVSPropertyOp41
 70
     1
102
RTVSPropertyOp42
 70
     1
102
RTVSPropertyOp43
 70
     1
102
RTVSPropertyOp44
 70
     1
102
RTVSPropertyOp45
 70
     1
102
RTVSPropertyOp46
 70
     1
102
RTVSPropertyOp47
 70
     1
102
RTVSPropertyOp48
 70
     1
102
RTVSPropertyOp49
 70
     1
102
RTVSPropertyOp50
 70
     1
102
RTVSPropertyOp51
 70
     0
102
RTVSPropertyOp52
 70
     0
102
RTVSPropertyOp53
 70
     1
102
RTVSPropertyOp54
 70
     1
102
RTVSPropertyOp55
 70
     1
102
RTVSPropertyOp56
 70
     1
102
RTVSPropertyOp57
 70
     1
102
RTVSPropertyOp58
 70
     1
102
RTVSPropertyOp59
 70
     1
102
RTVSPropertyOp60
 70
     1
102
RTVSPropertyOp61
 70
     1
102
RTVSPropertyOp62
 70
     1
  0
XRECORD
  5
1B3F
102
{ACAD_REACTORS
330
1B3E
102
}
330
1B3E
100
AcDbXrecord
280
     1
102
RTVSPost2010Prop28
280
     0
102
RTVSPost2010PropOp28
 70
     1
102
RTVSPost2010Prop29
280
     1
102
RTVSPost2010PropOp29
 70
     1
102
RTVSPost2010Prop30
280
     1
102
RTVSPost2010PropOp30
 70
     1
102
RTVSPost2010Prop31
280
     0
102
RTVSPost2010PropOp31
 70
     1
102
RTVSPost2010Prop32
280
     0
102
RTVSPost2010PropOp32
 70
     1
102
RTVSPost2010Prop33
280
     0
102
RTVSPost2010PropOp33
 70
     1
102
RTVSPost2010Prop34
280
     0
102
RTVSPost2010PropOp34
 70
     1
102
RTVSPost2010Prop35
280
     0
102
RTVSPost2010PropOp35
 70
     1
102
RTVSPost2010Prop36
280
     0
102
RTVSPost2010PropOp36
 70
     1
102
RTVSPost2010Prop37
 90
       50
102
RTVSPost2010PropOp37
 70
     1
102
RTVSPost2010Prop38
140
0.0
102
RTVSPost2010PropOp38
 70
     1
102
RTVSPost2010Prop39
140
1.0
102
RTVSPost2010PropOp39
 70
     1
102
RTVSPost2010Prop40
 90
        0
102
RTVSPost2010PropOp40
 70
     1
102
RTVSPost2010Prop41ColorIndex
 90
       18
102
RTVSPost2010Prop41ColorRGB
 90
        0
102
RTVSPost2010PropOp41
 70
     1
102
RTVSPost2010Prop42
 90
       50
102
RTVSPost2010PropOp42
 70
     1
102
RTVSPost2010Prop43
 90
        3
102
RTVSPost2010PropOp43
 70
     1
102
RTVSPost2010Prop44ColorIndex
 90
        5
102
RTVSPost2010Prop44ColorRGB
 90
      255
102
RTVSPost2010PropOp44
 70
     1
102
RTVSPost2010Prop45
280
     0
102
RTVSPost2010PropOp45
 70
     1
102
RTVSPost2010Prop46
 90
       50
102
RTVSPost2010PropOp46
 70
     1
102
RTVSPost2010Prop47
 90
       50
102
RTVSPost2010PropOp47
 70
     1
102
RTVSPost2010Prop48
 90
       50
102
RTVSPost2010PropOp48
 70
     1
102
RTVSPost2010Prop49
280
     0
102
RTVSPost2010PropOp49
 70
     1
102
RTVSPost2010Prop50
 90
       50
102
RTVSPost2010PropOp50
 70
     1
102
RTVSPost2010Prop51ColorIndex
 90
      256
102
RTVSPost2010Prop51ColorRGB
 90
-16777216
102
RTVSPost2010PropOp51
 70
     0
102
RTVSPost2010Prop52
140
1.0
102
RTVSPost2010PropOp52
 70
     0
102
RTVSPost2010Prop53
 90
        2
102
RTVSPost2010PropOp53
 70
     1
102
RTVSPost2010Prop54
  1
strokes_ogs.tif
102
RTVSPost2010PropOp54
 70
     1
102
RTVSPost2010Prop55
280
     0
102
RTVSPost2010PropOp55
 70
     1
102
RTVSPost2010Prop56
140
1.0
102
RTVSPost2010PropOp56
 70
     1
102
RTVSPost2010Prop57
140
1.0
102
RTVSPost2010PropOp57
 70
     1
102
RTVSPropertyOp0
 70
     1
102
RTVSPropertyOp1
 70
     1
102
RTVSPropertyOp2
 70
     1
102
RTVSPropertyOp3
 70
     1
102
RTVSPropertyOp4
 70
     1
102
RTVSPropertyOp5
 70
     1
102
RTVSPropertyOp6
 70
     1
102
RTVSPropertyOp7
 70
     1
102
RTVSPropertyOp8
 70
     1
102
RTVSPropertyOp9
 70
     1
102
RTVSPropertyOp10
 70
     1
102
RTVSPropertyOp11
 70
     1
102
RTVSPropertyOp12
 70
     1
102
RTVSPropertyOp13
 70
     1
102
RTVSPropertyOp14
 70
     1
102
RTVSPropertyOp15
 70
     1
102
RTVSPropertyOp16
 70
     1
102
RTVSPropertyOp17
 70
     1
102
RTVSPropertyOp18
 70
     1
102
RTVSPropertyOp19
 70
     1
102
RTVSPropertyOp20
 70
     1
102
RTVSPropertyOp21
 70
     1
102
RTVSPropertyOp22
 70
     1
102
RTVSPropertyOp23
 70
     1
102
RTVSPropertyOp24
 70
     1
102
RTVSPropertyOp25
 70
     1
102
RTVSPropertyOp26
 70
     1
102
RTVSPropertyOp27
 70
     1
102
RTVSPropertyOp28
 70
     1
102
RTVSPropertyOp29
 70
     1
102
RTVSPropertyOp30
 70
     1
102
RTVSPropertyOp31
 70
     1
102
RTVSPropertyOp32
 70
     1
102
RTVSPropertyOp33
 70
     1
102
RTVSPropertyOp34
 70
     1
102
RTVSPropertyOp35
 70
     1
102
RTVSPropertyOp36
 70
     1
102
RTVSPropertyOp37
 70
     1
102
RTVSPropertyOp38
 70
     1
102
RTVSPropertyOp39
 70
     1
102
RTVSPropertyOp40
 70
     1
102
RTVSPropertyOp41
 70
     1
102
RTVSPropertyOp42
 70
     1
102
RTVSPropertyOp43
 70
     1
102
RTVSPropertyOp44
 70
     1
102
RTVSPropertyOp45
 70
     1
102
RTVSPropertyOp46
 70
     1
102
RTVSPropertyOp47
 70
     1
102
RTVSPropertyOp48
 70
     1
102
RTVSPropertyOp49
 70
     1
102
RTVSPropertyOp50
 70
     1
102
RTVSPropertyOp51
 70
     0
102
RTVSPropertyOp52
 70
     0
102
RTVSPropertyOp53
 70
     1
102
RTVSPropertyOp54
 70
     1
102
RTVSPropertyOp55
 70
     1
102
RTVSPropertyOp56
 70
     1
102
RTVSPropertyOp57
 70
     1
102
RTVSPropertyOp58
 70
     1
102
RTVSPropertyOp59
 70
     1
102
RTVSPropertyOp60
 70
     1
102
RTVSPropertyOp61
 70
     1
102
RTVSPropertyOp62
 70
     1
  0
XRECORD
  5
1B43
102
{ACAD_REACTORS
330
1B42
102
}
330
1B42
100
AcDbXrecord
280
     1
102
RTVSPost2010Prop28
280
     0
102
RTVSPost2010PropOp28
 70
     1
102
RTVSPost2010Prop29
280
     1
102
RTVSPost2010PropOp29
 70
     1
102
RTVSPost2010Prop30
280
     1
102
RTVSPost2010PropOp30
 70
     1
102
RTVSPost2010Prop31
280
     0
102
RTVSPost2010PropOp31
 70
     1
102
RTVSPost2010Prop32
280
     0
102
RTVSPost2010PropOp32
 70
     1
102
RTVSPost2010Prop33
280
     0
102
RTVSPost2010PropOp33
 70
     1
102
RTVSPost2010Prop34
280
     0
102
RTVSPost2010PropOp34
 70
     1
102
RTVSPost2010Prop35
280
     0
102
RTVSPost2010PropOp35
 70
     1
102
RTVSPost2010Prop36
280
     0
102
RTVSPost2010PropOp36
 70
     1
102
RTVSPost2010Prop37
 90
       50
102
RTVSPost2010PropOp37
 70
     1
102
RTVSPost2010Prop38
140
0.0
102
RTVSPost2010PropOp38
 70
     1
102
RTVSPost2010Prop39
140
1.0
102
RTVSPost2010PropOp39
 70
     1
102
RTVSPost2010Prop40
 90
        0
102
RTVSPost2010PropOp40
 70
     1
102
RTVSPost2010Prop41ColorIndex
 90
       18
102
RTVSPost2010Prop41ColorRGB
 90
        0
102
RTVSPost2010PropOp41
 70
     1
102
RTVSPost2010Prop42
 90
       50
102
RTVSPost2010PropOp42
 70
     1
102
RTVSPost2010Prop43
 90
        3
102
RTVSPost2010PropOp43
 70
     1
102
RTVSPost2010Prop44ColorIndex
 90
        5
102
RTVSPost2010Prop44ColorRGB
 90
      255
102
RTVSPost2010PropOp44
 70
     1
102
RTVSPost2010Prop45
280
     0
102
RTVSPost2010PropOp45
 70
     1
102
RTVSPost2010Prop46
 90
       50
102
RTVSPost2010PropOp46
 70
     1
102
RTVSPost2010Prop47
 90
       50
102
RTVSPost2010PropOp47
 70
     1
102
RTVSPost2010Prop48
 90
       50
102
RTVSPost2010PropOp48
 70
     1
102
RTVSPost2010Prop49
280
     0
102
RTVSPost2010PropOp49
 70
     1
102
RTVSPost2010Prop50
 90
       50
102
RTVSPost2010PropOp50
 70
     1
102
RTVSPost2010Prop51ColorIndex
 90
      256
102
RTVSPost2010Prop51ColorRGB
 90
-16777216
102
RTVSPost2010PropOp51
 70
     0
102
RTVSPost2010Prop52
140
1.0
102
RTVSPost2010PropOp52
 70
     0
102
RTVSPost2010Prop53
 90
        2
102
RTVSPost2010PropOp53
 70
     1
102
RTVSPost2010Prop54
  1
strokes_ogs.tif
102
RTVSPost2010PropOp54
 70
     1
102
RTVSPost2010Prop55
280
     0
102
RTVSPost2010PropOp55
 70
     1
102
RTVSPost2010Prop56
140
1.0
102
RTVSPost2010PropOp56
 70
     1
102
RTVSPost2010Prop57
140
1.0
102
RTVSPost2010PropOp57
 70
     1
102
RTVSPropertyOp0
 70
     1
102
RTVSPropertyOp1
 70
     1
102
RTVSPropertyOp2
 70
     1
102
RTVSPropertyOp3
 70
     1
102
RTVSPropertyOp4
 70
     1
102
RTVSPropertyOp5
 70
     1
102
RTVSPropertyOp6
 70
     1
102
RTVSPropertyOp7
 70
     1
102
RTVSPropertyOp8
 70
     1
102
RTVSPropertyOp9
 70
     1
102
RTVSPropertyOp10
 70
     1
102
RTVSPropertyOp11
 70
     1
102
RTVSPropertyOp12
 70
     1
102
RTVSPropertyOp13
 70
     1
102
RTVSPropertyOp14
 70
     1
102
RTVSPropertyOp15
 70
     1
102
RTVSPropertyOp16
 70
     1
102
RTVSPropertyOp17
 70
     1
102
RTVSPropertyOp18
 70
     1
102
RTVSPropertyOp19
 70
     1
102
RTVSPropertyOp20
 70
     1
102
RTVSPropertyOp21
 70
     1
102
RTVSPropertyOp22
 70
     1
102
RTVSPropertyOp23
 70
     1
102
RTVSPropertyOp24
 70
     1
102
RTVSPropertyOp25
 70
     1
102
RTVSPropertyOp26
 70
     1
102
RTVSPropertyOp27
 70
     1
102
RTVSPropertyOp28
 70
     1
102
RTVSPropertyOp29
 70
     1
102
RTVSPropertyOp30
 70
     1
102
RTVSPropertyOp31
 70
     1
102
RTVSPropertyOp32
 70
     1
102
RTVSPropertyOp33
 70
     1
102
RTVSPropertyOp34
 70
     1
102
RTVSPropertyOp35
 70
     1
102
RTVSPropertyOp36
 70
     1
102
RTVSPropertyOp37
 70
     1
102
RTVSPropertyOp38
 70
     1
102
RTVSPropertyOp39
 70
     1
102
RTVSPropertyOp40
 70
     1
102
RTVSPropertyOp41
 70
     1
102
RTVSPropertyOp42
 70
     1
102
RTVSPropertyOp43
 70
     1
102
RTVSPropertyOp44
 70
     1
102
RTVSPropertyOp45
 70
     1
102
RTVSPropertyOp46
 70
     1
102
RTVSPropertyOp47
 70
     1
102
RTVSPropertyOp48
 70
     1
102
RTVSPropertyOp49
 70
     1
102
RTVSPropertyOp50
 70
     1
102
RTVSPropertyOp51
 70
     0
102
RTVSPropertyOp52
 70
     0
102
RTVSPropertyOp53
 70
     1
102
RTVSPropertyOp54
 70
     1
102
RTVSPropertyOp55
 70
     1
102
RTVSPropertyOp56
 70
     1
102
RTVSPropertyOp57
 70
     1
102
RTVSPropertyOp58
 70
     1
102
RTVSPropertyOp59
 70
     1
102
RTVSPropertyOp60
 70
     1
102
RTVSPropertyOp61
 70
     1
102
RTVSPropertyOp62
 70
     1
  0
XRECORD
  5
1B5D
102
{ACAD_REACTORS
330
1B5C
102
}
330
1B5C
100
AcDbXrecord
280
     1
102
RTVSPost2010Prop28
280
     0
102
RTVSPost2010PropOp28
 70
     0
102
RTVSPost2010Prop29
280
     1
102
RTVSPost2010PropOp29
 70
     0
102
RTVSPost2010Prop30
280
     1
102
RTVSPost2010PropOp30
 70
     0
102
RTVSPost2010Prop31
280
     0
102
RTVSPost2010PropOp31
 70
     0
102
RTVSPost2010Prop32
280
     0
102
RTVSPost2010PropOp32
 70
     0
102
RTVSPost2010Prop33
280
     0
102
RTVSPost2010PropOp33
 70
     0
102
RTVSPost2010Prop34
280
     0
102
RTVSPost2010PropOp34
 70
     0
102
RTVSPost2010Prop35
280
     0
102
RTVSPost2010PropOp35
 70
     0
102
RTVSPost2010Prop36
280
     0
102
RTVSPost2010PropOp36
 70
     0
102
RTVSPost2010Prop37
 90
       50
102
RTVSPost2010PropOp37
 70
     0
102
RTVSPost2010Prop38
140
0.0
102
RTVSPost2010PropOp38
 70
     0
102
RTVSPost2010Prop39
140
1.0
102
RTVSPost2010PropOp39
 70
     0
102
RTVSPost2010Prop40
 90
        0
102
RTVSPost2010PropOp40
 70
     0
102
RTVSPost2010Prop41ColorIndex
 90
       18
102
RTVSPost2010Prop41ColorRGB
 90
        0
102
RTVSPost2010PropOp41
 70
     0
102
RTVSPost2010Prop42
 90
       50
102
RTVSPost2010PropOp42
 70
     0
102
RTVSPost2010Prop43
 90
        3
102
RTVSPost2010PropOp43
 70
     0
102
RTVSPost2010Prop44ColorIndex
 90
        5
102
RTVSPost2010Prop44ColorRGB
 90
      255
102
RTVSPost2010PropOp44
 70
     0
102
RTVSPost2010Prop45
280
     0
102
RTVSPost2010PropOp45
 70
     0
102
RTVSPost2010Prop46
 90
       50
102
RTVSPost2010PropOp46
 70
     0
102
RTVSPost2010Prop47
 90
       50
102
RTVSPost2010PropOp47
 70
     0
102
RTVSPost2010Prop48
 90
       50
102
RTVSPost2010PropOp48
 70
     0
102
RTVSPost2010Prop49
280
     0
102
RTVSPost2010PropOp49
 70
     0
102
RTVSPost2010Prop50
 90
       50
102
RTVSPost2010PropOp50
 70
     0
102
RTVSPost2010Prop51ColorIndex
 90
      256
102
RTVSPost2010Prop51ColorRGB
 90
-16777216
102
RTVSPost2010PropOp51
 70
     0
102
RTVSPost2010Prop52
140
1.0
102
RTVSPost2010PropOp52
 70
     0
102
RTVSPost2010Prop53
 90
        2
102
RTVSPost2010PropOp53
 70
     0
102
RTVSPost2010Prop54
  1
strokes_ogs.tif
102
RTVSPost2010PropOp54
 70
     0
102
RTVSPost2010Prop55
280
     0
102
RTVSPost2010PropOp55
 70
     0
102
RTVSPost2010Prop56
140
1.0
102
RTVSPost2010PropOp56
 70
     0
102
RTVSPost2010Prop57
140
1.0
102
RTVSPost2010PropOp57
 70
     0
102
RTVSPropertyOp0
 70
     0
102
RTVSPropertyOp1
 70
     0
102
RTVSPropertyOp2
 70
     0
102
RTVSPropertyOp3
 70
     0
102
RTVSPropertyOp4
 70
     0
102
RTVSPropertyOp5
 70
     0
102
RTVSPropertyOp6
 70
     0
102
RTVSPropertyOp7
 70
     0
102
RTVSPropertyOp8
 70
     0
102
RTVSPropertyOp9
 70
     0
102
RTVSPropertyOp10
 70
     0
102
RTVSPropertyOp11
 70
     0
102
RTVSPropertyOp12
 70
     0
102
RTVSPropertyOp13
 70
     0
102
RTVSPropertyOp14
 70
     2
102
RTVSPropertyOp15
 70
     0
102
RTVSPropertyOp16
 70
     0
102
RTVSPropertyOp17
 70
     0
102
RTVSPropertyOp18
 70
     0
102
RTVSPropertyOp19
 70
     0
102
RTVSPropertyOp20
 70
     0
102
RTVSPropertyOp21
 70
     0
102
RTVSPropertyOp22
 70
     0
102
RTVSPropertyOp23
 70
     0
102
RTVSPropertyOp24
 70
     0
102
RTVSPropertyOp25
 70
     0
102
RTVSPropertyOp26
 70
     0
102
RTVSPropertyOp27
 70
     0
102
RTVSPropertyOp28
 70
     0
102
RTVSPropertyOp29
 70
     0
102
RTVSPropertyOp30
 70
     0
102
RTVSPropertyOp31
 70
     0
102
RTVSPropertyOp32
 70
     0
102
RTVSPropertyOp33
 70
     0
102
RTVSPropertyOp34
 70
     0
102
RTVSPropertyOp35
 70
     0
102
RTVSPropertyOp36
 70
     0
102
RTVSPropertyOp37
 70
     0
102
RTVSPropertyOp38
 70
     0
102
RTVSPropertyOp39
 70
     0
102
RTVSPropertyOp40
 70
     0
102
RTVSPropertyOp41
 70
     0
102
RTVSPropertyOp42
 70
     0
102
RTVSPropertyOp43
 70
     0
102
RTVSPropertyOp44
 70
     0
102
RTVSPropertyOp45
 70
     0
102
RTVSPropertyOp46
 70
     0
102
RTVSPropertyOp47
 70
     0
102
RTVSPropertyOp48
 70
     0
102
RTVSPropertyOp49
 70
     0
102
RTVSPropertyOp50
 70
     0
102
RTVSPropertyOp51
 70
     0
102
RTVSPropertyOp52
 70
     0
102
RTVSPropertyOp53
 70
     0
102
RTVSPropertyOp54
 70
     0
102
RTVSPropertyOp55
 70
     0
102
RTVSPropertyOp56
 70
     0
102
RTVSPropertyOp57
 70
     0
102
RTVSPropertyOp58
 70
     0
102
RTVSPropertyOp59
 70
     0
102
RTVSPropertyOp60
 70
     0
102
RTVSPropertyOp61
 70
     0
102
RTVSPropertyOp62
 70
     0
  0
XRECORD
  5
1B4B
102
{ACAD_REACTORS
330
1B4A
102
}
330
1B4A
100
AcDbXrecord
280
     1
102
RTVSPost2010Prop28
280
     0
102
RTVSPost2010PropOp28
 70
     1
102
RTVSPost2010Prop29
280
     1
102
RTVSPost2010PropOp29
 70
     1
102
RTVSPost2010Prop30
280
     1
102
RTVSPost2010PropOp30
 70
     1
102
RTVSPost2010Prop31
280
     0
102
RTVSPost2010PropOp31
 70
     1
102
RTVSPost2010Prop32
280
     0
102
RTVSPost2010PropOp32
 70
     1
102
RTVSPost2010Prop33
280
     0
102
RTVSPost2010PropOp33
 70
     1
102
RTVSPost2010Prop34
280
     0
102
RTVSPost2010PropOp34
 70
     1
102
RTVSPost2010Prop35
280
     0
102
RTVSPost2010PropOp35
 70
     1
102
RTVSPost2010Prop36
280
     0
102
RTVSPost2010PropOp36
 70
     1
102
RTVSPost2010Prop37
 90
       50
102
RTVSPost2010PropOp37
 70
     1
102
RTVSPost2010Prop38
140
0.0
102
RTVSPost2010PropOp38
 70
     1
102
RTVSPost2010Prop39
140
1.0
102
RTVSPost2010PropOp39
 70
     1
102
RTVSPost2010Prop40
 90
        0
102
RTVSPost2010PropOp40
 70
     1
102
RTVSPost2010Prop41ColorIndex
 90
       18
102
RTVSPost2010Prop41ColorRGB
 90
        0
102
RTVSPost2010PropOp41
 70
     1
102
RTVSPost2010Prop42
 90
       50
102
RTVSPost2010PropOp42
 70
     1
102
RTVSPost2010Prop43
 90
        3
102
RTVSPost2010PropOp43
 70
     1
102
RTVSPost2010Prop44ColorIndex
 90
        5
102
RTVSPost2010Prop44ColorRGB
 90
      255
102
RTVSPost2010PropOp44
 70
     1
102
RTVSPost2010Prop45
280
     0
102
RTVSPost2010PropOp45
 70
     1
102
RTVSPost2010Prop46
 90
       50
102
RTVSPost2010PropOp46
 70
     1
102
RTVSPost2010Prop47
 90
       50
102
RTVSPost2010PropOp47
 70
     1
102
RTVSPost2010Prop48
 90
       50
102
RTVSPost2010PropOp48
 70
     1
102
RTVSPost2010Prop49
280
     0
102
RTVSPost2010PropOp49
 70
     1
102
RTVSPost2010Prop50
 90
       50
102
RTVSPost2010PropOp50
 70
     1
102
RTVSPost2010Prop51ColorIndex
 90
      256
102
RTVSPost2010Prop51ColorRGB
 90
-16777216
102
RTVSPost2010PropOp51
 70
     0
102
RTVSPost2010Prop52
140
1.0
102
RTVSPost2010PropOp52
 70
     0
102
RTVSPost2010Prop53
 90
        2
102
RTVSPost2010PropOp53
 70
     1
102
RTVSPost2010Prop54
  1
strokes_ogs.tif
102
RTVSPost2010PropOp54
 70
     1
102
RTVSPost2010Prop55
280
     0
102
RTVSPost2010PropOp55
 70
     1
102
RTVSPost2010Prop56
140
1.0
102
RTVSPost2010PropOp56
 70
     1
102
RTVSPost2010Prop57
140
1.0
102
RTVSPost2010PropOp57
 70
     1
102
RTVSPropertyOp0
 70
     1
102
RTVSPropertyOp1
 70
     1
102
RTVSPropertyOp2
 70
     1
102
RTVSPropertyOp3
 70
     1
102
RTVSPropertyOp4
 70
     1
102
RTVSPropertyOp5
 70
     1
102
RTVSPropertyOp6
 70
     1
102
RTVSPropertyOp7
 70
     1
102
RTVSPropertyOp8
 70
     1
102
RTVSPropertyOp9
 70
     1
102
RTVSPropertyOp10
 70
     1
102
RTVSPropertyOp11
 70
     1
102
RTVSPropertyOp12
 70
     1
102
RTVSPropertyOp13
 70
     1
102
RTVSPropertyOp14
 70
     1
102
RTVSPropertyOp15
 70
     1
102
RTVSPropertyOp16
 70
     1
102
RTVSPropertyOp17
 70
     1
102
RTVSPropertyOp18
 70
     1
102
RTVSPropertyOp19
 70
     1
102
RTVSPropertyOp20
 70
     1
102
RTVSPropertyOp21
 70
     1
102
RTVSPropertyOp22
 70
     1
102
RTVSPropertyOp23
 70
     1
102
RTVSPropertyOp24
 70
     1
102
RTVSPropertyOp25
 70
     1
102
RTVSPropertyOp26
 70
     1
102
RTVSPropertyOp27
 70
     1
102
RTVSPropertyOp28
 70
     1
102
RTVSPropertyOp29
 70
     1
102
RTVSPropertyOp30
 70
     1
102
RTVSPropertyOp31
 70
     1
102
RTVSPropertyOp32
 70
     1
102
RTVSPropertyOp33
 70
     1
102
RTVSPropertyOp34
 70
     1
102
RTVSPropertyOp35
 70
     1
102
RTVSPropertyOp36
 70
     1
102
RTVSPropertyOp37
 70
     1
102
RTVSPropertyOp38
 70
     1
102
RTVSPropertyOp39
 70
     1
102
RTVSPropertyOp40
 70
     1
102
RTVSPropertyOp41
 70
     1
102
RTVSPropertyOp42
 70
     1
102
RTVSPropertyOp43
 70
     1
102
RTVSPropertyOp44
 70
     1
102
RTVSPropertyOp45
 70
     1
102
RTVSPropertyOp46
 70
     1
102
RTVSPropertyOp47
 70
     1
102
RTVSPropertyOp48
 70
     1
102
RTVSPropertyOp49
 70
     1
102
RTVSPropertyOp50
 70
     1
102
RTVSPropertyOp51
 70
     0
102
RTVSPropertyOp52
 70
     0
102
RTVSPropertyOp53
 70
     1
102
RTVSPropertyOp54
 70
     1
102
RTVSPropertyOp55
 70
     1
102
RTVSPropertyOp56
 70
     1
102
RTVSPropertyOp57
 70
     1
102
RTVSPropertyOp58
 70
     1
102
RTVSPropertyOp59
 70
     1
102
RTVSPropertyOp60
 70
     1
102
RTVSPropertyOp61
 70
     1
102
RTVSPropertyOp62
 70
     1
  0
XRECORD
  5
1B2F
102
{ACAD_REACTORS
330
1B2E
102
}
330
1B2E
100
AcDbXrecord
280
     1
102
RTVSPost2010Prop28
280
     0
102
RTVSPost2010PropOp28
 70
     1
102
RTVSPost2010Prop29
280
     1
102
RTVSPost2010PropOp29
 70
     1
102
RTVSPost2010Prop30
280
     1
102
RTVSPost2010PropOp30
 70
     1
102
RTVSPost2010Prop31
280
     0
102
RTVSPost2010PropOp31
 70
     1
102
RTVSPost2010Prop32
280
     0
102
RTVSPost2010PropOp32
 70
     1
102
RTVSPost2010Prop33
280
     0
102
RTVSPost2010PropOp33
 70
     1
102
RTVSPost2010Prop34
280
     0
102
RTVSPost2010PropOp34
 70
     1
102
RTVSPost2010Prop35
280
     0
102
RTVSPost2010PropOp35
 70
     1
102
RTVSPost2010Prop36
280
     0
102
RTVSPost2010PropOp36
 70
     1
102
RTVSPost2010Prop37
 90
       50
102
RTVSPost2010PropOp37
 70
     1
102
RTVSPost2010Prop38
140
0.0
102
RTVSPost2010PropOp38
 70
     1
102
RTVSPost2010Prop39
140
1.0
102
RTVSPost2010PropOp39
 70
     1
102
RTVSPost2010Prop40
 90
        0
102
RTVSPost2010PropOp40
 70
     1
102
RTVSPost2010Prop41ColorIndex
 90
       18
102
RTVSPost2010Prop41ColorRGB
 90
        0
102
RTVSPost2010PropOp41
 70
     1
102
RTVSPost2010Prop42
 90
       50
102
RTVSPost2010PropOp42
 70
     1
102
RTVSPost2010Prop43
 90
        3
102
RTVSPost2010PropOp43
 70
     1
102
RTVSPost2010Prop44ColorIndex
 90
        5
102
RTVSPost2010Prop44ColorRGB
 90
      255
102
RTVSPost2010PropOp44
 70
     1
102
RTVSPost2010Prop45
280
     0
102
RTVSPost2010PropOp45
 70
     1
102
RTVSPost2010Prop46
 90
       50
102
RTVSPost2010PropOp46
 70
     1
102
RTVSPost2010Prop47
 90
       50
102
RTVSPost2010PropOp47
 70
     1
102
RTVSPost2010Prop48
 90
       50
102
RTVSPost2010PropOp48
 70
     1
102
RTVSPost2010Prop49
280
     0
102
RTVSPost2010PropOp49
 70
     1
102
RTVSPost2010Prop50
 90
       50
102
RTVSPost2010PropOp50
 70
     1
102
RTVSPost2010Prop51ColorIndex
 90
      256
102
RTVSPost2010Prop51ColorRGB
 90
-16777216
102
RTVSPost2010PropOp51
 70
     0
102
RTVSPost2010Prop52
140
1.0
102
RTVSPost2010PropOp52
 70
     0
102
RTVSPost2010Prop53
 90
        2
102
RTVSPost2010PropOp53
 70
     1
102
RTVSPost2010Prop54
  1
strokes_ogs.tif
102
RTVSPost2010PropOp54
 70
     1
102
RTVSPost2010Prop55
280
     0
102
RTVSPost2010PropOp55
 70
     1
102
RTVSPost2010Prop56
140
1.0
102
RTVSPost2010PropOp56
 70
     1
102
RTVSPost2010Prop57
140
1.0
102
RTVSPost2010PropOp57
 70
     1
102
RTVSPropertyOp0
 70
     1
102
RTVSPropertyOp1
 70
     1
102
RTVSPropertyOp2
 70
     1
102
RTVSPropertyOp3
 70
     1
102
RTVSPropertyOp4
 70
     1
102
RTVSPropertyOp5
 70
     1
102
RTVSPropertyOp6
 70
     1
102
RTVSPropertyOp7
 70
     1
102
RTVSPropertyOp8
 70
     1
102
RTVSPropertyOp9
 70
     1
102
RTVSPropertyOp10
 70
     1
102
RTVSPropertyOp11
 70
     1
102
RTVSPropertyOp12
 70
     1
102
RTVSPropertyOp13
 70
     1
102
RTVSPropertyOp14
 70
     1
102
RTVSPropertyOp15
 70
     1
102
RTVSPropertyOp16
 70
     1
102
RTVSPropertyOp17
 70
     1
102
RTVSPropertyOp18
 70
     1
102
RTVSPropertyOp19
 70
     1
102
RTVSPropertyOp20
 70
     1
102
RTVSPropertyOp21
 70
     1
102
RTVSPropertyOp22
 70
     1
102
RTVSPropertyOp23
 70
     1
102
RTVSPropertyOp24
 70
     1
102
RTVSPropertyOp25
 70
     1
102
RTVSPropertyOp26
 70
     1
102
RTVSPropertyOp27
 70
     1
102
RTVSPropertyOp28
 70
     1
102
RTVSPropertyOp29
 70
     1
102
RTVSPropertyOp30
 70
     1
102
RTVSPropertyOp31
 70
     1
102
RTVSPropertyOp32
 70
     1
102
RTVSPropertyOp33
 70
     1
102
RTVSPropertyOp34
 70
     1
102
RTVSPropertyOp35
 70
     1
102
RTVSPropertyOp36
 70
     1
102
RTVSPropertyOp37
 70
     1
102
RTVSPropertyOp38
 70
     1
102
RTVSPropertyOp39
 70
     1
102
RTVSPropertyOp40
 70
     1
102
RTVSPropertyOp41
 70
     1
102
RTVSPropertyOp42
 70
     1
102
RTVSPropertyOp43
 70
     1
102
RTVSPropertyOp44
 70
     1
102
RTVSPropertyOp45
 70
     1
102
RTVSPropertyOp46
 70
     1
102
RTVSPropertyOp47
 70
     1
102
RTVSPropertyOp48
 70
     1
102
RTVSPropertyOp49
 70
     1
102
RTVSPropertyOp50
 70
     1
102
RTVSPropertyOp51
 70
     0
102
RTVSPropertyOp52
 70
     0
102
RTVSPropertyOp53
 70
     1
102
RTVSPropertyOp54
 70
     1
102
RTVSPropertyOp55
 70
     1
102
RTVSPropertyOp56
 70
     1
102
RTVSPropertyOp57
 70
     1
102
RTVSPropertyOp58
 70
     1
102
RTVSPropertyOp59
 70
     1
102
RTVSPropertyOp60
 70
     1
102
RTVSPropertyOp61
 70
     1
102
RTVSPropertyOp62
 70
     1
  0
XRECORD
  5
1B31
102
{ACAD_REACTORS
330
1B30
102
}
330
1B30
100
AcDbXrecord
280
     1
102
RTVSPost2010Prop28
280
     0
102
RTVSPost2010PropOp28
 70
     1
102
RTVSPost2010Prop29
280
     1
102
RTVSPost2010PropOp29
 70
     1
102
RTVSPost2010Prop30
280
     1
102
RTVSPost2010PropOp30
 70
     1
102
RTVSPost2010Prop31
280
     0
102
RTVSPost2010PropOp31
 70
     1
102
RTVSPost2010Prop32
280
     0
102
RTVSPost2010PropOp32
 70
     1
102
RTVSPost2010Prop33
280
     0
102
RTVSPost2010PropOp33
 70
     1
102
RTVSPost2010Prop34
280
     0
102
RTVSPost2010PropOp34
 70
     1
102
RTVSPost2010Prop35
280
     0
102
RTVSPost2010PropOp35
 70
     1
102
RTVSPost2010Prop36
280
     0
102
RTVSPost2010PropOp36
 70
     1
102
RTVSPost2010Prop37
 90
       50
102
RTVSPost2010PropOp37
 70
     1
102
RTVSPost2010Prop38
140
0.0
102
RTVSPost2010PropOp38
 70
     1
102
RTVSPost2010Prop39
140
1.0
102
RTVSPost2010PropOp39
 70
     1
102
RTVSPost2010Prop40
 90
        0
102
RTVSPost2010PropOp40
 70
     1
102
RTVSPost2010Prop41ColorIndex
 90
       18
102
RTVSPost2010Prop41ColorRGB
 90
        0
102
RTVSPost2010PropOp41
 70
     1
102
RTVSPost2010Prop42
 90
       50
102
RTVSPost2010PropOp42
 70
     1
102
RTVSPost2010Prop43
 90
        3
102
RTVSPost2010PropOp43
 70
     1
102
RTVSPost2010Prop44ColorIndex
 90
        5
102
RTVSPost2010Prop44ColorRGB
 90
      255
102
RTVSPost2010PropOp44
 70
     1
102
RTVSPost2010Prop45
280
     0
102
RTVSPost2010PropOp45
 70
     1
102
RTVSPost2010Prop46
 90
       50
102
RTVSPost2010PropOp46
 70
     1
102
RTVSPost2010Prop47
 90
       50
102
RTVSPost2010PropOp47
 70
     1
102
RTVSPost2010Prop48
 90
       50
102
RTVSPost2010PropOp48
 70
     1
102
RTVSPost2010Prop49
280
     0
102
RTVSPost2010PropOp49
 70
     1
102
RTVSPost2010Prop50
 90
       50
102
RTVSPost2010PropOp50
 70
     1
102
RTVSPost2010Prop51ColorIndex
 90
      256
102
RTVSPost2010Prop51ColorRGB
 90
-16777216
102
RTVSPost2010PropOp51
 70
     0
102
RTVSPost2010Prop52
140
1.0
102
RTVSPost2010PropOp52
 70
     0
102
RTVSPost2010Prop53
 90
        2
102
RTVSPost2010PropOp53
 70
     1
102
RTVSPost2010Prop54
  1
strokes_ogs.tif
102
RTVSPost2010PropOp54
 70
     1
102
RTVSPost2010Prop55
280
     0
102
RTVSPost2010PropOp55
 70
     1
102
RTVSPost2010Prop56
140
1.0
102
RTVSPost2010PropOp56
 70
     1
102
RTVSPost2010Prop57
140
1.0
102
RTVSPost2010PropOp57
 70
     1
102
RTVSPropertyOp0
 70
     1
102
RTVSPropertyOp1
 70
     1
102
RTVSPropertyOp2
 70
     1
102
RTVSPropertyOp3
 70
     1
102
RTVSPropertyOp4
 70
     1
102
RTVSPropertyOp5
 70
     1
102
RTVSPropertyOp6
 70
     1
102
RTVSPropertyOp7
 70
     1
102
RTVSPropertyOp8
 70
     1
102
RTVSPropertyOp9
 70
     1
102
RTVSPropertyOp10
 70
     1
102
RTVSPropertyOp11
 70
     1
102
RTVSPropertyOp12
 70
     1
102
RTVSPropertyOp13
 70
     1
102
RTVSPropertyOp14
 70
     1
102
RTVSPropertyOp15
 70
     1
102
RTVSPropertyOp16
 70
     1
102
RTVSPropertyOp17
 70
     1
102
RTVSPropertyOp18
 70
     1
102
RTVSPropertyOp19
 70
     1
102
RTVSPropertyOp20
 70
     1
102
RTVSPropertyOp21
 70
     1
102
RTVSPropertyOp22
 70
     1
102
RTVSPropertyOp23
 70
     1
102
RTVSPropertyOp24
 70
     1
102
RTVSPropertyOp25
 70
     1
102
RTVSPropertyOp26
 70
     1
102
RTVSPropertyOp27
 70
     1
102
RTVSPropertyOp28
 70
     1
102
RTVSPropertyOp29
 70
     1
102
RTVSPropertyOp30
 70
     1
102
RTVSPropertyOp31
 70
     1
102
RTVSPropertyOp32
 70
     1
102
RTVSPropertyOp33
 70
     1
102
RTVSPropertyOp34
 70
     1
102
RTVSPropertyOp35
 70
     1
102
RTVSPropertyOp36
 70
     1
102
RTVSPropertyOp37
 70
     1
102
RTVSPropertyOp38
 70
     1
102
RTVSPropertyOp39
 70
     1
102
RTVSPropertyOp40
 70
     1
102
RTVSPropertyOp41
 70
     1
102
RTVSPropertyOp42
 70
     1
102
RTVSPropertyOp43
 70
     1
102
RTVSPropertyOp44
 70
     1
102
RTVSPropertyOp45
 70
     1
102
RTVSPropertyOp46
 70
     1
102
RTVSPropertyOp47
 70
     1
102
RTVSPropertyOp48
 70
     1
102
RTVSPropertyOp49
 70
     1
102
RTVSPropertyOp50
 70
     1
102
RTVSPropertyOp51
 70
     0
102
RTVSPropertyOp52
 70
     0
102
RTVSPropertyOp53
 70
     1
102
RTVSPropertyOp54
 70
     1
102
RTVSPropertyOp55
 70
     1
102
RTVSPropertyOp56
 70
     1
102
RTVSPropertyOp57
 70
     1
102
RTVSPropertyOp58
 70
     1
102
RTVSPropertyOp59
 70
     1
102
RTVSPropertyOp60
 70
     1
102
RTVSPropertyOp61
 70
     1
102
RTVSPropertyOp62
 70
     1
  0
XRECORD
  5
1B33
102
{ACAD_REACTORS
330
1B32
102
}
330
1B32
100
AcDbXrecord
280
     1
102
RTVSPost2010Prop28
280
     0
102
RTVSPost2010PropOp28
 70
     1
102
RTVSPost2010Prop29
280
     1
102
RTVSPost2010PropOp29
 70
     1
102
RTVSPost2010Prop30
280
     1
102
RTVSPost2010PropOp30
 70
     1
102
RTVSPost2010Prop31
280
     0
102
RTVSPost2010PropOp31
 70
     1
102
RTVSPost2010Prop32
280
     0
102
RTVSPost2010PropOp32
 70
     1
102
RTVSPost2010Prop33
280
     0
102
RTVSPost2010PropOp33
 70
     1
102
RTVSPost2010Prop34
280
     0
102
RTVSPost2010PropOp34
 70
     1
102
RTVSPost2010Prop35
280
     0
102
RTVSPost2010PropOp35
 70
     1
102
RTVSPost2010Prop36
280
     0
102
RTVSPost2010PropOp36
 70
     1
102
RTVSPost2010Prop37
 90
       50
102
RTVSPost2010PropOp37
 70
     1
102
RTVSPost2010Prop38
140
0.0
102
RTVSPost2010PropOp38
 70
     1
102
RTVSPost2010Prop39
140
1.0
102
RTVSPost2010PropOp39
 70
     1
102
RTVSPost2010Prop40
 90
        0
102
RTVSPost2010PropOp40
 70
     1
102
RTVSPost2010Prop41ColorIndex
 90
       18
102
RTVSPost2010Prop41ColorRGB
 90
        0
102
RTVSPost2010PropOp41
 70
     1
102
RTVSPost2010Prop42
 90
       50
102
RTVSPost2010PropOp42
 70
     1
102
RTVSPost2010Prop43
 90
        3
102
RTVSPost2010PropOp43
 70
     1
102
RTVSPost2010Prop44ColorIndex
 90
        5
102
RTVSPost2010Prop44ColorRGB
 90
      255
102
RTVSPost2010PropOp44
 70
     1
102
RTVSPost2010Prop45
280
     0
102
RTVSPost2010PropOp45
 70
     1
102
RTVSPost2010Prop46
 90
       50
102
RTVSPost2010PropOp46
 70
     1
102
RTVSPost2010Prop47
 90
       50
102
RTVSPost2010PropOp47
 70
     1
102
RTVSPost2010Prop48
 90
       50
102
RTVSPost2010PropOp48
 70
     1
102
RTVSPost2010Prop49
280
     0
102
RTVSPost2010PropOp49
 70
     1
102
RTVSPost2010Prop50
 90
       50
102
RTVSPost2010PropOp50
 70
     1
102
RTVSPost2010Prop51ColorIndex
 90
      256
102
RTVSPost2010Prop51ColorRGB
 90
-16777216
102
RTVSPost2010PropOp51
 70
     0
102
RTVSPost2010Prop52
140
1.0
102
RTVSPost2010PropOp52
 70
     0
102
RTVSPost2010Prop53
 90
        2
102
RTVSPost2010PropOp53
 70
     1
102
RTVSPost2010Prop54
  1
strokes_ogs.tif
102
RTVSPost2010PropOp54
 70
     1
102
RTVSPost2010Prop55
280
     0
102
RTVSPost2010PropOp55
 70
     1
102
RTVSPost2010Prop56
140
1.0
102
RTVSPost2010PropOp56
 70
     1
102
RTVSPost2010Prop57
140
1.0
102
RTVSPost2010PropOp57
 70
     1
102
RTVSPropertyOp0
 70
     1
102
RTVSPropertyOp1
 70
     1
102
RTVSPropertyOp2
 70
     1
102
RTVSPropertyOp3
 70
     1
102
RTVSPropertyOp4
 70
     1
102
RTVSPropertyOp5
 70
     1
102
RTVSPropertyOp6
 70
     1
102
RTVSPropertyOp7
 70
     1
102
RTVSPropertyOp8
 70
     1
102
RTVSPropertyOp9
 70
     1
102
RTVSPropertyOp10
 70
     1
102
RTVSPropertyOp11
 70
     1
102
RTVSPropertyOp12
 70
     1
102
RTVSPropertyOp13
 70
     1
102
RTVSPropertyOp14
 70
     1
102
RTVSPropertyOp15
 70
     1
102
RTVSPropertyOp16
 70
     1
102
RTVSPropertyOp17
 70
     1
102
RTVSPropertyOp18
 70
     1
102
RTVSPropertyOp19
 70
     1
102
RTVSPropertyOp20
 70
     1
102
RTVSPropertyOp21
 70
     1
102
RTVSPropertyOp22
 70
     1
102
RTVSPropertyOp23
 70
     1
102
RTVSPropertyOp24
 70
     1
102
RTVSPropertyOp25
 70
     1
102
RTVSPropertyOp26
 70
     1
102
RTVSPropertyOp27
 70
     1
102
RTVSPropertyOp28
 70
     1
102
RTVSPropertyOp29
 70
     1
102
RTVSPropertyOp30
 70
     1
102
RTVSPropertyOp31
 70
     1
102
RTVSPropertyOp32
 70
     1
102
RTVSPropertyOp33
 70
     1
102
RTVSPropertyOp34
 70
     1
102
RTVSPropertyOp35
 70
     1
102
RTVSPropertyOp36
 70
     1
102
RTVSPropertyOp37
 70
     1
102
RTVSPropertyOp38
 70
     1
102
RTVSPropertyOp39
 70
     1
102
RTVSPropertyOp40
 70
     1
102
RTVSPropertyOp41
 70
     1
102
RTVSPropertyOp42
 70
     1
102
RTVSPropertyOp43
 70
     1
102
RTVSPropertyOp44
 70
     1
102
RTVSPropertyOp45
 70
     1
102
RTVSPropertyOp46
 70
     1
102
RTVSPropertyOp47
 70
     1
102
RTVSPropertyOp48
 70
     1
102
RTVSPropertyOp49
 70
     1
102
RTVSPropertyOp50
 70
     1
102
RTVSPropertyOp51
 70
     0
102
RTVSPropertyOp52
 70
     0
102
RTVSPropertyOp53
 70
     1
102
RTVSPropertyOp54
 70
     1
102
RTVSPropertyOp55
 70
     1
102
RTVSPropertyOp56
 70
     1
102
RTVSPropertyOp57
 70
     1
102
RTVSPropertyOp58
 70
     1
102
RTVSPropertyOp59
 70
     1
102
RTVSPropertyOp60
 70
     1
102
RTVSPropertyOp61
 70
     1
102
RTVSPropertyOp62
 70
     1
  0
XRECORD
  5
1B35
102
{ACAD_REACTORS
330
1B34
102
}
330
1B34
100
AcDbXrecord
280
     1
102
RTVSPost2010Prop28
280
     0
102
RTVSPost2010PropOp28
 70
     1
102
RTVSPost2010Prop29
280
     1
102
RTVSPost2010PropOp29
 70
     1
102
RTVSPost2010Prop30
280
     1
102
RTVSPost2010PropOp30
 70
     1
102
RTVSPost2010Prop31
280
     0
102
RTVSPost2010PropOp31
 70
     1
102
RTVSPost2010Prop32
280
     0
102
RTVSPost2010PropOp32
 70
     1
102
RTVSPost2010Prop33
280
     0
102
RTVSPost2010PropOp33
 70
     1
102
RTVSPost2010Prop34
280
     0
102
RTVSPost2010PropOp34
 70
     1
102
RTVSPost2010Prop35
280
     0
102
RTVSPost2010PropOp35
 70
     1
102
RTVSPost2010Prop36
280
     0
102
RTVSPost2010PropOp36
 70
     1
102
RTVSPost2010Prop37
 90
       50
102
RTVSPost2010PropOp37
 70
     1
102
RTVSPost2010Prop38
140
0.0
102
RTVSPost2010PropOp38
 70
     1
102
RTVSPost2010Prop39
140
1.0
102
RTVSPost2010PropOp39
 70
     1
102
RTVSPost2010Prop40
 90
        0
102
RTVSPost2010PropOp40
 70
     1
102
RTVSPost2010Prop41ColorIndex
 90
       18
102
RTVSPost2010Prop41ColorRGB
 90
        0
102
RTVSPost2010PropOp41
 70
     1
102
RTVSPost2010Prop42
 90
       50
102
RTVSPost2010PropOp42
 70
     1
102
RTVSPost2010Prop43
 90
        3
102
RTVSPost2010PropOp43
 70
     1
102
RTVSPost2010Prop44ColorIndex
 90
        5
102
RTVSPost2010Prop44ColorRGB
 90
      255
102
RTVSPost2010PropOp44
 70
     1
102
RTVSPost2010Prop45
280
     0
102
RTVSPost2010PropOp45
 70
     1
102
RTVSPost2010Prop46
 90
       50
102
RTVSPost2010PropOp46
 70
     1
102
RTVSPost2010Prop47
 90
       50
102
RTVSPost2010PropOp47
 70
     1
102
RTVSPost2010Prop48
 90
       50
102
RTVSPost2010PropOp48
 70
     1
102
RTVSPost2010Prop49
280
     0
102
RTVSPost2010PropOp49
 70
     1
102
RTVSPost2010Prop50
 90
       50
102
RTVSPost2010PropOp50
 70
     1
102
RTVSPost2010Prop51ColorIndex
 90
      256
102
RTVSPost2010Prop51ColorRGB
 90
-16777216
102
RTVSPost2010PropOp51
 70
     0
102
RTVSPost2010Prop52
140
1.0
102
RTVSPost2010PropOp52
 70
     0
102
RTVSPost2010Prop53
 90
        2
102
RTVSPost2010PropOp53
 70
     1
102
RTVSPost2010Prop54
  1
strokes_ogs.tif
102
RTVSPost2010PropOp54
 70
     1
102
RTVSPost2010Prop55
280
     0
102
RTVSPost2010PropOp55
 70
     1
102
RTVSPost2010Prop56
140
1.0
102
RTVSPost2010PropOp56
 70
     1
102
RTVSPost2010Prop57
140
1.0
102
RTVSPost2010PropOp57
 70
     1
102
RTVSPropertyOp0
 70
     1
102
RTVSPropertyOp1
 70
     1
102
RTVSPropertyOp2
 70
     1
102
RTVSPropertyOp3
 70
     1
102
RTVSPropertyOp4
 70
     1
102
RTVSPropertyOp5
 70
     1
102
RTVSPropertyOp6
 70
     1
102
RTVSPropertyOp7
 70
     1
102
RTVSPropertyOp8
 70
     1
102
RTVSPropertyOp9
 70
     1
102
RTVSPropertyOp10
 70
     1
102
RTVSPropertyOp11
 70
     1
102
RTVSPropertyOp12
 70
     1
102
RTVSPropertyOp13
 70
     1
102
RTVSPropertyOp14
 70
     1
102
RTVSPropertyOp15
 70
     1
102
RTVSPropertyOp16
 70
     1
102
RTVSPropertyOp17
 70
     1
102
RTVSPropertyOp18
 70
     1
102
RTVSPropertyOp19
 70
     1
102
RTVSPropertyOp20
 70
     1
102
RTVSPropertyOp21
 70
     1
102
RTVSPropertyOp22
 70
     1
102
RTVSPropertyOp23
 70
     1
102
RTVSPropertyOp24
 70
     1
102
RTVSPropertyOp25
 70
     1
102
RTVSPropertyOp26
 70
     1
102
RTVSPropertyOp27
 70
     1
102
RTVSPropertyOp28
 70
     1
102
RTVSPropertyOp29
 70
     1
102
RTVSPropertyOp30
 70
     1
102
RTVSPropertyOp31
 70
     1
102
RTVSPropertyOp32
 70
     1
102
RTVSPropertyOp33
 70
     1
102
RTVSPropertyOp34
 70
     1
102
RTVSPropertyOp35
 70
     1
102
RTVSPropertyOp36
 70
     1
102
RTVSPropertyOp37
 70
     1
102
RTVSPropertyOp38
 70
     1
102
RTVSPropertyOp39
 70
     1
102
RTVSPropertyOp40
 70
     1
102
RTVSPropertyOp41
 70
     1
102
RTVSPropertyOp42
 70
     1
102
RTVSPropertyOp43
 70
     1
102
RTVSPropertyOp44
 70
     1
102
RTVSPropertyOp45
 70
     1
102
RTVSPropertyOp46
 70
     1
102
RTVSPropertyOp47
 70
     1
102
RTVSPropertyOp48
 70
     1
102
RTVSPropertyOp49
 70
     1
102
RTVSPropertyOp50
 70
     1
102
RTVSPropertyOp51
 70
     0
102
RTVSPropertyOp52
 70
     0
102
RTVSPropertyOp53
 70
     1
102
RTVSPropertyOp54
 70
     1
102
RTVSPropertyOp55
 70
     1
102
RTVSPropertyOp56
 70
     1
102
RTVSPropertyOp57
 70
     1
102
RTVSPropertyOp58
 70
     1
102
RTVSPropertyOp59
 70
     1
102
RTVSPropertyOp60
 70
     1
102
RTVSPropertyOp61
 70
     1
102
RTVSPropertyOp62
 70
     1
  0
XRECORD
  5
1B3D
102
{ACAD_REACTORS
330
1B3C
102
}
330
1B3C
100
AcDbXrecord
280
     1
102
RTVSPost2010Prop28
280
     0
102
RTVSPost2010PropOp28
 70
     1
102
RTVSPost2010Prop29
280
     1
102
RTVSPost2010PropOp29
 70
     1
102
RTVSPost2010Prop30
280
     1
102
RTVSPost2010PropOp30
 70
     1
102
RTVSPost2010Prop31
280
     0
102
RTVSPost2010PropOp31
 70
     1
102
RTVSPost2010Prop32
280
     0
102
RTVSPost2010PropOp32
 70
     1
102
RTVSPost2010Prop33
280
     0
102
RTVSPost2010PropOp33
 70
     1
102
RTVSPost2010Prop34
280
     0
102
RTVSPost2010PropOp34
 70
     1
102
RTVSPost2010Prop35
280
     0
102
RTVSPost2010PropOp35
 70
     1
102
RTVSPost2010Prop36
280
     0
102
RTVSPost2010PropOp36
 70
     1
102
RTVSPost2010Prop37
 90
       50
102
RTVSPost2010PropOp37
 70
     1
102
RTVSPost2010Prop38
140
0.0
102
RTVSPost2010PropOp38
 70
     1
102
RTVSPost2010Prop39
140
1.0
102
RTVSPost2010PropOp39
 70
     1
102
RTVSPost2010Prop40
 90
        0
102
RTVSPost2010PropOp40
 70
     1
102
RTVSPost2010Prop41ColorIndex
 90
       18
102
RTVSPost2010Prop41ColorRGB
 90
        0
102
RTVSPost2010PropOp41
 70
     1
102
RTVSPost2010Prop42
 90
       50
102
RTVSPost2010PropOp42
 70
     1
102
RTVSPost2010Prop43
 90
        3
102
RTVSPost2010PropOp43
 70
     1
102
RTVSPost2010Prop44ColorIndex
 90
        5
102
RTVSPost2010Prop44ColorRGB
 90
      255
102
RTVSPost2010PropOp44
 70
     1
102
RTVSPost2010Prop45
280
     0
102
RTVSPost2010PropOp45
 70
     1
102
RTVSPost2010Prop46
 90
       50
102
RTVSPost2010PropOp46
 70
     1
102
RTVSPost2010Prop47
 90
       50
102
RTVSPost2010PropOp47
 70
     1
102
RTVSPost2010Prop48
 90
       50
102
RTVSPost2010PropOp48
 70
     1
102
RTVSPost2010Prop49
280
     0
102
RTVSPost2010PropOp49
 70
     1
102
RTVSPost2010Prop50
 90
       50
102
RTVSPost2010PropOp50
 70
     1
102
RTVSPost2010Prop51ColorIndex
 90
      256
102
RTVSPost2010Prop51ColorRGB
 90
-16777216
102
RTVSPost2010PropOp51
 70
     0
102
RTVSPost2010Prop52
140
1.0
102
RTVSPost2010PropOp52
 70
     0
102
RTVSPost2010Prop53
 90
        2
102
RTVSPost2010PropOp53
 70
     1
102
RTVSPost2010Prop54
  1
strokes_ogs.tif
102
RTVSPost2010PropOp54
 70
     1
102
RTVSPost2010Prop55
280
     0
102
RTVSPost2010PropOp55
 70
     1
102
RTVSPost2010Prop56
140
1.0
102
RTVSPost2010PropOp56
 70
     1
102
RTVSPost2010Prop57
140
1.0
102
RTVSPost2010PropOp57
 70
     1
102
RTVSPropertyOp0
 70
     1
102
RTVSPropertyOp1
 70
     1
102
RTVSPropertyOp2
 70
     1
102
RTVSPropertyOp3
 70
     1
102
RTVSPropertyOp4
 70
     1
102
RTVSPropertyOp5
 70
     1
102
RTVSPropertyOp6
 70
     1
102
RTVSPropertyOp7
 70
     1
102
RTVSPropertyOp8
 70
     1
102
RTVSPropertyOp9
 70
     1
102
RTVSPropertyOp10
 70
     1
102
RTVSPropertyOp11
 70
     1
102
RTVSPropertyOp12
 70
     1
102
RTVSPropertyOp13
 70
     1
102
RTVSPropertyOp14
 70
     1
102
RTVSPropertyOp15
 70
     1
102
RTVSPropertyOp16
 70
     1
102
RTVSPropertyOp17
 70
     1
102
RTVSPropertyOp18
 70
     1
102
RTVSPropertyOp19
 70
     1
102
RTVSPropertyOp20
 70
     1
102
RTVSPropertyOp21
 70
     1
102
RTVSPropertyOp22
 70
     1
102
RTVSPropertyOp23
 70
     1
102
RTVSPropertyOp24
 70
     1
102
RTVSPropertyOp25
 70
     1
102
RTVSPropertyOp26
 70
     1
102
RTVSPropertyOp27
 70
     1
102
RTVSPropertyOp28
 70
     1
102
RTVSPropertyOp29
 70
     1
102
RTVSPropertyOp30
 70
     1
102
RTVSPropertyOp31
 70
     1
102
RTVSPropertyOp32
 70
     1
102
RTVSPropertyOp33
 70
     1
102
RTVSPropertyOp34
 70
     1
102
RTVSPropertyOp35
 70
     1
102
RTVSPropertyOp36
 70
     1
102
RTVSPropertyOp37
 70
     1
102
RTVSPropertyOp38
 70
     1
102
RTVSPropertyOp39
 70
     1
102
RTVSPropertyOp40
 70
     1
102
RTVSPropertyOp41
 70
     1
102
RTVSPropertyOp42
 70
     1
102
RTVSPropertyOp43
 70
     1
102
RTVSPropertyOp44
 70
     1
102
RTVSPropertyOp45
 70
     1
102
RTVSPropertyOp46
 70
     1
102
RTVSPropertyOp47
 70
     1
102
RTVSPropertyOp48
 70
     1
102
RTVSPropertyOp49
 70
     1
102
RTVSPropertyOp50
 70
     1
102
RTVSPropertyOp51
 70
     0
102
RTVSPropertyOp52
 70
     0
102
RTVSPropertyOp53
 70
     1
102
RTVSPropertyOp54
 70
     1
102
RTVSPropertyOp55
 70
     1
102
RTVSPropertyOp56
 70
     1
102
RTVSPropertyOp57
 70
     1
102
RTVSPropertyOp58
 70
     1
102
RTVSPropertyOp59
 70
     1
102
RTVSPropertyOp60
 70
     1
102
RTVSPropertyOp61
 70
     1
102
RTVSPropertyOp62
 70
     1
  0
XRECORD
  5
1B59
102
{ACAD_REACTORS
330
1B58
102
}
330
1B58
100
AcDbXrecord
280
     1
102
RTVSPost2010Prop28
280
     0
102
RTVSPost2010PropOp28
 70
     0
102
RTVSPost2010Prop29
280
     1
102
RTVSPost2010PropOp29
 70
     0
102
RTVSPost2010Prop30
280
     1
102
RTVSPost2010PropOp30
 70
     0
102
RTVSPost2010Prop31
280
     0
102
RTVSPost2010PropOp31
 70
     0
102
RTVSPost2010Prop32
280
     0
102
RTVSPost2010PropOp32
 70
     0
102
RTVSPost2010Prop33
280
     0
102
RTVSPost2010PropOp33
 70
     0
102
RTVSPost2010Prop34
280
     0
102
RTVSPost2010PropOp34
 70
     0
102
RTVSPost2010Prop35
280
     0
102
RTVSPost2010PropOp35
 70
     0
102
RTVSPost2010Prop36
280
     0
102
RTVSPost2010PropOp36
 70
     0
102
RTVSPost2010Prop37
 90
       50
102
RTVSPost2010PropOp37
 70
     0
102
RTVSPost2010Prop38
140
0.0
102
RTVSPost2010PropOp38
 70
     0
102
RTVSPost2010Prop39
140
1.0
102
RTVSPost2010PropOp39
 70
     0
102
RTVSPost2010Prop40
 90
        0
102
RTVSPost2010PropOp40
 70
     0
102
RTVSPost2010Prop41ColorIndex
 90
       18
102
RTVSPost2010Prop41ColorRGB
 90
        0
102
RTVSPost2010PropOp41
 70
     0
102
RTVSPost2010Prop42
 90
       50
102
RTVSPost2010PropOp42
 70
     0
102
RTVSPost2010Prop43
 90
        3
102
RTVSPost2010PropOp43
 70
     0
102
RTVSPost2010Prop44ColorIndex
 90
        5
102
RTVSPost2010Prop44ColorRGB
 90
      255
102
RTVSPost2010PropOp44
 70
     0
102
RTVSPost2010Prop45
280
     0
102
RTVSPost2010PropOp45
 70
     0
102
RTVSPost2010Prop46
 90
       50
102
RTVSPost2010PropOp46
 70
     0
102
RTVSPost2010Prop47
 90
       50
102
RTVSPost2010PropOp47
 70
     0
102
RTVSPost2010Prop48
 90
       50
102
RTVSPost2010PropOp48
 70
     0
102
RTVSPost2010Prop49
280
     0
102
RTVSPost2010PropOp49
 70
     0
102
RTVSPost2010Prop50
 90
       50
102
RTVSPost2010PropOp50
 70
     0
102
RTVSPost2010Prop51ColorIndex
 90
      256
102
RTVSPost2010Prop51ColorRGB
 90
-16777216
102
RTVSPost2010PropOp51
 70
     0
102
RTVSPost2010Prop52
140
1.0
102
RTVSPost2010PropOp52
 70
     0
102
RTVSPost2010Prop53
 90
        2
102
RTVSPost2010PropOp53
 70
     0
102
RTVSPost2010Prop54
  1
strokes_ogs.tif
102
RTVSPost2010PropOp54
 70
     0
102
RTVSPost2010Prop55
280
     0
102
RTVSPost2010PropOp55
 70
     0
102
RTVSPost2010Prop56
140
1.0
102
RTVSPost2010PropOp56
 70
     0
102
RTVSPost2010Prop57
140
1.0
102
RTVSPost2010PropOp57
 70
     0
102
RTVSPropertyOp0
 70
     0
102
RTVSPropertyOp1
 70
     0
102
RTVSPropertyOp2
 70
     0
102
RTVSPropertyOp3
 70
     0
102
RTVSPropertyOp4
 70
     0
102
RTVSPropertyOp5
 70
     0
102
RTVSPropertyOp6
 70
     0
102
RTVSPropertyOp7
 70
     0
102
RTVSPropertyOp8
 70
     0
102
RTVSPropertyOp9
 70
     0
102
RTVSPropertyOp10
 70
     0
102
RTVSPropertyOp11
 70
     0
102
RTVSPropertyOp12
 70
     0
102
RTVSPropertyOp13
 70
     0
102
RTVSPropertyOp14
 70
     2
102
RTVSPropertyOp15
 70
     0
102
RTVSPropertyOp16
 70
     0
102
RTVSPropertyOp17
 70
     0
102
RTVSPropertyOp18
 70
     0
102
RTVSPropertyOp19
 70
     0
102
RTVSPropertyOp20
 70
     0
102
RTVSPropertyOp21
 70
     0
102
RTVSPropertyOp22
 70
     0
102
RTVSPropertyOp23
 70
     0
102
RTVSPropertyOp24
 70
     0
102
RTVSPropertyOp25
 70
     0
102
RTVSPropertyOp26
 70
     0
102
RTVSPropertyOp27
 70
     0
102
RTVSPropertyOp28
 70
     0
102
RTVSPropertyOp29
 70
     0
102
RTVSPropertyOp30
 70
     0
102
RTVSPropertyOp31
 70
     0
102
RTVSPropertyOp32
 70
     0
102
RTVSPropertyOp33
 70
     0
102
RTVSPropertyOp34
 70
     0
102
RTVSPropertyOp35
 70
     0
102
RTVSPropertyOp36
 70
     0
102
RTVSPropertyOp37
 70
     0
102
RTVSPropertyOp38
 70
     0
102
RTVSPropertyOp39
 70
     0
102
RTVSPropertyOp40
 70
     0
102
RTVSPropertyOp41
 70
     0
102
RTVSPropertyOp42
 70
     0
102
RTVSPropertyOp43
 70
     0
102
RTVSPropertyOp44
 70
     0
102
RTVSPropertyOp45
 70
     0
102
RTVSPropertyOp46
 70
     0
102
RTVSPropertyOp47
 70
     0
102
RTVSPropertyOp48
 70
     0
102
RTVSPropertyOp49
 70
     0
102
RTVSPropertyOp50
 70
     0
102
RTVSPropertyOp51
 70
     0
102
RTVSPropertyOp52
 70
     0
102
RTVSPropertyOp53
 70
     0
102
RTVSPropertyOp54
 70
     0
102
RTVSPropertyOp55
 70
     0
102
RTVSPropertyOp56
 70
     0
102
RTVSPropertyOp57
 70
     0
102
RTVSPropertyOp58
 70
     0
102
RTVSPropertyOp59
 70
     0
102
RTVSPropertyOp60
 70
     0
102
RTVSPropertyOp61
 70
     0
102
RTVSPropertyOp62
 70
     0
  0
XRECORD
  5
1B49
102
{ACAD_REACTORS
330
1B48
102
}
330
1B48
100
AcDbXrecord
280
     1
102
RTVSPost2010Prop28
280
     0
102
RTVSPost2010PropOp28
 70
     1
102
RTVSPost2010Prop29
280
     1
102
RTVSPost2010PropOp29
 70
     1
102
RTVSPost2010Prop30
280
     1
102
RTVSPost2010PropOp30
 70
     1
102
RTVSPost2010Prop31
280
     0
102
RTVSPost2010PropOp31
 70
     1
102
RTVSPost2010Prop32
280
     0
102
RTVSPost2010PropOp32
 70
     1
102
RTVSPost2010Prop33
280
     0
102
RTVSPost2010PropOp33
 70
     1
102
RTVSPost2010Prop34
280
     0
102
RTVSPost2010PropOp34
 70
     1
102
RTVSPost2010Prop35
280
     0
102
RTVSPost2010PropOp35
 70
     1
102
RTVSPost2010Prop36
280
     0
102
RTVSPost2010PropOp36
 70
     1
102
RTVSPost2010Prop37
 90
       50
102
RTVSPost2010PropOp37
 70
     1
102
RTVSPost2010Prop38
140
0.0
102
RTVSPost2010PropOp38
 70
     1
102
RTVSPost2010Prop39
140
1.0
102
RTVSPost2010PropOp39
 70
     1
102
RTVSPost2010Prop40
 90
        0
102
RTVSPost2010PropOp40
 70
     1
102
RTVSPost2010Prop41ColorIndex
 90
       18
102
RTVSPost2010Prop41ColorRGB
 90
        0
102
RTVSPost2010PropOp41
 70
     1
102
RTVSPost2010Prop42
 90
       50
102
RTVSPost2010PropOp42
 70
     1
102
RTVSPost2010Prop43
 90
        3
102
RTVSPost2010PropOp43
 70
     1
102
RTVSPost2010Prop44ColorIndex
 90
        5
102
RTVSPost2010Prop44ColorRGB
 90
      255
102
RTVSPost2010PropOp44
 70
     1
102
RTVSPost2010Prop45
280
     0
102
RTVSPost2010PropOp45
 70
     1
102
RTVSPost2010Prop46
 90
       50
102
RTVSPost2010PropOp46
 70
     1
102
RTVSPost2010Prop47
 90
       50
102
RTVSPost2010PropOp47
 70
     1
102
RTVSPost2010Prop48
 90
       50
102
RTVSPost2010PropOp48
 70
     1
102
RTVSPost2010Prop49
280
     0
102
RTVSPost2010PropOp49
 70
     1
102
RTVSPost2010Prop50
 90
       50
102
RTVSPost2010PropOp50
 70
     1
102
RTVSPost2010Prop51ColorIndex
 90
      256
102
RTVSPost2010Prop51ColorRGB
 90
-16777216
102
RTVSPost2010PropOp51
 70
     0
102
RTVSPost2010Prop52
140
1.0
102
RTVSPost2010PropOp52
 70
     0
102
RTVSPost2010Prop53
 90
        2
102
RTVSPost2010PropOp53
 70
     1
102
RTVSPost2010Prop54
  1
strokes_ogs.tif
102
RTVSPost2010PropOp54
 70
     1
102
RTVSPost2010Prop55
280
     0
102
RTVSPost2010PropOp55
 70
     1
102
RTVSPost2010Prop56
140
1.0
102
RTVSPost2010PropOp56
 70
     1
102
RTVSPost2010Prop57
140
1.0
102
RTVSPost2010PropOp57
 70
     1
102
RTVSPropertyOp0
 70
     1
102
RTVSPropertyOp1
 70
     1
102
RTVSPropertyOp2
 70
     1
102
RTVSPropertyOp3
 70
     1
102
RTVSPropertyOp4
 70
     1
102
RTVSPropertyOp5
 70
     1
102
RTVSPropertyOp6
 70
     1
102
RTVSPropertyOp7
 70
     1
102
RTVSPropertyOp8
 70
     1
102
RTVSPropertyOp9
 70
     1
102
RTVSPropertyOp10
 70
     1
102
RTVSPropertyOp11
 70
     1
102
RTVSPropertyOp12
 70
     1
102
RTVSPropertyOp13
 70
     1
102
RTVSPropertyOp14
 70
     1
102
RTVSPropertyOp15
 70
     1
102
RTVSPropertyOp16
 70
     1
102
RTVSPropertyOp17
 70
     1
102
RTVSPropertyOp18
 70
     1
102
RTVSPropertyOp19
 70
     1
102
RTVSPropertyOp20
 70
     1
102
RTVSPropertyOp21
 70
     1
102
RTVSPropertyOp22
 70
     1
102
RTVSPropertyOp23
 70
     1
102
RTVSPropertyOp24
 70
     1
102
RTVSPropertyOp25
 70
     1
102
RTVSPropertyOp26
 70
     1
102
RTVSPropertyOp27
 70
     1
102
RTVSPropertyOp28
 70
     1
102
RTVSPropertyOp29
 70
     1
102
RTVSPropertyOp30
 70
     1
102
RTVSPropertyOp31
 70
     1
102
RTVSPropertyOp32
 70
     1
102
RTVSPropertyOp33
 70
     1
102
RTVSPropertyOp34
 70
     1
102
RTVSPropertyOp35
 70
     1
102
RTVSPropertyOp36
 70
     1
102
RTVSPropertyOp37
 70
     1
102
RTVSPropertyOp38
 70
     1
102
RTVSPropertyOp39
 70
     1
102
RTVSPropertyOp40
 70
     1
102
RTVSPropertyOp41
 70
     1
102
RTVSPropertyOp42
 70
     1
102
RTVSPropertyOp43
 70
     1
102
RTVSPropertyOp44
 70
     1
102
RTVSPropertyOp45
 70
     1
102
RTVSPropertyOp46
 70
     1
102
RTVSPropertyOp47
 70
     1
102
RTVSPropertyOp48
 70
     1
102
RTVSPropertyOp49
 70
     1
102
RTVSPropertyOp50
 70
     1
102
RTVSPropertyOp51
 70
     0
102
RTVSPropertyOp52
 70
     0
102
RTVSPropertyOp53
 70
     1
102
RTVSPropertyOp54
 70
     1
102
RTVSPropertyOp55
 70
     1
102
RTVSPropertyOp56
 70
     1
102
RTVSPropertyOp57
 70
     1
102
RTVSPropertyOp58
 70
     1
102
RTVSPropertyOp59
 70
     1
102
RTVSPropertyOp60
 70
     1
102
RTVSPropertyOp61
 70
     1
102
RTVSPropertyOp62
 70
     1
  0
XRECORD
  5
1B5B
102
{ACAD_REACTORS
330
1B5A
102
}
330
1B5A
100
AcDbXrecord
280
     1
102
RTVSPost2010Prop28
280
     0
102
RTVSPost2010PropOp28
 70
     0
102
RTVSPost2010Prop29
280
     1
102
RTVSPost2010PropOp29
 70
     0
102
RTVSPost2010Prop30
280
     1
102
RTVSPost2010PropOp30
 70
     0
102
RTVSPost2010Prop31
280
     0
102
RTVSPost2010PropOp31
 70
     0
102
RTVSPost2010Prop32
280
     0
102
RTVSPost2010PropOp32
 70
     0
102
RTVSPost2010Prop33
280
     0
102
RTVSPost2010PropOp33
 70
     0
102
RTVSPost2010Prop34
280
     0
102
RTVSPost2010PropOp34
 70
     0
102
RTVSPost2010Prop35
280
     0
102
RTVSPost2010PropOp35
 70
     0
102
RTVSPost2010Prop36
280
     0
102
RTVSPost2010PropOp36
 70
     0
102
RTVSPost2010Prop37
 90
       50
102
RTVSPost2010PropOp37
 70
     0
102
RTVSPost2010Prop38
140
0.0
102
RTVSPost2010PropOp38
 70
     0
102
RTVSPost2010Prop39
140
1.0
102
RTVSPost2010PropOp39
 70
     0
102
RTVSPost2010Prop40
 90
        0
102
RTVSPost2010PropOp40
 70
     0
102
RTVSPost2010Prop41ColorIndex
 90
       18
102
RTVSPost2010Prop41ColorRGB
 90
        0
102
RTVSPost2010PropOp41
 70
     0
102
RTVSPost2010Prop42
 90
       50
102
RTVSPost2010PropOp42
 70
     0
102
RTVSPost2010Prop43
 90
        3
102
RTVSPost2010PropOp43
 70
     0
102
RTVSPost2010Prop44ColorIndex
 90
        5
102
RTVSPost2010Prop44ColorRGB
 90
      255
102
RTVSPost2010PropOp44
 70
     0
102
RTVSPost2010Prop45
280
     0
102
RTVSPost2010PropOp45
 70
     0
102
RTVSPost2010Prop46
 90
       50
102
RTVSPost2010PropOp46
 70
     0
102
RTVSPost2010Prop47
 90
       50
102
RTVSPost2010PropOp47
 70
     0
102
RTVSPost2010Prop48
 90
       50
102
RTVSPost2010PropOp48
 70
     0
102
RTVSPost2010Prop49
280
     0
102
RTVSPost2010PropOp49
 70
     0
102
RTVSPost2010Prop50
 90
       50
102
RTVSPost2010PropOp50
 70
     0
102
RTVSPost2010Prop51ColorIndex
 90
      256
102
RTVSPost2010Prop51ColorRGB
 90
-16777216
102
RTVSPost2010PropOp51
 70
     0
102
RTVSPost2010Prop52
140
1.0
102
RTVSPost2010PropOp52
 70
     0
102
RTVSPost2010Prop53
 90
        2
102
RTVSPost2010PropOp53
 70
     0
102
RTVSPost2010Prop54
  1
strokes_ogs.tif
102
RTVSPost2010PropOp54
 70
     0
102
RTVSPost2010Prop55
280
     0
102
RTVSPost2010PropOp55
 70
     0
102
RTVSPost2010Prop56
140
1.0
102
RTVSPost2010PropOp56
 70
     0
102
RTVSPost2010Prop57
140
1.0
102
RTVSPost2010PropOp57
 70
     0
102
RTVSPropertyOp0
 70
     0
102
RTVSPropertyOp1
 70
     0
102
RTVSPropertyOp2
 70
     0
102
RTVSPropertyOp3
 70
     0
102
RTVSPropertyOp4
 70
     0
102
RTVSPropertyOp5
 70
     0
102
RTVSPropertyOp6
 70
     0
102
RTVSPropertyOp7
 70
     0
102
RTVSPropertyOp8
 70
     0
102
RTVSPropertyOp9
 70
     0
102
RTVSPropertyOp10
 70
     0
102
RTVSPropertyOp11
 70
     0
102
RTVSPropertyOp12
 70
     0
102
RTVSPropertyOp13
 70
     0
102
RTVSPropertyOp14
 70
     2
102
RTVSPropertyOp15
 70
     0
102
RTVSPropertyOp16
 70
     0
102
RTVSPropertyOp17
 70
     0
102
RTVSPropertyOp18
 70
     0
102
RTVSPropertyOp19
 70
     0
102
RTVSPropertyOp20
 70
     0
102
RTVSPropertyOp21
 70
     0
102
RTVSPropertyOp22
 70
     0
102
RTVSPropertyOp23
 70
     0
102
RTVSPropertyOp24
 70
     0
102
RTVSPropertyOp25
 70
     0
102
RTVSPropertyOp26
 70
     0
102
RTVSPropertyOp27
 70
     0
102
RTVSPropertyOp28
 70
     0
102
RTVSPropertyOp29
 70
     0
102
RTVSPropertyOp30
 70
     0
102
RTVSPropertyOp31
 70
     0
102
RTVSPropertyOp32
 70
     0
102
RTVSPropertyOp33
 70
     0
102
RTVSPropertyOp34
 70
     0
102
RTVSPropertyOp35
 70
     0
102
RTVSPropertyOp36
 70
     0
102
RTVSPropertyOp37
 70
     0
102
RTVSPropertyOp38
 70
     0
102
RTVSPropertyOp39
 70
     0
102
RTVSPropertyOp40
 70
     0
102
RTVSPropertyOp41
 70
     0
102
RTVSPropertyOp42
 70
     0
102
RTVSPropertyOp43
 70
     0
102
RTVSPropertyOp44
 70
     0
102
RTVSPropertyOp45
 70
     0
102
RTVSPropertyOp46
 70
     0
102
RTVSPropertyOp47
 70
     0
102
RTVSPropertyOp48
 70
     0
102
RTVSPropertyOp49
 70
     0
102
RTVSPropertyOp50
 70
     0
102
RTVSPropertyOp51
 70
     0
102
RTVSPropertyOp52
 70
     0
102
RTVSPropertyOp53
 70
     0
102
RTVSPropertyOp54
 70
     0
102
RTVSPropertyOp55
 70
     0
102
RTVSPropertyOp56
 70
     0
102
RTVSPropertyOp57
 70
     0
102
RTVSPropertyOp58
 70
     0
102
RTVSPropertyOp59
 70
     0
102
RTVSPropertyOp60
 70
     0
102
RTVSPropertyOp61
 70
     0
102
RTVSPropertyOp62
 70
     0
  0
XRECORD
  5
1B41
102
{ACAD_REACTORS
330
1B40
102
}
330
1B40
100
AcDbXrecord
280
     1
102
RTVSPost2010Prop28
280
     0
102
RTVSPost2010PropOp28
 70
     1
102
RTVSPost2010Prop29
280
     1
102
RTVSPost2010PropOp29
 70
     1
102
RTVSPost2010Prop30
280
     1
102
RTVSPost2010PropOp30
 70
     1
102
RTVSPost2010Prop31
280
     0
102
RTVSPost2010PropOp31
 70
     1
102
RTVSPost2010Prop32
280
     0
102
RTVSPost2010PropOp32
 70
     1
102
RTVSPost2010Prop33
280
     0
102
RTVSPost2010PropOp33
 70
     1
102
RTVSPost2010Prop34
280
     0
102
RTVSPost2010PropOp34
 70
     1
102
RTVSPost2010Prop35
280
     0
102
RTVSPost2010PropOp35
 70
     1
102
RTVSPost2010Prop36
280
     0
102
RTVSPost2010PropOp36
 70
     1
102
RTVSPost2010Prop37
 90
       50
102
RTVSPost2010PropOp37
 70
     1
102
RTVSPost2010Prop38
140
0.0
102
RTVSPost2010PropOp38
 70
     1
102
RTVSPost2010Prop39
140
1.0
102
RTVSPost2010PropOp39
 70
     1
102
RTVSPost2010Prop40
 90
        0
102
RTVSPost2010PropOp40
 70
     1
102
RTVSPost2010Prop41ColorIndex
 90
       18
102
RTVSPost2010Prop41ColorRGB
 90
        0
102
RTVSPost2010PropOp41
 70
     1
102
RTVSPost2010Prop42
 90
       50
102
RTVSPost2010PropOp42
 70
     1
102
RTVSPost2010Prop43
 90
        3
102
RTVSPost2010PropOp43
 70
     1
102
RTVSPost2010Prop44ColorIndex
 90
        5
102
RTVSPost2010Prop44ColorRGB
 90
      255
102
RTVSPost2010PropOp44
 70
     1
102
RTVSPost2010Prop45
280
     0
102
RTVSPost2010PropOp45
 70
     1
102
RTVSPost2010Prop46
 90
       50
102
RTVSPost2010PropOp46
 70
     1
102
RTVSPost2010Prop47
 90
       50
102
RTVSPost2010PropOp47
 70
     1
102
RTVSPost2010Prop48
 90
       50
102
RTVSPost2010PropOp48
 70
     1
102
RTVSPost2010Prop49
280
     0
102
RTVSPost2010PropOp49
 70
     1
102
RTVSPost2010Prop50
 90
       50
102
RTVSPost2010PropOp50
 70
     1
102
RTVSPost2010Prop51ColorIndex
 90
      256
102
RTVSPost2010Prop51ColorRGB
 90
-16777216
102
RTVSPost2010PropOp51
 70
     0
102
RTVSPost2010Prop52
140
1.0
102
RTVSPost2010PropOp52
 70
     0
102
RTVSPost2010Prop53
 90
        2
102
RTVSPost2010PropOp53
 70
     1
102
RTVSPost2010Prop54
  1
strokes_ogs.tif
102
RTVSPost2010PropOp54
 70
     1
102
RTVSPost2010Prop55
280
     0
102
RTVSPost2010PropOp55
 70
     1
102
RTVSPost2010Prop56
140
1.0
102
RTVSPost2010PropOp56
 70
     1
102
RTVSPost2010Prop57
140
1.0
102
RTVSPost2010PropOp57
 70
     1
102
RTVSPropertyOp0
 70
     1
102
RTVSPropertyOp1
 70
     1
102
RTVSPropertyOp2
 70
     1
102
RTVSPropertyOp3
 70
     1
102
RTVSPropertyOp4
 70
     1
102
RTVSPropertyOp5
 70
     1
102
RTVSPropertyOp6
 70
     1
102
RTVSPropertyOp7
 70
     1
102
RTVSPropertyOp8
 70
     1
102
RTVSPropertyOp9
 70
     1
102
RTVSPropertyOp10
 70
     1
102
RTVSPropertyOp11
 70
     1
102
RTVSPropertyOp12
 70
     1
102
RTVSPropertyOp13
 70
     1
102
RTVSPropertyOp14
 70
     1
102
RTVSPropertyOp15
 70
     1
102
RTVSPropertyOp16
 70
     1
102
RTVSPropertyOp17
 70
     1
102
RTVSPropertyOp18
 70
     1
102
RTVSPropertyOp19
 70
     1
102
RTVSPropertyOp20
 70
     1
102
RTVSPropertyOp21
 70
     1
102
RTVSPropertyOp22
 70
     1
102
RTVSPropertyOp23
 70
     1
102
RTVSPropertyOp24
 70
     1
102
RTVSPropertyOp25
 70
     1
102
RTVSPropertyOp26
 70
     1
102
RTVSPropertyOp27
 70
     1
102
RTVSPropertyOp28
 70
     1
102
RTVSPropertyOp29
 70
     1
102
RTVSPropertyOp30
 70
     1
102
RTVSPropertyOp31
 70
     1
102
RTVSPropertyOp32
 70
     1
102
RTVSPropertyOp33
 70
     1
102
RTVSPropertyOp34
 70
     1
102
RTVSPropertyOp35
 70
     1
102
RTVSPropertyOp36
 70
     1
102
RTVSPropertyOp37
 70
     1
102
RTVSPropertyOp38
 70
     1
102
RTVSPropertyOp39
 70
     1
102
RTVSPropertyOp40
 70
     1
102
RTVSPropertyOp41
 70
     1
102
RTVSPropertyOp42
 70
     1
102
RTVSPropertyOp43
 70
     1
102
RTVSPropertyOp44
 70
     1
102
RTVSPropertyOp45
 70
     1
102
RTVSPropertyOp46
 70
     1
102
RTVSPropertyOp47
 70
     1
102
RTVSPropertyOp48
 70
     1
102
RTVSPropertyOp49
 70
     1
102
RTVSPropertyOp50
 70
     1
102
RTVSPropertyOp51
 70
     0
102
RTVSPropertyOp52
 70
     0
102
RTVSPropertyOp53
 70
     1
102
RTVSPropertyOp54
 70
     1
102
RTVSPropertyOp55
 70
     1
102
RTVSPropertyOp56
 70
     1
102
RTVSPropertyOp57
 70
     1
102
RTVSPropertyOp58
 70
     1
102
RTVSPropertyOp59
 70
     1
102
RTVSPropertyOp60
 70
     1
102
RTVSPropertyOp61
 70
     1
102
RTVSPropertyOp62
 70
     1
  0
XRECORD
  5
1B57
102
{ACAD_REACTORS
330
1B56
102
}
330
1B56
100
AcDbXrecord
280
     1
102
RTVSPost2010Prop28
280
     0
102
RTVSPost2010PropOp28
 70
     1
102
RTVSPost2010Prop29
280
     1
102
RTVSPost2010PropOp29
 70
     1
102
RTVSPost2010Prop30
280
     1
102
RTVSPost2010PropOp30
 70
     1
102
RTVSPost2010Prop31
280
     0
102
RTVSPost2010PropOp31
 70
     1
102
RTVSPost2010Prop32
280
     0
102
RTVSPost2010PropOp32
 70
     1
102
RTVSPost2010Prop33
280
     0
102
RTVSPost2010PropOp33
 70
     1
102
RTVSPost2010Prop34
280
     0
102
RTVSPost2010PropOp34
 70
     1
102
RTVSPost2010Prop35
280
     0
102
RTVSPost2010PropOp35
 70
     1
102
RTVSPost2010Prop36
280
     0
102
RTVSPost2010PropOp36
 70
     1
102
RTVSPost2010Prop37
 90
       50
102
RTVSPost2010PropOp37
 70
     1
102
RTVSPost2010Prop38
140
0.0
102
RTVSPost2010PropOp38
 70
     1
102
RTVSPost2010Prop39
140
1.0
102
RTVSPost2010PropOp39
 70
     1
102
RTVSPost2010Prop40
 90
        0
102
RTVSPost2010PropOp40
 70
     1
102
RTVSPost2010Prop41ColorIndex
 90
       18
102
RTVSPost2010Prop41ColorRGB
 90
        0
102
RTVSPost2010PropOp41
 70
     1
102
RTVSPost2010Prop42
 90
       50
102
RTVSPost2010PropOp42
 70
     1
102
RTVSPost2010Prop43
 90
        3
102
RTVSPost2010PropOp43
 70
     1
102
RTVSPost2010Prop44ColorIndex
 90
        5
102
RTVSPost2010Prop44ColorRGB
 90
      255
102
RTVSPost2010PropOp44
 70
     1
102
RTVSPost2010Prop45
280
     0
102
RTVSPost2010PropOp45
 70
     1
102
RTVSPost2010Prop46
 90
       50
102
RTVSPost2010PropOp46
 70
     1
102
RTVSPost2010Prop47
 90
       50
102
RTVSPost2010PropOp47
 70
     1
102
RTVSPost2010Prop48
 90
       50
102
RTVSPost2010PropOp48
 70
     1
102
RTVSPost2010Prop49
280
     0
102
RTVSPost2010PropOp49
 70
     1
102
RTVSPost2010Prop50
 90
       50
102
RTVSPost2010PropOp50
 70
     1
102
RTVSPost2010Prop51ColorIndex
 90
      256
102
RTVSPost2010Prop51ColorRGB
 90
-16777216
102
RTVSPost2010PropOp51
 70
     0
102
RTVSPost2010Prop52
140
1.0
102
RTVSPost2010PropOp52
 70
     0
102
RTVSPost2010Prop53
 90
        2
102
RTVSPost2010PropOp53
 70
     1
102
RTVSPost2010Prop54
  1
strokes_ogs.tif
102
RTVSPost2010PropOp54
 70
     1
102
RTVSPost2010Prop55
280
     0
102
RTVSPost2010PropOp55
 70
     1
102
RTVSPost2010Prop56
140
1.0
102
RTVSPost2010PropOp56
 70
     1
102
RTVSPost2010Prop57
140
1.0
102
RTVSPost2010PropOp57
 70
     1
102
RTVSPropertyOp0
 70
     1
102
RTVSPropertyOp1
 70
     1
102
RTVSPropertyOp2
 70
     1
102
RTVSPropertyOp3
 70
     1
102
RTVSPropertyOp4
 70
     1
102
RTVSPropertyOp5
 70
     1
102
RTVSPropertyOp6
 70
     1
102
RTVSPropertyOp7
 70
     1
102
RTVSPropertyOp8
 70
     1
102
RTVSPropertyOp9
 70
     1
102
RTVSPropertyOp10
 70
     1
102
RTVSPropertyOp11
 70
     1
102
RTVSPropertyOp12
 70
     1
102
RTVSPropertyOp13
 70
     1
102
RTVSPropertyOp14
 70
     1
102
RTVSPropertyOp15
 70
     1
102
RTVSPropertyOp16
 70
     1
102
RTVSPropertyOp17
 70
     1
102
RTVSPropertyOp18
 70
     1
102
RTVSPropertyOp19
 70
     1
102
RTVSPropertyOp20
 70
     1
102
RTVSPropertyOp21
 70
     1
102
RTVSPropertyOp22
 70
     1
102
RTVSPropertyOp23
 70
     1
102
RTVSPropertyOp24
 70
     1
102
RTVSPropertyOp25
 70
     1
102
RTVSPropertyOp26
 70
     1
102
RTVSPropertyOp27
 70
     1
102
RTVSPropertyOp28
 70
     1
102
RTVSPropertyOp29
 70
     1
102
RTVSPropertyOp30
 70
     1
102
RTVSPropertyOp31
 70
     1
102
RTVSPropertyOp32
 70
     1
102
RTVSPropertyOp33
 70
     1
102
RTVSPropertyOp34
 70
     1
102
RTVSPropertyOp35
 70
     1
102
RTVSPropertyOp36
 70
     1
102
RTVSPropertyOp37
 70
     1
102
RTVSPropertyOp38
 70
     1
102
RTVSPropertyOp39
 70
     1
102
RTVSPropertyOp40
 70
     1
102
RTVSPropertyOp41
 70
     1
102
RTVSPropertyOp42
 70
     1
102
RTVSPropertyOp43
 70
     1
102
RTVSPropertyOp44
 70
     1
102
RTVSPropertyOp45
 70
     1
102
RTVSPropertyOp46
 70
     1
102
RTVSPropertyOp47
 70
     1
102
RTVSPropertyOp48
 70
     1
102
RTVSPropertyOp49
 70
     1
102
RTVSPropertyOp50
 70
     1
102
RTVSPropertyOp51
 70
     0
102
RTVSPropertyOp52
 70
     0
102
RTVSPropertyOp53
 70
     1
102
RTVSPropertyOp54
 70
     1
102
RTVSPropertyOp55
 70
     1
102
RTVSPropertyOp56
 70
     1
102
RTVSPropertyOp57
 70
     1
102
RTVSPropertyOp58
 70
     1
102
RTVSPropertyOp59
 70
     1
102
RTVSPropertyOp60
 70
     1
102
RTVSPropertyOp61
 70
     1
102
RTVSPropertyOp62
 70
     1
  0
XRECORD
  5
1B55
102
{ACAD_REACTORS
330
1B54
102
}
330
1B54
100
AcDbXrecord
280
     1
102
RTVSPost2010Prop28
280
     0
102
RTVSPost2010PropOp28
 70
     1
102
RTVSPost2010Prop29
280
     1
102
RTVSPost2010PropOp29
 70
     1
102
RTVSPost2010Prop30
280
     1
102
RTVSPost2010PropOp30
 70
     1
102
RTVSPost2010Prop31
280
     0
102
RTVSPost2010PropOp31
 70
     1
102
RTVSPost2010Prop32
280
     0
102
RTVSPost2010PropOp32
 70
     1
102
RTVSPost2010Prop33
280
     0
102
RTVSPost2010PropOp33
 70
     1
102
RTVSPost2010Prop34
280
     0
102
RTVSPost2010PropOp34
 70
     1
102
RTVSPost2010Prop35
280
     0
102
RTVSPost2010PropOp35
 70
     1
102
RTVSPost2010Prop36
280
     0
102
RTVSPost2010PropOp36
 70
     1
102
RTVSPost2010Prop37
 90
       50
102
RTVSPost2010PropOp37
 70
     1
102
RTVSPost2010Prop38
140
0.0
102
RTVSPost2010PropOp38
 70
     1
102
RTVSPost2010Prop39
140
1.0
102
RTVSPost2010PropOp39
 70
     1
102
RTVSPost2010Prop40
 90
        0
102
RTVSPost2010PropOp40
 70
     1
102
RTVSPost2010Prop41ColorIndex
 90
       18
102
RTVSPost2010Prop41ColorRGB
 90
        0
102
RTVSPost2010PropOp41
 70
     1
102
RTVSPost2010Prop42
 90
       50
102
RTVSPost2010PropOp42
 70
     1
102
RTVSPost2010Prop43
 90
        3
102
RTVSPost2010PropOp43
 70
     1
102
RTVSPost2010Prop44ColorIndex
 90
        5
102
RTVSPost2010Prop44ColorRGB
 90
      255
102
RTVSPost2010PropOp44
 70
     1
102
RTVSPost2010Prop45
280
     0
102
RTVSPost2010PropOp45
 70
     1
102
RTVSPost2010Prop46
 90
       50
102
RTVSPost2010PropOp46
 70
     1
102
RTVSPost2010Prop47
 90
       50
102
RTVSPost2010PropOp47
 70
     1
102
RTVSPost2010Prop48
 90
       50
102
RTVSPost2010PropOp48
 70
     1
102
RTVSPost2010Prop49
280
     0
102
RTVSPost2010PropOp49
 70
     1
102
RTVSPost2010Prop50
 90
       50
102
RTVSPost2010PropOp50
 70
     1
102
RTVSPost2010Prop51ColorIndex
 90
      256
102
RTVSPost2010Prop51ColorRGB
 90
-16777216
102
RTVSPost2010PropOp51
 70
     0
102
RTVSPost2010Prop52
140
1.0
102
RTVSPost2010PropOp52
 70
     0
102
RTVSPost2010Prop53
 90
        2
102
RTVSPost2010PropOp53
 70
     1
102
RTVSPost2010Prop54
  1
strokes_ogs.tif
102
RTVSPost2010PropOp54
 70
     1
102
RTVSPost2010Prop55
280
     0
102
RTVSPost2010PropOp55
 70
     1
102
RTVSPost2010Prop56
140
1.0
102
RTVSPost2010PropOp56
 70
     1
102
RTVSPost2010Prop57
140
1.0
102
RTVSPost2010PropOp57
 70
     1
102
RTVSPropertyOp0
 70
     1
102
RTVSPropertyOp1
 70
     1
102
RTVSPropertyOp2
 70
     1
102
RTVSPropertyOp3
 70
     1
102
RTVSPropertyOp4
 70
     1
102
RTVSPropertyOp5
 70
     1
102
RTVSPropertyOp6
 70
     1
102
RTVSPropertyOp7
 70
     1
102
RTVSPropertyOp8
 70
     1
102
RTVSPropertyOp9
 70
     1
102
RTVSPropertyOp10
 70
     1
102
RTVSPropertyOp11
 70
     1
102
RTVSPropertyOp12
 70
     1
102
RTVSPropertyOp13
 70
     1
102
RTVSPropertyOp14
 70
     1
102
RTVSPropertyOp15
 70
     1
102
RTVSPropertyOp16
 70
     1
102
RTVSPropertyOp17
 70
     1
102
RTVSPropertyOp18
 70
     1
102
RTVSPropertyOp19
 70
     1
102
RTVSPropertyOp20
 70
     1
102
RTVSPropertyOp21
 70
     1
102
RTVSPropertyOp22
 70
     1
102
RTVSPropertyOp23
 70
     1
102
RTVSPropertyOp24
 70
     1
102
RTVSPropertyOp25
 70
     1
102
RTVSPropertyOp26
 70
     1
102
RTVSPropertyOp27
 70
     1
102
RTVSPropertyOp28
 70
     1
102
RTVSPropertyOp29
 70
     1
102
RTVSPropertyOp30
 70
     1
102
RTVSPropertyOp31
 70
     1
102
RTVSPropertyOp32
 70
     1
102
RTVSPropertyOp33
 70
     1
102
RTVSPropertyOp34
 70
     1
102
RTVSPropertyOp35
 70
     1
102
RTVSPropertyOp36
 70
     1
102
RTVSPropertyOp37
 70
     1
102
RTVSPropertyOp38
 70
     1
102
RTVSPropertyOp39
 70
     1
102
RTVSPropertyOp40
 70
     1
102
RTVSPropertyOp41
 70
     1
102
RTVSPropertyOp42
 70
     1
102
RTVSPropertyOp43
 70
     1
102
RTVSPropertyOp44
 70
     1
102
RTVSPropertyOp45
 70
     1
102
RTVSPropertyOp46
 70
     1
102
RTVSPropertyOp47
 70
     1
102
RTVSPropertyOp48
 70
     1
102
RTVSPropertyOp49
 70
     1
102
RTVSPropertyOp50
 70
     1
102
RTVSPropertyOp51
 70
     0
102
RTVSPropertyOp52
 70
     0
102
RTVSPropertyOp53
 70
     1
102
RTVSPropertyOp54
 70
     1
102
RTVSPropertyOp55
 70
     1
102
RTVSPropertyOp56
 70
     1
102
RTVSPropertyOp57
 70
     1
102
RTVSPropertyOp58
 70
     1
102
RTVSPropertyOp59
 70
     1
102
RTVSPropertyOp60
 70
     1
102
RTVSPropertyOp61
 70
     1
102
RTVSPropertyOp62
 70
     1
  0
XRECORD
  5
1B4F
102
{ACAD_REACTORS
330
1B4E
102
}
330
1B4E
100
AcDbXrecord
280
     1
102
RTVSPost2010Prop28
280
     0
102
RTVSPost2010PropOp28
 70
     1
102
RTVSPost2010Prop29
280
     1
102
RTVSPost2010PropOp29
 70
     1
102
RTVSPost2010Prop30
280
     1
102
RTVSPost2010PropOp30
 70
     1
102
RTVSPost2010Prop31
280
     0
102
RTVSPost2010PropOp31
 70
     1
102
RTVSPost2010Prop32
280
     0
102
RTVSPost2010PropOp32
 70
     1
102
RTVSPost2010Prop33
280
     0
102
RTVSPost2010PropOp33
 70
     1
102
RTVSPost2010Prop34
280
     0
102
RTVSPost2010PropOp34
 70
     1
102
RTVSPost2010Prop35
280
     0
102
RTVSPost2010PropOp35
 70
     1
102
RTVSPost2010Prop36
280
     0
102
RTVSPost2010PropOp36
 70
     1
102
RTVSPost2010Prop37
 90
       50
102
RTVSPost2010PropOp37
 70
     1
102
RTVSPost2010Prop38
140
0.0
102
RTVSPost2010PropOp38
 70
     1
102
RTVSPost2010Prop39
140
1.0
102
RTVSPost2010PropOp39
 70
     1
102
RTVSPost2010Prop40
 90
        0
102
RTVSPost2010PropOp40
 70
     1
102
RTVSPost2010Prop41ColorIndex
 90
       18
102
RTVSPost2010Prop41ColorRGB
 90
        0
102
RTVSPost2010PropOp41
 70
     1
102
RTVSPost2010Prop42
 90
       50
102
RTVSPost2010PropOp42
 70
     1
102
RTVSPost2010Prop43
 90
        3
102
RTVSPost2010PropOp43
 70
     1
102
RTVSPost2010Prop44ColorIndex
 90
        5
102
RTVSPost2010Prop44ColorRGB
 90
      255
102
RTVSPost2010PropOp44
 70
     1
102
RTVSPost2010Prop45
280
     0
102
RTVSPost2010PropOp45
 70
     1
102
RTVSPost2010Prop46
 90
       50
102
RTVSPost2010PropOp46
 70
     1
102
RTVSPost2010Prop47
 90
       50
102
RTVSPost2010PropOp47
 70
     1
102
RTVSPost2010Prop48
 90
       50
102
RTVSPost2010PropOp48
 70
     1
102
RTVSPost2010Prop49
280
     0
102
RTVSPost2010PropOp49
 70
     1
102
RTVSPost2010Prop50
 90
       50
102
RTVSPost2010PropOp50
 70
     1
102
RTVSPost2010Prop51ColorIndex
 90
      256
102
RTVSPost2010Prop51ColorRGB
 90
-16777216
102
RTVSPost2010PropOp51
 70
     0
102
RTVSPost2010Prop52
140
1.0
102
RTVSPost2010PropOp52
 70
     0
102
RTVSPost2010Prop53
 90
        2
102
RTVSPost2010PropOp53
 70
     1
102
RTVSPost2010Prop54
  1
strokes_ogs.tif
102
RTVSPost2010PropOp54
 70
     1
102
RTVSPost2010Prop55
280
     0
102
RTVSPost2010PropOp55
 70
     1
102
RTVSPost2010Prop56
140
1.0
102
RTVSPost2010PropOp56
 70
     1
102
RTVSPost2010Prop57
140
1.0
102
RTVSPost2010PropOp57
 70
     1
102
RTVSPropertyOp0
 70
     1
102
RTVSPropertyOp1
 70
     1
102
RTVSPropertyOp2
 70
     1
102
RTVSPropertyOp3
 70
     1
102
RTVSPropertyOp4
 70
     1
102
RTVSPropertyOp5
 70
     1
102
RTVSPropertyOp6
 70
     1
102
RTVSPropertyOp7
 70
     1
102
RTVSPropertyOp8
 70
     1
102
RTVSPropertyOp9
 70
     1
102
RTVSPropertyOp10
 70
     1
102
RTVSPropertyOp11
 70
     1
102
RTVSPropertyOp12
 70
     1
102
RTVSPropertyOp13
 70
     1
102
RTVSPropertyOp14
 70
     1
102
RTVSPropertyOp15
 70
     1
102
RTVSPropertyOp16
 70
     1
102
RTVSPropertyOp17
 70
     1
102
RTVSPropertyOp18
 70
     1
102
RTVSPropertyOp19
 70
     1
102
RTVSPropertyOp20
 70
     1
102
RTVSPropertyOp21
 70
     1
102
RTVSPropertyOp22
 70
     1
102
RTVSPropertyOp23
 70
     1
102
RTVSPropertyOp24
 70
     1
102
RTVSPropertyOp25
 70
     1
102
RTVSPropertyOp26
 70
     1
102
RTVSPropertyOp27
 70
     1
102
RTVSPropertyOp28
 70
     1
102
RTVSPropertyOp29
 70
     1
102
RTVSPropertyOp30
 70
     1
102
RTVSPropertyOp31
 70
     1
102
RTVSPropertyOp32
 70
     1
102
RTVSPropertyOp33
 70
     1
102
RTVSPropertyOp34
 70
     1
102
RTVSPropertyOp35
 70
     1
102
RTVSPropertyOp36
 70
     1
102
RTVSPropertyOp37
 70
     1
102
RTVSPropertyOp38
 70
     1
102
RTVSPropertyOp39
 70
     1
102
RTVSPropertyOp40
 70
     1
102
RTVSPropertyOp41
 70
     1
102
RTVSPropertyOp42
 70
     1
102
RTVSPropertyOp43
 70
     1
102
RTVSPropertyOp44
 70
     1
102
RTVSPropertyOp45
 70
     1
102
RTVSPropertyOp46
 70
     1
102
RTVSPropertyOp47
 70
     1
102
RTVSPropertyOp48
 70
     1
102
RTVSPropertyOp49
 70
     1
102
RTVSPropertyOp50
 70
     1
102
RTVSPropertyOp51
 70
     0
102
RTVSPropertyOp52
 70
     0
102
RTVSPropertyOp53
 70
     1
102
RTVSPropertyOp54
 70
     1
102
RTVSPropertyOp55
 70
     1
102
RTVSPropertyOp56
 70
     1
102
RTVSPropertyOp57
 70
     1
102
RTVSPropertyOp58
 70
     1
102
RTVSPropertyOp59
 70
     1
102
RTVSPropertyOp60
 70
     1
102
RTVSPropertyOp61
 70
     1
102
RTVSPropertyOp62
 70
     1
  0
XRECORD
  5
1B51
102
{ACAD_REACTORS
330
1B50
102
}
330
1B50
100
AcDbXrecord
280
     1
102
RTVSPost2010Prop28
280
     0
102
RTVSPost2010PropOp28
 70
     1
102
RTVSPost2010Prop29
280
     1
102
RTVSPost2010PropOp29
 70
     1
102
RTVSPost2010Prop30
280
     1
102
RTVSPost2010PropOp30
 70
     1
102
RTVSPost2010Prop31
280
     0
102
RTVSPost2010PropOp31
 70
     1
102
RTVSPost2010Prop32
280
     0
102
RTVSPost2010PropOp32
 70
     1
102
RTVSPost2010Prop33
280
     0
102
RTVSPost2010PropOp33
 70
     1
102
RTVSPost2010Prop34
280
     0
102
RTVSPost2010PropOp34
 70
     1
102
RTVSPost2010Prop35
280
     0
102
RTVSPost2010PropOp35
 70
     1
102
RTVSPost2010Prop36
280
     0
102
RTVSPost2010PropOp36
 70
     1
102
RTVSPost2010Prop37
 90
       50
102
RTVSPost2010PropOp37
 70
     1
102
RTVSPost2010Prop38
140
0.0
102
RTVSPost2010PropOp38
 70
     1
102
RTVSPost2010Prop39
140
1.0
102
RTVSPost2010PropOp39
 70
     1
102
RTVSPost2010Prop40
 90
        0
102
RTVSPost2010PropOp40
 70
     1
102
RTVSPost2010Prop41ColorIndex
 90
       18
102
RTVSPost2010Prop41ColorRGB
 90
        0
102
RTVSPost2010PropOp41
 70
     1
102
RTVSPost2010Prop42
 90
       50
102
RTVSPost2010PropOp42
 70
     1
102
RTVSPost2010Prop43
 90
        3
102
RTVSPost2010PropOp43
 70
     1
102
RTVSPost2010Prop44ColorIndex
 90
        5
102
RTVSPost2010Prop44ColorRGB
 90
      255
102
RTVSPost2010PropOp44
 70
     1
102
RTVSPost2010Prop45
280
     0
102
RTVSPost2010PropOp45
 70
     1
102
RTVSPost2010Prop46
 90
       50
102
RTVSPost2010PropOp46
 70
     1
102
RTVSPost2010Prop47
 90
       50
102
RTVSPost2010PropOp47
 70
     1
102
RTVSPost2010Prop48
 90
       50
102
RTVSPost2010PropOp48
 70
     1
102
RTVSPost2010Prop49
280
     0
102
RTVSPost2010PropOp49
 70
     1
102
RTVSPost2010Prop50
 90
       50
102
RTVSPost2010PropOp50
 70
     1
102
RTVSPost2010Prop51ColorIndex
 90
      256
102
RTVSPost2010Prop51ColorRGB
 90
-16777216
102
RTVSPost2010PropOp51
 70
     0
102
RTVSPost2010Prop52
140
1.0
102
RTVSPost2010PropOp52
 70
     0
102
RTVSPost2010Prop53
 90
        2
102
RTVSPost2010PropOp53
 70
     1
102
RTVSPost2010Prop54
  1
strokes_ogs.tif
102
RTVSPost2010PropOp54
 70
     1
102
RTVSPost2010Prop55
280
     0
102
RTVSPost2010PropOp55
 70
     1
102
RTVSPost2010Prop56
140
1.0
102
RTVSPost2010PropOp56
 70
     1
102
RTVSPost2010Prop57
140
1.0
102
RTVSPost2010PropOp57
 70
     1
102
RTVSPropertyOp0
 70
     1
102
RTVSPropertyOp1
 70
     1
102
RTVSPropertyOp2
 70
     1
102
RTVSPropertyOp3
 70
     1
102
RTVSPropertyOp4
 70
     1
102
RTVSPropertyOp5
 70
     1
102
RTVSPropertyOp6
 70
     1
102
RTVSPropertyOp7
 70
     1
102
RTVSPropertyOp8
 70
     1
102
RTVSPropertyOp9
 70
     1
102
RTVSPropertyOp10
 70
     1
102
RTVSPropertyOp11
 70
     1
102
RTVSPropertyOp12
 70
     1
102
RTVSPropertyOp13
 70
     1
102
RTVSPropertyOp14
 70
     1
102
RTVSPropertyOp15
 70
     1
102
RTVSPropertyOp16
 70
     1
102
RTVSPropertyOp17
 70
     1
102
RTVSPropertyOp18
 70
     1
102
RTVSPropertyOp19
 70
     1
102
RTVSPropertyOp20
 70
     1
102
RTVSPropertyOp21
 70
     1
102
RTVSPropertyOp22
 70
     1
102
RTVSPropertyOp23
 70
     1
102
RTVSPropertyOp24
 70
     1
102
RTVSPropertyOp25
 70
     1
102
RTVSPropertyOp26
 70
     1
102
RTVSPropertyOp27
 70
     1
102
RTVSPropertyOp28
 70
     1
102
RTVSPropertyOp29
 70
     1
102
RTVSPropertyOp30
 70
     1
102
RTVSPropertyOp31
 70
     1
102
RTVSPropertyOp32
 70
     1
102
RTVSPropertyOp33
 70
     1
102
RTVSPropertyOp34
 70
     1
102
RTVSPropertyOp35
 70
     1
102
RTVSPropertyOp36
 70
     1
102
RTVSPropertyOp37
 70
     1
102
RTVSPropertyOp38
 70
     1
102
RTVSPropertyOp39
 70
     1
102
RTVSPropertyOp40
 70
     1
102
RTVSPropertyOp41
 70
     1
102
RTVSPropertyOp42
 70
     1
102
RTVSPropertyOp43
 70
     1
102
RTVSPropertyOp44
 70
     1
102
RTVSPropertyOp45
 70
     1
102
RTVSPropertyOp46
 70
     1
102
RTVSPropertyOp47
 70
     1
102
RTVSPropertyOp48
 70
     1
102
RTVSPropertyOp49
 70
     1
102
RTVSPropertyOp50
 70
     1
102
RTVSPropertyOp51
 70
     0
102
RTVSPropertyOp52
 70
     0
102
RTVSPropertyOp53
 70
     1
102
RTVSPropertyOp54
 70
     1
102
RTVSPropertyOp55
 70
     1
102
RTVSPropertyOp56
 70
     1
102
RTVSPropertyOp57
 70
     1
102
RTVSPropertyOp58
 70
     1
102
RTVSPropertyOp59
 70
     1
102
RTVSPropertyOp60
 70
     1
102
RTVSPropertyOp61
 70
     1
102
RTVSPropertyOp62
 70
     1
  0
XRECORD
  5
1B47
102
{ACAD_REACTORS
330
1B46
102
}
330
1B46
100
AcDbXrecord
280
     1
102
RTVSPost2010Prop28
280
     0
102
RTVSPost2010PropOp28
 70
     1
102
RTVSPost2010Prop29
280
     1
102
RTVSPost2010PropOp29
 70
     1
102
RTVSPost2010Prop30
280
     1
102
RTVSPost2010PropOp30
 70
     1
102
RTVSPost2010Prop31
280
     0
102
RTVSPost2010PropOp31
 70
     1
102
RTVSPost2010Prop32
280
     0
102
RTVSPost2010PropOp32
 70
     1
102
RTVSPost2010Prop33
280
     0
102
RTVSPost2010PropOp33
 70
     1
102
RTVSPost2010Prop34
280
     0
102
RTVSPost2010PropOp34
 70
     1
102
RTVSPost2010Prop35
280
     0
102
RTVSPost2010PropOp35
 70
     1
102
RTVSPost2010Prop36
280
     0
102
RTVSPost2010PropOp36
 70
     1
102
RTVSPost2010Prop37
 90
       50
102
RTVSPost2010PropOp37
 70
     1
102
RTVSPost2010Prop38
140
0.0
102
RTVSPost2010PropOp38
 70
     1
102
RTVSPost2010Prop39
140
1.0
102
RTVSPost2010PropOp39
 70
     1
102
RTVSPost2010Prop40
 90
        0
102
RTVSPost2010PropOp40
 70
     1
102
RTVSPost2010Prop41ColorIndex
 90
       18
102
RTVSPost2010Prop41ColorRGB
 90
        0
102
RTVSPost2010PropOp41
 70
     1
102
RTVSPost2010Prop42
 90
       50
102
RTVSPost2010PropOp42
 70
     1
102
RTVSPost2010Prop43
 90
        3
102
RTVSPost2010PropOp43
 70
     1
102
RTVSPost2010Prop44ColorIndex
 90
        5
102
RTVSPost2010Prop44ColorRGB
 90
      255
102
RTVSPost2010PropOp44
 70
     1
102
RTVSPost2010Prop45
280
     0
102
RTVSPost2010PropOp45
 70
     1
102
RTVSPost2010Prop46
 90
       50
102
RTVSPost2010PropOp46
 70
     1
102
RTVSPost2010Prop47
 90
       50
102
RTVSPost2010PropOp47
 70
     1
102
RTVSPost2010Prop48
 90
       50
102
RTVSPost2010PropOp48
 70
     1
102
RTVSPost2010Prop49
280
     0
102
RTVSPost2010PropOp49
 70
     1
102
RTVSPost2010Prop50
 90
       50
102
RTVSPost2010PropOp50
 70
     1
102
RTVSPost2010Prop51ColorIndex
 90
      256
102
RTVSPost2010Prop51ColorRGB
 90
-16777216
102
RTVSPost2010PropOp51
 70
     0
102
RTVSPost2010Prop52
140
1.0
102
RTVSPost2010PropOp52
 70
     0
102
RTVSPost2010Prop53
 90
        2
102
RTVSPost2010PropOp53
 70
     1
102
RTVSPost2010Prop54
  1
strokes_ogs.tif
102
RTVSPost2010PropOp54
 70
     1
102
RTVSPost2010Prop55
280
     0
102
RTVSPost2010PropOp55
 70
     1
102
RTVSPost2010Prop56
140
1.0
102
RTVSPost2010PropOp56
 70
     1
102
RTVSPost2010Prop57
140
1.0
102
RTVSPost2010PropOp57
 70
     1
102
RTVSPropertyOp0
 70
     1
102
RTVSPropertyOp1
 70
     1
102
RTVSPropertyOp2
 70
     1
102
RTVSPropertyOp3
 70
     1
102
RTVSPropertyOp4
 70
     1
102
RTVSPropertyOp5
 70
     1
102
RTVSPropertyOp6
 70
     1
102
RTVSPropertyOp7
 70
     1
102
RTVSPropertyOp8
 70
     1
102
RTVSPropertyOp9
 70
     1
102
RTVSPropertyOp10
 70
     1
102
RTVSPropertyOp11
 70
     1
102
RTVSPropertyOp12
 70
     1
102
RTVSPropertyOp13
 70
     1
102
RTVSPropertyOp14
 70
     1
102
RTVSPropertyOp15
 70
     1
102
RTVSPropertyOp16
 70
     1
102
RTVSPropertyOp17
 70
     1
102
RTVSPropertyOp18
 70
     1
102
RTVSPropertyOp19
 70
     1
102
RTVSPropertyOp20
 70
     1
102
RTVSPropertyOp21
 70
     1
102
RTVSPropertyOp22
 70
     1
102
RTVSPropertyOp23
 70
     1
102
RTVSPropertyOp24
 70
     1
102
RTVSPropertyOp25
 70
     1
102
RTVSPropertyOp26
 70
     1
102
RTVSPropertyOp27
 70
     1
102
RTVSPropertyOp28
 70
     1
102
RTVSPropertyOp29
 70
     1
102
RTVSPropertyOp30
 70
     1
102
RTVSPropertyOp31
 70
     1
102
RTVSPropertyOp32
 70
     1
102
RTVSPropertyOp33
 70
     1
102
RTVSPropertyOp34
 70
     1
102
RTVSPropertyOp35
 70
     1
102
RTVSPropertyOp36
 70
     1
102
RTVSPropertyOp37
 70
     1
102
RTVSPropertyOp38
 70
     1
102
RTVSPropertyOp39
 70
     1
102
RTVSPropertyOp40
 70
     1
102
RTVSPropertyOp41
 70
     1
102
RTVSPropertyOp42
 70
     1
102
RTVSPropertyOp43
 70
     1
102
RTVSPropertyOp44
 70
     1
102
RTVSPropertyOp45
 70
     1
102
RTVSPropertyOp46
 70
     1
102
RTVSPropertyOp47
 70
     1
102
RTVSPropertyOp48
 70
     1
102
RTVSPropertyOp49
 70
     1
102
RTVSPropertyOp50
 70
     1
102
RTVSPropertyOp51
 70
     0
102
RTVSPropertyOp52
 70
     0
102
RTVSPropertyOp53
 70
     1
102
RTVSPropertyOp54
 70
     1
102
RTVSPropertyOp55
 70
     1
102
RTVSPropertyOp56
 70
     1
102
RTVSPropertyOp57
 70
     1
102
RTVSPropertyOp58
 70
     1
102
RTVSPropertyOp59
 70
     1
102
RTVSPropertyOp60
 70
     1
102
RTVSPropertyOp61
 70
     1
102
RTVSPropertyOp62
 70
     1
  0
XRECORD
  5
1B3B
102
{ACAD_REACTORS
330
1B3A
102
}
330
1B3A
100
AcDbXrecord
280
     1
102
RTVSPost2010Prop28
280
     0
102
RTVSPost2010PropOp28
 70
     1
102
RTVSPost2010Prop29
280
     1
102
RTVSPost2010PropOp29
 70
     1
102
RTVSPost2010Prop30
280
     1
102
RTVSPost2010PropOp30
 70
     1
102
RTVSPost2010Prop31
280
     0
102
RTVSPost2010PropOp31
 70
     1
102
RTVSPost2010Prop32
280
     0
102
RTVSPost2010PropOp32
 70
     1
102
RTVSPost2010Prop33
280
     0
102
RTVSPost2010PropOp33
 70
     1
102
RTVSPost2010Prop34
280
     0
102
RTVSPost2010PropOp34
 70
     1
102
RTVSPost2010Prop35
280
     0
102
RTVSPost2010PropOp35
 70
     1
102
RTVSPost2010Prop36
280
     0
102
RTVSPost2010PropOp36
 70
     1
102
RTVSPost2010Prop37
 90
       50
102
RTVSPost2010PropOp37
 70
     1
102
RTVSPost2010Prop38
140
0.0
102
RTVSPost2010PropOp38
 70
     1
102
RTVSPost2010Prop39
140
1.0
102
RTVSPost2010PropOp39
 70
     1
102
RTVSPost2010Prop40
 90
        0
102
RTVSPost2010PropOp40
 70
     1
102
RTVSPost2010Prop41ColorIndex
 90
       18
102
RTVSPost2010Prop41ColorRGB
 90
        0
102
RTVSPost2010PropOp41
 70
     1
102
RTVSPost2010Prop42
 90
       50
102
RTVSPost2010PropOp42
 70
     1
102
RTVSPost2010Prop43
 90
        3
102
RTVSPost2010PropOp43
 70
     1
102
RTVSPost2010Prop44ColorIndex
 90
        5
102
RTVSPost2010Prop44ColorRGB
 90
      255
102
RTVSPost2010PropOp44
 70
     1
102
RTVSPost2010Prop45
280
     0
102
RTVSPost2010PropOp45
 70
     1
102
RTVSPost2010Prop46
 90
       50
102
RTVSPost2010PropOp46
 70
     1
102
RTVSPost2010Prop47
 90
       50
102
RTVSPost2010PropOp47
 70
     1
102
RTVSPost2010Prop48
 90
       50
102
RTVSPost2010PropOp48
 70
     1
102
RTVSPost2010Prop49
280
     0
102
RTVSPost2010PropOp49
 70
     1
102
RTVSPost2010Prop50
 90
       50
102
RTVSPost2010PropOp50
 70
     1
102
RTVSPost2010Prop51ColorIndex
 90
      256
102
RTVSPost2010Prop51ColorRGB
 90
-16777216
102
RTVSPost2010PropOp51
 70
     0
102
RTVSPost2010Prop52
140
1.0
102
RTVSPost2010PropOp52
 70
     0
102
RTVSPost2010Prop53
 90
        2
102
RTVSPost2010PropOp53
 70
     1
102
RTVSPost2010Prop54
  1
strokes_ogs.tif
102
RTVSPost2010PropOp54
 70
     1
102
RTVSPost2010Prop55
280
     0
102
RTVSPost2010PropOp55
 70
     1
102
RTVSPost2010Prop56
140
1.0
102
RTVSPost2010PropOp56
 70
     1
102
RTVSPost2010Prop57
140
1.0
102
RTVSPost2010PropOp57
 70
     1
102
RTVSPropertyOp0
 70
     1
102
RTVSPropertyOp1
 70
     1
102
RTVSPropertyOp2
 70
     1
102
RTVSPropertyOp3
 70
     1
102
RTVSPropertyOp4
 70
     1
102
RTVSPropertyOp5
 70
     1
102
RTVSPropertyOp6
 70
     1
102
RTVSPropertyOp7
 70
     1
102
RTVSPropertyOp8
 70
     1
102
RTVSPropertyOp9
 70
     1
102
RTVSPropertyOp10
 70
     1
102
RTVSPropertyOp11
 70
     1
102
RTVSPropertyOp12
 70
     1
102
RTVSPropertyOp13
 70
     1
102
RTVSPropertyOp14
 70
     1
102
RTVSPropertyOp15
 70
     1
102
RTVSPropertyOp16
 70
     1
102
RTVSPropertyOp17
 70
     1
102
RTVSPropertyOp18
 70
     1
102
RTVSPropertyOp19
 70
     1
102
RTVSPropertyOp20
 70
     1
102
RTVSPropertyOp21
 70
     1
102
RTVSPropertyOp22
 70
     1
102
RTVSPropertyOp23
 70
     1
102
RTVSPropertyOp24
 70
     1
102
RTVSPropertyOp25
 70
     1
102
RTVSPropertyOp26
 70
     1
102
RTVSPropertyOp27
 70
     1
102
RTVSPropertyOp28
 70
     1
102
RTVSPropertyOp29
 70
     1
102
RTVSPropertyOp30
 70
     1
102
RTVSPropertyOp31
 70
     1
102
RTVSPropertyOp32
 70
     1
102
RTVSPropertyOp33
 70
     1
102
RTVSPropertyOp34
 70
     1
102
RTVSPropertyOp35
 70
     1
102
RTVSPropertyOp36
 70
     1
102
RTVSPropertyOp37
 70
     1
102
RTVSPropertyOp38
 70
     1
102
RTVSPropertyOp39
 70
     1
102
RTVSPropertyOp40
 70
     1
102
RTVSPropertyOp41
 70
     1
102
RTVSPropertyOp42
 70
     1
102
RTVSPropertyOp43
 70
     1
102
RTVSPropertyOp44
 70
     1
102
RTVSPropertyOp45
 70
     1
102
RTVSPropertyOp46
 70
     1
102
RTVSPropertyOp47
 70
     1
102
RTVSPropertyOp48
 70
     1
102
RTVSPropertyOp49
 70
     1
102
RTVSPropertyOp50
 70
     1
102
RTVSPropertyOp51
 70
     0
102
RTVSPropertyOp52
 70
     0
102
RTVSPropertyOp53
 70
     1
102
RTVSPropertyOp54
 70
     1
102
RTVSPropertyOp55
 70
     1
102
RTVSPropertyOp56
 70
     1
102
RTVSPropertyOp57
 70
     1
102
RTVSPropertyOp58
 70
     1
102
RTVSPropertyOp59
 70
     1
102
RTVSPropertyOp60
 70
     1
102
RTVSPropertyOp61
 70
     1
102
RTVSPropertyOp62
 70
     1
  0
XRECORD
  5
1B53
102
{ACAD_REACTORS
330
1B52
102
}
330
1B52
100
AcDbXrecord
280
     1
102
RTVSPost2010Prop28
280
     0
102
RTVSPost2010PropOp28
 70
     1
102
RTVSPost2010Prop29
280
     1
102
RTVSPost2010PropOp29
 70
     1
102
RTVSPost2010Prop30
280
     1
102
RTVSPost2010PropOp30
 70
     1
102
RTVSPost2010Prop31
280
     0
102
RTVSPost2010PropOp31
 70
     1
102
RTVSPost2010Prop32
280
     0
102
RTVSPost2010PropOp32
 70
     1
102
RTVSPost2010Prop33
280
     0
102
RTVSPost2010PropOp33
 70
     1
102
RTVSPost2010Prop34
280
     0
102
RTVSPost2010PropOp34
 70
     1
102
RTVSPost2010Prop35
280
     0
102
RTVSPost2010PropOp35
 70
     1
102
RTVSPost2010Prop36
280
     0
102
RTVSPost2010PropOp36
 70
     1
102
RTVSPost2010Prop37
 90
       50
102
RTVSPost2010PropOp37
 70
     1
102
RTVSPost2010Prop38
140
0.0
102
RTVSPost2010PropOp38
 70
     1
102
RTVSPost2010Prop39
140
1.0
102
RTVSPost2010PropOp39
 70
     1
102
RTVSPost2010Prop40
 90
        0
102
RTVSPost2010PropOp40
 70
     1
102
RTVSPost2010Prop41ColorIndex
 90
       18
102
RTVSPost2010Prop41ColorRGB
 90
        0
102
RTVSPost2010PropOp41
 70
     1
102
RTVSPost2010Prop42
 90
       50
102
RTVSPost2010PropOp42
 70
     1
102
RTVSPost2010Prop43
 90
        3
102
RTVSPost2010PropOp43
 70
     1
102
RTVSPost2010Prop44ColorIndex
 90
        5
102
RTVSPost2010Prop44ColorRGB
 90
      255
102
RTVSPost2010PropOp44
 70
     1
102
RTVSPost2010Prop45
280
     0
102
RTVSPost2010PropOp45
 70
     1
102
RTVSPost2010Prop46
 90
       50
102
RTVSPost2010PropOp46
 70
     1
102
RTVSPost2010Prop47
 90
       50
102
RTVSPost2010PropOp47
 70
     1
102
RTVSPost2010Prop48
 90
       50
102
RTVSPost2010PropOp48
 70
     1
102
RTVSPost2010Prop49
280
     0
102
RTVSPost2010PropOp49
 70
     1
102
RTVSPost2010Prop50
 90
       50
102
RTVSPost2010PropOp50
 70
     1
102
RTVSPost2010Prop51ColorIndex
 90
      256
102
RTVSPost2010Prop51ColorRGB
 90
-16777216
102
RTVSPost2010PropOp51
 70
     0
102
RTVSPost2010Prop52
140
1.0
102
RTVSPost2010PropOp52
 70
     0
102
RTVSPost2010Prop53
 90
        2
102
RTVSPost2010PropOp53
 70
     1
102
RTVSPost2010Prop54
  1
strokes_ogs.tif
102
RTVSPost2010PropOp54
 70
     1
102
RTVSPost2010Prop55
280
     0
102
RTVSPost2010PropOp55
 70
     1
102
RTVSPost2010Prop56
140
1.0
102
RTVSPost2010PropOp56
 70
     1
102
RTVSPost2010Prop57
140
1.0
102
RTVSPost2010PropOp57
 70
     1
102
RTVSPropertyOp0
 70
     1
102
RTVSPropertyOp1
 70
     1
102
RTVSPropertyOp2
 70
     1
102
RTVSPropertyOp3
 70
     1
102
RTVSPropertyOp4
 70
     1
102
RTVSPropertyOp5
 70
     1
102
RTVSPropertyOp6
 70
     1
102
RTVSPropertyOp7
 70
     1
102
RTVSPropertyOp8
 70
     1
102
RTVSPropertyOp9
 70
     1
102
RTVSPropertyOp10
 70
     1
102
RTVSPropertyOp11
 70
     1
102
RTVSPropertyOp12
 70
     1
102
RTVSPropertyOp13
 70
     1
102
RTVSPropertyOp14
 70
     1
102
RTVSPropertyOp15
 70
     1
102
RTVSPropertyOp16
 70
     1
102
RTVSPropertyOp17
 70
     1
102
RTVSPropertyOp18
 70
     1
102
RTVSPropertyOp19
 70
     1
102
RTVSPropertyOp20
 70
     1
102
RTVSPropertyOp21
 70
     1
102
RTVSPropertyOp22
 70
     1
102
RTVSPropertyOp23
 70
     1
102
RTVSPropertyOp24
 70
     1
102
RTVSPropertyOp25
 70
     1
102
RTVSPropertyOp26
 70
     1
102
RTVSPropertyOp27
 70
     1
102
RTVSPropertyOp28
 70
     1
102
RTVSPropertyOp29
 70
     1
102
RTVSPropertyOp30
 70
     1
102
RTVSPropertyOp31
 70
     1
102
RTVSPropertyOp32
 70
     1
102
RTVSPropertyOp33
 70
     1
102
RTVSPropertyOp34
 70
     1
102
RTVSPropertyOp35
 70
     1
102
RTVSPropertyOp36
 70
     1
102
RTVSPropertyOp37
 70
     1
102
RTVSPropertyOp38
 70
     1
102
RTVSPropertyOp39
 70
     1
102
RTVSPropertyOp40
 70
     1
102
RTVSPropertyOp41
 70
     1
102
RTVSPropertyOp42
 70
     1
102
RTVSPropertyOp43
 70
     1
102
RTVSPropertyOp44
 70
     1
102
RTVSPropertyOp45
 70
     1
102
RTVSPropertyOp46
 70
     1
102
RTVSPropertyOp47
 70
     1
102
RTVSPropertyOp48
 70
     1
102
RTVSPropertyOp49
 70
     1
102
RTVSPropertyOp50
 70
     1
102
RTVSPropertyOp51
 70
     0
102
RTVSPropertyOp52
 70
     0
102
RTVSPropertyOp53
 70
     1
102
RTVSPropertyOp54
 70
     1
102
RTVSPropertyOp55
 70
     1
102
RTVSPropertyOp56
 70
     1
102
RTVSPropertyOp57
 70
     1
102
RTVSPropertyOp58
 70
     1
102
RTVSPropertyOp59
 70
     1
102
RTVSPropertyOp60
 70
     1
102
RTVSPropertyOp61
 70
     1
102
RTVSPropertyOp62
 70
     1
  0
XRECORD
  5
17D0
102
{ACAD_REACTORS
330
17CF
102
}
330
17CF
100
AcDbXrecord
280
     1
330
1508
  0
ACDBASSOCARRAYACTIONBODY
  5
17B6
330
17B5
100
AcDbAssocActionBody
 90
        1
100
AcDbAssocParamBasedActionBody
 90
        0
 90
        0
 90
        3
360
17B7
360
17B8
360
17BC
 90
        0
 90
        9
 90
        0
  1
AlignItems
 90
        0
 90
        1
 90
        0
330
0
330
0
 90
        0
  1
AxesAngle
 90
        2
 90
        1
 40
1.570796326794896
330
0
330
0
 90
        0
  1
ItemSpacing
 90
        1
 90
        1
 40
30.0
330
0
330
0
 90
        0
  1
Items
 90
        0
 90
        1
 90
       16
330
0
330
0
 90
        0
  1
LevelSpacing
 90
        1
 90
        1
 40
1.0
330
0
330
0
 90
        0
  1
Levels
 90
        0
 90
        1
 90
        1
330
0
330
0
 90
        0
  1
RowElevation
 90
        1
 90
        1
 40
0.0
330
0
330
0
 90
        0
  1
RowSpacing
 90
        1
 90
        1
 40
48.0
330
0
330
0
 90
        0
  1
Rows
 90
        0
 90
        1
 90
        1
330
0
330
0
100
AcDbAssocArrayActionBody
 90
        1
  1
AcDbAssocArrayRectangularParameters
 90
        0
 90
       16
  1
AcDbAssocArrayItem
100
AcDbAssocArrayItem
 90
        0
 90
        0
 90
        0
 90
        0
 90
        8
 11
0.0
 21
0.0
 31
0.0
330
17BE
100
AcDbAssocArrayItem
 90
        0
 90
        1
 90
        0
 90
        0
 90
        8
 11
30.0
 21
0.0
 31
0.0
330
17BF
100
AcDbAssocArrayItem
 90
        0
 90
        2
 90
        0
 90
        0
 90
        8
 11
60.0
 21
0.0
 31
0.0
330
17C0
100
AcDbAssocArrayItem
 90
        0
 90
        3
 90
        0
 90
        0
 90
        8
 11
90.0
 21
0.0
 31
0.0
330
17C1
100
AcDbAssocArrayItem
 90
        0
 90
        4
 90
        0
 90
        0
 90
        8
 11
120.0
 21
0.0
 31
0.0
330
17C2
100
AcDbAssocArrayItem
 90
        0
 90
        5
 90
        0
 90
        0
 90
        8
 11
150.0
 21
0.0
 31
0.0
330
17C3
100
AcDbAssocArrayItem
 90
        0
 90
        6
 90
        0
 90
        0
 90
        8
 11
180.0
 21
0.0
 31
0.0
330
17C4
100
AcDbAssocArrayItem
 90
        0
 90
        7
 90
        0
 90
        0
 90
        8
 11
210.0
 21
0.0
 31
0.0
330
17C5
100
AcDbAssocArrayItem
 90
        0
 90
        8
 90
        0
 90
        0
 90
        8
 11
240.0
 21
0.0
 31
0.0
330
17C6
100
AcDbAssocArrayItem
 90
        0
 90
        9
 90
        0
 90
        0
 90
        8
 11
270.0
 21
0.0
 31
0.0
330
17C7
100
AcDbAssocArrayItem
 90
        0
 90
       10
 90
        0
 90
        0
 90
        8
 11
300.0
 21
0.0
 31
0.0
330
17C8
100
AcDbAssocArrayItem
 90
        0
 90
       11
 90
        0
 90
        0
 90
        8
 11
330.0
 21
0.0
 31
0.0
330
17C9
100
AcDbAssocArrayItem
 90
        0
 90
       12
 90
        0
 90
        0
 90
        8
 11
360.0
 21
0.0
 31
0.0
330
17CA
100
AcDbAssocArrayItem
 90
        0
 90
       13
 90
        0
 90
        0
 90
        8
 11
390.0
 21
0.0
 31
0.0
330
17CB
100
AcDbAssocArrayItem
 90
        0
 90
       14
 90
        0
 90
        0
 90
        8
 11
420.0
 21
0.0
 31
0.0
330
17CC
100
AcDbAssocArrayItem
 90
        0
 90
       15
 90
        0
 90
        0
 90
        8
 11
450.0
 21
0.0
 31
0.0
330
17CD
 40
1.0
 40
0.0
 40
0.0
 40
551.4587626244592
 40
0.0
 40
1.0
 40
0.0
 40
595.9802181496757
 40
0.0
 40
0.0
 40
1.0
 40
0.0
 40
0.0
 40
0.0
 40
0.0
 40
1.0
  0
ACDBASSOCDEPENDENCY
  5
17B9
330
17B5
100
AcDbAssocDependency
 90
        2
 90
        1
290
     0
290
     1
290
     1
290
     1
 90
        0
330
17A7
290
     0
330
0
330
0
360
0
 90
        1
  0
ACDBASSOCDEPENDENCY
  5
17BA
330
17B5
100
AcDbAssocDependency
 90
        2
 90
        1
290
     1
290
     0
290
     1
290
     1
 90
        0
330
17A4
290
     0
330
0
330
0
360
0
 90
        2
  0
ACDBASSOCDEPENDENCY
  5
17BB
330
17B5
100
AcDbAssocDependency
 90
        2
 90
        0
290
     1
290
     1
290
     1
290
     1
 90
-2147483648
330
17AA
290
     0
330
0
330
0
360
0
 90
        3
  0
ACDBASSOCARRAYACTIONBODY
  5
1A44
330
1A43
100
AcDbAssocActionBody
 90
        1
100
AcDbAssocParamBasedActionBody
 90
        0
 90
        0
 90
        3
360
1A45
360
1A46
360
1A4A
 90
        0
 90
        9
 90
        0
  1
AlignItems
 90
        0
 90
        1
 90
        0
330
0
330
0
 90
        0
  1
AxesAngle
 90
        2
 90
        1
 40
1.570796326794896
330
0
330
0
 90
        0
  1
ItemSpacing
 90
        1
 90
        1
 40
30.0
330
0
330
0
 90
        0
  1
Items
 90
        0
 90
        1
 90
       16
330
0
330
0
 90
        0
  1
LevelSpacing
 90
        1
 90
        1
 40
1.0
330
0
330
0
 90
        0
  1
Levels
 90
        0
 90
        1
 90
        1
330
0
330
0
 90
        0
  1
RowElevation
 90
        1
 90
        1
 40
0.0
330
0
330
0
 90
        0
  1
RowSpacing
 90
        1
 90
        1
 40
916.5
330
0
330
0
 90
        0
  1
Rows
 90
        0
 90
        1
 90
        1
330
0
330
0
100
AcDbAssocArrayActionBody
 90
        1
  1
AcDbAssocArrayRectangularParameters
 90
        0
 90
       16
  1
AcDbAssocArrayItem
100
AcDbAssocArrayItem
 90
        0
 90
        0
 90
        0
 90
        0
 90
        8
 11
0.0
 21
0.0
 31
0.0
330
1A4C
100
AcDbAssocArrayItem
 90
        0
 90
        1
 90
        0
 90
        0
 90
        8
 11
30.0
 21
0.0
 31
0.0
330
1A4D
100
AcDbAssocArrayItem
 90
        0
 90
        2
 90
        0
 90
        0
 90
        8
 11
60.0
 21
0.0
 31
0.0
330
1A4E
100
AcDbAssocArrayItem
 90
        0
 90
        3
 90
        0
 90
        0
 90
        8
 11
90.0
 21
0.0
 31
0.0
330
1A4F
100
AcDbAssocArrayItem
 90
        0
 90
        4
 90
        0
 90
        0
 90
        8
 11
120.0
 21
0.0
 31
0.0
330
1A50
100
AcDbAssocArrayItem
 90
        0
 90
        5
 90
        0
 90
        0
 90
        8
 11
150.0
 21
0.0
 31
0.0
330
1A51
100
AcDbAssocArrayItem
 90
        0
 90
        6
 90
        0
 90
        0
 90
        8
 11
180.0
 21
0.0
 31
0.0
330
1A52
100
AcDbAssocArrayItem
 90
        0
 90
        7
 90
        0
 90
        0
 90
        8
 11
210.0
 21
0.0
 31
0.0
330
1A53
100
AcDbAssocArrayItem
 90
        0
 90
        8
 90
        0
 90
        0
 90
        8
 11
240.0
 21
0.0
 31
0.0
330
1A54
100
AcDbAssocArrayItem
 90
        0
 90
        9
 90
        0
 90
        0
 90
        8
 11
270.0
 21
0.0
 31
0.0
330
1A55
100
AcDbAssocArrayItem
 90
        0
 90
       10
 90
        0
 90
        0
 90
        8
 11
300.0
 21
0.0
 31
0.0
330
1A56
100
AcDbAssocArrayItem
 90
        0
 90
       11
 90
        0
 90
        0
 90
        8
 11
330.0
 21
0.0
 31
0.0
330
1A57
100
AcDbAssocArrayItem
 90
        0
 90
       12
 90
        0
 90
        0
 90
        8
 11
360.0
 21
0.0
 31
0.0
330
1A58
100
AcDbAssocArrayItem
 90
        0
 90
       13
 90
        0
 90
        0
 90
        8
 11
390.0
 21
0.0
 31
0.0
330
1A59
100
AcDbAssocArrayItem
 90
        0
 90
       14
 90
        0
 90
        0
 90
        8
 11
420.0
 21
0.0
 31
0.0
330
1A5A
100
AcDbAssocArrayItem
 90
        0
 90
       15
 90
        0
 90
        0
 90
        8
 11
450.0
 21
0.0
 31
0.0
330
1A5B
 40
1.0
 40
0.0
 40
0.0
 40
549.4587626244593
 40
0.0
 40
1.0
 40
0.0
 40
1399.070709712993
 40
0.0
 40
0.0
 40
1.0
 40
0.0
 40
0.0
 40
0.0
 40
0.0
 40
1.0
  0
ACDBASSOCDEPENDENCY
  5
1A47
330
1A43
100
AcDbAssocDependency
 90
        2
 90
        1
290
     0
290
     1
290
     1
290
     1
 90
        0
330
19CF
290
     0
330
0
330
0
360
0
 90
        1
  0
ACDBASSOCDEPENDENCY
  5
1A48
330
1A43
100
AcDbAssocDependency
 90
        2
 90
        1
290
     1
290
     0
290
     1
290
     1
 90
        0
330
19CC
290
     0
330
0
330
0
360
0
 90
        2
  0
ACDBASSOCDEPENDENCY
  5
1A49
330
1A43
100
AcDbAssocDependency
 90
        2
 90
        0
290
     1
290
     1
290
     1
290
     1
 90
-2147483648
330
19D2
290
     0
330
0
330
0
360
0
 90
        3
  0
ACDBASSOCVERTEXACTIONPARAM
  5
17B7
330
17B6
100
AcDbAssocActionParam
 90
        0
  1
BaseNormal
100
AcDbAssocSingleDependencyActionParam
 90
        0
330
0
100
AcDbAssocVertexActionParam
 90
        0
 10
0.0
 20
0.0
 30
1.0
  0
ACDBASSOCVERTEXACTIONPARAM
  5
17B8
330
17B6
100
AcDbAssocActionParam
 90
        0
  1
Origin
100
AcDbAssocSingleDependencyActionParam
 90
        0
330
0
100
AcDbAssocVertexActionParam
 90
        0
 10
0.0
 20
0.0
 30
0.0
  0
ACDBASSOCVERTEXACTIONPARAM
  5
17BC
330
17B6
100
AcDbAssocActionParam
 90
        0
  1
basePoint
100
AcDbAssocSingleDependencyActionParam
 90
        0
330
0
100
AcDbAssocVertexActionParam
 90
        0
 10
0.0
 20
0.0
 30
0.0
  0
ACDBASSOCVERTEXACTIONPARAM
  5
1A45
330
1A44
100
AcDbAssocActionParam
 90
        0
  1
BaseNormal
100
AcDbAssocSingleDependencyActionParam
 90
        0
330
0
100
AcDbAssocVertexActionParam
 90
        0
 10
0.0
 20
0.0
 30
1.0
  0
ACDBASSOCVERTEXACTIONPARAM
  5
1A46
330
1A44
100
AcDbAssocActionParam
 90
        0
  1
Origin
100
AcDbAssocSingleDependencyActionParam
 90
        0
330
0
100
AcDbAssocVertexActionParam
 90
        0
 10
0.0
 20
0.0
 30
0.0
  0
ACDBASSOCVERTEXACTIONPARAM
  5
1A4A
330
1A44
100
AcDbAssocActionParam
 90
        0
  1
basePoint
100
AcDbAssocSingleDependencyActionParam
 90
        0
330
0
100
AcDbAssocVertexActionParam
 90
        0
 10
0.0
 20
0.0
 30
0.0
  0
ENDSEC
  0
EOF
