  0
SECTION
  2
HEADER
  9
$ACADVER
  1
AC1015
  9
$ACADMAINTVER
 70
    20
  9
$DWGCODEPAGE
  3
ANSI_932
  9
$INSBASE
 10
0.0
 20
0.0
 30
0.0
  9
$EXTMIN
 10
0.0
 20
0.0
 30
0.0
  9
$EXTMAX
 10
2789.511161023071
 20
1973.26911249564
 30
0.0
  9
$LIMMIN
 10
0.0
 20
0.0
  9
$LIMMAX
 10
297.0
 20
209.0
  9
$ORTHOMODE
 70
     1
  9
$REGENMODE
 70
     1
  9
$FILLMODE
 70
     1
  9
$QTEXTMODE
 70
     0
  9
$MIRRTEXT
 70
     1
  9
$LTSCALE
 40
1.0
  9
$ATTMODE
 70
     1
  9
$TEXTSIZE
 40
2.5
  9
$TRACEWID
 40
1.0
  9
$TEXTSTYLE
  7
Standard
  9
$CLAYER
  8
寸法線
  9
$CELTYPE
  6
ByLayer
  9
$CECOLOR
 62
   256
  9
$CELTSCALE
 40
3.0
  9
$DISPSILH
 70
     0
  9
$DIMSCALE
 40
10.0
  9
$DIMASZ
 40
1.5
  9
$DIMEXO
 40
2.0
  9
$DIMDLI
 40
3.75
  9
$DIMRND
 40
0.0
  9
$DIMDLE
 40
0.0
  9
$DIMEXE
 40
1.5
  9
$DIMTP
 40
0.0
  9
$DIMTM
 40
0.0
  9
$DIMTXT
 40
3.0
  9
$DIMCEN
 40
2.5
  9
$DIMTSZ
 40
0.0
  9
$DIMTOL
 70
     0
  9
$DIMLIM
 70
     0
  9
$DIMTIH
 70
     0
  9
$DIMTOH
 70
     0
  9
$DIMSE1
 70
     0
  9
$DIMSE2
 70
     0
  9
$DIMTAD
 70
     1
  9
$DIMZIN
 70
     8
  9
$DIMBLK
  1
Open30
  9
$DIMASO
 70
     1
  9
$DIMSHO
 70
     1
  9
$DIMPOST
  1

  9
$DIMAPOST
  1

  9
$DIMALT
 70
     0
  9
$DIMALTD
 70
     3
  9
$DIMALTF
 40
0.03937007874016
  9
$DIMLFAC
 40
1.0
  9
$DIMTOFL
 70
     1
  9
$DIMTVP
 40
0.0
  9
$DIMTIX
 70
     0
  9
$DIMSOXD
 70
     0
  9
$DIMSAH
 70
     0
  9
$DIMBLK1
  1

  9
$DIMBLK2
  1

  9
$DIMSTYLE
  2
ISO-25
  9
$DIMCLRD
 70
     0
  9
$DIMCLRE
 70
     0
  9
$DIMCLRT
 70
     0
  9
$DIMTFAC
 40
1.0
  9
$DIMGAP
 40
0.5
  9
$DIMJUST
 70
     0
  9
$DIMSD1
 70
     0
  9
$DIMSD2
 70
     0
  9
$DIMTOLJ
 70
     0
  9
$DIMTZIN
 70
     8
  9
$DIMALTZ
 70
     0
  9
$DIMALTTZ
 70
     0
  9
$DIMUPT
 70
     0
  9
$DIMDEC
 70
     2
  9
$DIMTDEC
 70
     2
  9
$DIMALTU
 70
     2
  9
$DIMALTTD
 70
     3
  9
$DIMTXSTY
  7
Standard
  9
$DIMAUNIT
 70
     0
  9
$DIMADEC
 70
     0
  9
$DIMALTRND
 40
0.0
  9
$DIMAZIN
 70
     0
  9
$DIMDSEP
 70
    46
  9
$DIMATFIT
 70
     0
  9
$DIMFRAC
 70
     0
  9
$DIMLDRBLK
  1
Open30
  9
$DIMLUNIT
 70
     2
  9
$DIMLWD
 70
    -2
  9
$DIMLWE
 70
    -2
  9
$DIMTMOVE
 70
     0
  9
$LUNITS
 70
     2
  9
$LUPREC
 70
     4
  9
$SKETCHINC
 40
1.0
  9
$FILLETRAD
 40
9.9
  9
$AUNITS
 70
     0
  9
$AUPREC
 70
     0
  9
$MENU
  1
.
  9
$ELEVATION
 40
0.0
  9
$PELEVATION
 40
0.0
  9
$THICKNESS
 40
0.0
  9
$LIMCHECK
 70
     0
  9
$CHAMFERA
 40
10.0
  9
$CHAMFERB
 40
10.0
  9
$CHAMFERC
 40
20.0
  9
$CHAMFERD
 40
0.0
  9
$SKPOLY
 70
     0
  9
$TDCREATE
 40
2453510.558637211
  9
$TDUCREATE
 40
2453510.183637211
  9
$TDUPDATE
 40
2457564.742439340
  9
$TDUUPDATE
 40
2457564.367439340
  9
$TDINDWG
 40
0.0567866088
  9
$TDUSRTIMER
 40
0.0567866088
  9
$USRTIMER
 70
     1
  9
$ANGBASE
 50
0.0
  9
$ANGDIR
 70
     0
  9
$PDMODE
 70
     0
  9
$PDSIZE
 40
0.0
  9
$PLINEWID
 40
0.0
  9
$SPLFRAME
 70
     0
  9
$SPLINETYPE
 70
     6
  9
$SPLINESEGS
 70
     8
  9
$HANDSEED
  5
13A5
  9
$SURFTAB1
 70
     6
  9
$SURFTAB2
 70
     6
  9
$SURFTYPE
 70
     6
  9
$SURFU
 70
     6
  9
$SURFV
 70
     6
  9
$UCSBASE
  2

  9
$UCSNAME
  2

  9
$UCSORG
 10
0.0
 20
0.0
 30
0.0
  9
$UCSXDIR
 10
1.0
 20
0.0
 30
0.0
  9
$UCSYDIR
 10
0.0
 20
1.0
 30
0.0
  9
$UCSORTHOREF
  2

  9
$UCSORTHOVIEW
 70
     0
  9
$UCSORGTOP
 10
0.0
 20
0.0
 30
0.0
  9
$UCSORGBOTTOM
 10
0.0
 20
0.0
 30
0.0
  9
$UCSORGLEFT
 10
0.0
 20
0.0
 30
0.0
  9
$UCSORGRIGHT
 10
0.0
 20
0.0
 30
0.0
  9
$UCSORGFRONT
 10
0.0
 20
0.0
 30
0.0
  9
$UCSORGBACK
 10
0.0
 20
0.0
 30
0.0
  9
$PUCSBASE
  2

  9
$PUCSNAME
  2

  9
$PUCSORG
 10
0.0
 20
0.0
 30
0.0
  9
$PUCSXDIR
 10
1.0
 20
0.0
 30
0.0
  9
$PUCSYDIR
 10
0.0
 20
1.0
 30
0.0
  9
$PUCSORTHOREF
  2

  9
$PUCSORTHOVIEW
 70
     0
  9
$PUCSORGTOP
 10
0.0
 20
0.0
 30
0.0
  9
$PUCSORGBOTTOM
 10
0.0
 20
0.0
 30
0.0
  9
$PUCSORGLEFT
 10
0.0
 20
0.0
 30
0.0
  9
$PUCSORGRIGHT
 10
0.0
 20
0.0
 30
0.0
  9
$PUCSORGFRONT
 10
0.0
 20
0.0
 30
0.0
  9
$PUCSORGBACK
 10
0.0
 20
0.0
 30
0.0
  9
$USERI1
 70
     0
  9
$USERI2
 70
     0
  9
$USERI3
 70
     0
  9
$USERI4
 70
     0
  9
$USERI5
 70
     0
  9
$USERR1
 40
0.0
  9
$USERR2
 40
0.0
  9
$USERR3
 40
0.0
  9
$USERR4
 40
0.0
  9
$USERR5
 40
0.0
  9
$WORLDVIEW
 70
     1
  9
$SHADEDGE
 70
     3
  9
$SHADEDIF
 70
    70
  9
$TILEMODE
 70
     1
  9
$MAXACTVP
 70
    48
  9
$PINSBASE
 10
0.0
 20
0.0
 30
0.0
  9
$PLIMCHECK
 70
     0
  9
$PEXTMIN
 10
0.0
 20
0.0
 30
0.0
  9
$PEXTMAX
 10
0.0
 20
0.0
 30
0.0
  9
$PLIMMIN
 10
0.0
 20
0.0
  9
$PLIMMAX
 10
12.0
 20
9.0
  9
$UNITMODE
 70
     0
  9
$VISRETAIN
 70
     1
  9
$PLINEGEN
 70
     0
  9
$PSLTSCALE
 70
     1
  9
$TREEDEPTH
 70
  3020
  9
$CMLSTYLE
  2
Standard
  9
$CMLJUST
 70
     0
  9
$CMLSCALE
 40
20.0
  9
$PROXYGRAPHICS
 70
     1
  9
$MEASUREMENT
 70
     1
  9
$CELWEIGHT
370
    -1
  9
$ENDCAPS
280
     0
  9
$JOINSTYLE
280
     0
  9
$LWDISPLAY
290
     0
  9
$INSUNITS
 70
     4
  9
$HYPERLINKBASE
  1

  9
$STYLESHEET
  1
monochrome.ctb
  9
$XEDIT
290
     1
  9
$CEPSNTYPE
380
     0
  9
$PSTYLEMODE
290
     1
  9
$FINGERPRINTGUID
  2

  9
$VERSIONGUID
  2
{CF8CB42E-3A6C-44C4-8B7D-A952B1D5DF45}
  9
$EXTNAMES
290
     1
  9
$PSVPSCALE
 40
0.0
  9
$OLESTARTUP
290
     0
  0
ENDSEC
  0
SECTION
  2
CLASSES
  0
CLASS
  1
ACDBDICTIONARYWDFLT
  2
AcDbDictionaryWithDefault
  3
ObjectDBX Classes
 90
        0
280
     0
281
     0
  0
CLASS
  1
ACDBPLACEHOLDER
  2
AcDbPlaceHolder
  3
ObjectDBX Classes
 90
        0
280
     0
281
     0
  0
CLASS
  1
LAYOUT
  2
AcDbLayout
  3
ObjectDBX Classes
 90
        0
280
     0
281
     0
  0
CLASS
  1
DICTIONARYVAR
  2
AcDbDictionaryVar
  3
ObjectDBX Classes
 90
        0
280
     0
281
     0
  0
CLASS
  1
MATERIAL
  2
AcDbMaterial
  3
ObjectDBX Classes
 90
     1153
280
     0
281
     0
  0
CLASS
  1
VISUALSTYLE
  2
AcDbVisualStyle
  3
ObjectDBX Classes
 90
     4095
280
     0
281
     0
  0
CLASS
  1
TABLESTYLE
  2
AcDbTableStyle
  3
ObjectDBX Classes
 90
     4095
280
     0
281
     0
  0
CLASS
  1
SCALE
  2
AcDbScale
  3
ObjectDBX Classes
 90
     1153
280
     0
281
     0
  0
CLASS
  1
MLEADERSTYLE
  2
AcDbMLeaderStyle
  3
ACDB_MLEADERSTYLE_CLASS
 90
     4095
280
     0
281
     0
  0
CLASS
  1
ACDBSECTIONVIEWSTYLE
  2
AcDbSectionViewStyle
  3
ObjectDBX Classes
 90
     1025
280
     0
281
     0
  0
CLASS
  1
ACDBDETAILVIEWSTYLE
  2
AcDbDetailViewStyle
  3
ObjectDBX Classes
 90
     1025
280
     0
281
     0
  0
CLASS
  1
CELLSTYLEMAP
  2
AcDbCellStyleMap
  3
ObjectDBX Classes
 90
     1152
280
     0
281
     0
  0
CLASS
  1
ACARRAYJIGENTITY
  2
AcArrayJigEntity
  3
ACAD_ARRAY
 90
      129
280
     0
281
     1
  0
CLASS
  1
ACDBASSOCNETWORK
  2
AcDbAssocNetwork
  3
ObjectDBX Classes
 90
     1025
280
     0
281
     0
  0
CLASS
  1
ACDBASSOCACTION
  2
AcDbAssocAction
  3
ObjectDBX Classes
 90
     1025
280
     0
281
     0
  0
CLASS
  1
ACDBASSOCARRAYACTIONBODY
  2
AcDbAssocArrayActionBody
  3
ObjectDBX Classes
 90
     1025
280
     0
281
     0
  0
CLASS
  1
ACDBASSOCVERTEXACTIONPARAM
  2
AcDbAssocVertexActionParam
  3
ObjectDBX Classes
 90
     1025
280
     0
281
     0
  0
CLASS
  1
ACDBASSOCDEPENDENCY
  2
AcDbAssocDependency
  3
ObjectDBX Classes
 90
     1025
280
     0
281
     0
  0
CLASS
  1
ACDBASSOCARRAYRECTANGULARPARAMETERS
  2
AcDbAssocArrayRectangularParameters
  3
ObjectDBX Classes
 90
    33793
280
     0
281
     0
  0
ENDSEC
  0
SECTION
  2
TABLES
  0
TABLE
  2
VPORT
  5
534
102
{ACAD_XDICTIONARY
360
1050
102
}
330
0
100
AcDbSymbolTable
 70
     1
  0
VPORT
  5
FDC
330
534
100
AcDbSymbolTableRecord
100
AcDbViewportTableRecord
  2
*Active
 70
     0
 10
0.0
 20
0.0
 11
1.0
 21
1.0
 12
1394.755580511535
 22
986.6345562478199
 13
0.0
 23
0.0
 14
10.0
 24
10.0
 15
10.0
 25
10.0
 16
0.0
 26
0.0
 36
1.0
 17
0.0
 27
0.0
 37
0.0
 40
1992.427065044141
 41
3.006482982171799
 42
50.0
 43
0.0
 44
0.0
 50
0.0
 51
0.0
 71
     0
 72
   100
 73
     1
 74
     3
 75
     0
 76
     0
 77
     0
 78
     0
281
     0
 65
     1
110
0.0
120
0.0
130
0.0
111
1.0
121
0.0
131
0.0
112
0.0
122
1.0
132
0.0
 79
     0
146
0.0
1001
ACAD_NAV_VCDISPLAY
1070
     3
  0
ENDTAB
  0
TABLE
  2
LTYPE
  5
52F
330
0
100
AcDbSymbolTable
 70
     7
  0
LTYPE
  5
530
330
52F
100
AcDbSymbolTableRecord
100
AcDbLinetypeTableRecord
  2
ByBlock
 70
     0
  3

 72
    65
 73
     0
 40
0.0
  0
LTYPE
  5
531
330
52F
100
AcDbSymbolTableRecord
100
AcDbLinetypeTableRecord
  2
ByLayer
 70
     0
  3

 72
    65
 73
     0
 40
0.0
  0
LTYPE
  5
8
330
52F
100
AcDbSymbolTableRecord
100
AcDbLinetypeTableRecord
  2
Continuous
 70
     0
  3
Solid line
 72
    65
 73
     0
 40
0.0
  0
LTYPE
  5
1AA
330
52F
100
AcDbSymbolTableRecord
100
AcDbLinetypeTableRecord
  2
HIDDEN
 70
     0
  3
Hidden __ __ __ __ __ __ __ __ __ __ __ __ __ _
 72
    65
 73
     2
 40
9.524999999999998
 49
6.349999999999999
 74
     0
 49
-3.174999999999999
 74
     0
  0
LTYPE
  5
14D
330
52F
100
AcDbSymbolTableRecord
100
AcDbLinetypeTableRecord
  2
CENTER
 70
     0
  3
------ - ------ - ----
 72
    65
 73
     4
 40
10.0
 49
6.25
 74
     0
 49
-1.25
 74
     0
 49
1.25
 74
     0
 49
-1.25
 74
     0
  0
ENDTAB
  0
TABLE
  2
LAYER
  5
52C
102
{ACAD_XDICTIONARY
360
1143
102
}
330
0
100
AcDbSymbolTable
 70
    10
  0
LAYER
  5
64
102
{ACAD_XDICTIONARY
360
1033
102
}
330
52C
100
AcDbSymbolTableRecord
100
AcDbLayerTableRecord
  2
0
 70
     0
 62
     7
  6
Continuous
370
    -3
390
5
  0
LAYER
  5
6A
102
{ACAD_XDICTIONARY
360
1035
102
}
330
52C
100
AcDbSymbolTableRecord
100
AcDbLayerTableRecord
  2
本体
 70
     0
 62
     7
  6
Continuous
370
    13
390
5
  0
LAYER
  5
4
102
{ACAD_XDICTIONARY
360
1037
102
}
330
52C
100
AcDbSymbolTableRecord
100
AcDbLayerTableRecord
  2
寸法線
 70
     0
 62
     2
  6
Continuous
370
     9
390
5
  0
LAYER
  5
67
102
{ACAD_XDICTIONARY
360
103B
102
}
330
52C
100
AcDbSymbolTableRecord
100
AcDbLayerTableRecord
  2
エンボス
 70
     0
 62
     4
  6
Continuous
370
     5
390
5
  0
LAYER
  5
11
102
{ACAD_XDICTIONARY
360
103D
102
}
330
52C
100
AcDbSymbolTableRecord
100
AcDbLayerTableRecord
  2
外枠
 70
     0
 62
     7
  6
Continuous
370
    -3
390
5
  0
LAYER
  5
16A
330
52C
100
AcDbSymbolTableRecord
100
AcDbLayerTableRecord
  2
Defpoints
 70
     0
 62
     7
  6
Continuous
290
     0
370
    -3
390
5
  0
LAYER
  5
F3A
102
{ACAD_XDICTIONARY
360
1041
102
}
330
52C
100
AcDbSymbolTableRecord
100
AcDbLayerTableRecord
  2
嵩上断面
 70
     0
 62
   112
  6
Continuous
370
    13
390
5
  0
LAYER
  5
F54
102
{ACAD_XDICTIONARY
360
1043
102
}
330
52C
100
AcDbSymbolTableRecord
100
AcDbLayerTableRecord
  2
中心線
 70
     0
 62
     1
  6
CENTER
370
     5
390
5
  0
ENDTAB
  0
TABLE
  2
STYLE
  5
52D
330
0
100
AcDbSymbolTable
 70
     4
  0
STYLE
  5
9
330
52D
100
AcDbSymbolTableRecord
100
AcDbTextStyleTableRecord
  2
Standard
 70
     0
 40
0.0
 41
1.0
 50
0.0
 71
     0
 42
2.5
  3

  4

1001
ACAD
1000
MS Gothic
1071
    32817
  0
ENDTAB
  0
TABLE
  2
VIEW
  5
532
330
0
100
AcDbSymbolTable
 70
     0
  0
ENDTAB
  0
TABLE
  2
UCS
  5
533
330
0
100
AcDbSymbolTable
 70
     0
  0
ENDTAB
  0
TABLE
  2
APPID
  5
536
330
0
100
AcDbSymbolTable
 70
     5
  0
APPID
  5
A
330
536
100
AcDbSymbolTableRecord
100
AcDbRegAppTableRecord
  2
ACAD
 70
     0
  0
APPID
  5
1045
330
536
100
AcDbSymbolTableRecord
100
AcDbRegAppTableRecord
  2
ACAD_NAV_VCDISPLAY
 70
     0
  0
APPID
  5
1086
330
536
100
AcDbSymbolTableRecord
100
AcDbRegAppTableRecord
  2
ACAD_MLEADERVER
 70
     0
  0
APPID
  5
109F
330
536
100
AcDbSymbolTableRecord
100
AcDbRegAppTableRecord
  2
ACAD_EXEMPT_FROM_CAD_STANDARDS
 70
     0
  0
APPID
  5
1148
330
536
100
AcDbSymbolTableRecord
100
AcDbRegAppTableRecord
  2
AcLayerTools
 70
     0
  0
ENDTAB
  0
TABLE
  2
DIMSTYLE
  5
537
330
0
100
AcDbSymbolTable
 70
     3
100
AcDbDimStyleTable
 71
     1
340
15C
  0
DIMSTYLE
105
15C
102
{ACAD_REACTORS
330
15F
330
16F
330
189
330
196
330
1AB
330
1B8
330
4FE
330
554
330
C70
102
}
330
537
100
AcDbSymbolTableRecord
100
AcDbDimStyleTableRecord
  2
ISO-25
 70
     0
 40
10.0
 41
1.5
 42
2.0
 43
3.75
 44
1.5
 73
     0
 74
     0
 77
     1
 78
     8
140
3.0
141
2.5
143
0.03937007874016
147
0.5
171
     3
172
     1
271
     2
272
     2
274
     3
283
     0
284
     8
289
     0
340
9
341
155
342
155
  0
DIMSTYLE
105
F3D
330
537
100
AcDbSymbolTableRecord
100
AcDbDimStyleTableRecord
  2
Standard
 70
     0
340
9
  0
ENDTAB
  0
TABLE
  2
BLOCK_RECORD
  5
1
330
0
100
AcDbSymbolTable
 70
    33
  0
BLOCK_RECORD
  5
2
102
{ACAD_XDICTIONARY
360
51A
102
}
330
1
100
AcDbSymbolTableRecord
100
AcDbBlockTableRecord
  2
*Model_Space
340
51E
  0
BLOCK_RECORD
  5
520
102
{ACAD_XDICTIONARY
360
521
102
}
330
1
100
AcDbSymbolTableRecord
100
AcDbBlockTableRecord
  2
*Paper_Space
340
525
  0
BLOCK_RECORD
  5
526
102
{ACAD_XDICTIONARY
360
527
102
}
330
1
100
AcDbSymbolTableRecord
100
AcDbBlockTableRecord
  2
*Paper_Space0
340
52B
  0
BLOCK_RECORD
  5
155
330
1
100
AcDbSymbolTableRecord
100
AcDbBlockTableRecord
  2
_Open30
340
0
102
{BLKREFS
331
12F8
331
12F9
331
1301
331
1302
331
F64
331
F65
331
F6D
331
F6E
331
F76
331
F77
331
F9D
331
F9E
331
FBA
331
FBB
331
FC3
331
FC4
331
FCC
331
FCD
102
}
  0
BLOCK_RECORD
  5
65
330
1
100
AcDbSymbolTableRecord
100
AcDbBlockTableRecord
  2
GIB詳細
340
0
102
{BLKREFS
331
63
102
}
1001
ACAD
1000
DesignCenter Data
1002
{
1070
     1
1070
     4
1002
}
  0
BLOCK_RECORD
  5
14A
330
1
100
AcDbSymbolTableRecord
100
AcDbBlockTableRecord
  2
TB8
340
0
102
{BLKREFS
331
54E
331
54F
331
550
331
551
331
552
331
553
331
388
331
41F
331
420
331
27A
331
149
331
152
331
153
102
}
1001
ACAD
1000
DesignCenter Data
1002
{
1070
     1
1070
     4
1002
}
  0
BLOCK_RECORD
  5
255
330
1
100
AcDbSymbolTableRecord
100
AcDbBlockTableRecord
  2
7mm部材エンボス4
340
0
102
{BLKREFS
331
1194
331
1195
331
11FA
331
11FB
331
1268
331
1269
102
}
1001
ACAD
1000
DesignCenter Data
1002
{
1070
     1
1070
     4
1002
}
  0
BLOCK_RECORD
  5
160
330
1
100
AcDbSymbolTableRecord
100
AcDbBlockTableRecord
  2
*D7
340
0
  0
BLOCK_RECORD
  5
170
330
1
100
AcDbSymbolTableRecord
100
AcDbBlockTableRecord
  2
*D8
340
0
  0
BLOCK_RECORD
  5
18A
330
1
100
AcDbSymbolTableRecord
100
AcDbBlockTableRecord
  2
*D9
340
0
  0
BLOCK_RECORD
  5
197
330
1
100
AcDbSymbolTableRecord
100
AcDbBlockTableRecord
  2
*D10
340
0
  0
BLOCK_RECORD
  5
1AC
330
1
100
AcDbSymbolTableRecord
100
AcDbBlockTableRecord
  2
*D11
340
0
  0
BLOCK_RECORD
  5
1B9
330
1
100
AcDbSymbolTableRecord
100
AcDbBlockTableRecord
  2
*D12
340
0
  0
BLOCK_RECORD
  5
4FF
330
1
100
AcDbSymbolTableRecord
100
AcDbBlockTableRecord
  2
*D13
340
0
  0
BLOCK_RECORD
  5
555
330
1
100
AcDbSymbolTableRecord
100
AcDbBlockTableRecord
  2
*D14
340
0
  0
BLOCK_RECORD
  5
C71
330
1
100
AcDbSymbolTableRecord
100
AcDbBlockTableRecord
  2
*D15
340
0
  0
BLOCK_RECORD
  5
F3E
330
1
100
AcDbSymbolTableRecord
100
AcDbBlockTableRecord
  2
P-H65
340
0
102
{BLKREFS
331
F4C
331
F4D
102
}
  0
BLOCK_RECORD
  5
10A0
102
{ACAD_XDICTIONARY
360
10A4
102
}
330
1
100
AcDbSymbolTableRecord
100
AcDbBlockTableRecord
  2
鎌下
340
0
102
{BLKREFS
331
10A7
102
}
1001
ACAD
1000
DesignCenter Data
1002
{
1070
     1
1070
     4
1002
}
  0
BLOCK_RECORD
  5
115D
102
{ACAD_REACTORS
330
117E
102
}
330
1
100
AcDbSymbolTableRecord
100
AcDbBlockTableRecord
  2
*U29
340
0
102
{BLKREFS
331
1182
331
1183
331
1184
331
1185
331
1186
331
1187
331
1188
331
1189
331
118A
331
118B
331
118C
331
118D
102
}
  0
BLOCK_RECORD
  5
1160
102
{ACAD_XDICTIONARY
360
139F
102
}
102
{ACAD_REACTORS
330
117D
102
}
330
1
100
AcDbSymbolTableRecord
100
AcDbBlockTableRecord
  2
*U30
340
0
102
{BLKREFS
331
1163
102
}
  0
BLOCK_RECORD
  5
125D
102
{ACAD_REACTORS
330
12DD
102
}
330
1
100
AcDbSymbolTableRecord
100
AcDbBlockTableRecord
  2
*U31
340
0
102
{BLKREFS
331
12E1
331
12E2
331
12E3
331
12E4
331
12E5
331
12E6
331
12E7
331
12E8
331
12E9
331
12EA
331
12EB
331
12EC
331
12ED
102
}
  0
BLOCK_RECORD
  5
1260
102
{ACAD_XDICTIONARY
360
13A2
102
}
102
{ACAD_REACTORS
330
12DC
102
}
330
1
100
AcDbSymbolTableRecord
100
AcDbBlockTableRecord
  2
*U32
340
0
102
{BLKREFS
331
1263
102
}
  0
ENDTAB
  0
ENDSEC
  0
SECTION
  2
BLOCKS
  0
BLOCK
  5
51C
330
2
100
AcDbEntity
  8
0
100
AcDbBlockBegin
  2
*Model_Space
 70
     0
 10
0.0
 20
0.0
 30
0.0
  3
*Model_Space
  1

  0
ENDBLK
  5
51D
330
2
100
AcDbEntity
  8
0
100
AcDbBlockEnd
  0
BLOCK
  5
523
330
520
100
AcDbEntity
 67
     1
  8
0
100
AcDbBlockBegin
  2
*Paper_Space
 70
     0
 10
0.0
 20
0.0
 30
0.0
  3
*Paper_Space
  1

  0
ENDBLK
  5
524
330
520
100
AcDbEntity
 67
     1
  8
0
100
AcDbBlockEnd
  0
BLOCK
  5
529
330
526
100
AcDbEntity
 67
     1
  8
0
100
AcDbBlockBegin
  2
*Paper_Space0
 70
     0
 10
0.0
 20
0.0
 30
0.0
  3
*Paper_Space0
  1

  0
ENDBLK
  5
52A
330
526
100
AcDbEntity
 67
     1
  8
0
100
AcDbBlockEnd
  0
BLOCK
  5
159
330
155
100
AcDbEntity
  8
0
100
AcDbBlockBegin
  2
_Open30
 70
     0
 10
0.0
 20
0.0
 30
0.0
  3
_Open30
  1

  0
LINE
  5
156
330
155
100
AcDbEntity
  8
0
  6
ByBlock
 62
     0
370
    -2
100
AcDbLine
 10
-1.0
 20
0.26794919
 30
0.0
 11
0.0
 21
0.0
 31
0.0
  0
LINE
  5
157
330
155
100
AcDbEntity
  8
0
  6
ByBlock
 62
     0
370
    -2
100
AcDbLine
 10
0.0
 20
0.0
 30
0.0
 11
-1.0
 21
-0.26794919
 31
0.0
  0
LINE
  5
158
330
155
100
AcDbEntity
  8
0
  6
ByBlock
 62
     0
370
    -2
100
AcDbLine
 10
0.0
 20
0.0
 30
0.0
 11
-1.0
 21
0.0
 31
0.0
  0
ENDBLK
  5
15A
330
155
100
AcDbEntity
  8
0
100
AcDbBlockEnd
  0
BLOCK
  5
A9
330
65
100
AcDbEntity
  8
0
100
AcDbBlockBegin
  2
GIB詳細
 70
     0
 10
0.0
 20
0.0
 30
0.0
  3
GIB詳細
  1

  0
LINE
  5
66
330
65
100
AcDbEntity
  8
エンボス
  6
Continuous
370
     0
100
AcDbLine
 10
26.66967878750091
 20
-77.78386766485943
 30
0.0
 11
26.66967878750109
 21
-100.7518676648589
 31
0.0
  0
LINE
  5
68
330
65
100
AcDbEntity
  8
エンボス
  6
Continuous
370
     0
100
AcDbLine
 10
20.62167878750051
 20
-97.43986766485926
 30
0.0
 11
20.62167878750057
 21
-100.7518676648589
 31
0.0
  0
LINE
  5
69
330
65
100
AcDbEntity
  8
本体
370
     0
100
AcDbLine
 10
37.90167878750151
 20
79.24813233514118
 30
0.0
 11
37.90167878750151
 21
-100.7518676648589
 31
0.0
  0
LINE
  5
6B
330
65
100
AcDbEntity
  8
エンボス
370
     0
100
AcDbLine
 10
26.66967878750091
 20
38.64013233514075
 30
0.0
 11
26.66967878750091
 21
12.93613233514055
 31
0.0
  0
LINE
  5
6C
330
65
100
AcDbEntity
  8
エンボス
370
     0
100
AcDbLine
 10
26.66967878750091
 20
40.15213233514034
 30
0.0
 11
26.66967878750091
 21
12.93613233514055
 31
0.0
  0
LINE
  5
6D
330
65
100
AcDbEntity
  8
エンボス
370
     0
100
AcDbLine
 10
20.62167878750051
 20
59.80813233514115
 30
0.0
 11
20.62167878750051
 21
32.59213233514036
 31
0.0
  0
LINE
  5
6E
330
65
100
AcDbEntity
  8
エンボス
  6
Continuous
370
     0
100
AcDbLine
 10
8.525678787500737
 20
26.54413233514095
 30
0.0
 11
20.62167878750051
 21
20.49613233514056
 31
0.0
  0
LINE
  5
6F
330
65
100
AcDbEntity
  8
エンボス
  6
Continuous
370
     0
100
AcDbLine
 10
8.525678787500737
 20
26.54413233514095
 30
0.0
 11
20.62167878750051
 21
32.59213233514036
 31
0.0
  0
LINE
  5
70
330
65
100
AcDbEntity
  8
エンボス
  6
Continuous
370
     0
100
AcDbLine
 10
8.525678787500737
 20
-91.39186766485886
 30
0.0
 11
20.62167878750051
 21
-85.34386766485942
 31
0.0
  0
LINE
  5
71
330
65
100
AcDbEntity
  8
エンボス
  6
Continuous
370
     0
100
AcDbLine
 10
8.525678787500737
 20
-91.39186766485886
 30
0.0
 11
20.62167878750051
 21
-97.43986766485926
 31
0.0
  0
LINE
  5
72
330
65
100
AcDbEntity
  8
エンボス
  6
Continuous
370
     0
100
AcDbLine
 10
8.525678787500737
 20
-52.07986766485925
 30
0.0
 11
20.62167878750051
 21
-58.12786766485965
 31
0.0
  0
LINE
  5
73
330
65
100
AcDbEntity
  8
エンボス
  6
Continuous
370
     0
100
AcDbLine
 10
8.525678787500737
 20
-52.07986766485925
 30
0.0
 11
20.62167878750051
 21
-46.03186766485886
 31
0.0
  0
LINE
  5
74
330
65
100
AcDbEntity
  8
エンボス
  6
Continuous
370
     0
100
AcDbLine
 10
8.525678787500737
 20
-12.76786766485964
 30
0.0
 11
20.62167878750051
 21
-6.719867664859251
 31
0.0
  0
LINE
  5
75
330
65
100
AcDbEntity
  8
エンボス
  6
Continuous
370
     0
100
AcDbLine
 10
8.525678787500737
 20
-12.76786766485964
 30
0.0
 11
20.62167878750051
 21
-18.81586766485905
 31
0.0
  0
LINE
  5
76
330
65
100
AcDbEntity
  8
エンボス
  6
Continuous
370
     0
100
AcDbLine
 10
38.76567878750075
 20
6.888132335141136
 30
0.0
 11
26.66967878750091
 21
12.93613233514055
 31
0.0
  0
LINE
  5
77
330
65
100
AcDbEntity
  8
エンボス
  6
Continuous
370
     0
100
AcDbLine
 10
38.76567878750075
 20
-32.42386766485945
 30
0.0
 11
26.66967878750091
 21
-26.37586766485906
 31
0.0
  0
LINE
  5
78
330
65
100
AcDbEntity
  8
エンボス
  6
Continuous
370
     0
100
AcDbLine
 10
38.76567878750075
 20
-32.42386766485945
 30
0.0
 11
26.66967878750091
 21
-26.37586766485906
 31
0.0
  0
LINE
  5
79
330
65
100
AcDbEntity
  8
エンボス
  6
Continuous
370
     0
100
AcDbLine
 10
38.76567878750075
 20
-71.73586766485906
 30
0.0
 11
26.66967878750091
 21
-77.78386766485943
 31
0.0
  0
LINE
  5
7A
330
65
100
AcDbEntity
  8
エンボス
  6
Continuous
370
     0
100
AcDbLine
 10
38.76567878750075
 20
-71.73586766485906
 30
0.0
 11
26.66967878750091
 21
-77.78386766485943
 31
0.0
  0
LINE
  5
7B
330
65
100
AcDbEntity
  8
エンボス
  6
Continuous
370
     0
100
AcDbLine
 10
38.76567878750075
 20
-71.73586766485906
 30
0.0
 11
26.66967878750091
 21
-77.78386766485943
 31
0.0
  0
LINE
  5
7C
330
65
100
AcDbEntity
  8
エンボス
  6
Continuous
370
     0
100
AcDbLine
 10
38.76567878750075
 20
-32.42386766485945
 30
0.0
 11
26.66967878750091
 21
-38.47186766485886
 31
0.0
  0
LINE
  5
7D
330
65
100
AcDbEntity
  8
エンボス
  6
Continuous
370
     0
100
AcDbLine
 10
38.76567878750075
 20
-32.42386766485945
 30
0.0
 11
26.66967878750091
 21
-38.47186766485886
 31
0.0
  0
LINE
  5
7E
330
65
100
AcDbEntity
  8
エンボス
  6
Continuous
370
     0
100
AcDbLine
 10
38.76567878750075
 20
-71.73586766485906
 30
0.0
 11
26.66967878750091
 21
-65.68786766485965
 31
0.0
  0
LINE
  5
7F
330
65
100
AcDbEntity
  8
エンボス
  6
Continuous
370
     0
100
AcDbLine
 10
38.76567878750075
 20
-71.73586766485906
 30
0.0
 11
26.66967878750091
 21
-65.68786766485965
 31
0.0
  0
LINE
  5
80
330
65
100
AcDbEntity
  8
エンボス
  6
Continuous
370
     0
100
AcDbLine
 10
38.76567878750075
 20
-71.73586766485906
 30
0.0
 11
26.66967878750091
 21
-65.68786766485965
 31
0.0
  0
LINE
  5
81
330
65
100
AcDbEntity
  8
エンボス
  6
Continuous
370
     0
100
AcDbLine
 10
26.66967878750091
 20
-38.47186766485886
 30
0.0
 11
26.66967878750091
 21
-65.68786766485965
 31
0.0
  0
LINE
  5
82
330
65
100
AcDbEntity
  8
エンボス
  6
Continuous
370
     0
100
AcDbLine
 10
26.66967878750091
 20
0.8401323351407512
 30
0.0
 11
26.66967878750091
 21
-26.37586766485906
 31
0.0
  0
LINE
  5
83
330
65
100
AcDbEntity
  8
エンボス
  6
Continuous
370
     0
100
AcDbLine
 10
20.62167878750051
 20
-18.81586766485905
 30
0.0
 11
20.62167878750051
 21
-46.03186766485886
 31
0.0
  0
LINE
  5
84
330
65
100
AcDbEntity
  8
エンボス
  6
Continuous
370
     0
100
AcDbLine
 10
20.62167878750051
 20
-58.12786766485965
 30
0.0
 11
20.62167878750051
 21
-85.34386766485942
 31
0.0
  0
LINE
  5
85
330
65
100
AcDbEntity
  8
エンボス
  6
Continuous
370
     0
100
AcDbLine
 10
20.62167878750051
 20
20.49613233514056
 30
0.0
 11
20.62167878750051
 21
-6.719867664859251
 31
0.0
  0
LINE
  5
86
330
65
100
AcDbEntity
  8
エンボス
  6
Continuous
370
     0
100
AcDbLine
 10
38.76567878750075
 20
6.888132335141136
 30
0.0
 11
26.66967878750091
 21
0.8401323351407512
 31
0.0
  0
LINE
  5
87
330
65
100
AcDbEntity
  8
エンボス
  6
Continuous
370
     0
100
AcDbLine
 10
8.525678787500737
 20
73.20013233514075
 30
0.0
 11
20.62167878750051
 21
79.24813233514118
 31
0.0
  0
LINE
  5
88
330
65
100
AcDbEntity
  8
エンボス
  6
Continuous
370
     0
100
AcDbLine
 10
8.525678787500737
 20
73.20013233514075
 30
0.0
 11
20.62167878750051
 21
59.80813233514115
 31
0.0
  0
LINE
  5
89
330
65
100
AcDbEntity
  8
エンボス
370
     0
100
AcDbLine
 10
26.66967878750091
 20
79.24813233514118
 30
0.0
 11
26.66967878750091
 21
52.24813233514115
 31
0.0
  0
LINE
  5
8A
330
65
100
AcDbEntity
  8
エンボス
  6
Continuous
370
     0
100
AcDbLine
 10
38.76567878750075
 20
46.20013233514074
 30
0.0
 11
26.66967878750091
 21
52.24813233514115
 31
0.0
  0
LINE
  5
8B
330
65
100
AcDbEntity
  8
エンボス
  6
Continuous
370
     0
100
AcDbLine
 10
38.76567878750075
 20
46.20013233514074
 30
0.0
 11
26.66967878750091
 21
40.15213233514034
 31
0.0
  0
LINE
  5
8C
330
65
100
AcDbEntity
  8
本体
370
     0
100
AcDbLine
 10
7.6616787875015
 20
79.24813233514118
 30
0.0
 11
7.6616787875015
 21
-100.7518676648589
 31
0.0
  0
MTEXT
  5
8D
330
65
100
AcDbEntity
  8
本体
  6
Continuous
370
     0
100
AcDbMText
 10
-96.91195000051369
 20
158.2682376554469
 30
0.0
 40
30.0
 41
252.8401
 71
     1
 72
     5
  1
GIB形状詳細
 73
     1
 44
1.0
1001
ACAD
1000
MTEXTBEGIN
1070
    73
1070
     1
1070
    44
1040
1.0
1070
    74
1070
     0
1000
MTEXTEND
  0
MTEXT
  5
8E
330
65
100
AcDbEntity
  8
寸法線
  6
Continuous
100
AcDbMText
 10
-147.3028652710904
 20
1772.180188660315
 30
0.0
 40
20.0
 41
17.2146
 71
     7
 72
     1
  1

 73
     1
 44
1.0
1001
ACAD
1000
MTEXTBEGIN
1070
    73
1070
     1
1070
    44
1040
1.0
1070
    74
1070
     0
1000
MTEXTEND
  0
MTEXT
  5
8F
330
65
100
AcDbEntity
  8
寸法線
  6
Continuous
100
AcDbMText
 10
125.7829597280838
 20
3773.683923873501
 30
0.0
 40
30.0
 41
17.2146
 71
     7
 72
     1
  1

 73
     1
 44
1.0
1001
ACAD
1000
MTEXTBEGIN
1070
    73
1070
     1
1070
    44
1040
1.0
1070
    74
1070
     0
1000
MTEXTEND
  0
MTEXT
  5
90
330
65
100
AcDbEntity
  8
寸法線
  6
Continuous
100
AcDbMText
 10
-609.4758544225992
 20
3746.116575025764
 30
0.0
 40
20.0
 41
17.2146
 71
     7
 72
     1
  1

 73
     1
 44
1.0
1001
ACAD
1000
MTEXTBEGIN
1070
    73
1070
     1
1070
    44
1040
1.0
1070
    74
1070
     0
1000
MTEXTEND
  0
MTEXT
  5
91
330
65
100
AcDbEntity
  8
寸法線
  6
Continuous
100
AcDbMText
 10
-147.3028652710904
 20
1754.680188660315
 30
0.0
 40
20.0
 41
17.2146
 71
     7
 72
     1
  1

 73
     1
 44
1.0
1001
ACAD
1000
MTEXTBEGIN
1070
    73
1070
     1
1070
    44
1040
1.0
1070
    74
1070
     0
1000
MTEXTEND
  0
MTEXT
  5
92
330
65
100
AcDbEntity
  8
寸法線
  6
Continuous
100
AcDbMText
 10
125.7829597280838
 20
3756.183923873501
 30
0.0
 40
30.0
 41
17.2146
 71
     7
 72
     1
  1

 73
     1
 44
1.0
1001
ACAD
1000
MTEXTBEGIN
1070
    73
1070
     1
1070
    44
1040
1.0
1070
    74
1070
     0
1000
MTEXTEND
  0
MTEXT
  5
93
330
65
100
AcDbEntity
  8
寸法線
  6
Continuous
100
AcDbMText
 10
-609.4758544225992
 20
3728.616575025763
 30
0.0
 40
20.0
 41
17.2146
 71
     7
 72
     1
  1

 73
     1
 44
1.0
1001
ACAD
1000
MTEXTBEGIN
1070
    73
1070
     1
1070
    44
1040
1.0
1070
    74
1070
     0
1000
MTEXTEND
  0
MTEXT
  5
94
330
65
100
AcDbEntity
  8
寸法線
  6
Continuous
100
AcDbMText
 10
-147.3028652710904
 20
1704.680188660315
 30
0.0
 40
20.0
 41
17.2146
 71
     7
 72
     1
  1

 73
     1
 44
1.0
1001
ACAD
1000
MTEXTBEGIN
1070
    73
1070
     1
1070
    44
1040
1.0
1070
    74
1070
     0
1000
MTEXTEND
  0
MTEXT
  5
95
330
65
100
AcDbEntity
  8
寸法線
  6
Continuous
100
AcDbMText
 10
125.7829597280838
 20
3706.183923873501
 30
0.0
 40
30.0
 41
17.2146
 71
     7
 72
     1
  1

 73
     1
 44
1.0
1001
ACAD
1000
MTEXTBEGIN
1070
    73
1070
     1
1070
    44
1040
1.0
1070
    74
1070
     0
1000
MTEXTEND
  0
MTEXT
  5
96
330
65
100
AcDbEntity
  8
寸法線
  6
Continuous
100
AcDbMText
 10
-609.4758544225992
 20
3678.616575025763
 30
0.0
 40
20.0
 41
17.2146
 71
     7
 72
     1
  1

 73
     1
 44
1.0
1001
ACAD
1000
MTEXTBEGIN
1070
    73
1070
     1
1070
    44
1040
1.0
1070
    74
1070
     0
1000
MTEXTEND
  0
MTEXT
  5
97
330
65
100
AcDbEntity
  8
寸法線
  6
Continuous
100
AcDbMText
 10
-147.3028652710904
 20
1654.680188660315
 30
0.0
 40
20.0
 41
17.2146
 71
     7
 72
     1
  1

 73
     1
 44
1.0
1001
ACAD
1000
MTEXTBEGIN
1070
    73
1070
     1
1070
    44
1040
1.0
1070
    74
1070
     0
1000
MTEXTEND
  0
MTEXT
  5
98
330
65
100
AcDbEntity
  8
寸法線
  6
Continuous
100
AcDbMText
 10
125.7829597280838
 20
3656.183923873501
 30
0.0
 40
30.0
 41
17.2146
 71
     7
 72
     1
  1

 73
     1
 44
1.0
1001
ACAD
1000
MTEXTBEGIN
1070
    73
1070
     1
1070
    44
1040
1.0
1070
    74
1070
     0
1000
MTEXTEND
  0
MTEXT
  5
99
330
65
100
AcDbEntity
  8
寸法線
  6
Continuous
100
AcDbMText
 10
-609.4758544225992
 20
3628.616575025763
 30
0.0
 40
20.0
 41
17.2146
 71
     7
 72
     1
  1

 73
     1
 44
1.0
1001
ACAD
1000
MTEXTBEGIN
1070
    73
1070
     1
1070
    44
1040
1.0
1070
    74
1070
     0
1000
MTEXTEND
  0
MTEXT
  5
9A
330
65
100
AcDbEntity
  8
寸法線
  6
Continuous
100
AcDbMText
 10
-147.3028652710904
 20
1604.680188660315
 30
0.0
 40
20.0
 41
17.2146
 71
     7
 72
     1
  1

 73
     1
 44
1.0
1001
ACAD
1000
MTEXTBEGIN
1070
    73
1070
     1
1070
    44
1040
1.0
1070
    74
1070
     0
1000
MTEXTEND
  0
MTEXT
  5
9B
330
65
100
AcDbEntity
  8
寸法線
  6
Continuous
100
AcDbMText
 10
125.7829597280838
 20
3606.183923873501
 30
0.0
 40
30.0
 41
17.2146
 71
     7
 72
     1
  1

 73
     1
 44
1.0
1001
ACAD
1000
MTEXTBEGIN
1070
    73
1070
     1
1070
    44
1040
1.0
1070
    74
1070
     0
1000
MTEXTEND
  0
MTEXT
  5
9C
330
65
100
AcDbEntity
  8
寸法線
  6
Continuous
100
AcDbMText
 10
-609.4758544225992
 20
3578.616575025763
 30
0.0
 40
20.0
 41
17.2146
 71
     7
 72
     1
  1

 73
     1
 44
1.0
1001
ACAD
1000
MTEXTBEGIN
1070
    73
1070
     1
1070
    44
1040
1.0
1070
    74
1070
     0
1000
MTEXTEND
  0
MTEXT
  5
9D
330
65
100
AcDbEntity
  8
寸法線
  6
Continuous
100
AcDbMText
 10
-147.3028652710904
 20
1554.680188660315
 30
0.0
 40
20.0
 41
17.2146
 71
     7
 72
     1
  1

 73
     1
 44
1.0
1001
ACAD
1000
MTEXTBEGIN
1070
    73
1070
     1
1070
    44
1040
1.0
1070
    74
1070
     0
1000
MTEXTEND
  0
MTEXT
  5
9E
330
65
100
AcDbEntity
  8
寸法線
  6
Continuous
100
AcDbMText
 10
125.7829597280838
 20
3556.183923873501
 30
0.0
 40
30.0
 41
17.2146
 71
     7
 72
     1
  1

 73
     1
 44
1.0
1001
ACAD
1000
MTEXTBEGIN
1070
    73
1070
     1
1070
    44
1040
1.0
1070
    74
1070
     0
1000
MTEXTEND
  0
MTEXT
  5
9F
330
65
100
AcDbEntity
  8
寸法線
  6
Continuous
100
AcDbMText
 10
-609.4758544225992
 20
3528.616575025763
 30
0.0
 40
20.0
 41
17.2146
 71
     7
 72
     1
  1

 73
     1
 44
1.0
1001
ACAD
1000
MTEXTBEGIN
1070
    73
1070
     1
1070
    44
1040
1.0
1070
    74
1070
     0
1000
MTEXTEND
  0
MTEXT
  5
A0
330
65
100
AcDbEntity
  8
寸法線
  6
Continuous
100
AcDbMText
 10
-147.3028652710904
 20
1504.680188660315
 30
0.0
 40
20.0
 41
17.2146
 71
     7
 72
     1
  1

 73
     1
 44
1.0
1001
ACAD
1000
MTEXTBEGIN
1070
    73
1070
     1
1070
    44
1040
1.0
1070
    74
1070
     0
1000
MTEXTEND
  0
MTEXT
  5
A1
330
65
100
AcDbEntity
  8
寸法線
  6
Continuous
100
AcDbMText
 10
125.7829597280838
 20
3506.183923873501
 30
0.0
 40
30.0
 41
17.2146
 71
     7
 72
     1
  1

 73
     1
 44
1.0
1001
ACAD
1000
MTEXTBEGIN
1070
    73
1070
     1
1070
    44
1040
1.0
1070
    74
1070
     0
1000
MTEXTEND
  0
MTEXT
  5
A2
330
65
100
AcDbEntity
  8
寸法線
  6
Continuous
100
AcDbMText
 10
-609.4758544225992
 20
3478.616575025763
 30
0.0
 40
20.0
 41
17.2146
 71
     7
 72
     1
  1

 73
     1
 44
1.0
1001
ACAD
1000
MTEXTBEGIN
1070
    73
1070
     1
1070
    44
1040
1.0
1070
    74
1070
     0
1000
MTEXTEND
  0
MTEXT
  5
A3
330
65
100
AcDbEntity
  8
寸法線
  6
Continuous
100
AcDbMText
 10
-147.3028652710904
 20
1454.680188660315
 30
0.0
 40
20.0
 41
17.2146
 71
     7
 72
     1
  1

 73
     1
 44
1.0
1001
ACAD
1000
MTEXTBEGIN
1070
    73
1070
     1
1070
    44
1040
1.0
1070
    74
1070
     0
1000
MTEXTEND
  0
MTEXT
  5
A4
330
65
100
AcDbEntity
  8
寸法線
  6
Continuous
100
AcDbMText
 10
125.7829597280838
 20
3456.183923873501
 30
0.0
 40
30.0
 41
17.2146
 71
     7
 72
     1
  1

 73
     1
 44
1.0
1001
ACAD
1000
MTEXTBEGIN
1070
    73
1070
     1
1070
    44
1040
1.0
1070
    74
1070
     0
1000
MTEXTEND
  0
MTEXT
  5
A5
330
65
100
AcDbEntity
  8
寸法線
  6
Continuous
100
AcDbMText
 10
-609.4758544225992
 20
3428.616575025763
 30
0.0
 40
20.0
 41
17.2146
 71
     7
 72
     1
  1

 73
     1
 44
1.0
1001
ACAD
1000
MTEXTBEGIN
1070
    73
1070
     1
1070
    44
1040
1.0
1070
    74
1070
     0
1000
MTEXTEND
  0
LWPOLYLINE
  5
A6
330
65
100
AcDbEntity
  8
本体
  6
Continuous
100
AcDbPolyline
 90
        4
 70
     1
 43
0.0
 10
-139.6145379512674
 20
168.6157088891093
 10
194.701175139303
 20
168.6157088891093
 10
194.701175139303
 20
-117.6274822929807
 10
-139.6145379512674
 20
-117.6274822929807
  0
HATCH
  5
A7
330
65
100
AcDbEntity
  8
エンボス
  6
Continuous
100
AcDbHatch
 10
0.0
 20
0.0
 30
0.0
210
0.0
220
0.0
230
1.0
  2
ANSI31
 70
     0
 71
     0
 91
        1
 92
        7
 72
     0
 73
     1
 93
       34
 10
26.66967878750092
 20
40.15213233514035
 10
37.90167878750151
 20
45.76813233514108
 10
37.90167878750151
 20
46.63213233514041
 10
26.66967878750092
 20
52.24813233514115
 10
26.66967878750091
 20
79.24813233514116
 10
20.62167878750047
 20
79.24813233514116
 10
8.525678787500744
 20
73.20013233514076
 10
20.62167878750051
 20
59.80813233514115
 10
20.62167878750051
 20
32.59213233514036
 10
8.525678787500737
 20
26.54413233514094
 10
20.62167878750051
 20
20.49613233514056
 10
20.62167878750051
 20
-6.719867664859251
 10
8.525678787500737
 20
-12.76786766485964
 10
20.62167878750051
 20
-18.81586766485905
 10
20.62167878750051
 20
-46.03186766485887
 10
8.525678787500737
 20
-52.07986766485925
 10
20.62167878750051
 20
-58.12786766485965
 10
20.62167878750051
 20
-85.34386766485944
 10
8.525678787500737
 20
-91.39186766485885
 10
20.62167878750051
 20
-97.43986766485924
 10
20.62167878750057
 20
-100.7518676648588
 10
26.66967878750109
 20
-100.7518676648589
 10
26.66967878750091
 20
-77.78386766485944
 10
37.90167878750151
 20
-72.16786766485872
 10
37.90167878750151
 20
-71.30386766485948
 10
26.66967878750091
 20
-65.68786766485963
 10
26.66967878750091
 20
-38.47186766485886
 10
37.90167878750151
 20
-32.85586766485902
 10
37.90167878750151
 20
-31.99186766485979
 10
26.66967878750091
 20
-26.37586766485906
 10
26.66967878750091
 20
0.8401323351407494
 10
37.90167878750151
 20
6.456132335141482
 10
37.90167878750151
 20
7.320132335140719
 10
26.66967878750091
 20
12.93613233514056
 97
        0
 75
     0
 76
     1
 52
0.0
 41
0.5
 77
     0
 78
     1
 53
45.0
 43
8.525678787500737
 44
-12.76786766485964
 45
-1.122532015133643
 46
1.122532015133644
 79
     0
 47
0.5074757335946297
 98
        1
 10
23.11907519037527
 20
30.63971558616095
  0
MTEXT
  5
A8
330
65
100
AcDbEntity
  8
本体
  6
Continuous
100
AcDbMText
 10
-79.8847425412946
 20
110.9530386434795
 30
0.0
 40
15.0
 41
230.6957
 71
     1
 72
     5
  1
※塗りつぶし部分突起
 73
     1
 44
1.0
1001
ACAD
1000
MTEXTBEGIN
1070
    73
1070
     1
1070
    44
1040
1.0
1070
    74
1070
     0
1000
MTEXTEND
  0
ENDBLK
  5
AA
330
65
100
AcDbEntity
  8
0
100
AcDbBlockEnd
  0
BLOCK
  5
150
330
14A
100
AcDbEntity
  8
0
100
AcDbBlockBegin
  2
TB8
 70
     0
 10
0.0
 20
0.0
 30
0.0
  3
TB8
  1

  0
MTEXT
  5
14B
330
14A
100
AcDbEntity
  8
寸法線
  6
Continuous
100
AcDbMText
 10
917.3216494432054
 20
235.349302881973
 30
0.0
 40
20.0
 41
17.2146
 71
     7
 72
     1
  1

 73
     1
 44
1.0
1001
ACAD
1000
MTEXTBEGIN
1070
    73
1070
     1
1070
    44
1040
1.0
1070
    74
1070
     0
1000
MTEXTEND
  0
LINE
  5
14C
330
14A
100
AcDbEntity
  8
本体
  6
CENTER
 62
     1
 48
0.3
100
AcDbLine
 10
10.0
 20
0.0
 30
0.0
 11
-2.0
 21
0.0
 31
0.0
  0
LINE
  5
14E
330
14A
100
AcDbEntity
  8
本体
  6
CENTER
 62
     1
 48
0.3
100
AcDbLine
 10
4.0
 20
6.0
 30
0.0
 11
4.0
 21
-6.0
 31
0.0
  0
CIRCLE
  5
14F
330
14A
100
AcDbEntity
  8
本体
  6
Continuous
 62
     0
100
AcDbCircle
 10
4.0
 20
0.0
 30
0.0
 40
4.0
  0
ENDBLK
  5
151
330
14A
100
AcDbEntity
  8
0
100
AcDbBlockEnd
  0
BLOCK
  5
25F
330
255
100
AcDbEntity
  8
0
100
AcDbBlockBegin
  2
7mm部材エンボス4
 70
     0
 10
0.0
 20
0.0
 30
0.0
  3
7mm部材エンボス4
  1

  0
MTEXT
  5
256
330
255
100
AcDbEntity
  8
寸法線
  6
Continuous
100
AcDbMText
 10
917.3216494432054
 20
235.349302881973
 30
0.0
 40
20.0
 41
17.2146
 71
     7
 72
     1
  1

 73
     1
 44
1.0
1001
ACAD
1000
MTEXTBEGIN
1070
    73
1070
     1
1070
    44
1040
1.0
1070
    74
1070
     0
1000
MTEXTEND
  0
MTEXT
  5
257
330
255
100
AcDbEntity
  8
0
100
AcDbMText
 10
2327.749997480685
 20
659.5642887207104
 30
0.0
 40
25.0
 41
224.7356
 71
     1
 72
     5
  1

 73
     1
 44
1.0
1001
ACAD
1000
MTEXTBEGIN
1070
    73
1070
     1
1070
    44
1040
1.0
1070
    74
1070
     0
1000
MTEXTEND
  0
MTEXT
  5
258
330
255
100
AcDbEntity
  8
0
100
AcDbMText
 10
2703.230485829543
 20
524.4532996843136
 30
0.0
 40
28.0
 41
603.8372
 71
     1
 72
     5
  1

 73
     1
 44
1.0
1001
ACAD
1000
MTEXTBEGIN
1070
    73
1070
     1
1070
    44
1040
1.0
1070
    74
1070
     0
1000
MTEXTEND
  0
LINE
  5
259
330
255
100
AcDbEntity
  8
0
  6
Continuous
100
AcDbLine
 10
7.000000000000001
 20
15.300094
 30
0.0
 11
0.0
 21
13.300094
 31
0.0
  0
LINE
  5
25A
330
255
100
AcDbEntity
  8
0
  6
Continuous
100
AcDbLine
 10
0.0
 20
20.300094
 30
0.0
 11
7.000000000000001
 21
18.300094
 31
0.0
  0
LINE
  5
25B
330
255
100
AcDbEntity
  8
0
  6
Continuous
100
AcDbLine
 10
-0.0000000000000018
 20
32.30009400000005
 30
0.0
 11
7.0
 21
34.30009400000005
 31
0.0
  0
LINE
  5
25C
330
255
100
AcDbEntity
  8
0
  6
Continuous
100
AcDbLine
 10
7.0
 20
27.30009400000003
 30
0.0
 11
-0.0000000000000018
 21
29.30009400000005
 31
0.0
  0
LINE
  5
25D
330
255
100
AcDbEntity
  8
0
  6
Continuous
100
AcDbLine
 10
0.0000000000000009
 20
48.300094
 30
0.0
 11
7.000000000000003
 21
46.300094
 31
0.0
  0
LINE
  5
25E
330
255
100
AcDbEntity
  8
0
  6
Continuous
100
AcDbLine
 10
7.000000000000003
 20
43.300094
 30
0.0
 11
0.0000000000000009
 21
41.300094
 31
0.0
  0
ENDBLK
  5
260
330
255
100
AcDbEntity
  8
0
100
AcDbBlockEnd
  0
BLOCK
  5
16D
330
160
100
AcDbEntity
  8
0
 48
3.0
100
AcDbBlockBegin
  2
*D7
 70
     1
 10
0.0
 20
0.0
 30
0.0
  3
*D7
  1

  0
LINE
  5
12F3
330
160
100
AcDbEntity
  8
寸法線
  6
Continuous
 62
     0
370
    -2
100
AcDbLine
 10
824.4072992397217
 20
593.7222047001455
 30
0.0
 11
824.4072992397217
 21
668.7222047001455
 31
0.0
  0
LINE
  5
12F4
330
160
100
AcDbEntity
  8
寸法線
  6
Continuous
 62
     0
370
    -2
100
AcDbLine
 10
859.7072992397215
 20
593.7222047001455
 30
0.0
 11
859.7072992397215
 21
668.7222047001455
 31
0.0
  0
LINE
  5
12F5
330
160
100
AcDbEntity
  8
寸法線
  6
Continuous
 62
     0
370
    -2
100
AcDbLine
 10
809.4072992397219
 20
653.7222047001455
 30
0.0
 11
794.4072992397218
 21
653.7222047001455
 31
0.0
  0
LINE
  5
12F6
330
160
100
AcDbEntity
  8
寸法線
  6
Continuous
 62
     0
370
    -2
100
AcDbLine
 10
874.7072992397216
 20
653.7222047001455
 30
0.0
 11
973.7174515239855
 21
653.7222047001455
 31
0.0
  0
LINE
  5
12F7
330
160
100
AcDbEntity
  8
寸法線
  6
Continuous
 62
     0
370
    -2
100
AcDbLine
 10
824.4072992397217
 20
653.7222047001455
 30
0.0
 11
859.7072992397215
 21
653.7222047001455
 31
0.0
  0
INSERT
  5
12F8
330
160
100
AcDbEntity
  8
寸法線
  6
Continuous
 62
     0
370
    -2
100
AcDbBlockReference
  2
_Open30
 10
824.4072992397217
 20
653.7222047001455
 30
0.0
 41
15.0
 42
15.0
 43
15.0
  0
INSERT
  5
12F9
330
160
100
AcDbEntity
  8
寸法線
  6
Continuous
 62
     0
370
    -2
100
AcDbBlockReference
  2
_Open30
 10
859.7072992397215
 20
653.7222047001455
 30
0.0
 41
15.0
 42
15.0
 43
15.0
 50
180.0
  0
MTEXT
  5
12FA
330
160
100
AcDbEntity
  8
寸法線
  6
Continuous
 62
     0
100
AcDbMText
 10
931.7123753818535
 20
673.7222047001455
 30
0.0
 40
30.0
 41
0.0
 71
     5
 72
     1
  1
35.3
 73
     1
 44
1.0
1001
ACAD
1000
MTEXTBEGIN
1070
    73
1070
     1
1070
    44
1040
1.0
1070
    74
1070
     0
1000
MTEXTEND
  0
POINT
  5
12FB
330
160
100
AcDbEntity
  8
Defpoints
  6
Continuous
 62
     0
100
AcDbPoint
 10
824.4072992397217
 20
573.7222047001455
 30
0.0
  0
POINT
  5
12FC
330
160
100
AcDbEntity
  8
Defpoints
  6
Continuous
 62
     0
100
AcDbPoint
 10
859.7072992397215
 20
573.7222047001455
 30
0.0
  0
POINT
  5
12FD
330
160
100
AcDbEntity
  8
Defpoints
  6
Continuous
 62
     0
100
AcDbPoint
 10
859.7072992397215
 20
653.7222047001455
 30
0.0
  0
ENDBLK
  5
16E
330
160
100
AcDbEntity
  8
0
 48
3.0
100
AcDbBlockEnd
  0
BLOCK
  5
17A
330
170
100
AcDbEntity
  8
0
 48
3.0
100
AcDbBlockBegin
  2
*D8
 70
     1
 10
0.0
 20
0.0
 30
0.0
  3
*D8
  1

  0
LINE
  5
12FE
330
170
100
AcDbEntity
  8
寸法線
  6
Continuous
 62
     0
370
    -2
100
AcDbLine
 10
503.2072992397216
 20
593.3462629763333
 30
0.0
 11
503.2072992397216
 21
748.7222047001455
 31
0.0
  0
LINE
  5
12FF
330
170
100
AcDbEntity
  8
寸法線
  6
Continuous
 62
     0
370
    -2
100
AcDbLine
 10
998.2072992397215
 20
593.3462629763333
 30
0.0
 11
998.2072992397215
 21
748.7222047001455
 31
0.0
  0
LINE
  5
1300
330
170
100
AcDbEntity
  8
寸法線
  6
Continuous
 62
     0
370
    -2
100
AcDbLine
 10
518.2072992397215
 20
733.7222047001455
 30
0.0
 11
983.2072992397215
 21
733.7222047001455
 31
0.0
  0
INSERT
  5
1301
330
170
100
AcDbEntity
  8
寸法線
  6
Continuous
 62
     0
370
    -2
100
AcDbBlockReference
  2
_Open30
 10
503.2072992397216
 20
733.7222047001455
 30
0.0
 41
15.0
 42
15.0
 43
15.0
 50
180.0
  0
INSERT
  5
1302
330
170
100
AcDbEntity
  8
寸法線
  6
Continuous
 62
     0
370
    -2
100
AcDbBlockReference
  2
_Open30
 10
998.2072992397215
 20
733.7222047001455
 30
0.0
 41
15.0
 42
15.0
 43
15.0
  0
MTEXT
  5
1303
330
170
100
AcDbEntity
  8
寸法線
  6
Continuous
 62
     0
100
AcDbMText
 10
750.7072992397215
 20
753.7222047001455
 30
0.0
 40
30.0
 41
0.0
 71
     5
 72
     1
  1
495
 73
     1
 44
1.0
1001
ACAD
1000
MTEXTBEGIN
1070
    73
1070
     1
1070
    44
1040
1.0
1070
    74
1070
     0
1000
MTEXTEND
  0
POINT
  5
1304
330
170
100
AcDbEntity
  8
Defpoints
  6
Continuous
 62
     0
100
AcDbPoint
 10
503.2072992397216
 20
573.3462629763334
 30
0.0
  0
POINT
  5
1305
330
170
100
AcDbEntity
  8
Defpoints
  6
Continuous
 62
     0
100
AcDbPoint
 10
998.2072992397215
 20
573.3462629763334
 30
0.0
  0
POINT
  5
1306
330
170
100
AcDbEntity
  8
Defpoints
  6
Continuous
 62
     0
100
AcDbPoint
 10
998.2072992397215
 20
733.7222047001455
 30
0.0
  0
ENDBLK
  5
17B
330
170
100
AcDbEntity
  8
0
 48
3.0
100
AcDbBlockEnd
  0
BLOCK
  5
194
330
18A
100
AcDbEntity
  8
0
 48
3.0
100
AcDbBlockBegin
  2
*D9
 70
     1
 10
0.0
 20
0.0
 30
0.0
  3
*D9
  1

  0
LINE
  5
F6A
330
18A
100
AcDbEntity
  8
寸法線
  6
Continuous
 62
     0
 48
3.0
370
    -2
100
AcDbLine
 10
1808.517769740055
 20
1697.142635905382
 30
0.0
 11
1653.517769740055
 21
1697.142635905382
 31
0.0
  0
LINE
  5
F6B
330
18A
100
AcDbEntity
  8
寸法線
  6
Continuous
 62
     0
 48
3.0
370
    -2
100
AcDbLine
 10
1808.517769740055
 20
1002.142635905382
 30
0.0
 11
1653.517769740055
 21
1002.142635905382
 31
0.0
  0
LINE
  5
F6C
330
18A
100
AcDbEntity
  8
寸法線
  6
Continuous
 62
     0
 48
3.0
370
    -2
100
AcDbLine
 10
1668.517769740055
 20
1682.142635905383
 30
0.0
 11
1668.517769740055
 21
1017.142635905383
 31
0.0
  0
INSERT
  5
F6D
330
18A
100
AcDbEntity
  8
寸法線
  6
Continuous
 62
     0
 48
3.0
370
    -2
100
AcDbBlockReference
  2
_Open30
 10
1668.517769740055
 20
1697.142635905382
 30
0.0
 41
15.0
 42
15.0
 43
15.0
 50
90.0
  0
INSERT
  5
F6E
330
18A
100
AcDbEntity
  8
寸法線
  6
Continuous
 62
     0
 48
3.0
370
    -2
100
AcDbBlockReference
  2
_Open30
 10
1668.517769740055
 20
1002.142635905382
 30
0.0
 41
15.0
 42
15.0
 43
15.0
 50
270.0
  0
MTEXT
  5
F6F
330
18A
100
AcDbEntity
  8
寸法線
  6
Continuous
 62
     0
 48
3.0
100
AcDbMText
 10
1648.517769740054
 20
1349.642635905383
 30
0.0
 40
30.0
 41
0.0
 71
     5
 72
     1
  1
695
 11
0.0000000000000001
 21
1.0
 31
0.0
 73
     1
 44
1.0
1001
ACAD
1000
MTEXTBEGIN
1070
    73
1070
     1
1070
    44
1040
1.0
1070
    74
1070
     0
1000
MTEXTEND
  0
POINT
  5
F70
330
18A
100
AcDbEntity
  8
Defpoints
  6
Continuous
 62
     0
 48
3.0
100
AcDbPoint
 10
1828.517769740055
 20
1697.142635905382
 30
0.0
  0
POINT
  5
F71
330
18A
100
AcDbEntity
  8
Defpoints
  6
Continuous
 62
     0
 48
3.0
100
AcDbPoint
 10
1828.517769740055
 20
1002.142635905382
 30
0.0
  0
POINT
  5
F72
330
18A
100
AcDbEntity
  8
Defpoints
  6
Continuous
 62
     0
 48
3.0
100
AcDbPoint
 10
1668.517769740055
 20
1002.142635905382
 30
0.0
  0
ENDBLK
  5
195
330
18A
100
AcDbEntity
  8
0
 48
3.0
100
AcDbBlockEnd
  0
BLOCK
  5
1A1
330
197
100
AcDbEntity
  8
0
 48
3.0
100
AcDbBlockBegin
  2
*D10
 70
     1
 10
0.0
 20
0.0
 30
0.0
  3
*D10
  1

  0
LINE
  5
F73
330
197
100
AcDbEntity
  8
寸法線
  6
Continuous
 62
     0
 48
3.0
370
    -2
100
AcDbLine
 10
1985.517766740055
 20
1687.142636905383
 30
0.0
 11
2063.518688247932
 21
1687.142636905383
 31
0.0
  0
LINE
  5
F74
330
197
100
AcDbEntity
  8
寸法線
  6
Continuous
 62
     0
 48
3.0
370
    -2
100
AcDbLine
 10
1985.517766740055
 20
1012.142634905382
 30
0.0
 11
2063.518688247931
 21
1012.142634905382
 31
0.0
  0
LINE
  5
F75
330
197
100
AcDbEntity
  8
寸法線
  6
Continuous
 62
     0
 48
3.0
370
    -2
100
AcDbLine
 10
2048.518688247932
 20
1672.142636905382
 30
0.0
 11
2048.518688247932
 21
1027.142634905382
 31
0.0
  0
INSERT
  5
F76
330
197
100
AcDbEntity
  8
寸法線
  6
Continuous
 62
     0
 48
3.0
370
    -2
100
AcDbBlockReference
  2
_Open30
 10
2048.518688247932
 20
1687.142636905383
 30
0.0
 41
15.0
 42
15.0
 43
15.0
 50
90.0
  0
INSERT
  5
F77
330
197
100
AcDbEntity
  8
寸法線
  6
Continuous
 62
     0
 48
3.0
370
    -2
100
AcDbBlockReference
  2
_Open30
 10
2048.518688247931
 20
1012.142634905382
 30
0.0
 41
15.0
 42
15.0
 43
15.0
 50
270.0
  0
MTEXT
  5
F78
330
197
100
AcDbEntity
  8
寸法線
  6
Continuous
 62
     0
 48
3.0
100
AcDbMText
 10
2028.518688247931
 20
1349.642635905383
 30
0.0
 40
30.0
 41
0.0
 71
     5
 72
     1
  1
675
 11
0.0000000000000001
 21
1.0
 31
0.0
 73
     1
 44
1.0
1001
ACAD
1000
MTEXTBEGIN
1070
    73
1070
     1
1070
    44
1040
1.0
1070
    74
1070
     0
1000
MTEXTEND
  0
POINT
  5
F79
330
197
100
AcDbEntity
  8
Defpoints
  6
Continuous
 62
     0
 48
3.0
100
AcDbPoint
 10
1965.517766740054
 20
1687.142636905383
 30
0.0
  0
POINT
  5
F7A
330
197
100
AcDbEntity
  8
Defpoints
  6
Continuous
 62
     0
 48
3.0
100
AcDbPoint
 10
1965.517766740054
 20
1012.142634905382
 30
0.0
  0
POINT
  5
F7B
330
197
100
AcDbEntity
  8
Defpoints
  6
Continuous
 62
     0
 48
3.0
100
AcDbPoint
 10
2048.518688247931
 20
1012.142634905382
 30
0.0
  0
ENDBLK
  5
1A2
330
197
100
AcDbEntity
  8
0
 48
3.0
100
AcDbBlockEnd
  0
BLOCK
  5
1B6
330
1AC
100
AcDbEntity
  8
0
 48
3.0
100
AcDbBlockBegin
  2
*D11
 70
     1
 10
0.0
 20
0.0
 30
0.0
  3
*D11
  1

  0
LINE
  5
FC9
330
1AC
100
AcDbEntity
  8
寸法線
  6
Continuous
 62
     0
 48
3.0
370
    -2
100
AcDbLine
 10
1010.707299239721
 20
498.7222047001455
 30
0.0
 11
1115.471923163486
 21
498.7222047001455
 31
0.0
  0
LINE
  5
FCA
330
1AC
100
AcDbEntity
  8
寸法線
  6
Continuous
 62
     0
 48
3.0
370
    -2
100
AcDbLine
 10
1015.207299239721
 20
573.7222047001455
 30
0.0
 11
1115.471923163486
 21
573.7222047001455
 31
0.0
  0
LINE
  5
FCB
330
1AC
100
AcDbEntity
  8
寸法線
  6
Continuous
 62
     0
 48
3.0
370
    -2
100
AcDbLine
 10
1100.471923163486
 20
513.7222047001455
 30
0.0
 11
1100.471923163486
 21
558.7222047001455
 31
0.0
  0
INSERT
  5
FCC
330
1AC
100
AcDbEntity
  8
寸法線
  6
Continuous
 62
     0
 48
3.0
370
    -2
100
AcDbBlockReference
  2
_Open30
 10
1100.471923163486
 20
498.7222047001455
 30
0.0
 41
15.0
 42
15.0
 43
15.0
 50
270.0
  0
INSERT
  5
FCD
330
1AC
100
AcDbEntity
  8
寸法線
  6
Continuous
 62
     0
 48
3.0
370
    -2
100
AcDbBlockReference
  2
_Open30
 10
1100.471923163486
 20
573.7222047001455
 30
0.0
 41
15.0
 42
15.0
 43
15.0
 50
90.0
  0
MTEXT
  5
FCE
330
1AC
100
AcDbEntity
  8
寸法線
  6
Continuous
 62
     0
 48
3.0
100
AcDbMText
 10
1080.471923163486
 20
536.2222047001456
 30
0.0
 40
30.0
 41
0.0
 71
     5
 72
     1
  1
75
 11
0.0000000000000001
 21
1.0
 31
0.0
 73
     1
 44
1.0
1001
ACAD
1000
MTEXTBEGIN
1070
    73
1070
     1
1070
    44
1040
1.0
1070
    74
1070
     0
1000
MTEXTEND
  0
POINT
  5
FCF
330
1AC
100
AcDbEntity
  8
Defpoints
  6
Continuous
 62
     0
 48
3.0
100
AcDbPoint
 10
990.7072992397216
 20
498.7222047001455
 30
0.0
  0
POINT
  5
FD0
330
1AC
100
AcDbEntity
  8
Defpoints
  6
Continuous
 62
     0
 48
3.0
100
AcDbPoint
 10
995.2072992397216
 20
573.7222047001455
 30
0.0
  0
POINT
  5
FD1
330
1AC
100
AcDbEntity
  8
Defpoints
  6
Continuous
 62
     0
 48
3.0
100
AcDbPoint
 10
1100.471923163486
 20
573.7222047001455
 30
0.0
  0
ENDBLK
  5
1B7
330
1AC
100
AcDbEntity
  8
0
 48
3.0
100
AcDbBlockEnd
  0
BLOCK
  5
1C3
330
1B9
100
AcDbEntity
  8
0
 48
3.0
100
AcDbBlockBegin
  2
*D12
 70
     1
 10
0.0
 20
0.0
 30
0.0
  3
*D12
  1

  0
LINE
  5
FB7
330
1B9
100
AcDbEntity
  8
寸法線
  6
Continuous
 62
     0
 48
3.0
370
    -2
100
AcDbLine
 10
1010.707299239721
 20
433.7222047001455
 30
0.0
 11
1213.744045929198
 21
433.7222047001454
 31
0.0
  0
LINE
  5
FB8
330
1B9
100
AcDbEntity
  8
寸法線
  6
Continuous
 62
     0
 48
3.0
370
    -2
100
AcDbLine
 10
1015.207299239721
 20
573.7222047001455
 30
0.0
 11
1213.744045929198
 21
573.7222047001455
 31
0.0
  0
LINE
  5
FB9
330
1B9
100
AcDbEntity
  8
寸法線
  6
Continuous
 62
     0
 48
3.0
370
    -2
100
AcDbLine
 10
1198.744045929198
 20
448.7222047001455
 30
0.0
 11
1198.744045929198
 21
558.7222047001455
 31
0.0
  0
INSERT
  5
FBA
330
1B9
100
AcDbEntity
  8
寸法線
  6
Continuous
 62
     0
 48
3.0
370
    -2
100
AcDbBlockReference
  2
_Open30
 10
1198.744045929198
 20
433.7222047001454
 30
0.0
 41
15.0
 42
15.0
 43
15.0
 50
270.0
  0
INSERT
  5
FBB
330
1B9
100
AcDbEntity
  8
寸法線
  6
Continuous
 62
     0
 48
3.0
370
    -2
100
AcDbBlockReference
  2
_Open30
 10
1198.744045929198
 20
573.7222047001455
 30
0.0
 41
15.0
 42
15.0
 43
15.0
 50
90.0
  0
MTEXT
  5
FBC
330
1B9
100
AcDbEntity
  8
寸法線
  6
Continuous
 62
     0
 48
3.0
100
AcDbMText
 10
1178.744045929198
 20
503.7222047001456
 30
0.0
 40
30.0
 41
0.0
 71
     5
 72
     1
  1
140
 11
0.0000000000000001
 21
1.0
 31
0.0
 73
     1
 44
1.0
1001
ACAD
1000
MTEXTBEGIN
1070
    73
1070
     1
1070
    44
1040
1.0
1070
    74
1070
     0
1000
MTEXTEND
  0
POINT
  5
FBD
330
1B9
100
AcDbEntity
  8
Defpoints
  6
Continuous
 62
     0
 48
3.0
100
AcDbPoint
 10
990.7072992397216
 20
433.7222047001455
 30
0.0
  0
POINT
  5
FBE
330
1B9
100
AcDbEntity
  8
Defpoints
  6
Continuous
 62
     0
 48
3.0
100
AcDbPoint
 10
995.2072992397216
 20
573.7222047001455
 30
0.0
  0
POINT
  5
FBF
330
1B9
100
AcDbEntity
  8
Defpoints
  6
Continuous
 62
     0
 48
3.0
100
AcDbPoint
 10
1198.744045929198
 20
573.7222047001455
 30
0.0
  0
ENDBLK
  5
1C4
330
1B9
100
AcDbEntity
  8
0
 48
3.0
100
AcDbBlockEnd
  0
BLOCK
  5
509
330
4FF
100
AcDbEntity
  8
0
 48
3.0
100
AcDbBlockBegin
  2
*D13
 70
     1
 10
0.0
 20
0.0
 30
0.0
  3
*D13
  1

  0
LINE
  5
F9A
330
4FF
100
AcDbEntity
  8
寸法線
  6
Continuous
 62
     0
 48
3.0
370
    -2
100
AcDbLine
 10
988.2072992397215
 20
413.7222047001455
 30
0.0
 11
988.2072992397215
 21
338.7222047001456
 31
0.0
  0
LINE
  5
F9B
330
4FF
100
AcDbEntity
  8
寸法線
  6
Continuous
 62
     0
 48
3.0
370
    -2
100
AcDbLine
 10
513.2072992397215
 20
413.7222047001455
 30
0.0
 11
513.2072992397215
 21
338.7222047001456
 31
0.0
  0
LINE
  5
F9C
330
4FF
100
AcDbEntity
  8
寸法線
  6
Continuous
 62
     0
 48
3.0
370
    -2
100
AcDbLine
 10
973.2072992397215
 20
353.7222047001455
 30
0.0
 11
528.2072992397216
 21
353.7222047001455
 31
0.0
  0
INSERT
  5
F9D
330
4FF
100
AcDbEntity
  8
寸法線
  6
Continuous
 62
     0
 48
3.0
370
    -2
100
AcDbBlockReference
  2
_Open30
 10
988.2072992397215
 20
353.7222047001455
 30
0.0
 41
15.0
 42
15.0
 43
15.0
  0
INSERT
  5
F9E
330
4FF
100
AcDbEntity
  8
寸法線
  6
Continuous
 62
     0
 48
3.0
370
    -2
100
AcDbBlockReference
  2
_Open30
 10
513.2072992397215
 20
353.7222047001455
 30
0.0
 41
15.0
 42
15.0
 43
15.0
 50
180.0
  0
MTEXT
  5
F9F
330
4FF
100
AcDbEntity
  8
寸法線
  6
Continuous
 62
     0
 48
3.0
100
AcDbMText
 10
750.7072992397215
 20
373.7222047001456
 30
0.0
 40
30.0
 41
0.0
 71
     5
 72
     1
  1
475
 73
     1
 44
1.0
1001
ACAD
1000
MTEXTBEGIN
1070
    73
1070
     1
1070
    44
1040
1.0
1070
    74
1070
     0
1000
MTEXTEND
  0
POINT
  5
FA0
330
4FF
100
AcDbEntity
  8
Defpoints
  6
Continuous
 62
     0
 48
3.0
100
AcDbPoint
 10
988.2072992397215
 20
433.7222047001455
 30
0.0
  0
POINT
  5
FA1
330
4FF
100
AcDbEntity
  8
Defpoints
  6
Continuous
 62
     0
 48
3.0
100
AcDbPoint
 10
513.2072992397215
 20
433.7222047001455
 30
0.0
  0
POINT
  5
FA2
330
4FF
100
AcDbEntity
  8
Defpoints
  6
Continuous
 62
     0
 48
3.0
100
AcDbPoint
 10
513.2072992397215
 20
353.7222047001455
 30
0.0
  0
ENDBLK
  5
50A
330
4FF
100
AcDbEntity
  8
0
 48
3.0
100
AcDbBlockEnd
  0
BLOCK
  5
55F
330
555
100
AcDbEntity
  8
0
 48
3.0
100
AcDbBlockBegin
  2
*D14
 70
     1
 10
0.0
 20
0.0
 30
0.0
  3
*D14
  1

  0
LINE
  5
F61
330
555
100
AcDbEntity
  8
寸法線
 62
     0
 48
3.0
370
    -2
100
AcDbLine
 10
1806.517769740055
 20
1649.642635905382
 30
0.0
 11
1733.517769740055
 21
1649.642635905382
 31
0.0
  0
LINE
  5
F62
330
555
100
AcDbEntity
  8
寸法線
 62
     0
 48
3.0
370
    -2
100
AcDbLine
 10
1806.517769740055
 20
1599.642635905382
 30
0.0
 11
1733.517769740055
 21
1599.642635905382
 31
0.0
  0
LINE
  5
F63
330
555
100
AcDbEntity
  8
寸法線
 62
     0
 48
3.0
370
    -2
100
AcDbLine
 10
1748.517769740055
 20
1634.642635905382
 30
0.0
 11
1748.517769740055
 21
1614.642635905382
 31
0.0
  0
INSERT
  5
F64
330
555
100
AcDbEntity
  8
寸法線
 62
     0
 48
3.0
370
    -2
100
AcDbBlockReference
  2
_Open30
 10
1748.517769740055
 20
1649.642635905382
 30
0.0
 41
15.0
 42
15.0
 43
15.0
 50
90.0
  0
INSERT
  5
F65
330
555
100
AcDbEntity
  8
寸法線
 62
     0
 48
3.0
370
    -2
100
AcDbBlockReference
  2
_Open30
 10
1748.517769740055
 20
1599.642635905382
 30
0.0
 41
15.0
 42
15.0
 43
15.0
 50
270.0
  0
MTEXT
  5
F66
330
555
100
AcDbEntity
  8
寸法線
 62
     0
 48
3.0
100
AcDbMText
 10
1728.517769740054
 20
1624.642635905383
 30
0.0
 40
30.0
 41
0.0
 71
     5
 72
     1
  1
50
 11
0.0000000000000001
 21
1.0
 31
0.0
 73
     1
 44
1.0
1001
ACAD
1000
MTEXTBEGIN
1070
    73
1070
     1
1070
    44
1040
1.0
1070
    74
1070
     0
1000
MTEXTEND
  0
POINT
  5
F67
330
555
100
AcDbEntity
  8
Defpoints
 62
     0
 48
3.0
100
AcDbPoint
 10
1826.517769740055
 20
1649.642635905382
 30
0.0
  0
POINT
  5
F68
330
555
100
AcDbEntity
  8
Defpoints
 62
     0
 48
3.0
100
AcDbPoint
 10
1826.517769740055
 20
1599.642635905382
 30
0.0
  0
POINT
  5
F69
330
555
100
AcDbEntity
  8
Defpoints
 62
     0
 48
3.0
100
AcDbPoint
 10
1748.517769740055
 20
1599.642635905382
 30
0.0
  0
ENDBLK
  5
560
330
555
100
AcDbEntity
  8
0
 48
3.0
100
AcDbBlockEnd
  0
BLOCK
  5
C7B
330
C71
100
AcDbEntity
  8
0
 48
3.0
100
AcDbBlockBegin
  2
*D15
 70
     1
 10
0.0
 20
0.0
 30
0.0
  3
*D15
  1

  0
LINE
  5
FC0
330
C71
100
AcDbEntity
  8
寸法線
 62
     0
 48
3.0
370
    -2
100
AcDbLine
 10
1008.207299239721
 20
498.7222047001455
 30
0.0
 11
1115.471923163486
 21
498.7222047001455
 31
0.0
  0
LINE
  5
FC1
330
C71
100
AcDbEntity
  8
寸法線
 62
     0
 48
3.0
370
    -2
100
AcDbLine
 10
1008.207299239721
 20
433.7222047001455
 30
0.0
 11
1115.471923163486
 21
433.7222047001455
 31
0.0
  0
LINE
  5
FC2
330
C71
100
AcDbEntity
  8
寸法線
 62
     0
 48
3.0
370
    -2
100
AcDbLine
 10
1100.471923163486
 20
483.7222047001455
 30
0.0
 11
1100.471923163486
 21
448.7222047001455
 31
0.0
  0
INSERT
  5
FC3
330
C71
100
AcDbEntity
  8
寸法線
 62
     0
 48
3.0
370
    -2
100
AcDbBlockReference
  2
_Open30
 10
1100.471923163486
 20
498.7222047001455
 30
0.0
 41
15.0
 42
15.0
 43
15.0
 50
90.0
  0
INSERT
  5
FC4
330
C71
100
AcDbEntity
  8
寸法線
 62
     0
 48
3.0
370
    -2
100
AcDbBlockReference
  2
_Open30
 10
1100.471923163486
 20
433.7222047001455
 30
0.0
 41
15.0
 42
15.0
 43
15.0
 50
270.0
  0
MTEXT
  5
FC5
330
C71
100
AcDbEntity
  8
寸法線
 62
     0
 48
3.0
100
AcDbMText
 10
1080.471923163486
 20
466.2222047001456
 30
0.0
 40
30.0
 41
0.0
 71
     5
 72
     1
  1
65
 11
0.0000000000000001
 21
1.0
 31
0.0
 73
     1
 44
1.0
1001
ACAD
1000
MTEXTBEGIN
1070
    73
1070
     1
1070
    44
1040
1.0
1070
    74
1070
     0
1000
MTEXTEND
  0
POINT
  5
FC6
330
C71
100
AcDbEntity
  8
Defpoints
 62
     0
 48
3.0
100
AcDbPoint
 10
988.2072992397215
 20
498.7222047001455
 30
0.0
  0
POINT
  5
FC7
330
C71
100
AcDbEntity
  8
Defpoints
 62
     0
 48
3.0
100
AcDbPoint
 10
988.2072992397215
 20
433.7222047001455
 30
0.0
  0
POINT
  5
FC8
330
C71
100
AcDbEntity
  8
Defpoints
 62
     0
 48
3.0
100
AcDbPoint
 10
1100.471923163486
 20
433.7222047001455
 30
0.0
  0
ENDBLK
  5
C7C
330
C71
100
AcDbEntity
  8
0
 48
3.0
100
AcDbBlockEnd
  0
BLOCK
  5
F48
330
F3E
100
AcDbEntity
  8
0
 48
3.0
100
AcDbBlockBegin
  2
P-H65
 70
     0
 10
0.0
 20
0.0
 30
0.0
  3
P-H65
  1

  0
LINE
  5
F3F
330
F3E
100
AcDbEntity
  8
嵩上断面
100
AcDbLine
 10
2.999997
 20
0.000001
 30
0.0
 11
61.999997
 21
0.000001
 31
0.0
  0
LINE
  5
F40
330
F3E
100
AcDbEntity
  8
嵩上断面
100
AcDbLine
 10
-0.000003
 20
-2.999999
 30
0.0
 11
-0.000003
 21
-36.999999
 31
0.0
  0
LINE
  5
F41
330
F3E
100
AcDbEntity
  8
嵩上断面
100
AcDbLine
 10
2.999997
 20
-39.999999
 30
0.0
 11
61.999997
 21
-39.999999
 31
0.0
  0
ARC
  5
F42
330
F3E
100
AcDbEntity
  8
嵩上断面
100
AcDbCircle
 10
2.999997
 20
-36.999999
 30
0.0
 40
3.0
100
AcDbArc
 50
180.0
 51
270.0
  0
ARC
  5
F43
330
F3E
100
AcDbEntity
  8
嵩上断面
100
AcDbCircle
 10
2.999997
 20
-2.999999
 30
0.0
 40
3.0
100
AcDbArc
 50
90.0
 51
180.0
  0
LINE
  5
F44
330
F3E
100
AcDbEntity
  8
嵩上断面
100
AcDbLine
 10
64.999997
 20
-2.999999
 30
0.0
 11
64.999997
 21
-36.999999
 31
0.0
  0
ARC
  5
F45
330
F3E
100
AcDbEntity
  8
嵩上断面
100
AcDbCircle
 10
61.999997
 20
-2.999999
 30
0.0
 40
3.0
100
AcDbArc
 50
0.0
 51
90.0
  0
ARC
  5
F46
330
F3E
100
AcDbEntity
  8
嵩上断面
100
AcDbCircle
 10
61.999997
 20
-36.999999
 30
0.0
 40
3.0
100
AcDbArc
 50
270.0
 51
0.0
  0
LWPOLYLINE
  5
F47
330
F3E
100
AcDbEntity
  8
嵩上断面
  6
Continuous
100
AcDbPolyline
 90
        4
 70
     1
 43
0.0
 10
2.299996999999999
 20
-37.69999900000001
 10
62.69999699999999
 20
-37.69999900000001
 10
62.69999699999999
 20
-2.299998999999999
 10
2.299996999999999
 20
-2.299998999999999
  0
ENDBLK
  5
F49
330
F3E
100
AcDbEntity
  8
0
 48
3.0
100
AcDbBlockEnd
  0
BLOCK
  5
10A5
330
10A0
100
AcDbEntity
  8
0
 48
3.0
100
AcDbBlockBegin
  2
鎌下
 70
     0
 10
0.0
 20
0.0
 30
0.0
  3
鎌下
  1

  0
MTEXT
  5
10A1
330
10A0
100
AcDbEntity
  8
外枠
  6
Continuous
100
AcDbMText
 10
40.55333581259037
 20
-88.14888116777728
 30
0.0
 40
28.17460800000001
 41
43.8527
 71
     1
 72
     5
  1
{\fHGSeikaishotaiPRO|b0|i0|c128|p65;下}
 73
     1
 44
1.0
1001
ACAD
1000
MTEXTBEGIN
1070
    73
1070
     1
1070
    44
1040
1.0
1070
    74
1070
     0
1000
MTEXTEND
  0
MTEXT
  5
10A2
330
10A0
100
AcDbEntity
  8
外枠
  6
Continuous
100
AcDbMText
 10
40.55333581259037
 20
-45.61885629864991
 30
0.0
 40
28.17460800000001
 41
43.8527
 71
     1
 72
     5
  1
{\fHGSeikaishotaiPRO|b0|i0|c128|p65;鎌}
 73
     1
 44
1.0
1001
ACAD
1000
MTEXTBEGIN
1070
    73
1070
     1
1070
    44
1040
1.0
1070
    74
1070
     0
1000
MTEXTEND
  0
ELLIPSE
  5
10A3
330
10A0
100
AcDbEntity
  8
外枠
  6
Continuous
100
AcDbEllipse
 10
61.68068686355036
 20
-84.59863033186412
 30
0.0
 11
0.0
 21
-47.8594442149426
 31
0.0
210
0.0
220
0.0
230
1.0
 40
0.7999999999999857
 41
0.0
 42
6.283185307179586
  0
ENDBLK
  5
10A6
330
10A0
100
AcDbEntity
  8
0
 48
3.0
100
AcDbBlockEnd
  0
BLOCK
  5
115E
330
115D
100
AcDbEntity
  8
0
 48
3.0
100
AcDbBlockBegin
  2
*U29
 70
     1
 10
0.0
 20
0.0
 30
0.0
  3
*U29
  1

  0
LINE
  5
1164
330
115D
100
AcDbEntity
  8
本体
  6
Continuous
100
AcDbLine
 10
-16.90000000000032
 20
37.5
 30
0.0
 11
11.39999999999986
 21
37.5
 31
0.0
  0
LINE
  5
1165
330
115D
100
AcDbEntity
  8
本体
  6
Continuous
100
AcDbLine
 10
-16.90000000000032
 20
29.5
 30
0.0
 11
11.39999999999986
 21
29.5
 31
0.0
  0
LINE
  5
1166
330
115D
100
AcDbEntity
  8
本体
  6
Continuous
100
AcDbLine
 10
-16.90000000000032
 20
29.5
 30
0.0
 11
11.39999999999986
 21
37.5
 31
0.0
  0
LINE
  5
1167
330
115D
100
AcDbEntity
  8
本体
100
AcDbLine
 10
11.39999999999986
 20
37.5
 30
0.0
 11
18.39999999999986
 21
37.5
 31
0.0
  0
LINE
  5
1168
330
115D
100
AcDbEntity
  8
本体
100
AcDbLine
 10
11.39999999999986
 20
37.5
 30
0.0
 11
11.39999999999986
 21
27.5
 31
0.0
  0
LINE
  5
1169
330
115D
100
AcDbEntity
  8
本体
100
AcDbLine
 10
11.39999999999986
 20
27.5
 30
0.0
 11
12.89999999999986
 21
26.5
 31
0.0
  0
LINE
  5
116A
330
115D
100
AcDbEntity
  8
本体
100
AcDbLine
 10
18.39999999999986
 20
37.5
 30
0.0
 11
18.39999999999986
 21
27.5
 31
0.0
  0
LINE
  5
116B
330
115D
100
AcDbEntity
  8
本体
100
AcDbLine
 10
18.39999999999986
 20
27.5
 30
0.0
 11
16.89999999999986
 21
26.5
 31
0.0
  0
LINE
  5
116C
330
115D
100
AcDbEntity
  8
本体
100
AcDbLine
 10
11.39999999999986
 20
-37.5
 30
0.0
 11
18.39999999999986
 21
-37.5
 31
0.0
  0
LINE
  5
116D
330
115D
100
AcDbEntity
  8
本体
100
AcDbLine
 10
11.39999999999986
 20
-37.5
 30
0.0
 11
11.39999999999986
 21
-27.5
 31
0.0
  0
LINE
  5
116E
330
115D
100
AcDbEntity
  8
本体
100
AcDbLine
 10
11.39999999999986
 20
-27.5
 30
0.0
 11
12.89999999999986
 21
-26.5
 31
0.0
  0
LINE
  5
116F
330
115D
100
AcDbEntity
  8
本体
100
AcDbLine
 10
18.39999999999986
 20
-37.5
 30
0.0
 11
18.39999999999986
 21
-27.5
 31
0.0
  0
LINE
  5
1170
330
115D
100
AcDbEntity
  8
本体
100
AcDbLine
 10
18.39999999999986
 20
-27.5
 30
0.0
 11
16.89999999999986
 21
-26.5
 31
0.0
  0
LINE
  5
1171
330
115D
100
AcDbEntity
  8
本体
100
AcDbLine
 10
12.89999999999986
 20
26.5
 30
0.0
 11
12.89999999999986
 21
-26.5
 31
0.0
  0
LINE
  5
1172
330
115D
100
AcDbEntity
  8
本体
100
AcDbLine
 10
16.89999999999986
 20
26.5
 30
0.0
 11
16.89999999999986
 21
-26.5
 31
0.0
  0
LINE
  5
1173
330
115D
100
AcDbEntity
  8
本体
  6
Continuous
100
AcDbLine
 10
-18.39999999999986
 20
-6.5
 30
0.0
 11
12.89999999999986
 21
-6.5
 31
0.0
  0
ENDBLK
  5
115F
330
115D
100
AcDbEntity
  8
0
 48
3.0
100
AcDbBlockEnd
  0
BLOCK
  5
1161
330
1160
100
AcDbEntity
  8
0
 48
3.0
100
AcDbBlockBegin
  2
*U30
 70
     1
 10
0.0
 20
0.0
 30
0.0
  3
*U30
  1

  0
INSERT
  5
1182
330
1160
100
AcDbEntity
  8
本体
  6
ByBlock
 62
     0
370
    -2
380
     1
100
AcDbBlockReference
  2
*U29
 10
0.0
 20
0.0
 30
0.0
  0
INSERT
  5
1183
330
1160
100
AcDbEntity
  8
本体
  6
ByBlock
 62
     0
370
    -2
380
     1
100
AcDbBlockReference
  2
*U29
 10
35.3
 20
0.0
 30
0.0
  0
INSERT
  5
1184
330
1160
100
AcDbEntity
  8
本体
  6
ByBlock
 62
     0
370
    -2
380
     1
100
AcDbBlockReference
  2
*U29
 10
70.59999999999999
 20
0.0
 30
0.0
  0
INSERT
  5
1185
330
1160
100
AcDbEntity
  8
本体
  6
ByBlock
 62
     0
370
    -2
380
     1
100
AcDbBlockReference
  2
*U29
 10
105.9
 20
0.0
 30
0.0
  0
INSERT
  5
1186
330
1160
100
AcDbEntity
  8
本体
  6
ByBlock
 62
     0
370
    -2
380
     1
100
AcDbBlockReference
  2
*U29
 10
141.2
 20
0.0
 30
0.0
  0
INSERT
  5
1187
330
1160
100
AcDbEntity
  8
本体
  6
ByBlock
 62
     0
370
    -2
380
     1
100
AcDbBlockReference
  2
*U29
 10
176.5
 20
0.0
 30
0.0
  0
INSERT
  5
1188
330
1160
100
AcDbEntity
  8
本体
  6
ByBlock
 62
     0
370
    -2
380
     1
100
AcDbBlockReference
  2
*U29
 10
211.8
 20
0.0
 30
0.0
  0
INSERT
  5
1189
330
1160
100
AcDbEntity
  8
本体
  6
ByBlock
 62
     0
370
    -2
380
     1
100
AcDbBlockReference
  2
*U29
 10
247.1
 20
0.0
 30
0.0
  0
INSERT
  5
118A
330
1160
100
AcDbEntity
  8
本体
  6
ByBlock
 62
     0
370
    -2
380
     1
100
AcDbBlockReference
  2
*U29
 10
282.4
 20
0.0
 30
0.0
  0
INSERT
  5
118B
330
1160
100
AcDbEntity
  8
本体
  6
ByBlock
 62
     0
370
    -2
380
     1
100
AcDbBlockReference
  2
*U29
 10
317.7
 20
0.0
 30
0.0
  0
INSERT
  5
118C
330
1160
100
AcDbEntity
  8
本体
  6
ByBlock
 62
     0
370
    -2
380
     1
100
AcDbBlockReference
  2
*U29
 10
353.0
 20
0.0
 30
0.0
  0
INSERT
  5
118D
330
1160
100
AcDbEntity
  8
本体
  6
ByBlock
 62
     0
370
    -2
380
     1
100
AcDbBlockReference
  2
*U29
 10
388.3
 20
0.0
 30
0.0
  0
ENDBLK
  5
1162
330
1160
100
AcDbEntity
  8
0
 48
3.0
100
AcDbBlockEnd
  0
BLOCK
  5
125E
330
125D
100
AcDbEntity
  8
0
 48
3.0
100
AcDbBlockBegin
  2
*U31
 70
     1
 10
0.0
 20
0.0
 30
0.0
  3
*U31
  1

  0
LINE
  5
1264
330
125D
100
AcDbEntity
  8
本体
  6
Continuous
100
AcDbLine
 10
-1628.883842914771
 20
37.22656555585491
 30
0.0
 11
-1628.883842914771
 21
-0.2734344441450958
 31
0.0
  0
LINE
  5
1265
330
125D
100
AcDbEntity
  8
本体
  6
Continuous
100
AcDbLine
 10
-1635.883842914771
 20
37.22656555585491
 30
0.0
 11
-1635.883842914771
 21
-0.2734344441450958
 31
0.0
  0
LINE
  5
1266
330
125D
100
AcDbEntity
  8
本体
  6
Continuous
100
AcDbLine
 10
-1635.883842914771
 20
-645.773434444145
 30
0.0
 11
-1635.883842914771
 21
-608.273434444145
 31
0.0
  0
LINE
  5
1267
330
125D
100
AcDbEntity
  8
本体
  6
Continuous
100
AcDbLine
 10
-1628.883842914771
 20
-645.773434444145
 30
0.0
 11
-1628.883842914771
 21
-608.273434444145
 31
0.0
  0
INSERT
  5
1268
330
125D
100
AcDbEntity
  8
エンボス
  6
Continuous
100
AcDbBlockReference
  2
7mm部材エンボス4
 10
-1635.883842914771
 20
-658.2908542765653
 30
0.0
  0
INSERT
  5
1269
330
125D
100
AcDbEntity
  8
エンボス
  6
Continuous
100
AcDbBlockReference
  2
7mm部材エンボス4
 10
-1635.883842914771
 20
-13.79085427656537
 30
0.0
  0
LINE
  5
126A
330
125D
100
AcDbEntity
  8
本体
  6
Continuous
100
AcDbLine
 10
-1635.883842914771
 20
-8.273434444145095
 30
0.0
 11
-1635.883842914771
 21
-50.27343444414509
 31
0.0
  0
LINE
  5
126B
330
125D
100
AcDbEntity
  8
本体
  6
Continuous
100
AcDbLine
 10
-1628.883842914771
 20
-8.273434444145095
 30
0.0
 11
-1628.883842914771
 21
-50.27343444414509
 31
0.0
  0
LINE
  5
126C
330
125D
100
AcDbEntity
  8
本体
  6
Continuous
100
AcDbLine
 10
-1671.183842914771
 20
-8.273434444145095
 30
0.0
 11
-1635.883842914771
 21
-0.2734344441450958
 31
0.0
  0
LINE
  5
126D
330
125D
100
AcDbEntity
  8
エンボス
  6
Continuous
100
AcDbLine
 10
-1635.883842914771
 20
-41.29085427656536
 30
0.0
 11
-1628.883842914771
 21
-39.29085427656537
 31
0.0
  0
LINE
  5
126E
330
125D
100
AcDbEntity
  8
エンボス
  6
Continuous
100
AcDbLine
 10
-1628.883842914771
 20
-46.29085427656536
 30
0.0
 11
-1635.883842914771
 21
-44.29085427656537
 31
0.0
  0
LINE
  5
126F
330
125D
100
AcDbEntity
  8
エンボス
  6
Continuous
100
AcDbLine
 10
-1628.883842914771
 20
-30.29085427656537
 30
0.0
 11
-1635.883842914771
 21
-32.29085427656537
 31
0.0
  0
LINE
  5
1270
330
125D
100
AcDbEntity
  8
エンボス
  6
Continuous
100
AcDbLine
 10
-1635.883842914771
 20
-25.29085427656537
 30
0.0
 11
-1628.883842914771
 21
-27.29085427656537
 31
0.0
  0
LINE
  5
1271
330
125D
100
AcDbEntity
  8
エンボス
  6
Continuous
100
AcDbLine
 10
-1635.883842914771
 20
-13.29085427656537
 30
0.0
 11
-1628.883842914771
 21
-11.29085427656537
 31
0.0
  0
LINE
  5
1272
330
125D
100
AcDbEntity
  8
エンボス
  6
Continuous
100
AcDbLine
 10
-1628.883842914771
 20
-18.29085427656537
 30
0.0
 11
-1635.883842914771
 21
-16.29085427656537
 31
0.0
  0
LINE
  5
1273
330
125D
100
AcDbEntity
  8
本体
  6
Continuous
100
AcDbLine
 10
-1671.183842914771
 20
-58.27343444414509
 30
0.0
 11
-1635.883842914771
 21
-50.27343444414509
 31
0.0
  0
LINE
  5
1274
330
125D
100
AcDbEntity
  8
本体
  6
Continuous
100
AcDbLine
 10
-1635.883842914771
 20
-58.27343444414509
 30
0.0
 11
-1635.883842914771
 21
-100.2734344441451
 31
0.0
  0
LINE
  5
1275
330
125D
100
AcDbEntity
  8
本体
  6
Continuous
100
AcDbLine
 10
-1628.883842914771
 20
-58.27343444414509
 30
0.0
 11
-1628.883842914771
 21
-100.2734344441451
 31
0.0
  0
LINE
  5
1276
330
125D
100
AcDbEntity
  8
エンボス
  6
Continuous
100
AcDbLine
 10
-1628.883842914771
 20
-68.29085427656536
 30
0.0
 11
-1635.883842914771
 21
-66.29085427656537
 31
0.0
  0
LINE
  5
1277
330
125D
100
AcDbEntity
  8
エンボス
  6
Continuous
100
AcDbLine
 10
-1635.883842914771
 20
-75.29085427656537
 30
0.0
 11
-1628.883842914771
 21
-77.29085427656537
 31
0.0
  0
LINE
  5
1278
330
125D
100
AcDbEntity
  8
エンボス
  6
Continuous
100
AcDbLine
 10
-1628.883842914771
 20
-80.29085427656537
 30
0.0
 11
-1635.883842914771
 21
-82.29085427656537
 31
0.0
  0
LINE
  5
1279
330
125D
100
AcDbEntity
  8
エンボス
  6
Continuous
100
AcDbLine
 10
-1628.883842914771
 20
-96.29085427656537
 30
0.0
 11
-1635.883842914771
 21
-94.29085427656536
 31
0.0
  0
LINE
  5
127A
330
125D
100
AcDbEntity
  8
エンボス
  6
Continuous
100
AcDbLine
 10
-1635.883842914771
 20
-91.29085427656537
 30
0.0
 11
-1628.883842914771
 21
-89.29085427656536
 31
0.0
  0
LINE
  5
127B
330
125D
100
AcDbEntity
  8
エンボス
  6
Continuous
100
AcDbLine
 10
-1635.883842914771
 20
-63.29085427656536
 30
0.0
 11
-1628.883842914771
 21
-61.29085427656537
 31
0.0
  0
LINE
  5
127C
330
125D
100
AcDbEntity
  8
本体
  6
Continuous
100
AcDbLine
 10
-1671.183842914771
 20
-108.2734344441451
 30
0.0
 11
-1635.883842914771
 21
-100.2734344441451
 31
0.0
  0
LINE
  5
127D
330
125D
100
AcDbEntity
  8
本体
  6
Continuous
100
AcDbLine
 10
-1635.883842914771
 20
-108.2734344441451
 30
0.0
 11
-1635.883842914771
 21
-150.2734344441451
 31
0.0
  0
LINE
  5
127E
330
125D
100
AcDbEntity
  8
本体
  6
Continuous
100
AcDbLine
 10
-1628.883842914771
 20
-108.2734344441451
 30
0.0
 11
-1628.883842914771
 21
-150.2734344441451
 31
0.0
  0
LINE
  5
127F
330
125D
100
AcDbEntity
  8
エンボス
  6
Continuous
100
AcDbLine
 10
-1628.883842914771
 20
-118.2908542765654
 30
0.0
 11
-1635.883842914771
 21
-116.2908542765654
 31
0.0
  0
LINE
  5
1280
330
125D
100
AcDbEntity
  8
エンボス
  6
Continuous
100
AcDbLine
 10
-1635.883842914771
 20
-125.2908542765653
 30
0.0
 11
-1628.883842914771
 21
-127.2908542765653
 31
0.0
  0
LINE
  5
1281
330
125D
100
AcDbEntity
  8
エンボス
  6
Continuous
100
AcDbLine
 10
-1628.883842914771
 20
-130.2908542765653
 30
0.0
 11
-1635.883842914771
 21
-132.2908542765653
 31
0.0
  0
LINE
  5
1282
330
125D
100
AcDbEntity
  8
エンボス
  6
Continuous
100
AcDbLine
 10
-1628.883842914771
 20
-146.2908542765653
 30
0.0
 11
-1635.883842914771
 21
-144.2908542765653
 31
0.0
  0
LINE
  5
1283
330
125D
100
AcDbEntity
  8
エンボス
  6
Continuous
100
AcDbLine
 10
-1635.883842914771
 20
-141.2908542765654
 30
0.0
 11
-1628.883842914771
 21
-139.2908542765654
 31
0.0
  0
LINE
  5
1284
330
125D
100
AcDbEntity
  8
エンボス
  6
Continuous
100
AcDbLine
 10
-1635.883842914771
 20
-113.2908542765654
 30
0.0
 11
-1628.883842914771
 21
-111.2908542765653
 31
0.0
  0
LINE
  5
1285
330
125D
100
AcDbEntity
  8
本体
  6
Continuous
100
AcDbLine
 10
-1671.183842914771
 20
-158.2734344441451
 30
0.0
 11
-1635.883842914771
 21
-150.2734344441451
 31
0.0
  0
LINE
  5
1286
330
125D
100
AcDbEntity
  8
本体
  6
Continuous
100
AcDbLine
 10
-1635.883842914771
 20
-158.2734344441451
 30
0.0
 11
-1635.883842914771
 21
-200.2734344441451
 31
0.0
  0
LINE
  5
1287
330
125D
100
AcDbEntity
  8
本体
  6
Continuous
100
AcDbLine
 10
-1628.883842914771
 20
-158.2734344441451
 30
0.0
 11
-1628.883842914771
 21
-200.2734344441451
 31
0.0
  0
LINE
  5
1288
330
125D
100
AcDbEntity
  8
エンボス
  6
Continuous
100
AcDbLine
 10
-1628.883842914771
 20
-168.2908542765654
 30
0.0
 11
-1635.883842914771
 21
-166.2908542765654
 31
0.0
  0
LINE
  5
1289
330
125D
100
AcDbEntity
  8
エンボス
  6
Continuous
100
AcDbLine
 10
-1635.883842914771
 20
-175.2908542765653
 30
0.0
 11
-1628.883842914771
 21
-177.2908542765653
 31
0.0
  0
LINE
  5
128A
330
125D
100
AcDbEntity
  8
エンボス
  6
Continuous
100
AcDbLine
 10
-1628.883842914771
 20
-180.2908542765653
 30
0.0
 11
-1635.883842914771
 21
-182.2908542765653
 31
0.0
  0
LINE
  5
128B
330
125D
100
AcDbEntity
  8
エンボス
  6
Continuous
100
AcDbLine
 10
-1628.883842914771
 20
-196.2908542765653
 30
0.0
 11
-1635.883842914771
 21
-194.2908542765654
 31
0.0
  0
LINE
  5
128C
330
125D
100
AcDbEntity
  8
エンボス
  6
Continuous
100
AcDbLine
 10
-1635.883842914771
 20
-191.2908542765654
 30
0.0
 11
-1628.883842914771
 21
-189.2908542765654
 31
0.0
  0
LINE
  5
128D
330
125D
100
AcDbEntity
  8
エンボス
  6
Continuous
100
AcDbLine
 10
-1635.883842914771
 20
-163.2908542765654
 30
0.0
 11
-1628.883842914771
 21
-161.2908542765653
 31
0.0
  0
LINE
  5
128E
330
125D
100
AcDbEntity
  8
本体
  6
Continuous
100
AcDbLine
 10
-1671.183842914771
 20
-208.2734344441451
 30
0.0
 11
-1635.883842914771
 21
-200.2734344441451
 31
0.0
  0
LINE
  5
128F
330
125D
100
AcDbEntity
  8
本体
  6
Continuous
100
AcDbLine
 10
-1635.883842914771
 20
-208.2734344441451
 30
0.0
 11
-1635.883842914771
 21
-250.2734344441451
 31
0.0
  0
LINE
  5
1290
330
125D
100
AcDbEntity
  8
本体
  6
Continuous
100
AcDbLine
 10
-1628.883842914771
 20
-208.2734344441451
 30
0.0
 11
-1628.883842914771
 21
-250.2734344441451
 31
0.0
  0
LINE
  5
1291
330
125D
100
AcDbEntity
  8
エンボス
  6
Continuous
100
AcDbLine
 10
-1628.883842914771
 20
-218.2908542765654
 30
0.0
 11
-1635.883842914771
 21
-216.2908542765654
 31
0.0
  0
LINE
  5
1292
330
125D
100
AcDbEntity
  8
エンボス
  6
Continuous
100
AcDbLine
 10
-1635.883842914771
 20
-225.2908542765654
 30
0.0
 11
-1628.883842914771
 21
-227.2908542765654
 31
0.0
  0
LINE
  5
1293
330
125D
100
AcDbEntity
  8
エンボス
  6
Continuous
100
AcDbLine
 10
-1628.883842914771
 20
-230.2908542765654
 30
0.0
 11
-1635.883842914771
 21
-232.2908542765654
 31
0.0
  0
LINE
  5
1294
330
125D
100
AcDbEntity
  8
エンボス
  6
Continuous
100
AcDbLine
 10
-1628.883842914771
 20
-246.2908542765654
 30
0.0
 11
-1635.883842914771
 21
-244.2908542765654
 31
0.0
  0
LINE
  5
1295
330
125D
100
AcDbEntity
  8
エンボス
  6
Continuous
100
AcDbLine
 10
-1635.883842914771
 20
-241.2908542765654
 30
0.0
 11
-1628.883842914771
 21
-239.2908542765654
 31
0.0
  0
LINE
  5
1296
330
125D
100
AcDbEntity
  8
エンボス
  6
Continuous
100
AcDbLine
 10
-1635.883842914771
 20
-213.2908542765654
 30
0.0
 11
-1628.883842914771
 21
-211.2908542765654
 31
0.0
  0
LINE
  5
1297
330
125D
100
AcDbEntity
  8
本体
  6
Continuous
100
AcDbLine
 10
-1671.183842914771
 20
-258.2734344441451
 30
0.0
 11
-1635.883842914771
 21
-250.2734344441451
 31
0.0
  0
LINE
  5
1298
330
125D
100
AcDbEntity
  8
本体
  6
Continuous
100
AcDbLine
 10
-1635.883842914771
 20
-258.2734344441451
 30
0.0
 11
-1635.883842914771
 21
-300.2734344441451
 31
0.0
  0
LINE
  5
1299
330
125D
100
AcDbEntity
  8
本体
  6
Continuous
100
AcDbLine
 10
-1628.883842914771
 20
-258.2734344441451
 30
0.0
 11
-1628.883842914771
 21
-300.2734344441451
 31
0.0
  0
LINE
  5
129A
330
125D
100
AcDbEntity
  8
エンボス
  6
Continuous
100
AcDbLine
 10
-1628.883842914771
 20
-268.2908542765654
 30
0.0
 11
-1635.883842914771
 21
-266.2908542765654
 31
0.0
  0
LINE
  5
129B
330
125D
100
AcDbEntity
  8
エンボス
  6
Continuous
100
AcDbLine
 10
-1635.883842914771
 20
-275.2908542765654
 30
0.0
 11
-1628.883842914771
 21
-277.2908542765654
 31
0.0
  0
LINE
  5
129C
330
125D
100
AcDbEntity
  8
エンボス
  6
Continuous
100
AcDbLine
 10
-1628.883842914771
 20
-280.2908542765654
 30
0.0
 11
-1635.883842914771
 21
-282.2908542765654
 31
0.0
  0
LINE
  5
129D
330
125D
100
AcDbEntity
  8
エンボス
  6
Continuous
100
AcDbLine
 10
-1628.883842914771
 20
-296.2908542765654
 30
0.0
 11
-1635.883842914771
 21
-294.2908542765654
 31
0.0
  0
LINE
  5
129E
330
125D
100
AcDbEntity
  8
エンボス
  6
Continuous
100
AcDbLine
 10
-1635.883842914771
 20
-291.2908542765654
 30
0.0
 11
-1628.883842914771
 21
-289.2908542765654
 31
0.0
  0
LINE
  5
129F
330
125D
100
AcDbEntity
  8
エンボス
  6
Continuous
100
AcDbLine
 10
-1635.883842914771
 20
-263.2908542765654
 30
0.0
 11
-1628.883842914771
 21
-261.2908542765654
 31
0.0
  0
LINE
  5
12A0
330
125D
100
AcDbEntity
  8
本体
  6
Continuous
100
AcDbLine
 10
-1671.183842914771
 20
-308.2734344441451
 30
0.0
 11
-1635.883842914771
 21
-300.2734344441451
 31
0.0
  0
LINE
  5
12A1
330
125D
100
AcDbEntity
  8
本体
  6
Continuous
100
AcDbLine
 10
-1635.883842914771
 20
-308.2734344441451
 30
0.0
 11
-1635.883842914771
 21
-350.2734344441451
 31
0.0
  0
LINE
  5
12A2
330
125D
100
AcDbEntity
  8
本体
  6
Continuous
100
AcDbLine
 10
-1628.883842914771
 20
-308.2734344441451
 30
0.0
 11
-1628.883842914771
 21
-350.2734344441451
 31
0.0
  0
LINE
  5
12A3
330
125D
100
AcDbEntity
  8
エンボス
  6
Continuous
100
AcDbLine
 10
-1628.883842914771
 20
-318.2908542765654
 30
0.0
 11
-1635.883842914771
 21
-316.2908542765654
 31
0.0
  0
LINE
  5
12A4
330
125D
100
AcDbEntity
  8
エンボス
  6
Continuous
100
AcDbLine
 10
-1635.883842914771
 20
-325.2908542765654
 30
0.0
 11
-1628.883842914771
 21
-327.2908542765654
 31
0.0
  0
LINE
  5
12A5
330
125D
100
AcDbEntity
  8
エンボス
  6
Continuous
100
AcDbLine
 10
-1628.883842914771
 20
-330.2908542765654
 30
0.0
 11
-1635.883842914771
 21
-332.2908542765654
 31
0.0
  0
LINE
  5
12A6
330
125D
100
AcDbEntity
  8
エンボス
  6
Continuous
100
AcDbLine
 10
-1628.883842914771
 20
-346.2908542765654
 30
0.0
 11
-1635.883842914771
 21
-344.2908542765654
 31
0.0
  0
LINE
  5
12A7
330
125D
100
AcDbEntity
  8
エンボス
  6
Continuous
100
AcDbLine
 10
-1635.883842914771
 20
-341.2908542765654
 30
0.0
 11
-1628.883842914771
 21
-339.2908542765654
 31
0.0
  0
LINE
  5
12A8
330
125D
100
AcDbEntity
  8
エンボス
  6
Continuous
100
AcDbLine
 10
-1635.883842914771
 20
-313.2908542765654
 30
0.0
 11
-1628.883842914771
 21
-311.2908542765654
 31
0.0
  0
LINE
  5
12A9
330
125D
100
AcDbEntity
  8
本体
  6
Continuous
100
AcDbLine
 10
-1671.183842914771
 20
-358.2734344441451
 30
0.0
 11
-1635.883842914771
 21
-350.2734344441451
 31
0.0
  0
LINE
  5
12AA
330
125D
100
AcDbEntity
  8
本体
  6
Continuous
100
AcDbLine
 10
-1635.883842914771
 20
-358.2734344441451
 30
0.0
 11
-1635.883842914771
 21
-400.273434444145
 31
0.0
  0
LINE
  5
12AB
330
125D
100
AcDbEntity
  8
本体
  6
Continuous
100
AcDbLine
 10
-1628.883842914771
 20
-358.2734344441451
 30
0.0
 11
-1628.883842914771
 21
-400.273434444145
 31
0.0
  0
LINE
  5
12AC
330
125D
100
AcDbEntity
  8
エンボス
  6
Continuous
100
AcDbLine
 10
-1628.883842914771
 20
-368.2908542765654
 30
0.0
 11
-1635.883842914771
 21
-366.2908542765654
 31
0.0
  0
LINE
  5
12AD
330
125D
100
AcDbEntity
  8
エンボス
  6
Continuous
100
AcDbLine
 10
-1635.883842914771
 20
-375.2908542765654
 30
0.0
 11
-1628.883842914771
 21
-377.2908542765654
 31
0.0
  0
LINE
  5
12AE
330
125D
100
AcDbEntity
  8
エンボス
  6
Continuous
100
AcDbLine
 10
-1628.883842914771
 20
-380.2908542765654
 30
0.0
 11
-1635.883842914771
 21
-382.2908542765654
 31
0.0
  0
LINE
  5
12AF
330
125D
100
AcDbEntity
  8
エンボス
  6
Continuous
100
AcDbLine
 10
-1628.883842914771
 20
-396.2908542765654
 30
0.0
 11
-1635.883842914771
 21
-394.2908542765654
 31
0.0
  0
LINE
  5
12B0
330
125D
100
AcDbEntity
  8
エンボス
  6
Continuous
100
AcDbLine
 10
-1635.883842914771
 20
-391.2908542765654
 30
0.0
 11
-1628.883842914771
 21
-389.2908542765654
 31
0.0
  0
LINE
  5
12B1
330
125D
100
AcDbEntity
  8
エンボス
  6
Continuous
100
AcDbLine
 10
-1635.883842914771
 20
-363.2908542765654
 30
0.0
 11
-1628.883842914771
 21
-361.2908542765654
 31
0.0
  0
LINE
  5
12B2
330
125D
100
AcDbEntity
  8
本体
  6
Continuous
100
AcDbLine
 10
-1671.183842914771
 20
-408.273434444145
 30
0.0
 11
-1635.883842914771
 21
-400.273434444145
 31
0.0
  0
LINE
  5
12B3
330
125D
100
AcDbEntity
  8
本体
  6
Continuous
100
AcDbLine
 10
-1635.883842914771
 20
-408.273434444145
 30
0.0
 11
-1635.883842914771
 21
-450.273434444145
 31
0.0
  0
LINE
  5
12B4
330
125D
100
AcDbEntity
  8
本体
  6
Continuous
100
AcDbLine
 10
-1628.883842914771
 20
-408.273434444145
 30
0.0
 11
-1628.883842914771
 21
-450.273434444145
 31
0.0
  0
LINE
  5
12B5
330
125D
100
AcDbEntity
  8
エンボス
  6
Continuous
100
AcDbLine
 10
-1628.883842914771
 20
-418.2908542765654
 30
0.0
 11
-1635.883842914771
 21
-416.2908542765653
 31
0.0
  0
LINE
  5
12B6
330
125D
100
AcDbEntity
  8
エンボス
  6
Continuous
100
AcDbLine
 10
-1635.883842914771
 20
-425.2908542765653
 30
0.0
 11
-1628.883842914771
 21
-427.2908542765653
 31
0.0
  0
LINE
  5
12B7
330
125D
100
AcDbEntity
  8
エンボス
  6
Continuous
100
AcDbLine
 10
-1628.883842914771
 20
-430.2908542765654
 30
0.0
 11
-1635.883842914771
 21
-432.2908542765653
 31
0.0
  0
LINE
  5
12B8
330
125D
100
AcDbEntity
  8
エンボス
  6
Continuous
100
AcDbLine
 10
-1628.883842914771
 20
-446.2908542765653
 30
0.0
 11
-1635.883842914771
 21
-444.2908542765653
 31
0.0
  0
LINE
  5
12B9
330
125D
100
AcDbEntity
  8
エンボス
  6
Continuous
100
AcDbLine
 10
-1635.883842914771
 20
-441.2908542765653
 30
0.0
 11
-1628.883842914771
 21
-439.2908542765654
 31
0.0
  0
LINE
  5
12BA
330
125D
100
AcDbEntity
  8
エンボス
  6
Continuous
100
AcDbLine
 10
-1635.883842914771
 20
-413.2908542765653
 30
0.0
 11
-1628.883842914771
 21
-411.2908542765653
 31
0.0
  0
LINE
  5
12BB
330
125D
100
AcDbEntity
  8
本体
  6
Continuous
100
AcDbLine
 10
-1671.183842914771
 20
-458.273434444145
 30
0.0
 11
-1635.883842914771
 21
-450.273434444145
 31
0.0
  0
LINE
  5
12BC
330
125D
100
AcDbEntity
  8
本体
  6
Continuous
100
AcDbLine
 10
-1635.883842914771
 20
-458.273434444145
 30
0.0
 11
-1635.883842914771
 21
-500.273434444145
 31
0.0
  0
LINE
  5
12BD
330
125D
100
AcDbEntity
  8
本体
  6
Continuous
100
AcDbLine
 10
-1628.883842914771
 20
-458.273434444145
 30
0.0
 11
-1628.883842914771
 21
-500.273434444145
 31
0.0
  0
LINE
  5
12BE
330
125D
100
AcDbEntity
  8
エンボス
  6
Continuous
100
AcDbLine
 10
-1628.883842914771
 20
-468.2908542765654
 30
0.0
 11
-1635.883842914771
 21
-466.2908542765653
 31
0.0
  0
LINE
  5
12BF
330
125D
100
AcDbEntity
  8
エンボス
  6
Continuous
100
AcDbLine
 10
-1635.883842914771
 20
-475.2908542765653
 30
0.0
 11
-1628.883842914771
 21
-477.2908542765653
 31
0.0
  0
LINE
  5
12C0
330
125D
100
AcDbEntity
  8
エンボス
  6
Continuous
100
AcDbLine
 10
-1628.883842914771
 20
-480.2908542765654
 30
0.0
 11
-1635.883842914771
 21
-482.2908542765653
 31
0.0
  0
LINE
  5
12C1
330
125D
100
AcDbEntity
  8
エンボス
  6
Continuous
100
AcDbLine
 10
-1628.883842914771
 20
-496.2908542765653
 30
0.0
 11
-1635.883842914771
 21
-494.2908542765653
 31
0.0
  0
LINE
  5
12C2
330
125D
100
AcDbEntity
  8
エンボス
  6
Continuous
100
AcDbLine
 10
-1635.883842914771
 20
-491.2908542765653
 30
0.0
 11
-1628.883842914771
 21
-489.2908542765654
 31
0.0
  0
LINE
  5
12C3
330
125D
100
AcDbEntity
  8
エンボス
  6
Continuous
100
AcDbLine
 10
-1635.883842914771
 20
-463.2908542765654
 30
0.0
 11
-1628.883842914771
 21
-461.2908542765653
 31
0.0
  0
LINE
  5
12C4
330
125D
100
AcDbEntity
  8
本体
  6
Continuous
100
AcDbLine
 10
-1671.183842914771
 20
-508.273434444145
 30
0.0
 11
-1635.883842914771
 21
-500.273434444145
 31
0.0
  0
LINE
  5
12C5
330
125D
100
AcDbEntity
  8
本体
  6
Continuous
100
AcDbLine
 10
-1635.883842914771
 20
-508.273434444145
 30
0.0
 11
-1635.883842914771
 21
-550.273434444145
 31
0.0
  0
LINE
  5
12C6
330
125D
100
AcDbEntity
  8
本体
  6
Continuous
100
AcDbLine
 10
-1628.883842914771
 20
-508.273434444145
 30
0.0
 11
-1628.883842914771
 21
-550.273434444145
 31
0.0
  0
LINE
  5
12C7
330
125D
100
AcDbEntity
  8
エンボス
  6
Continuous
100
AcDbLine
 10
-1628.883842914771
 20
-518.2908542765654
 30
0.0
 11
-1635.883842914771
 21
-516.2908542765653
 31
0.0
  0
LINE
  5
12C8
330
125D
100
AcDbEntity
  8
エンボス
  6
Continuous
100
AcDbLine
 10
-1635.883842914771
 20
-525.2908542765653
 30
0.0
 11
-1628.883842914771
 21
-527.2908542765653
 31
0.0
  0
LINE
  5
12C9
330
125D
100
AcDbEntity
  8
エンボス
  6
Continuous
100
AcDbLine
 10
-1628.883842914771
 20
-530.2908542765654
 30
0.0
 11
-1635.883842914771
 21
-532.2908542765653
 31
0.0
  0
LINE
  5
12CA
330
125D
100
AcDbEntity
  8
エンボス
  6
Continuous
100
AcDbLine
 10
-1628.883842914771
 20
-546.2908542765653
 30
0.0
 11
-1635.883842914771
 21
-544.2908542765653
 31
0.0
  0
LINE
  5
12CB
330
125D
100
AcDbEntity
  8
エンボス
  6
Continuous
100
AcDbLine
 10
-1635.883842914771
 20
-541.2908542765653
 30
0.0
 11
-1628.883842914771
 21
-539.2908542765654
 31
0.0
  0
LINE
  5
12CC
330
125D
100
AcDbEntity
  8
エンボス
  6
Continuous
100
AcDbLine
 10
-1635.883842914771
 20
-513.2908542765654
 30
0.0
 11
-1628.883842914771
 21
-511.2908542765653
 31
0.0
  0
LINE
  5
12CD
330
125D
100
AcDbEntity
  8
本体
  6
Continuous
100
AcDbLine
 10
-1671.183842914771
 20
-558.273434444145
 30
0.0
 11
-1635.883842914771
 21
-550.273434444145
 31
0.0
  0
LINE
  5
12CE
330
125D
100
AcDbEntity
  8
本体
  6
Continuous
100
AcDbLine
 10
-1635.883842914771
 20
-558.273434444145
 30
0.0
 11
-1635.883842914771
 21
-600.273434444145
 31
0.0
  0
LINE
  5
12CF
330
125D
100
AcDbEntity
  8
本体
  6
Continuous
100
AcDbLine
 10
-1628.883842914771
 20
-558.273434444145
 30
0.0
 11
-1628.883842914771
 21
-600.273434444145
 31
0.0
  0
LINE
  5
12D0
330
125D
100
AcDbEntity
  8
エンボス
  6
Continuous
100
AcDbLine
 10
-1628.883842914771
 20
-568.2908542765654
 30
0.0
 11
-1635.883842914771
 21
-566.2908542765653
 31
0.0
  0
LINE
  5
12D1
330
125D
100
AcDbEntity
  8
エンボス
  6
Continuous
100
AcDbLine
 10
-1635.883842914771
 20
-575.2908542765653
 30
0.0
 11
-1628.883842914771
 21
-577.2908542765653
 31
0.0
  0
LINE
  5
12D2
330
125D
100
AcDbEntity
  8
エンボス
  6
Continuous
100
AcDbLine
 10
-1628.883842914771
 20
-580.2908542765654
 30
0.0
 11
-1635.883842914771
 21
-582.2908542765653
 31
0.0
  0
LINE
  5
12D3
330
125D
100
AcDbEntity
  8
エンボス
  6
Continuous
100
AcDbLine
 10
-1628.883842914771
 20
-596.2908542765653
 30
0.0
 11
-1635.883842914771
 21
-594.2908542765653
 31
0.0
  0
LINE
  5
12D4
330
125D
100
AcDbEntity
  8
エンボス
  6
Continuous
100
AcDbLine
 10
-1635.883842914771
 20
-591.2908542765653
 30
0.0
 11
-1628.883842914771
 21
-589.2908542765654
 31
0.0
  0
LINE
  5
12D5
330
125D
100
AcDbEntity
  8
エンボス
  6
Continuous
100
AcDbLine
 10
-1635.883842914771
 20
-563.2908542765654
 30
0.0
 11
-1628.883842914771
 21
-561.2908542765653
 31
0.0
  0
LINE
  5
12D6
330
125D
100
AcDbEntity
  8
本体
  6
Continuous
100
AcDbLine
 10
-1671.183842914771
 20
-608.273434444145
 30
0.0
 11
-1635.883842914771
 21
-600.273434444145
 31
0.0
  0
ENDBLK
  5
125F
330
125D
100
AcDbEntity
  8
0
 48
3.0
100
AcDbBlockEnd
  0
BLOCK
  5
1261
330
1260
100
AcDbEntity
  8
0
 48
3.0
100
AcDbBlockBegin
  2
*U32
 70
     1
 10
0.0
 20
0.0
 30
0.0
  3
*U32
  1

  0
INSERT
  5
12E1
330
1260
100
AcDbEntity
  8
本体
  6
ByBlock
 62
     0
370
    -2
380
     1
100
AcDbBlockReference
  2
*U31
 10
0.0
 20
0.0
 30
0.0
  0
INSERT
  5
12E2
330
1260
100
AcDbEntity
  8
本体
  6
ByBlock
 62
     0
370
    -2
380
     1
100
AcDbBlockReference
  2
*U31
 10
35.3
 20
0.0
 30
0.0
  0
INSERT
  5
12E3
330
1260
100
AcDbEntity
  8
本体
  6
ByBlock
 62
     0
370
    -2
380
     1
100
AcDbBlockReference
  2
*U31
 10
70.59999999999999
 20
0.0
 30
0.0
  0
INSERT
  5
12E4
330
1260
100
AcDbEntity
  8
本体
  6
ByBlock
 62
     0
370
    -2
380
     1
100
AcDbBlockReference
  2
*U31
 10
105.9
 20
0.0
 30
0.0
  0
INSERT
  5
12E5
330
1260
100
AcDbEntity
  8
本体
  6
ByBlock
 62
     0
370
    -2
380
     1
100
AcDbBlockReference
  2
*U31
 10
141.2
 20
0.0
 30
0.0
  0
INSERT
  5
12E6
330
1260
100
AcDbEntity
  8
本体
  6
ByBlock
 62
     0
370
    -2
380
     1
100
AcDbBlockReference
  2
*U31
 10
176.5
 20
0.0
 30
0.0
  0
INSERT
  5
12E7
330
1260
100
AcDbEntity
  8
本体
  6
ByBlock
 62
     0
370
    -2
380
     1
100
AcDbBlockReference
  2
*U31
 10
211.8
 20
0.0
 30
0.0
  0
INSERT
  5
12E8
330
1260
100
AcDbEntity
  8
本体
  6
ByBlock
 62
     0
370
    -2
380
     1
100
AcDbBlockReference
  2
*U31
 10
247.1
 20
0.0
 30
0.0
  0
INSERT
  5
12E9
330
1260
100
AcDbEntity
  8
本体
  6
ByBlock
 62
     0
370
    -2
380
     1
100
AcDbBlockReference
  2
*U31
 10
282.4
 20
0.0
 30
0.0
  0
INSERT
  5
12EA
330
1260
100
AcDbEntity
  8
本体
  6
ByBlock
 62
     0
370
    -2
380
     1
100
AcDbBlockReference
  2
*U31
 10
317.7
 20
0.0
 30
0.0
  0
INSERT
  5
12EB
330
1260
100
AcDbEntity
  8
本体
  6
ByBlock
 62
     0
370
    -2
380
     1
100
AcDbBlockReference
  2
*U31
 10
353.0
 20
0.0
 30
0.0
  0
INSERT
  5
12EC
330
1260
100
AcDbEntity
  8
本体
  6
ByBlock
 62
     0
370
    -2
380
     1
100
AcDbBlockReference
  2
*U31
 10
388.3
 20
0.0
 30
0.0
  0
INSERT
  5
12ED
330
1260
100
AcDbEntity
  8
本体
  6
ByBlock
 62
     0
370
    -2
380
     1
100
AcDbBlockReference
  2
*U31
 10
423.5999999999999
 20
0.0
 30
0.0
  0
ENDBLK
  5
1262
330
1260
100
AcDbEntity
  8
0
 48
3.0
100
AcDbBlockEnd
  0
ENDSEC
  0
SECTION
  2
ENTITIES
  0
LINE
  5
12
330
2
100
AcDbEntity
  8
外枠
 48
80.0
370
     9
100
AcDbLine
 10
0.0
 20
0.0
 30
0.0
 11
2789.511161023067
 21
0.0
 31
0.0
  0
LINE
  5
13
330
2
100
AcDbEntity
  8
外枠
 48
80.0
370
     9
100
AcDbLine
 10
2789.511161023071
 20
1973.26911249564
 30
0.0
 11
0.0
 21
1973.26911249564
 31
0.0
  0
LINE
  5
14
330
2
100
AcDbEntity
  8
外枠
 48
100.0
370
     9
100
AcDbLine
 10
10.0
 20
10.0
 30
0.0
 11
2780.119625023061
 21
10.0
 31
0.0
  0
LINE
  5
17
330
2
100
AcDbEntity
  8
外枠
  6
Continuous
 48
100.0
370
     9
100
AcDbLine
 10
9.999999999996362
 20
155.3992728208031
 30
0.0
 11
2780.119625023061
 21
155.3992728207995
 31
0.0
  0
LINE
  5
18
330
2
100
AcDbEntity
  8
外枠
  6
Continuous
 48
100.0
370
     9
100
AcDbLine
 10
9.999999999996362
 20
160.0950408208045
 30
0.0
 11
2780.119625023061
 21
160.0950408207973
 31
0.0
  0
LINE
  5
19
330
2
100
AcDbEntity
  8
外枠
 48
100.0
370
     9
100
AcDbLine
 10
10.0
 20
1963.877576495633
 30
0.0
 11
2780.119625023053
 21
1963.877576495637
 31
0.0
  0
LINE
  5
1A
330
2
100
AcDbEntity
  8
外枠
 48
80.0
370
     9
100
AcDbLine
 10
0.0
 20
0.0
 30
0.0
 11
0.0
 21
1973.26911249564
 31
0.0
  0
LINE
  5
1B
330
2
100
AcDbEntity
  8
外枠
 48
100.0
370
     9
100
AcDbLine
 10
10.0
 20
1963.877576495633
 30
0.0
 11
10.0
 21
10.0
 31
0.0
  0
LINE
  5
1C
330
2
100
AcDbEntity
  8
外枠
  6
Continuous
 48
100.0
370
     9
100
AcDbLine
 10
10.0
 20
82.69963641040158
 30
0.0
 11
1153.530108552004
 21
82.69963641039794
 31
0.0
  0
MTEXT
  5
1D
330
2
100
AcDbEntity
  8
外枠
  6
Continuous
 48
100.0
370
     9
100
AcDbMText
 10
555.6000408682721
 20
136.1535564242149
 30
0.0
 40
29.0
 41
664.6118999999999
 71
     1
 72
     5
  1
自由勾配側溝用グレーチング
 73
     1
 44
1.0
1001
ACAD
1000
MTEXTBEGIN
1070
    73
1070
     1
1070
    44
1040
1.0
1070
    74
1070
     0
1000
MTEXTEND
  0
MTEXT
  5
1E
330
2
100
AcDbEntity
  8
外枠
  6
Continuous
 48
100.0
370
     9
100
AcDbMText
 10
246.8574963386418
 20
64.81814764649607
 30
0.0
 40
35.0
 41
532.9183
 71
     1
 72
     5
  1
695\U+00D7495\U+00D775/140
 73
     1
 44
1.0
1001
ACAD
1000
MTEXTBEGIN
1070
    73
1070
     1
1070
    44
1040
1.0
1070
    74
1070
     0
1000
MTEXTEND
  0
MTEXT
  5
1F
330
2
100
AcDbEntity
  8
外枠
  6
Continuous
 48
100.0
370
     9
100
AcDbMText
 10
73.47653388609796
 20
137.3760680266387
 30
0.0
 40
30.0
 41
126.3036
 71
     1
 72
     5
  1
T-14
 73
     1
 44
1.0
1001
ACAD
1000
MTEXTBEGIN
1070
    73
1070
     1
1070
    44
1040
1.0
1070
    74
1070
     0
1000
MTEXTEND
  0
MTEXT
  5
20
330
2
100
AcDbEntity
  8
外枠
  6
Continuous
 48
100.0
370
     9
100
AcDbMText
 10
68.92783543177666
 20
59.95966632915224
 30
0.0
 40
35.0
 41
88.86979999999999
 71
     1
 72
     5
  1
TFVP
 73
     1
 44
1.0
1001
ACAD
1000
MTEXTBEGIN
1070
    73
1070
     1
1070
    44
1040
1.0
1070
    74
1070
     0
1000
MTEXTEND
  0
LINE
  5
21
330
2
100
AcDbEntity
  8
外枠
 48
100.0
370
     9
100
AcDbLine
 10
45.0
 20
155.3992728208031
 30
0.0
 11
45.0
 21
10.0
 31
0.0
  0
MTEXT
  5
22
330
2
100
AcDbEntity
  8
外枠
  6
Continuous
 48
100.0
370
     9
100
AcDbMText
 10
15.05670849094895
 20
75.82038473524153
 30
0.0
 40
20.0
 41
23.52947333656417
 71
     1
 72
     5
  1
品\P番
 73
     1
 44
1.0
1001
ACAD
1000
MTEXTBEGIN
1070
    73
1070
     1
1070
    44
1040
1.0
1070
    74
1070
     0
1000
MTEXTEND
  0
MTEXT
  5
23
330
2
100
AcDbEntity
  8
外枠
  6
Continuous
 48
100.0
370
     9
100
AcDbMText
 10
14.92010060012399
 20
149.3317229429121
 30
0.0
 40
20.0
 41
30.07989939987533
 71
     1
 72
     5
  1
荷\P重
 73
     1
 44
1.0
1001
ACAD
1000
MTEXTBEGIN
1070
    73
1070
     1
1070
    44
1040
1.0
1070
    74
1070
     0
1000
MTEXTEND
  0
LINE
  5
24
330
2
100
AcDbEntity
  8
外枠
 48
100.0
370
     9
100
AcDbLine
 10
179.1040495562847
 20
155.3992728208031
 30
0.0
 11
179.1040495562847
 21
10.0
 31
0.0
  0
MTEXT
  5
25
330
2
100
AcDbEntity
  8
外枠
  6
Continuous
 48
100.0
370
     9
100
AcDbMText
 10
268.9341625605839
 20
133.8572910967996
 30
0.0
 40
30.0
 41
163.9045
 71
     1
 72
     5
  1
VS600用
 73
     1
 44
1.0
1001
ACAD
1000
MTEXTBEGIN
1070
    73
1070
     1
1070
    44
1040
1.0
1070
    74
1070
     0
1000
MTEXTEND
  0
MTEXT
  5
26
330
2
100
AcDbEntity
  8
外枠
  6
Continuous
 48
100.0
370
     9
100
AcDbMText
 10
184.4346535744698
 20
149.3074501239389
 30
0.0
 40
20.0
 41
29.6694
 71
     1
 72
     5
  1
溝幅
 73
     1
 44
1.0
1001
ACAD
1000
MTEXTBEGIN
1070
    73
1070
     1
1070
    44
1040
1.0
1070
    74
1070
     0
1000
MTEXTEND
  0
LINE
  5
27
330
2
100
AcDbEntity
  8
外枠
 48
100.0
370
     9
100
AcDbLine
 10
214.1040495562847
 20
155.3992728208031
 30
0.0
 11
214.1040495562847
 21
82.69963641040158
 31
0.0
  0
MTEXT
  5
28
330
2
100
AcDbEntity
  8
外枠
  6
Continuous
 48
100.0
370
     9
100
AcDbMText
 10
477.8955451146976
 20
149.3074501239389
 30
0.0
 40
20.0
 41
29.6694
 71
     1
 72
     5
  1
品名
 73
     1
 44
1.0
1001
ACAD
1000
MTEXTBEGIN
1070
    73
1070
     1
1070
    44
1040
1.0
1070
    74
1070
     0
1000
MTEXTEND
  0
LINE
  5
29
330
2
100
AcDbEntity
  8
外枠
 48
100.0
370
     9
100
AcDbLine
 10
472.5649410965124
 20
155.3992728208031
 30
0.0
 11
472.5649410965124
 21
82.69963641040158
 31
0.0
  0
LINE
  5
2A
330
2
100
AcDbEntity
  8
外枠
 48
100.0
370
     9
100
AcDbLine
 10
507.5649410965125
 20
155.3992728208031
 30
0.0
 11
507.5649410965125
 21
82.69963641040158
 31
0.0
  0
MTEXT
  5
2B
330
2
100
AcDbEntity
  8
外枠
  6
Continuous
 48
100.0
370
     9
100
AcDbMText
 10
728.477887653953
 20
76.92551173516403
 30
0.0
 40
20.0
 41
664.6118999999999
 71
     1
 72
     5
  1
摘\P要
 73
     1
 44
1.0
1001
ACAD
1000
MTEXTBEGIN
1070
    73
1070
     1
1070
    44
1040
1.0
1070
    74
1070
     0
1000
MTEXTEND
  0
LINE
  5
2C
330
2
100
AcDbEntity
  8
外枠
 48
100.0
370
     9
100
AcDbLine
 10
723.8282373115871
 20
82.6996364103943
 30
0.0
 11
723.8282373115871
 21
9.999999999992724
 31
0.0
  0
LINE
  5
2F
330
2
100
AcDbEntity
  8
外枠
 48
100.0
370
     9
100
AcDbLine
 10
758.8282373115871
 20
82.6996364103943
 30
0.0
 11
758.8282373115871
 21
9.999999999992724
 31
0.0
  0
LINE
  5
31
330
2
100
AcDbEntity
  8
外枠
 48
100.0
370
     9
100
AcDbLine
 10
974.9513069700951
 20
82.6996364103943
 30
0.0
 11
974.9513069700951
 21
9.999999999992724
 31
0.0
  0
MTEXT
  5
32
330
2
100
AcDbEntity
  8
外枠
  6
Continuous
 48
100.0
370
     9
100
AcDbMText
 10
979.7329598959768
 20
74.84825461820583
 30
0.0
 40
20.0
 41
31.38947761565365
 71
     1
 72
     5
  1
材\P質
 73
     1
 44
1.0
1001
ACAD
1000
MTEXTBEGIN
1070
    73
1070
     1
1070
    44
1040
1.0
1070
    74
1070
     0
1000
MTEXTEND
  0
LINE
  5
33
330
2
100
AcDbEntity
  8
外枠
 48
100.0
370
     9
100
AcDbLine
 10
1009.951306970095
 20
82.6996364103943
 30
0.0
 11
1009.951306970095
 21
9.999999999992724
 31
0.0
  0
LINE
  5
37
330
2
100
AcDbEntity
  8
外枠
 48
80.0
370
     9
100
AcDbLine
 10
2789.511161023067
 20
0.0
 30
0.0
 11
2789.511161023071
 21
1973.26911249564
 31
0.0
  0
LINE
  5
38
330
2
100
AcDbEntity
  8
外枠
 48
100.0
370
     9
100
AcDbLine
 10
2780.119625023053
 20
1963.877576495637
 30
0.0
 11
2780.119625023061
 21
10.0
 31
0.0
  0
LINE
  5
3A
330
2
100
AcDbEntity
  8
外枠
 48
3.0
100
AcDbLine
 10
1607.072254912545
 20
61.67068719952067
 30
0.0
 11
2262.173600934632
 21
61.67068719952067
 31
0.0
  0
MTEXT
  5
3B
330
2
100
AcDbEntity
  8
外枠
  6
Continuous
 48
100.0
370
     9
100
AcDbMText
 10
1683.622173868318
 20
50.71504764095289
 30
0.0
 40
30.00024
 41
539.4827578564582
 71
     1
 72
     5
  1
T A K A R A   G R A T I N G
 73
     1
 44
1.0
1001
ACAD
1000
MTEXTBEGIN
1070
    73
1070
     1
1070
    44
1040
1.0
1070
    74
1070
     0
1000
MTEXTEND
  0
MTEXT
  5
3C
330
2
100
AcDbEntity
  8
外枠
  6
Continuous
 48
100.0
370
     9
100
AcDbMText
 10
1728.02061463669
 20
127.1672938476838
 30
0.0
 40
30.0
 41
282.8297
 71
     1
 72
     5
  1
株 式 会 社
 73
     1
 44
1.0
1001
ACAD
1000
MTEXTBEGIN
1070
    73
1070
     1
1070
    44
1040
1.0
1070
    74
1070
     0
1000
MTEXTEND
  0
LINE
  5
3D
330
2
100
AcDbEntity
  8
外枠
  6
Continuous
 48
100.0
370
     9
100
AcDbLine
 10
1508.680137877982
 20
155.3992728208068
 30
0.0
 11
1508.680137877982
 21
10.00000000000364
 31
0.0
  0
LINE
  5
3E
330
2
100
AcDbEntity
  8
外枠
  6
Continuous
 48
100.0
370
     9
100
AcDbLine
 10
1593.95141853916
 20
155.3992728207995
 30
0.0
 11
1593.95141853916
 21
9.999999999996362
 31
0.0
  0
LINE
  5
3F
330
2
100
AcDbEntity
  8
外枠
  6
Continuous
 48
100.0
370
     9
100
AcDbLine
 10
1616.777813337499
 20
106.634063069062
 30
0.0
 11
1612.463999974505
 21
110.08511375945
 31
0.0
  0
LINE
  5
40
330
2
100
AcDbEntity
  8
外枠
  6
Continuous
 48
100.0
370
     9
100
AcDbLine
 10
1616.777813337499
 20
106.634063069062
 30
0.0
 11
1612.463999974505
 21
103.183012378663
 31
0.0
  0
LINE
  5
41
330
2
100
AcDbEntity
  8
外枠
  6
Continuous
 48
100.0
370
     9
100
AcDbLine
 10
1616.777813337505
 20
113.5361644498489
 30
0.0
 11
1612.463999974505
 21
110.08511375945
 31
0.0
  0
LINE
  5
42
330
2
100
AcDbEntity
  8
外枠
  6
Continuous
 48
100.0
370
     9
100
AcDbLine
 10
1616.777813337499
 20
99.73196168827508
 30
0.0
 11
1612.463999974505
 21
103.183012378663
 31
0.0
  0
MTEXT
  5
43
330
2
100
AcDbEntity
  8
外枠
  6
Continuous
 48
100.0
370
     9
100
AcDbMText
 10
1520.476936402745
 20
137.4995509975779
 30
0.0
 40
20.0
 41
1015.1375
 71
     1
 72
     5
  1
39.6
 73
     1
 44
1.0
1001
ACAD
1000
MTEXTBEGIN
1070
    73
1070
     1
1070
    44
1040
1.0
1070
    74
1070
     0
1000
MTEXTEND
  0
MTEXT
  5
44
330
2
100
AcDbEntity
  8
外枠
  6
Continuous
 48
100.0
370
     9
100
AcDbMText
 10
1568.464698185987
 20
108.4136993179927
 30
0.0
 40
18.0
 41
25.456
 71
     1
 72
     5
  1
kg
 73
     1
 44
1.0
1001
ACAD
1000
MTEXTBEGIN
1070
    73
1070
     1
1070
    44
1040
1.0
1070
    74
1070
     0
1000
MTEXTEND
  0
LINE
  5
45
330
2
100
AcDbEntity
  8
外枠
  6
Continuous
 48
100.0
370
     9
100
AcDbLine
 10
1649.122643507042
 20
139.4120285854742
 30
0.0
 11
1653.436456870031
 21
135.9609778950862
 31
0.0
  0
LINE
  5
46
330
2
100
AcDbEntity
  8
外枠
  6
Continuous
 48
100.0
370
     9
100
AcDbLine
 10
1666.377896959009
 20
139.4120285854742
 30
0.0
 11
1662.06408359602
 21
135.9609778950862
 31
0.0
  0
MTEXT
  5
47
330
2
100
AcDbEntity
  8
外枠
  6
Continuous
 48
100.0
370
     9
100
AcDbMText
 10
1642.840555134189
 20
120.8184913847756
 30
0.0
 40
23.95393639053264
 41
23.85059431815661
 71
     1
 72
     5
  1
{\fＭＳ ゴシック|b0|i0|c128|p49;宝}
 73
     1
 44
1.0
1001
ACAD
1000
MTEXTBEGIN
1070
    73
1070
     1
1070
    44
1040
1.0
1070
    74
1070
     0
1000
MTEXTEND
  0
LINE
  5
48
330
2
100
AcDbEntity
  8
外枠
  6
Continuous
 48
100.0
370
     9
100
AcDbLine
 10
1662.06408359602
 20
135.9609778950862
 30
0.0
 11
1694.408913765557
 21
110.08511375945
 31
0.0
  0
LINE
  5
49
330
2
100
AcDbEntity
  8
外枠
  6
Continuous
 48
100.0
370
     9
100
AcDbLine
 10
1657.750270233026
 20
132.5099272046927
 30
0.0
 11
1690.095100402563
 21
106.634063069062
 31
0.0
  0
LINE
  5
4A
330
2
100
AcDbEntity
  8
外枠
  6
Continuous
 48
100.0
370
     9
100
AcDbLine
 10
1690.095100402563
 20
106.634063069062
 30
0.0
 11
1657.750270233026
 21
80.75819893343123
 31
0.0
  0
LINE
  5
4B
330
2
100
AcDbEntity
  8
外枠
  6
Continuous
 48
100.0
370
     9
100
AcDbLine
 10
1694.408913765557
 20
103.183012378663
 30
0.0
 11
1662.06408359602
 21
77.30714824303777
 31
0.0
  0
LINE
  5
4C
330
2
100
AcDbEntity
  8
外枠
  6
Continuous
 48
100.0
370
     9
100
AcDbLine
 10
1657.750270233026
 20
80.75819893342577
 30
0.0
 11
1625.405440063488
 21
106.634063069062
 31
0.0
  0
LINE
  5
4D
330
2
100
AcDbEntity
  8
外枠
  6
Continuous
 48
100.0
370
     9
100
AcDbLine
 10
1653.436456870031
 20
77.30714824303777
 30
0.0
 11
1621.0916267005
 21
103.183012378663
 31
0.0
  0
LINE
  5
4E
330
2
100
AcDbEntity
  8
外枠
  6
Continuous
 48
100.0
370
     9
100
AcDbLine
 10
1621.0916267005
 20
103.183012378663
 30
0.0
 11
1616.777813337505
 21
99.73196168827508
 31
0.0
  0
LINE
  5
4F
330
2
100
AcDbEntity
  8
外枠
  6
Continuous
 48
100.0
370
     9
100
AcDbLine
 10
1653.436456870031
 20
77.30714824303777
 30
0.0
 11
1649.122643507042
 21
73.85609755263885
 31
0.0
  0
LINE
  5
50
330
2
100
AcDbEntity
  8
外枠
  6
Continuous
 48
100.0
370
     9
100
AcDbLine
 10
1653.436456870031
 20
70.4050468622454
 30
0.0
 11
1649.122643507042
 21
73.85609755263885
 31
0.0
  0
LINE
  5
51
330
2
100
AcDbEntity
  8
外枠
  6
Continuous
 48
100.0
370
     9
100
AcDbLine
 10
1657.750270233026
 20
73.85609755263885
 30
0.0
 11
1653.436456870031
 21
70.4050468622454
 31
0.0
  0
LINE
  5
52
330
2
100
AcDbEntity
  8
外枠
  6
Continuous
 48
100.0
370
     9
100
AcDbLine
 10
1666.377896959009
 20
73.85609755263885
 30
0.0
 11
1662.06408359602
 21
70.4050468622454
 31
0.0
  0
LINE
  5
53
330
2
100
AcDbEntity
  8
外枠
  6
Continuous
 48
100.0
370
     9
100
AcDbLine
 10
1662.06408359602
 20
70.4050468622454
 30
0.0
 11
1657.750270233026
 21
73.85609755263885
 31
0.0
  0
LINE
  5
54
330
2
100
AcDbEntity
  8
外枠
  6
Continuous
 48
100.0
370
     9
100
AcDbLine
 10
1666.377896959009
 20
73.85609755263885
 30
0.0
 11
1662.06408359602
 21
77.30714824303777
 31
0.0
  0
LINE
  5
55
330
2
100
AcDbEntity
  8
外枠
  6
Continuous
 48
100.0
370
     9
100
AcDbLine
 10
1657.750270233026
 20
132.5099272046927
 30
0.0
 11
1625.405440063483
 21
106.634063069062
 31
0.0
  0
LINE
  5
56
330
2
100
AcDbEntity
  8
外枠
  6
Continuous
 48
100.0
370
     9
100
AcDbLine
 10
1653.436456870031
 20
135.9609778950862
 30
0.0
 11
1621.0916267005
 21
110.08511375945
 31
0.0
  0
LINE
  5
57
330
2
100
AcDbEntity
  8
外枠
  6
Continuous
 48
100.0
370
     9
100
AcDbLine
 10
1621.0916267005
 20
110.08511375945
 30
0.0
 11
1616.777813337505
 21
113.5361644498489
 31
0.0
  0
LINE
  5
58
330
2
100
AcDbEntity
  8
外枠
  6
Continuous
 48
100.0
370
     9
100
AcDbLine
 10
1694.408913765557
 20
103.183012378663
 30
0.0
 11
1698.722727128541
 21
99.73196168827508
 31
0.0
  0
LINE
  5
59
330
2
100
AcDbEntity
  8
外枠
  6
Continuous
 48
100.0
370
     9
100
AcDbLine
 10
1703.036540491541
 20
103.183012378663
 30
0.0
 11
1698.722727128541
 21
99.73196168827508
 31
0.0
  0
LINE
  5
5A
330
2
100
AcDbEntity
  8
外枠
  6
Continuous
 48
100.0
370
     9
100
AcDbLine
 10
1698.722727128541
 20
113.5361644498489
 30
0.0
 11
1694.408913765557
 21
110.08511375945
 31
0.0
  0
LINE
  5
5B
330
2
100
AcDbEntity
  8
外枠
  6
Continuous
 48
100.0
370
     9
100
AcDbLine
 10
1698.722727128541
 20
106.634063069062
 30
0.0
 11
1703.036540491541
 21
103.183012378663
 31
0.0
  0
LINE
  5
5C
330
2
100
AcDbEntity
  8
外枠
  6
Continuous
 48
100.0
370
     9
100
AcDbLine
 10
1698.722727128541
 20
113.5361644498489
 30
0.0
 11
1703.036540491541
 21
110.08511375945
 31
0.0
  0
LINE
  5
5D
330
2
100
AcDbEntity
  8
外枠
  6
Continuous
 48
100.0
370
     9
100
AcDbLine
 10
1703.036540491541
 20
110.08511375945
 30
0.0
 11
1698.722727128541
 21
106.634063069062
 31
0.0
  0
LINE
  5
5E
330
2
100
AcDbEntity
  8
外枠
  6
Continuous
 48
100.0
370
     9
100
AcDbLine
 10
1653.436456870031
 20
142.8630792758676
 30
0.0
 11
1649.122643507042
 21
139.4120285854742
 31
0.0
  0
LINE
  5
5F
330
2
100
AcDbEntity
  8
外枠
  6
Continuous
 48
100.0
370
     9
100
AcDbLine
 10
1662.06408359602
 20
142.8630792758676
 30
0.0
 11
1666.377896959009
 21
139.4120285854742
 31
0.0
  0
LINE
  5
60
330
2
100
AcDbEntity
  8
外枠
  6
Continuous
 48
100.0
370
     9
100
AcDbLine
 10
1653.436456870031
 20
142.8630792758676
 30
0.0
 11
1657.750270233026
 21
139.4120285854742
 31
0.0
  0
LINE
  5
61
330
2
100
AcDbEntity
  8
外枠
  6
Continuous
 48
100.0
370
     9
100
AcDbLine
 10
1662.06408359602
 20
142.8630792758676
 30
0.0
 11
1657.750270233026
 21
139.4120285854742
 31
0.0
  0
MTEXT
  5
62
330
2
100
AcDbEntity
  8
外枠
  6
Continuous
 48
100.0
370
     9
100
AcDbMText
 10
1982.246612759803
 20
141.5312822365363
 30
0.0
 40
50.0
 41
269.1378
 71
     1
 72
     5
  1
宝 機 材
 73
     1
 44
1.0
1001
ACAD
1000
MTEXTBEGIN
1070
    73
1070
     1
1070
    44
1040
1.0
1070
    74
1070
     0
1000
MTEXTEND
  0
INSERT
  5
63
330
2
100
AcDbEntity
  8
0
100
AcDbBlockReference
  2
GIB詳細
 10
2565.418449883758
 20
297.7225231137781
 30
0.0
  0
LINE
  5
AB
330
2
100
AcDbEntity
  8
外枠
  6
Continuous
 48
100.0
370
     9
100
AcDbLine
 10
2694.775480668144
 20
78.59726492113622
 30
0.0
 11
2729.639779322774
 21
43.73296626650699
 31
0.0
  0
LINE
  5
AC
330
2
100
AcDbEntity
  8
外枠
  6
Continuous
 48
100.0
370
     9
100
AcDbLine
 10
2729.639779322774
 20
113.4615635757691
 30
0.0
 11
2694.775480668144
 21
78.59726492113622
 31
0.0
  0
LINE
  5
AE
330
2
100
AcDbEntity
  8
外枠
  6
Continuous
 48
100.0
370
     9
100
AcDbLine
 10
2271.730765417811
 20
155.3992728207995
 30
0.0
 11
2271.730765417811
 21
10.0
 31
0.0
  0
LINE
  5
AF
330
2
100
AcDbEntity
  8
外枠
  6
Continuous
 48
100.0
370
     9
100
AcDbLine
 10
2387.385592047314
 20
155.3992728207995
 30
0.0
 11
2387.385592047314
 21
9.999999999996362
 31
0.0
  0
MTEXT
  5
B0
330
2
100
AcDbEntity
  8
外枠
  6
Continuous
 48
100.0
370
     9
100
AcDbMText
 10
2518.897970034654
 20
80.52451510381798
 30
0.0
 40
16.435188
 41
274.138099993296
 71
     1
 72
     5
  1
縮尺（A4用紙)
 73
     1
 44
1.0
1001
ACAD
1000
MTEXTBEGIN
1070
    73
1070
     1
1070
    44
1040
1.0
1070
    74
1070
     0
1000
MTEXTEND
  0
LINE
  5
B1
330
2
100
AcDbEntity
  8
外枠
  6
Continuous
 48
100.0
370
     9
100
AcDbLine
 10
2503.04041867681
 20
155.3992728207995
 30
0.0
 11
2503.04041867681
 21
9.999999999996362
 31
0.0
  0
LINE
  5
B2
330
2
100
AcDbEntity
  8
外枠
  6
Continuous
 48
100.0
370
     9
100
AcDbLine
 10
2676.662359028593
 20
155.3992728207995
 30
0.0
 11
2676.662359028593
 21
10.0
 31
0.0
  0
MTEXT
  5
B3
330
2
100
AcDbEntity
  8
外枠
  6
Continuous
 48
100.0
370
     9
100
AcDbMText
 10
2557.587330290393
 20
42.24161905183791
 30
0.0
 40
23.47884
 41
274.138099993296
 71
     1
 72
     5
  1
1：10
 73
     1
 44
1.0
1001
ACAD
1000
MTEXTBEGIN
1070
    73
1070
     1
1070
    44
1040
1.0
1070
    74
1070
     0
1000
MTEXTEND
  0
MTEXT
  5
B4
330
2
100
AcDbEntity
  8
外枠
  6
Continuous
 48
100.0
370
     9
100
AcDbMText
 10
2280.290404386422
 20
149.5129012429788
 30
0.0
 40
18.783072
 41
274.13809060176
 71
     1
 72
     5
  1
Check
 73
     1
 44
1.0
1001
ACAD
1000
MTEXTBEGIN
1070
    73
1070
     1
1070
    44
1040
1.0
1070
    74
1070
     0
1000
MTEXTEND
  0
MTEXT
  5
B5
330
2
100
AcDbEntity
  8
外枠
  6
Continuous
 48
100.0
370
     9
100
AcDbMText
 10
2398.03460165154
 20
149.5129012429788
 30
0.0
 40
18.783072
 41
274.13809060176
 71
     1
 72
     5
  1
Draw
 73
     1
 44
1.0
1001
ACAD
1000
MTEXTBEGIN
1070
    73
1070
     1
1070
    44
1040
1.0
1070
    74
1070
     0
1000
MTEXTEND
  0
LINE
  5
B7
330
2
100
AcDbEntity
  8
外枠
  6
Continuous
 48
100.0
370
     9
100
AcDbLine
 10
2676.662359028593
 20
85.04752041039683
 30
0.0
 11
2503.04041867681
 21
85.04752041039683
 31
0.0
  0
MTEXT
  5
B8
330
2
100
AcDbEntity
  8
外枠
  6
Continuous
 48
100.0
370
     9
100
AcDbMText
 10
2518.897970034654
 20
153.7304166203976
 30
0.0
 40
16.435188
 41
274.138099993296
 71
     1
 72
     5
  1
図面作成日
 73
     1
 44
1.0
1001
ACAD
1000
MTEXTBEGIN
1070
    73
1070
     1
1070
    44
1040
1.0
1070
    74
1070
     0
1000
MTEXTEND
  0
LINE
  5
BA
330
2
100
AcDbEntity
  8
外枠
  6
Continuous
 48
100.0
370
     9
100
AcDbLine
 10
2729.639779322774
 20
43.73296626650699
 30
0.0
 11
2764.504077977396
 21
78.59726492113622
 31
0.0
  0
LINE
  5
BB
330
2
100
AcDbEntity
  8
外枠
  6
Continuous
 48
100.0
370
     9
100
AcDbLine
 10
2764.504077977396
 20
78.59726492113622
 30
0.0
 11
2729.639779322774
 21
113.4615635757691
 31
0.0
  0
LINE
  5
C6
330
2
100
AcDbEntity
  8
本体
  6
Continuous
100
AcDbLine
 10
503.2072992397216
 20
1697.142635905382
 30
0.0
 11
998.2072992397215
 21
1697.142635905382
 31
0.0
  0
LINE
  5
C7
330
2
100
AcDbEntity
  8
本体
  6
Continuous
100
AcDbLine
 10
503.2072992397216
 20
1691.142635905382
 30
0.0
 11
998.2072992397215
 21
1691.142635905382
 31
0.0
  0
LINE
  5
E6
330
2
100
AcDbEntity
  8
本体
  6
Continuous
100
AcDbLine
 10
510.2015797351237
 20
573.7222047001455
 30
0.0
 11
538.5072992397217
 21
573.7222047001455
 31
0.0
  0
LINE
  5
E7
330
2
100
AcDbEntity
  8
本体
  6
Continuous
100
AcDbLine
 10
511.4152834588349
 20
565.7222047001455
 30
0.0
 11
538.5072992397217
 21
565.7222047001455
 31
0.0
  0
LINE
  5
E8
330
2
100
AcDbEntity
  8
本体
  6
Continuous
100
AcDbLine
 10
511.3656070455099
 20
566.049641535704
 30
0.0
 11
538.5072992397217
 21
573.7222047001455
 31
0.0
  0
LINE
  5
120
330
2
100
AcDbEntity
  8
本体
  6
Continuous
100
AcDbLine
 10
503.2072992397216
 20
1008.142635905382
 30
0.0
 11
998.2072992397215
 21
1008.142635905382
 31
0.0
  0
LINE
  5
121
330
2
100
AcDbEntity
  8
本体
  6
Continuous
100
AcDbLine
 10
503.2072992397216
 20
1002.142635905382
 30
0.0
 11
998.2072992397215
 21
1002.142635905382
 31
0.0
  0
LINE
  5
13D
330
2
100
AcDbEntity
  8
本体
  6
Continuous
100
AcDbLine
 10
1828.517769740055
 20
1697.142635905382
 30
0.0
 11
1828.517769740055
 21
1691.142635905382
 31
0.0
  0
LINE
  5
13E
330
2
100
AcDbEntity
  8
本体
  6
Continuous
100
AcDbLine
 10
1828.517769740055
 20
1691.142635905382
 30
0.0
 11
1903.517769740055
 21
1691.142635905382
 31
0.0
  0
LINE
  5
13F
330
2
100
AcDbEntity
  8
本体
  6
Continuous
100
AcDbLine
 10
1872.517769740055
 20
1691.142635905382
 30
0.0
 11
1872.517769740055
 21
1694.142635905382
 31
0.0
  0
LINE
  5
140
330
2
100
AcDbEntity
  8
本体
  6
Continuous
100
AcDbLine
 10
1872.517769740055
 20
1694.142635905382
 30
0.0
 11
1828.517769740055
 21
1697.142635905382
 31
0.0
  0
LINE
  5
141
330
2
100
AcDbEntity
  8
本体
  6
Continuous
100
AcDbLine
 10
1828.517769740055
 20
1008.142635905382
 30
0.0
 11
1903.517769740055
 21
1008.142635905382
 31
0.0
  0
LINE
  5
142
330
2
100
AcDbEntity
  8
本体
  6
Continuous
100
AcDbLine
 10
1872.517769740055
 20
1005.142635905382
 30
0.0
 11
1828.517769740055
 21
1002.142635905382
 31
0.0
  0
LINE
  5
143
330
2
100
AcDbEntity
  8
本体
  6
Continuous
100
AcDbLine
 10
1828.517769740055
 20
1002.142635905382
 30
0.0
 11
1828.517769740055
 21
1008.142635905382
 31
0.0
  0
LINE
  5
144
330
2
100
AcDbEntity
  8
本体
  6
Continuous
100
AcDbLine
 10
1872.517769740055
 20
1008.142635905382
 30
0.0
 11
1872.517769740055
 21
1005.142635905382
 31
0.0
  0
LINE
  5
145
330
2
100
AcDbEntity
  8
本体
  6
Continuous
100
AcDbLine
 10
1828.517769740055
 20
1691.142635905382
 30
0.0
 11
1828.517769740055
 21
1008.142635905382
 31
0.0
  0
LINE
  5
146
330
2
100
AcDbEntity
  8
本体
  6
Continuous
100
AcDbLine
 10
1903.517769740055
 20
1691.142635905382
 30
0.0
 11
1903.517769740055
 21
1008.142635905382
 31
0.0
  0
LINE
  5
147
330
2
100
AcDbEntity
  8
本体
  6
Continuous
100
AcDbLine
 10
1836.517769740055
 20
1691.142635905382
 30
0.0
 11
1836.517769740055
 21
1008.142635905382
 31
0.0
  0
LINE
  5
148
330
2
100
AcDbEntity
  8
本体
  6
Continuous
100
AcDbLine
 10
1895.517769740055
 20
1691.142635905382
 30
0.0
 11
1895.517769740055
 21
1008.142635905382
 31
0.0
  0
INSERT
  5
149
330
2
100
AcDbEntity
  8
本体
  6
Continuous
100
AcDbBlockReference
  2
TB8
 10
1828.517769740055
 20
1649.642635905382
 30
0.0
  0
INSERT
  5
152
330
2
100
AcDbEntity
  8
本体
  6
Continuous
100
AcDbBlockReference
  2
TB8
 10
1828.517769740055
 20
1549.642635905382
 30
0.0
  0
INSERT
  5
153
330
2
100
AcDbEntity
  8
本体
  6
Continuous
100
AcDbBlockReference
  2
TB8
 10
1828.517769740055
 20
1049.642635905382
 30
0.0
  0
DIMENSION
  5
15F
330
2
100
AcDbEntity
  8
寸法線
  6
Continuous
100
AcDbDimension
  2
*D7
 10
859.7072992397215
 20
653.7222047001455
 30
0.0
 11
931.7123753818535
 21
673.7222047001455
 31
0.0
 70
    32
 71
     5
 42
35.29999999999973
  3
ISO-25
100
AcDbAlignedDimension
 13
824.4072992397217
 23
573.7222047001455
 33
0.0
 14
859.7072992397215
 24
573.7222047001455
 34
0.0
100
AcDbRotatedDimension
1001
ACAD
1000
DSTYLE
1002
{
1070
   279
1070
     0
1002
}
  0
DIMENSION
  5
16F
330
2
100
AcDbEntity
  8
寸法線
  6
Continuous
100
AcDbDimension
  2
*D8
 10
998.2072992397215
 20
733.7222047001455
 30
0.0
 11
750.7072992397215
 21
733.7222047001455
 31
0.0
 70
   160
 71
     5
 42
495.0
  3
ISO-25
100
AcDbAlignedDimension
 13
503.2072992397216
 23
573.3462629763334
 33
0.0
 14
998.2072992397215
 24
573.3462629763334
 34
0.0
100
AcDbRotatedDimension
1001
ACAD
1000
DSTYLE
1002
{
1070
   279
1070
     0
1002
}
  0
DIMENSION
  5
189
330
2
100
AcDbEntity
  8
寸法線
  6
Continuous
100
AcDbDimension
  2
*D9
 10
1668.517769740055
 20
1002.142635905382
 30
0.0
 11
1648.517769740054
 21
1349.642635905383
 31
0.0
 70
    32
 71
     5
 42
695.0
  3
ISO-25
100
AcDbAlignedDimension
 13
1828.517769740055
 23
1697.142635905382
 33
0.0
 14
1828.517769740055
 24
1002.142635905382
 34
0.0
 50
90.0
100
AcDbRotatedDimension
  0
DIMENSION
  5
196
330
2
100
AcDbEntity
  8
寸法線
  6
Continuous
100
AcDbDimension
  2
*D10
 10
2048.518688247931
 20
1012.142634905382
 30
0.0
 11
2028.518688247931
 21
1349.642635905383
 31
0.0
 70
    32
 71
     5
 42
675.0000020000001
  3
ISO-25
100
AcDbAlignedDimension
 13
1965.517766740054
 23
1687.142636905383
 33
0.0
 14
1965.517766740054
 24
1012.142634905382
 34
0.0
 50
90.0
100
AcDbRotatedDimension
  0
LEADER
  5
1A3
330
2
100
AcDbEntity
  8
寸法線
  6
Continuous
100
AcDbLeader
  3
ISO-25
 73
     0
 74
     0
 75
     1
 40
36.39593908629441
 41
132.9441624365482
 76
     3
 10
998.4607445107767
 20
1697.142635905382
 30
0.0
 10
1054.171422629431
 20
1775.353314024037
 30
0.0
 10
1069.171422629431
 20
1775.353314024037
 30
0.0
340
1A4
1001
ACAD
1000
DSTYLE
1002
{
1070
     5
1000
OPEN30
1070
    77
1070
     1
1070
   147
1040
0.5
1070
   342
1005
155
1002
}
  0
MTEXT
  5
1A4
102
{ACAD_REACTORS
330
1A3
102
}
330
2
100
AcDbEntity
  8
寸法線
  6
Continuous
100
AcDbMText
 10
1074.171422629431
 20
1780.353314024037
 30
0.0
 40
30.0
 41
0.0
 71
     7
 72
     1
  1
6/3\U+00D744
 73
     1
 44
1.0
1001
ACAD
1000
MTEXTBEGIN
1070
    73
1070
     1
1070
    44
1040
1.0
1070
    74
1070
     0
1000
MTEXTEND
  0
LEADER
  5
1A5
330
2
100
AcDbEntity
  8
寸法線
  6
Continuous
100
AcDbLeader
  3
ISO-25
 73
     0
 74
     0
 75
     1
 40
30.0
 41
230.2538071065989
 76
     3
 10
1936.017766740055
 20
1687.142636905383
 30
0.0
 10
2001.728443858711
 20
1770.353314024038
 30
0.0
 10
2016.72844385871
 20
1770.353314024038
 30
0.0
340
1A6
1001
ACAD
1000
DSTYLE
1002
{
1070
     5
1000
OPEN30
1070
    77
1070
     1
1070
   147
1040
0.5
1070
   342
1005
155
1002
}
  0
MTEXT
  5
1A6
102
{ACAD_REACTORS
330
1A5
102
}
330
2
100
AcDbEntity
  8
寸法線
  6
Continuous
100
AcDbMText
 10
2021.728443858711
 20
1775.353314024038
 30
0.0
 40
30.0
 41
0.0
 71
     7
 72
     1
  1
P2.3\U+00D765\U+00D740
 73
     1
 44
1.0
1001
ACAD
1000
MTEXTBEGIN
1070
    73
1070
     1
1070
    44
1040
1.0
1070
    74
1070
     0
1000
MTEXTEND
  0
LINE
  5
1A7
330
2
100
AcDbEntity
  8
嵩上断面
  6
Continuous
100
AcDbLine
 10
988.2072992397215
 20
433.7222047001455
 30
0.0
 11
513.2072992397215
 21
433.7222047001455
 31
0.0
  0
LINE
  5
1A8
330
2
100
AcDbEntity
  8
嵩上断面
  6
Continuous
100
AcDbLine
 10
988.2072992397215
 20
498.7222047001455
 30
0.0
 11
513.2072992397215
 21
498.7222047001455
 31
0.0
  0
LINE
  5
1A9
330
2
100
AcDbEntity
  8
嵩上断面
  6
HIDDEN
 48
2.0
100
AcDbLine
 10
988.2072992397215
 20
496.4222047001454
 30
0.0
 11
513.2072992397215
 21
496.4222047001454
 31
0.0
  0
DIMENSION
  5
1AB
330
2
100
AcDbEntity
  8
寸法線
  6
Continuous
100
AcDbDimension
  2
*D11
 10
1100.471923163486
 20
573.7222047001455
 30
0.0
 11
1080.471923163486
 21
536.2222047001456
 31
0.0
 70
    32
 71
     5
 42
75.0
  3
ISO-25
100
AcDbAlignedDimension
 13
990.7072992397216
 23
498.7222047001455
 33
0.0
 14
995.2072992397216
 24
573.7222047001455
 34
0.0
 50
90.0
100
AcDbRotatedDimension
  0
DIMENSION
  5
1B8
330
2
100
AcDbEntity
  8
寸法線
  6
Continuous
100
AcDbDimension
  2
*D12
 10
1198.744045929198
 20
573.7222047001455
 30
0.0
 11
1178.744045929198
 21
503.7222047001456
 31
0.0
 70
    32
 71
     5
 42
140.0
  3
ISO-25
100
AcDbAlignedDimension
 13
990.7072992397216
 23
433.7222047001455
 33
0.0
 14
995.2072992397216
 24
573.7222047001455
 34
0.0
 50
90.0
100
AcDbRotatedDimension
  0
INSERT
  5
27A
330
2
100
AcDbEntity
  8
本体
  6
Continuous
100
AcDbBlockReference
  2
TB8
 10
1828.517769740055
 20
1349.642635905383
 30
0.0
  0
LINE
  5
27B
330
2
100
AcDbEntity
  8
中心線
  6
Continuous
100
AcDbLine
 10
824.4072992397214
 20
581.7222047001455
 30
0.0
 11
824.4072992397214
 21
490.7222047001455
 31
0.0
  0
LINE
  5
27C
330
2
100
AcDbEntity
  8
中心線
  6
Continuous
100
AcDbLine
 10
859.7072992397215
 20
581.7222047001455
 30
0.0
 11
859.7072992397215
 21
490.7222047001455
 31
0.0
  0
LINE
  5
2A1
330
2
100
AcDbEntity
  8
本体
  6
Continuous
100
AcDbLine
 10
969.1072992397211
 20
573.7222047001455
 30
0.0
 11
991.2130221551889
 21
573.7222047001455
 31
0.0
  0
LINE
  5
2A2
330
2
100
AcDbEntity
  8
本体
  6
Continuous
100
AcDbLine
 10
969.1072992397211
 20
565.7222047001455
 30
0.0
 11
990.405788398486
 21
565.7222047001455
 31
0.0
  0
LINE
  5
2A3
330
2
100
AcDbEntity
  8
本体
  6
Continuous
100
AcDbLine
 10
969.1072992397211
 20
565.7222047001455
 30
0.0
 11
991.204279777642
 21
573.6645823042331
 31
0.0
  0
LINE
  5
304
330
2
100
AcDbEntity
  8
本体
100
AcDbLine
 10
538.5072992397217
 20
573.7222047001455
 30
0.0
 11
545.5072992397218
 21
573.7222047001455
 31
0.0
  0
LINE
  5
305
330
2
100
AcDbEntity
  8
本体
100
AcDbLine
 10
538.5072992397217
 20
573.7222047001455
 30
0.0
 11
538.5072992397217
 21
563.7222047001455
 31
0.0
  0
LINE
  5
306
330
2
100
AcDbEntity
  8
本体
100
AcDbLine
 10
538.5072992397217
 20
563.7222047001455
 30
0.0
 11
540.0072992397217
 21
562.7222047001455
 31
0.0
  0
LINE
  5
307
330
2
100
AcDbEntity
  8
本体
100
AcDbLine
 10
545.5072992397218
 20
573.7222047001455
 30
0.0
 11
545.5072992397218
 21
563.7222047001455
 31
0.0
  0
LINE
  5
308
330
2
100
AcDbEntity
  8
本体
100
AcDbLine
 10
545.5072992397218
 20
563.7222047001455
 30
0.0
 11
544.0072992397217
 21
562.7222047001455
 31
0.0
  0
LINE
  5
309
330
2
100
AcDbEntity
  8
本体
100
AcDbLine
 10
538.5072992397217
 20
498.7222047001455
 30
0.0
 11
545.5072992397218
 21
498.7222047001455
 31
0.0
  0
LINE
  5
30A
330
2
100
AcDbEntity
  8
本体
100
AcDbLine
 10
538.5072992397217
 20
498.7222047001455
 30
0.0
 11
538.5072992397217
 21
508.7222047001455
 31
0.0
  0
LINE
  5
30B
330
2
100
AcDbEntity
  8
本体
100
AcDbLine
 10
538.5072992397217
 20
508.7222047001455
 30
0.0
 11
540.0072992397217
 21
509.7222047001455
 31
0.0
  0
LINE
  5
30C
330
2
100
AcDbEntity
  8
本体
100
AcDbLine
 10
545.5072992397218
 20
498.7222047001455
 30
0.0
 11
545.5072992397218
 21
508.7222047001455
 31
0.0
  0
LINE
  5
30D
330
2
100
AcDbEntity
  8
本体
100
AcDbLine
 10
545.5072992397218
 20
508.7222047001455
 30
0.0
 11
544.0072992397217
 21
509.7222047001455
 31
0.0
  0
LINE
  5
30E
330
2
100
AcDbEntity
  8
本体
100
AcDbLine
 10
540.0072992397217
 20
562.7222047001455
 30
0.0
 11
540.0072992397217
 21
509.7222047001455
 31
0.0
  0
LINE
  5
30F
330
2
100
AcDbEntity
  8
本体
100
AcDbLine
 10
544.0072992397217
 20
562.7222047001455
 30
0.0
 11
544.0072992397217
 21
509.7222047001455
 31
0.0
  0
LINE
  5
37C
330
2
100
AcDbEntity
  8
本体
100
AcDbLine
 10
991.2375903696018
 20
573.7267691375446
 30
0.0
 11
998.2072992397215
 21
573.0762629763335
 31
0.0
  0
LINE
  5
37D
330
2
100
AcDbEntity
  8
本体
100
AcDbLine
 10
991.2375903696018
 20
573.7267691375446
 30
0.0
 11
990.3082958535858
 21
563.7700421802306
 31
0.0
  0
LINE
  5
37E
330
2
100
AcDbEntity
  8
本体
100
AcDbLine
 10
990.3082958535858
 20
563.7700421802306
 30
0.0
 11
991.7088754455814
 21
562.6349753070969
 31
0.0
  0
LINE
  5
37F
330
2
100
AcDbEntity
  8
本体
100
AcDbLine
 10
998.2072992397215
 20
573.0762629763335
 30
0.0
 11
997.2780047237057
 21
563.1195360190194
 31
0.0
  0
LINE
  5
380
330
2
100
AcDbEntity
  8
本体
100
AcDbLine
 10
997.2780047237057
 20
563.1195360190194
 30
0.0
 11
995.6915662285069
 21
562.2632575006905
 31
0.0
  0
LINE
  5
381
330
2
100
AcDbEntity
  8
本体
100
AcDbLine
 10
984.2678814994821
 20
499.0513169576899
 30
0.0
 11
991.2375903696018
 21
498.4008107964787
 31
0.0
  0
LINE
  5
382
330
2
100
AcDbEntity
  8
本体
100
AcDbLine
 10
984.2678814994821
 20
499.0513169576899
 30
0.0
 11
985.1971760154979
 21
509.0080439150039
 31
0.0
  0
LINE
  5
383
330
2
100
AcDbEntity
  8
本体
100
AcDbLine
 10
985.1971760154979
 20
509.0080439150039
 30
0.0
 11
986.7836145106968
 21
509.8643224333328
 31
0.0
  0
LINE
  5
384
330
2
100
AcDbEntity
  8
本体
100
AcDbLine
 10
991.2375903696018
 20
498.4008107964787
 30
0.0
 11
992.1668848856178
 21
508.3575377537926
 31
0.0
  0
LINE
  5
385
330
2
100
AcDbEntity
  8
本体
100
AcDbLine
 10
992.1668848856178
 20
508.3575377537926
 30
0.0
 11
990.7663052936223
 21
509.4926046269264
 31
0.0
  0
LINE
  5
386
330
2
100
AcDbEntity
  8
本体
100
AcDbLine
 10
991.7088754455814
 20
562.6349753070969
 30
0.0
 11
986.7836145106968
 21
509.8643224333328
 31
0.0
  0
LINE
  5
387
330
2
100
AcDbEntity
  8
本体
100
AcDbLine
 10
995.6915662285069
 20
562.2632575006905
 30
0.0
 11
990.7663052936223
 21
509.4926046269264
 31
0.0
  0
INSERT
  5
388
330
2
100
AcDbEntity
  8
本体
  6
Continuous
100
AcDbBlockReference
  2
TB8
 10
1828.517769740055
 20
1149.642635905382
 30
0.0
  0
LINE
  5
3E2
330
2
100
AcDbEntity
  8
本体
  6
Continuous
100
AcDbLine
 10
503.2072992397216
 20
1645.642635905382
 30
0.0
 11
998.2072992397215
 21
1645.642635905382
 31
0.0
  0
LINE
  5
3E3
330
2
100
AcDbEntity
  8
本体
  6
Continuous
100
AcDbLine
 10
503.2072992397216
 20
1653.642635905383
 30
0.0
 11
998.2072992397215
 21
1653.642635905383
 31
0.0
  0
LINE
  5
41D
330
2
100
AcDbEntity
  8
本体
  6
Continuous
100
AcDbLine
 10
962.1072992397213
 20
1645.642635905382
 30
0.0
 11
997.4072992397214
 21
1653.642635905383
 31
0.0
  0
INSERT
  5
41F
330
2
100
AcDbEntity
  8
本体
  6
Continuous
100
AcDbBlockReference
  2
TB8
 10
1828.517769740055
 20
1449.642635905382
 30
0.0
  0
INSERT
  5
420
330
2
100
AcDbEntity
  8
本体
  6
Continuous
100
AcDbBlockReference
  2
TB8
 10
1828.517769740055
 20
1249.642635905382
 30
0.0
  0
LINE
  5
460
330
2
100
AcDbEntity
  8
本体
  6
Continuous
100
AcDbLine
 10
512.7775816238438
 20
529.7222047001455
 30
0.0
 11
540.0072992397217
 21
529.7222047001455
 31
0.0
  0
LINE
  5
46D
330
2
100
AcDbEntity
  8
本体
  6
Continuous
100
AcDbLine
 10
967.6072992397212
 20
529.7222047001455
 30
0.0
 11
988.6370168555993
 21
529.7222047001455
 31
0.0
  0
LINE
  5
46E
330
2
100
AcDbEntity
  8
嵩上断面
  6
HIDDEN
 48
2.0
100
AcDbLine
 10
988.2072992397215
 20
436.0222047001456
 30
0.0
 11
513.2072992397215
 21
436.0222047001456
 31
0.0
  0
LINE
  5
492
330
2
100
AcDbEntity
  8
嵩上断面
  6
Continuous
100
AcDbLine
 10
988.2072992397215
 20
498.7222047001455
 30
0.0
 11
988.2072992397215
 21
433.7222047001455
 31
0.0
  0
LINE
  5
493
330
2
100
AcDbEntity
  8
嵩上断面
  6
Continuous
100
AcDbLine
 10
513.2072992397215
 20
498.7222047001455
 30
0.0
 11
513.2072992397215
 21
433.7222047001455
 31
0.0
  0
DIMENSION
  5
4FE
330
2
100
AcDbEntity
  8
寸法線
  6
Continuous
100
AcDbDimension
  2
*D13
 10
513.2072992397215
 20
353.7222047001455
 30
0.0
 11
750.7072992397215
 21
373.7222047001456
 31
0.0
 70
    32
 71
     5
 42
475.0
  3
ISO-25
100
AcDbAlignedDimension
 13
988.2072992397215
 23
433.7222047001455
 33
0.0
 14
513.2072992397215
 24
433.7222047001455
 34
0.0
100
AcDbRotatedDimension
  0
LINE
  5
541
102
{ACAD_REACTORS
330
F4E
102
}
330
2
100
AcDbEntity
  8
嵩上断面
  6
HIDDEN
 48
3.0
370
     9
100
AcDbLine
 10
513.2072992397215
 20
1687.142636905383
 30
0.0
 11
988.2072992397215
 21
1687.142636905383
 31
0.0
  0
LINE
  5
545
102
{ACAD_REACTORS
330
F4E
102
}
330
2
100
AcDbEntity
  8
嵩上断面
  6
HIDDEN
 48
3.0
370
     9
100
AcDbLine
 10
988.2072992397215
 20
1687.142636905383
 30
0.0
 11
988.2072992397215
 21
1647.142636905383
 31
0.0
  0
LINE
  5
546
102
{ACAD_REACTORS
330
F4E
102
}
330
2
100
AcDbEntity
  8
嵩上断面
  6
HIDDEN
 48
3.0
370
     9
100
AcDbLine
 10
513.2072992397215
 20
1687.142636905383
 30
0.0
 11
513.2072992397215
 21
1647.142636905383
 31
0.0
  0
INSERT
  5
54E
330
2
100
AcDbEntity
  8
本体
  6
Continuous
100
AcDbBlockReference
  2
TB8
 10
1828.517769740055
 20
1299.642635905382
 30
0.0
  0
INSERT
  5
54F
330
2
100
AcDbEntity
  8
本体
  6
Continuous
100
AcDbBlockReference
  2
TB8
 10
1828.517769740055
 20
1499.642635905382
 30
0.0
  0
INSERT
  5
550
330
2
100
AcDbEntity
  8
本体
  6
Continuous
100
AcDbBlockReference
  2
TB8
 10
1828.517769740055
 20
1199.642635905382
 30
0.0
  0
INSERT
  5
551
330
2
100
AcDbEntity
  8
本体
  6
Continuous
100
AcDbBlockReference
  2
TB8
 10
1828.517769740055
 20
1399.642635905382
 30
0.0
  0
INSERT
  5
552
330
2
100
AcDbEntity
  8
本体
  6
Continuous
100
AcDbBlockReference
  2
TB8
 10
1828.517769740055
 20
1099.642635905382
 30
0.0
  0
INSERT
  5
553
330
2
100
AcDbEntity
  8
本体
  6
Continuous
100
AcDbBlockReference
  2
TB8
 10
1828.517769740055
 20
1599.642635905382
 30
0.0
  0
DIMENSION
  5
554
330
2
100
AcDbEntity
  8
寸法線
 48
3.0
100
AcDbDimension
  2
*D14
 10
1748.517769740055
 20
1599.642635905382
 30
0.0
 11
1728.517769740054
 21
1624.642635905383
 31
0.0
 70
    32
 71
     5
 42
50.0
  3
ISO-25
100
AcDbAlignedDimension
 13
1826.517769740055
 23
1649.642635905382
 33
0.0
 14
1826.517769740055
 24
1599.642635905382
 34
0.0
 50
90.0
100
AcDbRotatedDimension
  0
LINE
  5
66A
330
2
100
AcDbEntity
  8
本体
  6
Continuous
100
AcDbLine
 10
503.2072992397216
 20
1603.642635905383
 30
0.0
 11
998.2072992397215
 21
1603.642635905383
 31
0.0
  0
LINE
  5
66B
330
2
100
AcDbEntity
  8
本体
  6
Continuous
100
AcDbLine
 10
503.2072992397216
 20
1595.642635905382
 30
0.0
 11
998.2072992397215
 21
1595.642635905382
 31
0.0
  0
LINE
  5
6EF
330
2
100
AcDbEntity
  8
本体
  6
Continuous
100
AcDbLine
 10
962.1072992397213
 20
1595.642635905382
 30
0.0
 11
997.4072992397214
 21
1603.642635905383
 31
0.0
  0
LINE
  5
6F4
330
2
100
AcDbEntity
  8
本体
  6
Continuous
100
AcDbLine
 10
503.2072992397216
 20
1553.642635905382
 30
0.0
 11
998.2072992397215
 21
1553.642635905382
 31
0.0
  0
LINE
  5
6F5
330
2
100
AcDbEntity
  8
本体
  6
Continuous
100
AcDbLine
 10
503.2072992397216
 20
1545.642635905382
 30
0.0
 11
998.2072992397215
 21
1545.642635905382
 31
0.0
  0
LINE
  5
779
330
2
100
AcDbEntity
  8
本体
  6
Continuous
100
AcDbLine
 10
962.1072992397213
 20
1545.642635905382
 30
0.0
 11
997.4072992397214
 21
1553.642635905382
 31
0.0
  0
LINE
  5
77E
330
2
100
AcDbEntity
  8
本体
  6
Continuous
100
AcDbLine
 10
503.2072992397216
 20
1503.642635905382
 30
0.0
 11
998.2072992397215
 21
1503.642635905382
 31
0.0
  0
LINE
  5
77F
330
2
100
AcDbEntity
  8
本体
  6
Continuous
100
AcDbLine
 10
503.2072992397216
 20
1495.642635905382
 30
0.0
 11
998.2072992397215
 21
1495.642635905382
 31
0.0
  0
LINE
  5
803
330
2
100
AcDbEntity
  8
本体
  6
Continuous
100
AcDbLine
 10
962.1072992397213
 20
1495.642635905382
 30
0.0
 11
997.4072992397214
 21
1503.642635905382
 31
0.0
  0
LINE
  5
808
330
2
100
AcDbEntity
  8
本体
  6
Continuous
100
AcDbLine
 10
503.2072992397216
 20
1453.642635905382
 30
0.0
 11
998.2072992397215
 21
1453.642635905382
 31
0.0
  0
LINE
  5
809
330
2
100
AcDbEntity
  8
本体
  6
Continuous
100
AcDbLine
 10
503.2072992397216
 20
1445.642635905382
 30
0.0
 11
998.2072992397215
 21
1445.642635905382
 31
0.0
  0
LINE
  5
88D
330
2
100
AcDbEntity
  8
本体
  6
Continuous
100
AcDbLine
 10
962.1072992397213
 20
1445.642635905382
 30
0.0
 11
997.4072992397214
 21
1453.642635905382
 31
0.0
  0
LINE
  5
892
330
2
100
AcDbEntity
  8
本体
  6
Continuous
100
AcDbLine
 10
503.2072992397216
 20
1403.642635905382
 30
0.0
 11
998.2072992397215
 21
1403.642635905382
 31
0.0
  0
LINE
  5
893
330
2
100
AcDbEntity
  8
本体
  6
Continuous
100
AcDbLine
 10
503.2072992397216
 20
1395.642635905382
 30
0.0
 11
998.2072992397215
 21
1395.642635905382
 31
0.0
  0
LINE
  5
917
330
2
100
AcDbEntity
  8
本体
  6
Continuous
100
AcDbLine
 10
962.1072992397213
 20
1395.642635905382
 30
0.0
 11
997.4072992397214
 21
1403.642635905382
 31
0.0
  0
LINE
  5
91C
330
2
100
AcDbEntity
  8
本体
  6
Continuous
100
AcDbLine
 10
503.2072992397216
 20
1353.642635905382
 30
0.0
 11
998.2072992397215
 21
1353.642635905382
 31
0.0
  0
LINE
  5
91D
330
2
100
AcDbEntity
  8
本体
  6
Continuous
100
AcDbLine
 10
503.2072992397216
 20
1345.642635905382
 30
0.0
 11
998.2072992397215
 21
1345.642635905382
 31
0.0
  0
LINE
  5
9A1
330
2
100
AcDbEntity
  8
本体
  6
Continuous
100
AcDbLine
 10
962.1072992397213
 20
1345.642635905382
 30
0.0
 11
997.4072992397214
 21
1353.642635905382
 31
0.0
  0
LINE
  5
9A6
330
2
100
AcDbEntity
  8
本体
  6
Continuous
100
AcDbLine
 10
503.2072992397216
 20
1303.642635905382
 30
0.0
 11
998.2072992397215
 21
1303.642635905382
 31
0.0
  0
LINE
  5
9A7
330
2
100
AcDbEntity
  8
本体
  6
Continuous
100
AcDbLine
 10
503.2072992397216
 20
1295.642635905382
 30
0.0
 11
998.2072992397215
 21
1295.642635905382
 31
0.0
  0
LINE
  5
A2B
330
2
100
AcDbEntity
  8
本体
  6
Continuous
100
AcDbLine
 10
962.1072992397213
 20
1295.642635905382
 30
0.0
 11
997.4072992397214
 21
1303.642635905382
 31
0.0
  0
LINE
  5
A30
330
2
100
AcDbEntity
  8
本体
  6
Continuous
100
AcDbLine
 10
503.2072992397216
 20
1253.642635905382
 30
0.0
 11
998.2072992397215
 21
1253.642635905382
 31
0.0
  0
LINE
  5
A31
330
2
100
AcDbEntity
  8
本体
  6
Continuous
100
AcDbLine
 10
503.2072992397216
 20
1245.642635905382
 30
0.0
 11
998.2072992397215
 21
1245.642635905382
 31
0.0
  0
LINE
  5
AB5
330
2
100
AcDbEntity
  8
本体
  6
Continuous
100
AcDbLine
 10
962.1072992397213
 20
1245.642635905382
 30
0.0
 11
997.4072992397214
 21
1253.642635905382
 31
0.0
  0
LINE
  5
ABA
330
2
100
AcDbEntity
  8
本体
  6
Continuous
100
AcDbLine
 10
503.2072992397216
 20
1203.642635905382
 30
0.0
 11
998.2072992397215
 21
1203.642635905382
 31
0.0
  0
LINE
  5
ABB
330
2
100
AcDbEntity
  8
本体
  6
Continuous
100
AcDbLine
 10
503.2072992397216
 20
1195.642635905382
 30
0.0
 11
998.2072992397215
 21
1195.642635905382
 31
0.0
  0
LINE
  5
B3F
330
2
100
AcDbEntity
  8
本体
  6
Continuous
100
AcDbLine
 10
962.1072992397213
 20
1195.642635905382
 30
0.0
 11
997.4072992397214
 21
1203.642635905382
 31
0.0
  0
LINE
  5
B44
330
2
100
AcDbEntity
  8
本体
  6
Continuous
100
AcDbLine
 10
503.2072992397216
 20
1153.642635905382
 30
0.0
 11
998.2072992397215
 21
1153.642635905382
 31
0.0
  0
LINE
  5
B45
330
2
100
AcDbEntity
  8
本体
  6
Continuous
100
AcDbLine
 10
503.2072992397216
 20
1145.642635905382
 30
0.0
 11
998.2072992397215
 21
1145.642635905382
 31
0.0
  0
LINE
  5
BC9
330
2
100
AcDbEntity
  8
本体
  6
Continuous
100
AcDbLine
 10
962.1072992397213
 20
1145.642635905382
 30
0.0
 11
997.4072992397214
 21
1153.642635905382
 31
0.0
  0
LINE
  5
BCE
330
2
100
AcDbEntity
  8
本体
  6
Continuous
100
AcDbLine
 10
503.2072992397216
 20
1103.642635905382
 30
0.0
 11
998.2072992397215
 21
1103.642635905382
 31
0.0
  0
LINE
  5
BCF
330
2
100
AcDbEntity
  8
本体
  6
Continuous
100
AcDbLine
 10
503.2072992397216
 20
1095.642635905382
 30
0.0
 11
998.2072992397215
 21
1095.642635905382
 31
0.0
  0
LINE
  5
C53
330
2
100
AcDbEntity
  8
本体
  6
Continuous
100
AcDbLine
 10
962.1072992397213
 20
1095.642635905382
 30
0.0
 11
997.4072992397214
 21
1103.642635905382
 31
0.0
  0
LINE
  5
C57
330
2
100
AcDbEntity
  8
本体
  6
Continuous
100
AcDbLine
 10
503.2072992397216
 20
1045.642635905382
 30
0.0
 11
998.2072992397215
 21
1045.642635905382
 31
0.0
  0
LINE
  5
C58
330
2
100
AcDbEntity
  8
本体
  6
Continuous
100
AcDbLine
 10
503.2072992397216
 20
1053.642635905382
 30
0.0
 11
998.2072992397215
 21
1053.642635905382
 31
0.0
  0
LINE
  5
C68
330
2
100
AcDbEntity
  8
本体
  6
Continuous
100
AcDbLine
 10
962.1072992397213
 20
1045.642635905382
 30
0.0
 11
997.4072992397214
 21
1053.642635905382
 31
0.0
  0
LINE
  5
C6A
102
{ACAD_REACTORS
330
F4E
102
}
330
2
100
AcDbEntity
  8
嵩上断面
  6
HIDDEN
 48
3.0
370
     9
100
AcDbLine
 10
513.2072992397215
 20
1647.142636905383
 30
0.0
 11
988.2072992397215
 21
1647.142636905383
 31
0.0
  0
DIMENSION
  5
C70
330
2
100
AcDbEntity
  8
寸法線
 48
3.0
100
AcDbDimension
  2
*D15
 10
1100.471923163486
 20
433.7222047001455
 30
0.0
 11
1080.471923163486
 21
466.2222047001456
 31
0.0
 70
    32
 71
     5
 42
65.0
  3
ISO-25
100
AcDbAlignedDimension
 13
988.2072992397215
 23
498.7222047001455
 33
0.0
 14
988.2072992397215
 24
433.7222047001455
 34
0.0
 50
90.0
100
AcDbRotatedDimension
  0
MTEXT
  5
E10
330
2
100
AcDbEntity
  8
外枠
  6
Continuous
 48
100.0
370
     9
100
AcDbMText
 10
1022.193186254242
 20
77.61017986570414
 30
0.0
 40
18.0
 41
122.0406
 71
     1
 72
     5
  1
【主部材】
 73
     1
 44
1.0
1001
ACAD
1000
MTEXTBEGIN
1070
    73
1070
     1
1070
    44
1040
1.0
1070
    74
1070
     0
1000
MTEXTEND
  0
MTEXT
  5
E11
330
2
100
AcDbEntity
  8
外枠
  6
Continuous
 48
100.0
370
     9
100
AcDbMText
 10
1038.975343934131
 20
43.7816999552947
 30
0.0
 40
25.0
 41
122.0406
 71
     1
 72
     5
  1
SS400
 73
     1
 44
1.0
1001
ACAD
1000
MTEXTBEGIN
1070
    73
1070
     1
1070
    44
1040
1.0
1070
    74
1070
     0
1000
MTEXTEND
  0
MTEXT
  5
E12
330
2
100
AcDbEntity
  8
外枠
  6
Continuous
 48
100.0
370
     9
100
AcDbMText
 10
1202.677957061338
 20
120.1377642323818
 30
0.0
 40
25.0
 41
1015.1375
 71
     1
 72
     5
  1
溶融亜鉛めっき仕上
 73
     1
 44
1.0
1001
ACAD
1000
MTEXTBEGIN
1070
    73
1070
     1
1070
    44
1040
1.0
1070
    74
1070
     0
1000
MTEXTEND
  0
MTEXT
  5
E13
330
2
100
AcDbEntity
  8
外枠
  6
Continuous
 48
100.0
370
     9
100
AcDbMText
 10
1199.761738767627
 20
151.0819879350654
 30
0.0
 40
18.0
 41
301.8661
 71
     1
 72
     5
  1
【グレーチング】JIS　H8641
 73
     1
 44
1.0
1001
ACAD
1000
MTEXTBEGIN
1070
    73
1070
     1
1070
    44
1040
1.0
1070
    74
1070
     0
1000
MTEXTEND
  0
MTEXT
  5
E14
330
2
100
AcDbEntity
  8
外枠
  6
Continuous
 48
100.0
370
     9
100
AcDbMText
 10
1159.385398923399
 20
148.6111115828503
 30
0.0
 40
20.0
 41
1015.1375
 71
     1
 72
     5
  1
表\P面\P処\P理
 73
     1
 44
1.0
1001
ACAD
1000
MTEXTBEGIN
1070
    73
1070
     1
1070
    44
1040
1.0
1070
    74
1070
     0
1000
MTEXTEND
  0
LINE
  5
E15
330
2
100
AcDbEntity
  8
外枠
  6
Continuous
 48
100.0
370
     9
100
AcDbLine
 10
1188.531791166651
 20
155.3992728207999
 30
0.0
 11
1188.531791166651
 21
9.999999999996816
 31
0.0
  0
LINE
  5
E16
330
2
100
AcDbEntity
  8
外枠
  6
Continuous
 48
100.0
370
     9
100
AcDbLine
 10
1153.531306970095
 20
155.3992728207999
 30
0.0
 11
1153.531306970095
 21
9.999999999996816
 31
0.0
  0
LINE
  5
E17
330
2
100
AcDbEntity
  8
外枠
 48
3.0
100
AcDbLine
 10
1188.531791166651
 20
82.6996364103984
 30
0.0
 11
1593.951336296073
 21
82.6996364103984
 31
0.0
  0
MTEXT
  5
EC7
330
2
100
AcDbEntity
  8
外枠
  6
Continuous
 48
100.0
370
     9
100
AcDbMText
 10
2509.985545378613
 20
121.2206105686568
 30
0.0
 40
23.47884
 41
274.1381
 71
     1
 72
     5
  1
'14・09・01
 73
     1
 44
1.0
1001
ACAD
1000
MTEXTBEGIN
1070
    73
1070
     1
1070
    44
1040
1.0
1070
    74
1070
     0
1000
MTEXTEND
  0
INSERT
  5
F4C
330
2
100
AcDbEntity
  8
寸法線
 48
3.0
100
AcDbBlockReference
  2
P-H65
 10
1903.517769740055
 20
1687.142636905383
 30
0.0
  0
INSERT
  5
F4D
330
2
100
AcDbEntity
  8
寸法線
 48
3.0
100
AcDbBlockReference
  2
P-H65
 10
1903.517769740055
 20
1012.142634905382
 30
0.0
 41
-1.0
 50
180.0
  0
LINE
  5
F4F
102
{ACAD_REACTORS
330
F53
102
}
330
2
100
AcDbEntity
  8
嵩上断面
  6
HIDDEN
 48
3.0
370
     9
100
AcDbLine
 10
988.2072992397215
 20
1012.142634905382
 30
0.0
 11
988.2072992397215
 21
1052.142634905382
 31
0.0
  0
LINE
  5
F50
102
{ACAD_REACTORS
330
F53
102
}
330
2
100
AcDbEntity
  8
嵩上断面
  6
HIDDEN
 48
3.0
370
     9
100
AcDbLine
 10
513.2072992397215
 20
1012.142634905382
 30
0.0
 11
988.2072992397215
 21
1012.142634905382
 31
0.0
  0
LINE
  5
F51
102
{ACAD_REACTORS
330
F53
102
}
330
2
100
AcDbEntity
  8
嵩上断面
  6
HIDDEN
 48
3.0
370
     9
100
AcDbLine
 10
513.2072992397215
 20
1052.142634905382
 30
0.0
 11
988.2072992397215
 21
1052.142634905382
 31
0.0
  0
LINE
  5
F52
102
{ACAD_REACTORS
330
F53
102
}
330
2
100
AcDbEntity
  8
嵩上断面
  6
HIDDEN
 48
3.0
370
     9
100
AcDbLine
 10
513.2072992397215
 20
1012.142634905382
 30
0.0
 11
513.2072992397215
 21
1052.142634905382
 31
0.0
  0
MTEXT
  5
FD9
330
2
100
AcDbEntity
  8
外枠
  6
Continuous
100
AcDbMText
 10
2427.938927859905
 20
67.25039165302224
 30
0.0
 40
28.17460800000001
 41
43.8527
 71
     1
 72
     5
  1
{\fHG正楷書体-PRO|b0|i0|c128|p65;水}
 73
     1
 44
1.0
1001
ACAD
1000
MTEXTBEGIN
1070
    73
1070
     1
1070
    44
1040
1.0
1070
    74
1070
     0
1000
MTEXTEND
  0
MTEXT
  5
FDA
330
2
100
AcDbEntity
  8
外枠
  6
Continuous
100
AcDbMText
 10
2427.938927859905
 20
109.7804165221496
 30
0.0
 40
28.17460800000001
 41
43.8527
 71
     1
 72
     5
  1
{\fHG正楷書体-PRO|b0|i0|c128|p65;清}
 73
     1
 44
1.0
1001
ACAD
1000
MTEXTBEGIN
1070
    73
1070
     1
1070
    44
1040
1.0
1070
    74
1070
     0
1000
MTEXTEND
  0
ELLIPSE
  5
FDB
330
2
100
AcDbEntity
  8
外枠
  6
Continuous
100
AcDbEllipse
 10
2449.066278910865
 20
70.80064248893541
 30
0.0
 11
0.0
 21
-47.8594442149426
 31
0.0
210
0.0
220
0.0
230
1.0
 40
0.7999999999999857
 41
0.0
 42
6.283185307179586
  0
INSERT
  5
10A7
330
2
100
AcDbEntity
  8
外枠
 48
3.0
100
AcDbBlockReference
  2
鎌下
 10
2271.730765417811
 20
155.3992728207995
 30
0.0
  0
LINE
  5
114A
330
2
100
AcDbEntity
  8
本体
100
AcDbLine
 10
510.1770081098414
 20
573.7267691375446
 30
0.0
 11
503.2072992397216
 21
573.0762629763335
 31
0.0
  0
LINE
  5
114B
330
2
100
AcDbEntity
  8
本体
100
AcDbLine
 10
510.1770081098414
 20
573.7267691375446
 30
0.0
 11
511.1063026258573
 21
563.7700421802306
 31
0.0
  0
LINE
  5
114C
330
2
100
AcDbEntity
  8
本体
100
AcDbLine
 10
511.1063026258573
 20
563.7700421802306
 30
0.0
 11
509.7057230338617
 21
562.6349753070969
 31
0.0
  0
LINE
  5
114D
330
2
100
AcDbEntity
  8
本体
100
AcDbLine
 10
503.2072992397216
 20
573.0762629763335
 30
0.0
 11
504.1365937557375
 21
563.1195360190194
 31
0.0
  0
LINE
  5
114E
330
2
100
AcDbEntity
  8
本体
100
AcDbLine
 10
504.1365937557375
 20
563.1195360190194
 30
0.0
 11
505.7230322509361
 21
562.2632575006905
 31
0.0
  0
LINE
  5
114F
330
2
100
AcDbEntity
  8
本体
100
AcDbLine
 10
517.146716979961
 20
499.0513169576899
 30
0.0
 11
510.1770081098412
 21
498.4008107964787
 31
0.0
  0
LINE
  5
1150
330
2
100
AcDbEntity
  8
本体
100
AcDbLine
 10
517.146716979961
 20
499.0513169576899
 30
0.0
 11
516.2174224639451
 21
509.0080439150039
 31
0.0
  0
LINE
  5
1151
330
2
100
AcDbEntity
  8
本体
100
AcDbLine
 10
516.2174224639451
 20
509.0080439150039
 30
0.0
 11
514.6309839687464
 21
509.8643224333328
 31
0.0
  0
LINE
  5
1152
330
2
100
AcDbEntity
  8
本体
100
AcDbLine
 10
510.1770081098412
 20
498.4008107964787
 30
0.0
 11
509.2477135938253
 21
508.3575377537926
 31
0.0
  0
LINE
  5
1153
330
2
100
AcDbEntity
  8
本体
100
AcDbLine
 10
509.2477135938253
 20
508.3575377537926
 30
0.0
 11
510.6482931858208
 21
509.4926046269264
 31
0.0
  0
LINE
  5
1154
330
2
100
AcDbEntity
  8
本体
100
AcDbLine
 10
509.7057230338617
 20
562.6349753070969
 30
0.0
 11
514.6309839687464
 21
509.8643224333328
 31
0.0
  0
LINE
  5
1155
330
2
100
AcDbEntity
  8
本体
100
AcDbLine
 10
505.7230322509361
 20
562.2632575006905
 30
0.0
 11
510.6482931858208
 21
509.4926046269264
 31
0.0
  0
INSERT
  5
1163
102
{ACAD_REACTORS
330
117F
102
}
330
2
100
AcDbEntity
  8
本体
100
AcDbBlockReference
  2
*U30
 10
562.4072992397215
 20
536.2222047001455
 30
0.0
  0
LINE
  5
118E
330
2
100
AcDbEntity
  8
本体
 48
3.0
100
AcDbLine
 10
503.2072992397216
 20
1002.142635905382
 30
0.0
 11
503.2072992397216
 21
1697.142635905382
 31
0.0
  0
LINE
  5
118F
330
2
100
AcDbEntity
  8
本体
 48
3.0
100
AcDbLine
 10
998.2072992397215
 20
1002.142635905382
 30
0.0
 11
998.2072992397215
 21
1697.142635905382
 31
0.0
  0
LINE
  5
1190
330
2
100
AcDbEntity
  8
本体
  6
Continuous
100
AcDbLine
 10
998.2072992397215
 20
1691.142635905382
 30
0.0
 11
998.2072992397215
 21
1653.642635905383
 31
0.0
  0
LINE
  5
1191
330
2
100
AcDbEntity
  8
本体
  6
Continuous
100
AcDbLine
 10
991.2072992397215
 20
1691.142635905382
 30
0.0
 11
991.2072992397215
 21
1653.642635905383
 31
0.0
  0
LINE
  5
1192
330
2
100
AcDbEntity
  8
本体
  6
Continuous
100
AcDbLine
 10
991.2072992397215
 20
1008.142635905382
 30
0.0
 11
991.2072992397215
 21
1045.642635905382
 31
0.0
  0
LINE
  5
1193
330
2
100
AcDbEntity
  8
本体
  6
Continuous
100
AcDbLine
 10
998.2072992397215
 20
1008.142635905382
 30
0.0
 11
998.2072992397215
 21
1045.642635905382
 31
0.0
  0
INSERT
  5
1194
330
2
100
AcDbEntity
  8
エンボス
  6
Continuous
100
AcDbBlockReference
  2
7mm部材エンボス4
 10
991.2072992397215
 20
995.6252160729622
 30
0.0
  0
INSERT
  5
1195
330
2
100
AcDbEntity
  8
エンボス
  6
Continuous
100
AcDbBlockReference
  2
7mm部材エンボス4
 10
991.2072992397215
 20
1640.125216072962
 30
0.0
  0
LINE
  5
1196
330
2
100
AcDbEntity
  8
本体
  6
Continuous
100
AcDbLine
 10
991.2072992397215
 20
1645.642635905382
 30
0.0
 11
991.2072992397215
 21
1603.642635905383
 31
0.0
  0
LINE
  5
1197
330
2
100
AcDbEntity
  8
本体
  6
Continuous
100
AcDbLine
 10
998.2072992397215
 20
1645.642635905382
 30
0.0
 11
998.2072992397215
 21
1603.642635905383
 31
0.0
  0
LINE
  5
1198
330
2
100
AcDbEntity
  8
エンボス
  6
Continuous
100
AcDbLine
 10
991.2072992397215
 20
1612.625216072962
 30
0.0
 11
998.2072992397215
 21
1614.625216072962
 31
0.0
  0
LINE
  5
1199
330
2
100
AcDbEntity
  8
エンボス
  6
Continuous
100
AcDbLine
 10
998.2072992397215
 20
1607.625216072962
 30
0.0
 11
991.2072992397215
 21
1609.625216072962
 31
0.0
  0
LINE
  5
119A
330
2
100
AcDbEntity
  8
エンボス
  6
Continuous
100
AcDbLine
 10
998.2072992397215
 20
1623.625216072962
 30
0.0
 11
991.2072992397215
 21
1621.625216072962
 31
0.0
  0
LINE
  5
119B
330
2
100
AcDbEntity
  8
エンボス
  6
Continuous
100
AcDbLine
 10
991.2072992397215
 20
1628.625216072962
 30
0.0
 11
998.2072992397215
 21
1626.625216072962
 31
0.0
  0
LINE
  5
119C
330
2
100
AcDbEntity
  8
エンボス
  6
Continuous
100
AcDbLine
 10
991.2072992397215
 20
1640.625216072962
 30
0.0
 11
998.2072992397215
 21
1642.625216072962
 31
0.0
  0
LINE
  5
119D
330
2
100
AcDbEntity
  8
エンボス
  6
Continuous
100
AcDbLine
 10
998.2072992397215
 20
1635.625216072962
 30
0.0
 11
991.2072992397215
 21
1637.625216072962
 31
0.0
  0
LINE
  5
119E
330
2
100
AcDbEntity
  8
本体
  6
Continuous
100
AcDbLine
 10
991.2072992397215
 20
1595.642635905382
 30
0.0
 11
991.2072992397215
 21
1553.642635905382
 31
0.0
  0
LINE
  5
119F
330
2
100
AcDbEntity
  8
本体
  6
Continuous
100
AcDbLine
 10
998.2072992397215
 20
1595.642635905382
 30
0.0
 11
998.2072992397215
 21
1553.642635905382
 31
0.0
  0
LINE
  5
11A0
330
2
100
AcDbEntity
  8
エンボス
  6
Continuous
100
AcDbLine
 10
998.2072992397215
 20
1585.625216072962
 30
0.0
 11
991.2072992397215
 21
1587.625216072962
 31
0.0
  0
LINE
  5
11A1
330
2
100
AcDbEntity
  8
エンボス
  6
Continuous
100
AcDbLine
 10
991.2072992397215
 20
1578.625216072962
 30
0.0
 11
998.2072992397215
 21
1576.625216072962
 31
0.0
  0
LINE
  5
11A2
330
2
100
AcDbEntity
  8
エンボス
  6
Continuous
100
AcDbLine
 10
998.2072992397215
 20
1573.625216072962
 30
0.0
 11
991.2072992397215
 21
1571.625216072962
 31
0.0
  0
LINE
  5
11A3
330
2
100
AcDbEntity
  8
エンボス
  6
Continuous
100
AcDbLine
 10
998.2072992397215
 20
1557.625216072962
 30
0.0
 11
991.2072992397215
 21
1559.625216072962
 31
0.0
  0
LINE
  5
11A4
330
2
100
AcDbEntity
  8
エンボス
  6
Continuous
100
AcDbLine
 10
991.2072992397215
 20
1562.625216072962
 30
0.0
 11
998.2072992397215
 21
1564.625216072962
 31
0.0
  0
LINE
  5
11A5
330
2
100
AcDbEntity
  8
エンボス
  6
Continuous
100
AcDbLine
 10
991.2072992397215
 20
1590.625216072962
 30
0.0
 11
998.2072992397215
 21
1592.625216072962
 31
0.0
  0
LINE
  5
11A6
330
2
100
AcDbEntity
  8
本体
  6
Continuous
100
AcDbLine
 10
991.2072992397215
 20
1545.642635905382
 30
0.0
 11
991.2072992397215
 21
1503.642635905382
 31
0.0
  0
LINE
  5
11A7
330
2
100
AcDbEntity
  8
本体
  6
Continuous
100
AcDbLine
 10
998.2072992397215
 20
1545.642635905382
 30
0.0
 11
998.2072992397215
 21
1503.642635905382
 31
0.0
  0
LINE
  5
11A8
330
2
100
AcDbEntity
  8
エンボス
  6
Continuous
100
AcDbLine
 10
998.2072992397215
 20
1535.625216072962
 30
0.0
 11
991.2072992397215
 21
1537.625216072962
 31
0.0
  0
LINE
  5
11A9
330
2
100
AcDbEntity
  8
エンボス
  6
Continuous
100
AcDbLine
 10
991.2072992397215
 20
1528.625216072962
 30
0.0
 11
998.2072992397215
 21
1526.625216072962
 31
0.0
  0
LINE
  5
11AA
330
2
100
AcDbEntity
  8
エンボス
  6
Continuous
100
AcDbLine
 10
998.2072992397215
 20
1523.625216072962
 30
0.0
 11
991.2072992397215
 21
1521.625216072962
 31
0.0
  0
LINE
  5
11AB
330
2
100
AcDbEntity
  8
エンボス
  6
Continuous
100
AcDbLine
 10
998.2072992397215
 20
1507.625216072962
 30
0.0
 11
991.2072992397215
 21
1509.625216072962
 31
0.0
  0
LINE
  5
11AC
330
2
100
AcDbEntity
  8
エンボス
  6
Continuous
100
AcDbLine
 10
991.2072992397215
 20
1512.625216072962
 30
0.0
 11
998.2072992397215
 21
1514.625216072962
 31
0.0
  0
LINE
  5
11AD
330
2
100
AcDbEntity
  8
エンボス
  6
Continuous
100
AcDbLine
 10
991.2072992397215
 20
1540.625216072962
 30
0.0
 11
998.2072992397215
 21
1542.625216072962
 31
0.0
  0
LINE
  5
11AE
330
2
100
AcDbEntity
  8
本体
  6
Continuous
100
AcDbLine
 10
991.2072992397215
 20
1495.642635905382
 30
0.0
 11
991.2072992397215
 21
1453.642635905382
 31
0.0
  0
LINE
  5
11AF
330
2
100
AcDbEntity
  8
本体
  6
Continuous
100
AcDbLine
 10
998.2072992397215
 20
1495.642635905382
 30
0.0
 11
998.2072992397215
 21
1453.642635905382
 31
0.0
  0
LINE
  5
11B0
330
2
100
AcDbEntity
  8
エンボス
  6
Continuous
100
AcDbLine
 10
998.2072992397215
 20
1485.625216072962
 30
0.0
 11
991.2072992397215
 21
1487.625216072962
 31
0.0
  0
LINE
  5
11B1
330
2
100
AcDbEntity
  8
エンボス
  6
Continuous
100
AcDbLine
 10
991.2072992397215
 20
1478.625216072962
 30
0.0
 11
998.2072992397215
 21
1476.625216072962
 31
0.0
  0
LINE
  5
11B2
330
2
100
AcDbEntity
  8
エンボス
  6
Continuous
100
AcDbLine
 10
998.2072992397215
 20
1473.625216072962
 30
0.0
 11
991.2072992397215
 21
1471.625216072962
 31
0.0
  0
LINE
  5
11B3
330
2
100
AcDbEntity
  8
エンボス
  6
Continuous
100
AcDbLine
 10
998.2072992397215
 20
1457.625216072962
 30
0.0
 11
991.2072992397215
 21
1459.625216072962
 31
0.0
  0
LINE
  5
11B4
330
2
100
AcDbEntity
  8
エンボス
  6
Continuous
100
AcDbLine
 10
991.2072992397215
 20
1462.625216072962
 30
0.0
 11
998.2072992397215
 21
1464.625216072962
 31
0.0
  0
LINE
  5
11B5
330
2
100
AcDbEntity
  8
エンボス
  6
Continuous
100
AcDbLine
 10
991.2072992397215
 20
1490.625216072962
 30
0.0
 11
998.2072992397215
 21
1492.625216072962
 31
0.0
  0
LINE
  5
11B6
330
2
100
AcDbEntity
  8
本体
  6
Continuous
100
AcDbLine
 10
991.2072992397215
 20
1445.642635905382
 30
0.0
 11
991.2072992397215
 21
1403.642635905382
 31
0.0
  0
LINE
  5
11B7
330
2
100
AcDbEntity
  8
本体
  6
Continuous
100
AcDbLine
 10
998.2072992397215
 20
1445.642635905382
 30
0.0
 11
998.2072992397215
 21
1403.642635905382
 31
0.0
  0
LINE
  5
11B8
330
2
100
AcDbEntity
  8
エンボス
  6
Continuous
100
AcDbLine
 10
998.2072992397215
 20
1435.625216072962
 30
0.0
 11
991.2072992397215
 21
1437.625216072962
 31
0.0
  0
LINE
  5
11B9
330
2
100
AcDbEntity
  8
エンボス
  6
Continuous
100
AcDbLine
 10
991.2072992397215
 20
1428.625216072962
 30
0.0
 11
998.2072992397215
 21
1426.625216072962
 31
0.0
  0
LINE
  5
11BA
330
2
100
AcDbEntity
  8
エンボス
  6
Continuous
100
AcDbLine
 10
998.2072992397215
 20
1423.625216072962
 30
0.0
 11
991.2072992397215
 21
1421.625216072962
 31
0.0
  0
LINE
  5
11BB
330
2
100
AcDbEntity
  8
エンボス
  6
Continuous
100
AcDbLine
 10
998.2072992397215
 20
1407.625216072962
 30
0.0
 11
991.2072992397215
 21
1409.625216072962
 31
0.0
  0
LINE
  5
11BC
330
2
100
AcDbEntity
  8
エンボス
  6
Continuous
100
AcDbLine
 10
991.2072992397215
 20
1412.625216072962
 30
0.0
 11
998.2072992397215
 21
1414.625216072962
 31
0.0
  0
LINE
  5
11BD
330
2
100
AcDbEntity
  8
エンボス
  6
Continuous
100
AcDbLine
 10
991.2072992397215
 20
1440.625216072962
 30
0.0
 11
998.2072992397215
 21
1442.625216072962
 31
0.0
  0
LINE
  5
11BE
330
2
100
AcDbEntity
  8
本体
  6
Continuous
100
AcDbLine
 10
991.2072992397215
 20
1395.642635905382
 30
0.0
 11
991.2072992397215
 21
1353.642635905382
 31
0.0
  0
LINE
  5
11BF
330
2
100
AcDbEntity
  8
本体
  6
Continuous
100
AcDbLine
 10
998.2072992397215
 20
1395.642635905382
 30
0.0
 11
998.2072992397215
 21
1353.642635905382
 31
0.0
  0
LINE
  5
11C0
330
2
100
AcDbEntity
  8
エンボス
  6
Continuous
100
AcDbLine
 10
998.2072992397215
 20
1385.625216072962
 30
0.0
 11
991.2072992397215
 21
1387.625216072962
 31
0.0
  0
LINE
  5
11C1
330
2
100
AcDbEntity
  8
エンボス
  6
Continuous
100
AcDbLine
 10
991.2072992397215
 20
1378.625216072962
 30
0.0
 11
998.2072992397215
 21
1376.625216072962
 31
0.0
  0
LINE
  5
11C2
330
2
100
AcDbEntity
  8
エンボス
  6
Continuous
100
AcDbLine
 10
998.2072992397215
 20
1373.625216072962
 30
0.0
 11
991.2072992397215
 21
1371.625216072962
 31
0.0
  0
LINE
  5
11C3
330
2
100
AcDbEntity
  8
エンボス
  6
Continuous
100
AcDbLine
 10
998.2072992397215
 20
1357.625216072962
 30
0.0
 11
991.2072992397215
 21
1359.625216072962
 31
0.0
  0
LINE
  5
11C4
330
2
100
AcDbEntity
  8
エンボス
  6
Continuous
100
AcDbLine
 10
991.2072992397215
 20
1362.625216072962
 30
0.0
 11
998.2072992397215
 21
1364.625216072962
 31
0.0
  0
LINE
  5
11C5
330
2
100
AcDbEntity
  8
エンボス
  6
Continuous
100
AcDbLine
 10
991.2072992397215
 20
1390.625216072962
 30
0.0
 11
998.2072992397215
 21
1392.625216072962
 31
0.0
  0
LINE
  5
11C6
330
2
100
AcDbEntity
  8
本体
  6
Continuous
100
AcDbLine
 10
991.2072992397215
 20
1345.642635905382
 30
0.0
 11
991.2072992397215
 21
1303.642635905382
 31
0.0
  0
LINE
  5
11C7
330
2
100
AcDbEntity
  8
本体
  6
Continuous
100
AcDbLine
 10
998.2072992397215
 20
1345.642635905382
 30
0.0
 11
998.2072992397215
 21
1303.642635905382
 31
0.0
  0
LINE
  5
11C8
330
2
100
AcDbEntity
  8
エンボス
  6
Continuous
100
AcDbLine
 10
998.2072992397215
 20
1335.625216072962
 30
0.0
 11
991.2072992397215
 21
1337.625216072962
 31
0.0
  0
LINE
  5
11C9
330
2
100
AcDbEntity
  8
エンボス
  6
Continuous
100
AcDbLine
 10
991.2072992397215
 20
1328.625216072962
 30
0.0
 11
998.2072992397215
 21
1326.625216072962
 31
0.0
  0
LINE
  5
11CA
330
2
100
AcDbEntity
  8
エンボス
  6
Continuous
100
AcDbLine
 10
998.2072992397215
 20
1323.625216072962
 30
0.0
 11
991.2072992397215
 21
1321.625216072962
 31
0.0
  0
LINE
  5
11CB
330
2
100
AcDbEntity
  8
エンボス
  6
Continuous
100
AcDbLine
 10
998.2072992397215
 20
1307.625216072962
 30
0.0
 11
991.2072992397215
 21
1309.625216072962
 31
0.0
  0
LINE
  5
11CC
330
2
100
AcDbEntity
  8
エンボス
  6
Continuous
100
AcDbLine
 10
991.2072992397215
 20
1312.625216072962
 30
0.0
 11
998.2072992397215
 21
1314.625216072962
 31
0.0
  0
LINE
  5
11CD
330
2
100
AcDbEntity
  8
エンボス
  6
Continuous
100
AcDbLine
 10
991.2072992397215
 20
1340.625216072962
 30
0.0
 11
998.2072992397215
 21
1342.625216072962
 31
0.0
  0
LINE
  5
11CE
330
2
100
AcDbEntity
  8
本体
  6
Continuous
100
AcDbLine
 10
991.2072992397215
 20
1295.642635905382
 30
0.0
 11
991.2072992397215
 21
1253.642635905382
 31
0.0
  0
LINE
  5
11CF
330
2
100
AcDbEntity
  8
本体
  6
Continuous
100
AcDbLine
 10
998.2072992397215
 20
1295.642635905382
 30
0.0
 11
998.2072992397215
 21
1253.642635905382
 31
0.0
  0
LINE
  5
11D0
330
2
100
AcDbEntity
  8
エンボス
  6
Continuous
100
AcDbLine
 10
998.2072992397215
 20
1285.625216072962
 30
0.0
 11
991.2072992397215
 21
1287.625216072962
 31
0.0
  0
LINE
  5
11D1
330
2
100
AcDbEntity
  8
エンボス
  6
Continuous
100
AcDbLine
 10
991.2072992397215
 20
1278.625216072962
 30
0.0
 11
998.2072992397215
 21
1276.625216072962
 31
0.0
  0
LINE
  5
11D2
330
2
100
AcDbEntity
  8
エンボス
  6
Continuous
100
AcDbLine
 10
998.2072992397215
 20
1273.625216072962
 30
0.0
 11
991.2072992397215
 21
1271.625216072962
 31
0.0
  0
LINE
  5
11D3
330
2
100
AcDbEntity
  8
エンボス
  6
Continuous
100
AcDbLine
 10
998.2072992397215
 20
1257.625216072962
 30
0.0
 11
991.2072992397215
 21
1259.625216072962
 31
0.0
  0
LINE
  5
11D4
330
2
100
AcDbEntity
  8
エンボス
  6
Continuous
100
AcDbLine
 10
991.2072992397215
 20
1262.625216072962
 30
0.0
 11
998.2072992397215
 21
1264.625216072962
 31
0.0
  0
LINE
  5
11D5
330
2
100
AcDbEntity
  8
エンボス
  6
Continuous
100
AcDbLine
 10
991.2072992397215
 20
1290.625216072962
 30
0.0
 11
998.2072992397215
 21
1292.625216072962
 31
0.0
  0
LINE
  5
11D6
330
2
100
AcDbEntity
  8
本体
  6
Continuous
100
AcDbLine
 10
991.2072992397215
 20
1245.642635905382
 30
0.0
 11
991.2072992397215
 21
1203.642635905382
 31
0.0
  0
LINE
  5
11D7
330
2
100
AcDbEntity
  8
本体
  6
Continuous
100
AcDbLine
 10
998.2072992397215
 20
1245.642635905382
 30
0.0
 11
998.2072992397215
 21
1203.642635905382
 31
0.0
  0
LINE
  5
11D8
330
2
100
AcDbEntity
  8
エンボス
  6
Continuous
100
AcDbLine
 10
998.2072992397215
 20
1235.625216072962
 30
0.0
 11
991.2072992397215
 21
1237.625216072962
 31
0.0
  0
LINE
  5
11D9
330
2
100
AcDbEntity
  8
エンボス
  6
Continuous
100
AcDbLine
 10
991.2072992397215
 20
1228.625216072962
 30
0.0
 11
998.2072992397215
 21
1226.625216072962
 31
0.0
  0
LINE
  5
11DA
330
2
100
AcDbEntity
  8
エンボス
  6
Continuous
100
AcDbLine
 10
998.2072992397215
 20
1223.625216072962
 30
0.0
 11
991.2072992397215
 21
1221.625216072962
 31
0.0
  0
LINE
  5
11DB
330
2
100
AcDbEntity
  8
エンボス
  6
Continuous
100
AcDbLine
 10
998.2072992397215
 20
1207.625216072962
 30
0.0
 11
991.2072992397215
 21
1209.625216072962
 31
0.0
  0
LINE
  5
11DC
330
2
100
AcDbEntity
  8
エンボス
  6
Continuous
100
AcDbLine
 10
991.2072992397215
 20
1212.625216072962
 30
0.0
 11
998.2072992397215
 21
1214.625216072962
 31
0.0
  0
LINE
  5
11DD
330
2
100
AcDbEntity
  8
エンボス
  6
Continuous
100
AcDbLine
 10
991.2072992397215
 20
1240.625216072962
 30
0.0
 11
998.2072992397215
 21
1242.625216072962
 31
0.0
  0
LINE
  5
11DE
330
2
100
AcDbEntity
  8
本体
  6
Continuous
100
AcDbLine
 10
991.2072992397215
 20
1195.642635905382
 30
0.0
 11
991.2072992397215
 21
1153.642635905382
 31
0.0
  0
LINE
  5
11DF
330
2
100
AcDbEntity
  8
本体
  6
Continuous
100
AcDbLine
 10
998.2072992397215
 20
1195.642635905382
 30
0.0
 11
998.2072992397215
 21
1153.642635905382
 31
0.0
  0
LINE
  5
11E0
330
2
100
AcDbEntity
  8
エンボス
  6
Continuous
100
AcDbLine
 10
998.2072992397215
 20
1185.625216072962
 30
0.0
 11
991.2072992397215
 21
1187.625216072962
 31
0.0
  0
LINE
  5
11E1
330
2
100
AcDbEntity
  8
エンボス
  6
Continuous
100
AcDbLine
 10
991.2072992397215
 20
1178.625216072962
 30
0.0
 11
998.2072992397215
 21
1176.625216072962
 31
0.0
  0
LINE
  5
11E2
330
2
100
AcDbEntity
  8
エンボス
  6
Continuous
100
AcDbLine
 10
998.2072992397215
 20
1173.625216072962
 30
0.0
 11
991.2072992397215
 21
1171.625216072962
 31
0.0
  0
LINE
  5
11E3
330
2
100
AcDbEntity
  8
エンボス
  6
Continuous
100
AcDbLine
 10
998.2072992397215
 20
1157.625216072962
 30
0.0
 11
991.2072992397215
 21
1159.625216072962
 31
0.0
  0
LINE
  5
11E4
330
2
100
AcDbEntity
  8
エンボス
  6
Continuous
100
AcDbLine
 10
991.2072992397215
 20
1162.625216072962
 30
0.0
 11
998.2072992397215
 21
1164.625216072962
 31
0.0
  0
LINE
  5
11E5
330
2
100
AcDbEntity
  8
エンボス
  6
Continuous
100
AcDbLine
 10
991.2072992397215
 20
1190.625216072962
 30
0.0
 11
998.2072992397215
 21
1192.625216072962
 31
0.0
  0
LINE
  5
11E6
330
2
100
AcDbEntity
  8
本体
  6
Continuous
100
AcDbLine
 10
991.2072992397215
 20
1145.642635905382
 30
0.0
 11
991.2072992397215
 21
1103.642635905382
 31
0.0
  0
LINE
  5
11E7
330
2
100
AcDbEntity
  8
本体
  6
Continuous
100
AcDbLine
 10
998.2072992397215
 20
1145.642635905382
 30
0.0
 11
998.2072992397215
 21
1103.642635905382
 31
0.0
  0
LINE
  5
11E8
330
2
100
AcDbEntity
  8
エンボス
  6
Continuous
100
AcDbLine
 10
998.2072992397215
 20
1135.625216072962
 30
0.0
 11
991.2072992397215
 21
1137.625216072962
 31
0.0
  0
LINE
  5
11E9
330
2
100
AcDbEntity
  8
エンボス
  6
Continuous
100
AcDbLine
 10
991.2072992397215
 20
1128.625216072962
 30
0.0
 11
998.2072992397215
 21
1126.625216072962
 31
0.0
  0
LINE
  5
11EA
330
2
100
AcDbEntity
  8
エンボス
  6
Continuous
100
AcDbLine
 10
998.2072992397215
 20
1123.625216072962
 30
0.0
 11
991.2072992397215
 21
1121.625216072962
 31
0.0
  0
LINE
  5
11EB
330
2
100
AcDbEntity
  8
エンボス
  6
Continuous
100
AcDbLine
 10
998.2072992397215
 20
1107.625216072962
 30
0.0
 11
991.2072992397215
 21
1109.625216072962
 31
0.0
  0
LINE
  5
11EC
330
2
100
AcDbEntity
  8
エンボス
  6
Continuous
100
AcDbLine
 10
991.2072992397215
 20
1112.625216072962
 30
0.0
 11
998.2072992397215
 21
1114.625216072962
 31
0.0
  0
LINE
  5
11ED
330
2
100
AcDbEntity
  8
エンボス
  6
Continuous
100
AcDbLine
 10
991.2072992397215
 20
1140.625216072962
 30
0.0
 11
998.2072992397215
 21
1142.625216072962
 31
0.0
  0
LINE
  5
11EE
330
2
100
AcDbEntity
  8
本体
  6
Continuous
100
AcDbLine
 10
991.2072992397215
 20
1095.642635905382
 30
0.0
 11
991.2072992397215
 21
1053.642635905382
 31
0.0
  0
LINE
  5
11EF
330
2
100
AcDbEntity
  8
本体
  6
Continuous
100
AcDbLine
 10
998.2072992397215
 20
1095.642635905382
 30
0.0
 11
998.2072992397215
 21
1053.642635905382
 31
0.0
  0
LINE
  5
11F0
330
2
100
AcDbEntity
  8
エンボス
  6
Continuous
100
AcDbLine
 10
998.2072992397215
 20
1085.625216072962
 30
0.0
 11
991.2072992397215
 21
1087.625216072962
 31
0.0
  0
LINE
  5
11F1
330
2
100
AcDbEntity
  8
エンボス
  6
Continuous
100
AcDbLine
 10
991.2072992397215
 20
1078.625216072962
 30
0.0
 11
998.2072992397215
 21
1076.625216072962
 31
0.0
  0
LINE
  5
11F2
330
2
100
AcDbEntity
  8
エンボス
  6
Continuous
100
AcDbLine
 10
998.2072992397215
 20
1073.625216072962
 30
0.0
 11
991.2072992397215
 21
1071.625216072962
 31
0.0
  0
LINE
  5
11F3
330
2
100
AcDbEntity
  8
エンボス
  6
Continuous
100
AcDbLine
 10
998.2072992397215
 20
1057.625216072962
 30
0.0
 11
991.2072992397215
 21
1059.625216072962
 31
0.0
  0
LINE
  5
11F4
330
2
100
AcDbEntity
  8
エンボス
  6
Continuous
100
AcDbLine
 10
991.2072992397215
 20
1062.625216072962
 30
0.0
 11
998.2072992397215
 21
1064.625216072962
 31
0.0
  0
LINE
  5
11F5
330
2
100
AcDbEntity
  8
エンボス
  6
Continuous
100
AcDbLine
 10
991.2072992397215
 20
1090.625216072962
 30
0.0
 11
998.2072992397215
 21
1092.625216072962
 31
0.0
  0
LINE
  5
11F6
330
2
100
AcDbEntity
  8
本体
  6
Continuous
100
AcDbLine
 10
510.2072992397217
 20
1691.142635905382
 30
0.0
 11
510.2072992397217
 21
1653.642635905383
 31
0.0
  0
LINE
  5
11F7
330
2
100
AcDbEntity
  8
本体
  6
Continuous
100
AcDbLine
 10
503.2072992397217
 20
1691.142635905382
 30
0.0
 11
503.2072992397217
 21
1653.642635905383
 31
0.0
  0
LINE
  5
11F8
330
2
100
AcDbEntity
  8
本体
  6
Continuous
100
AcDbLine
 10
503.2072992397217
 20
1008.142635905382
 30
0.0
 11
503.2072992397217
 21
1045.642635905382
 31
0.0
  0
LINE
  5
11F9
330
2
100
AcDbEntity
  8
本体
  6
Continuous
100
AcDbLine
 10
510.2072992397217
 20
1008.142635905382
 30
0.0
 11
510.2072992397217
 21
1045.642635905382
 31
0.0
  0
INSERT
  5
11FA
330
2
100
AcDbEntity
  8
エンボス
  6
Continuous
100
AcDbBlockReference
  2
7mm部材エンボス4
 10
503.2072992397217
 20
995.6252160729622
 30
0.0
  0
INSERT
  5
11FB
330
2
100
AcDbEntity
  8
エンボス
  6
Continuous
100
AcDbBlockReference
  2
7mm部材エンボス4
 10
503.2072992397217
 20
1640.125216072962
 30
0.0
  0
LINE
  5
11FC
330
2
100
AcDbEntity
  8
本体
  6
Continuous
100
AcDbLine
 10
503.2072992397217
 20
1645.642635905382
 30
0.0
 11
503.2072992397217
 21
1603.642635905383
 31
0.0
  0
LINE
  5
11FD
330
2
100
AcDbEntity
  8
本体
  6
Continuous
100
AcDbLine
 10
510.2072992397217
 20
1645.642635905382
 30
0.0
 11
510.2072992397217
 21
1603.642635905383
 31
0.0
  0
LINE
  5
11FE
330
2
100
AcDbEntity
  8
エンボス
  6
Continuous
100
AcDbLine
 10
503.2072992397217
 20
1612.625216072962
 30
0.0
 11
510.2072992397217
 21
1614.625216072962
 31
0.0
  0
LINE
  5
11FF
330
2
100
AcDbEntity
  8
エンボス
  6
Continuous
100
AcDbLine
 10
510.2072992397217
 20
1607.625216072962
 30
0.0
 11
503.2072992397217
 21
1609.625216072962
 31
0.0
  0
LINE
  5
1200
330
2
100
AcDbEntity
  8
エンボス
  6
Continuous
100
AcDbLine
 10
510.2072992397217
 20
1623.625216072962
 30
0.0
 11
503.2072992397217
 21
1621.625216072962
 31
0.0
  0
LINE
  5
1201
330
2
100
AcDbEntity
  8
エンボス
  6
Continuous
100
AcDbLine
 10
503.2072992397217
 20
1628.625216072962
 30
0.0
 11
510.2072992397217
 21
1626.625216072962
 31
0.0
  0
LINE
  5
1202
330
2
100
AcDbEntity
  8
エンボス
  6
Continuous
100
AcDbLine
 10
503.2072992397217
 20
1640.625216072962
 30
0.0
 11
510.2072992397217
 21
1642.625216072962
 31
0.0
  0
LINE
  5
1203
330
2
100
AcDbEntity
  8
エンボス
  6
Continuous
100
AcDbLine
 10
510.2072992397217
 20
1635.625216072962
 30
0.0
 11
503.2072992397217
 21
1637.625216072962
 31
0.0
  0
LINE
  5
1204
330
2
100
AcDbEntity
  8
本体
  6
Continuous
100
AcDbLine
 10
503.2072992397217
 20
1595.642635905382
 30
0.0
 11
503.2072992397217
 21
1553.642635905382
 31
0.0
  0
LINE
  5
1205
330
2
100
AcDbEntity
  8
本体
  6
Continuous
100
AcDbLine
 10
510.2072992397217
 20
1595.642635905382
 30
0.0
 11
510.2072992397217
 21
1553.642635905382
 31
0.0
  0
LINE
  5
1206
330
2
100
AcDbEntity
  8
エンボス
  6
Continuous
100
AcDbLine
 10
510.2072992397217
 20
1585.625216072962
 30
0.0
 11
503.2072992397217
 21
1587.625216072962
 31
0.0
  0
LINE
  5
1207
330
2
100
AcDbEntity
  8
エンボス
  6
Continuous
100
AcDbLine
 10
503.2072992397217
 20
1578.625216072962
 30
0.0
 11
510.2072992397217
 21
1576.625216072962
 31
0.0
  0
LINE
  5
1208
330
2
100
AcDbEntity
  8
エンボス
  6
Continuous
100
AcDbLine
 10
510.2072992397217
 20
1573.625216072962
 30
0.0
 11
503.2072992397217
 21
1571.625216072962
 31
0.0
  0
LINE
  5
1209
330
2
100
AcDbEntity
  8
エンボス
  6
Continuous
100
AcDbLine
 10
510.2072992397217
 20
1557.625216072962
 30
0.0
 11
503.2072992397217
 21
1559.625216072962
 31
0.0
  0
LINE
  5
120A
330
2
100
AcDbEntity
  8
エンボス
  6
Continuous
100
AcDbLine
 10
503.2072992397217
 20
1562.625216072962
 30
0.0
 11
510.2072992397217
 21
1564.625216072962
 31
0.0
  0
LINE
  5
120B
330
2
100
AcDbEntity
  8
エンボス
  6
Continuous
100
AcDbLine
 10
503.2072992397217
 20
1590.625216072962
 30
0.0
 11
510.2072992397217
 21
1592.625216072962
 31
0.0
  0
LINE
  5
120C
330
2
100
AcDbEntity
  8
本体
  6
Continuous
100
AcDbLine
 10
503.2072992397217
 20
1545.642635905382
 30
0.0
 11
503.2072992397217
 21
1503.642635905382
 31
0.0
  0
LINE
  5
120D
330
2
100
AcDbEntity
  8
本体
  6
Continuous
100
AcDbLine
 10
510.2072992397217
 20
1545.642635905382
 30
0.0
 11
510.2072992397217
 21
1503.642635905382
 31
0.0
  0
LINE
  5
120E
330
2
100
AcDbEntity
  8
エンボス
  6
Continuous
100
AcDbLine
 10
510.2072992397217
 20
1535.625216072962
 30
0.0
 11
503.2072992397217
 21
1537.625216072962
 31
0.0
  0
LINE
  5
120F
330
2
100
AcDbEntity
  8
エンボス
  6
Continuous
100
AcDbLine
 10
503.2072992397217
 20
1528.625216072962
 30
0.0
 11
510.2072992397217
 21
1526.625216072962
 31
0.0
  0
LINE
  5
1210
330
2
100
AcDbEntity
  8
エンボス
  6
Continuous
100
AcDbLine
 10
510.2072992397217
 20
1523.625216072962
 30
0.0
 11
503.2072992397217
 21
1521.625216072962
 31
0.0
  0
LINE
  5
1211
330
2
100
AcDbEntity
  8
エンボス
  6
Continuous
100
AcDbLine
 10
510.2072992397217
 20
1507.625216072962
 30
0.0
 11
503.2072992397217
 21
1509.625216072962
 31
0.0
  0
LINE
  5
1212
330
2
100
AcDbEntity
  8
エンボス
  6
Continuous
100
AcDbLine
 10
503.2072992397217
 20
1512.625216072962
 30
0.0
 11
510.2072992397217
 21
1514.625216072962
 31
0.0
  0
LINE
  5
1213
330
2
100
AcDbEntity
  8
エンボス
  6
Continuous
100
AcDbLine
 10
503.2072992397217
 20
1540.625216072962
 30
0.0
 11
510.2072992397217
 21
1542.625216072962
 31
0.0
  0
LINE
  5
1214
330
2
100
AcDbEntity
  8
本体
  6
Continuous
100
AcDbLine
 10
503.2072992397217
 20
1495.642635905382
 30
0.0
 11
503.2072992397217
 21
1453.642635905382
 31
0.0
  0
LINE
  5
1215
330
2
100
AcDbEntity
  8
本体
  6
Continuous
100
AcDbLine
 10
510.2072992397217
 20
1495.642635905382
 30
0.0
 11
510.2072992397217
 21
1453.642635905382
 31
0.0
  0
LINE
  5
1216
330
2
100
AcDbEntity
  8
エンボス
  6
Continuous
100
AcDbLine
 10
510.2072992397217
 20
1485.625216072962
 30
0.0
 11
503.2072992397217
 21
1487.625216072962
 31
0.0
  0
LINE
  5
1217
330
2
100
AcDbEntity
  8
エンボス
  6
Continuous
100
AcDbLine
 10
503.2072992397217
 20
1478.625216072962
 30
0.0
 11
510.2072992397217
 21
1476.625216072962
 31
0.0
  0
LINE
  5
1218
330
2
100
AcDbEntity
  8
エンボス
  6
Continuous
100
AcDbLine
 10
510.2072992397217
 20
1473.625216072962
 30
0.0
 11
503.2072992397217
 21
1471.625216072962
 31
0.0
  0
LINE
  5
1219
330
2
100
AcDbEntity
  8
エンボス
  6
Continuous
100
AcDbLine
 10
510.2072992397217
 20
1457.625216072962
 30
0.0
 11
503.2072992397217
 21
1459.625216072962
 31
0.0
  0
LINE
  5
121A
330
2
100
AcDbEntity
  8
エンボス
  6
Continuous
100
AcDbLine
 10
503.2072992397217
 20
1462.625216072962
 30
0.0
 11
510.2072992397217
 21
1464.625216072962
 31
0.0
  0
LINE
  5
121B
330
2
100
AcDbEntity
  8
エンボス
  6
Continuous
100
AcDbLine
 10
503.2072992397217
 20
1490.625216072962
 30
0.0
 11
510.2072992397217
 21
1492.625216072962
 31
0.0
  0
LINE
  5
121C
330
2
100
AcDbEntity
  8
本体
  6
Continuous
100
AcDbLine
 10
503.2072992397217
 20
1445.642635905382
 30
0.0
 11
503.2072992397217
 21
1403.642635905382
 31
0.0
  0
LINE
  5
121D
330
2
100
AcDbEntity
  8
本体
  6
Continuous
100
AcDbLine
 10
510.2072992397217
 20
1445.642635905382
 30
0.0
 11
510.2072992397217
 21
1403.642635905382
 31
0.0
  0
LINE
  5
121E
330
2
100
AcDbEntity
  8
エンボス
  6
Continuous
100
AcDbLine
 10
510.2072992397217
 20
1435.625216072962
 30
0.0
 11
503.2072992397217
 21
1437.625216072962
 31
0.0
  0
LINE
  5
121F
330
2
100
AcDbEntity
  8
エンボス
  6
Continuous
100
AcDbLine
 10
503.2072992397217
 20
1428.625216072962
 30
0.0
 11
510.2072992397217
 21
1426.625216072962
 31
0.0
  0
LINE
  5
1220
330
2
100
AcDbEntity
  8
エンボス
  6
Continuous
100
AcDbLine
 10
510.2072992397217
 20
1423.625216072962
 30
0.0
 11
503.2072992397217
 21
1421.625216072962
 31
0.0
  0
LINE
  5
1221
330
2
100
AcDbEntity
  8
エンボス
  6
Continuous
100
AcDbLine
 10
510.2072992397217
 20
1407.625216072962
 30
0.0
 11
503.2072992397217
 21
1409.625216072962
 31
0.0
  0
LINE
  5
1222
330
2
100
AcDbEntity
  8
エンボス
  6
Continuous
100
AcDbLine
 10
503.2072992397217
 20
1412.625216072962
 30
0.0
 11
510.2072992397217
 21
1414.625216072962
 31
0.0
  0
LINE
  5
1223
330
2
100
AcDbEntity
  8
エンボス
  6
Continuous
100
AcDbLine
 10
503.2072992397217
 20
1440.625216072962
 30
0.0
 11
510.2072992397217
 21
1442.625216072962
 31
0.0
  0
LINE
  5
1224
330
2
100
AcDbEntity
  8
本体
  6
Continuous
100
AcDbLine
 10
503.2072992397217
 20
1395.642635905382
 30
0.0
 11
503.2072992397217
 21
1353.642635905382
 31
0.0
  0
LINE
  5
1225
330
2
100
AcDbEntity
  8
本体
  6
Continuous
100
AcDbLine
 10
510.2072992397217
 20
1395.642635905382
 30
0.0
 11
510.2072992397217
 21
1353.642635905382
 31
0.0
  0
LINE
  5
1226
330
2
100
AcDbEntity
  8
エンボス
  6
Continuous
100
AcDbLine
 10
510.2072992397217
 20
1385.625216072962
 30
0.0
 11
503.2072992397217
 21
1387.625216072962
 31
0.0
  0
LINE
  5
1227
330
2
100
AcDbEntity
  8
エンボス
  6
Continuous
100
AcDbLine
 10
503.2072992397217
 20
1378.625216072962
 30
0.0
 11
510.2072992397217
 21
1376.625216072962
 31
0.0
  0
LINE
  5
1228
330
2
100
AcDbEntity
  8
エンボス
  6
Continuous
100
AcDbLine
 10
510.2072992397217
 20
1373.625216072962
 30
0.0
 11
503.2072992397217
 21
1371.625216072962
 31
0.0
  0
LINE
  5
1229
330
2
100
AcDbEntity
  8
エンボス
  6
Continuous
100
AcDbLine
 10
510.2072992397217
 20
1357.625216072962
 30
0.0
 11
503.2072992397217
 21
1359.625216072962
 31
0.0
  0
LINE
  5
122A
330
2
100
AcDbEntity
  8
エンボス
  6
Continuous
100
AcDbLine
 10
503.2072992397217
 20
1362.625216072962
 30
0.0
 11
510.2072992397217
 21
1364.625216072962
 31
0.0
  0
LINE
  5
122B
330
2
100
AcDbEntity
  8
エンボス
  6
Continuous
100
AcDbLine
 10
503.2072992397217
 20
1390.625216072962
 30
0.0
 11
510.2072992397217
 21
1392.625216072962
 31
0.0
  0
LINE
  5
122C
330
2
100
AcDbEntity
  8
本体
  6
Continuous
100
AcDbLine
 10
503.2072992397217
 20
1345.642635905382
 30
0.0
 11
503.2072992397217
 21
1303.642635905382
 31
0.0
  0
LINE
  5
122D
330
2
100
AcDbEntity
  8
本体
  6
Continuous
100
AcDbLine
 10
510.2072992397217
 20
1345.642635905382
 30
0.0
 11
510.2072992397217
 21
1303.642635905382
 31
0.0
  0
LINE
  5
122E
330
2
100
AcDbEntity
  8
エンボス
  6
Continuous
100
AcDbLine
 10
510.2072992397217
 20
1335.625216072962
 30
0.0
 11
503.2072992397217
 21
1337.625216072962
 31
0.0
  0
LINE
  5
122F
330
2
100
AcDbEntity
  8
エンボス
  6
Continuous
100
AcDbLine
 10
503.2072992397217
 20
1328.625216072962
 30
0.0
 11
510.2072992397217
 21
1326.625216072962
 31
0.0
  0
LINE
  5
1230
330
2
100
AcDbEntity
  8
エンボス
  6
Continuous
100
AcDbLine
 10
510.2072992397217
 20
1323.625216072962
 30
0.0
 11
503.2072992397217
 21
1321.625216072962
 31
0.0
  0
LINE
  5
1231
330
2
100
AcDbEntity
  8
エンボス
  6
Continuous
100
AcDbLine
 10
510.2072992397217
 20
1307.625216072962
 30
0.0
 11
503.2072992397217
 21
1309.625216072962
 31
0.0
  0
LINE
  5
1232
330
2
100
AcDbEntity
  8
エンボス
  6
Continuous
100
AcDbLine
 10
503.2072992397217
 20
1312.625216072962
 30
0.0
 11
510.2072992397217
 21
1314.625216072962
 31
0.0
  0
LINE
  5
1233
330
2
100
AcDbEntity
  8
エンボス
  6
Continuous
100
AcDbLine
 10
503.2072992397217
 20
1340.625216072962
 30
0.0
 11
510.2072992397217
 21
1342.625216072962
 31
0.0
  0
LINE
  5
1234
330
2
100
AcDbEntity
  8
本体
  6
Continuous
100
AcDbLine
 10
503.2072992397217
 20
1295.642635905382
 30
0.0
 11
503.2072992397217
 21
1253.642635905382
 31
0.0
  0
LINE
  5
1235
330
2
100
AcDbEntity
  8
本体
  6
Continuous
100
AcDbLine
 10
510.2072992397217
 20
1295.642635905382
 30
0.0
 11
510.2072992397217
 21
1253.642635905382
 31
0.0
  0
LINE
  5
1236
330
2
100
AcDbEntity
  8
エンボス
  6
Continuous
100
AcDbLine
 10
510.2072992397217
 20
1285.625216072962
 30
0.0
 11
503.2072992397217
 21
1287.625216072962
 31
0.0
  0
LINE
  5
1237
330
2
100
AcDbEntity
  8
エンボス
  6
Continuous
100
AcDbLine
 10
503.2072992397217
 20
1278.625216072962
 30
0.0
 11
510.2072992397217
 21
1276.625216072962
 31
0.0
  0
LINE
  5
1238
330
2
100
AcDbEntity
  8
エンボス
  6
Continuous
100
AcDbLine
 10
510.2072992397217
 20
1273.625216072962
 30
0.0
 11
503.2072992397217
 21
1271.625216072962
 31
0.0
  0
LINE
  5
1239
330
2
100
AcDbEntity
  8
エンボス
  6
Continuous
100
AcDbLine
 10
510.2072992397217
 20
1257.625216072962
 30
0.0
 11
503.2072992397217
 21
1259.625216072962
 31
0.0
  0
LINE
  5
123A
330
2
100
AcDbEntity
  8
エンボス
  6
Continuous
100
AcDbLine
 10
503.2072992397217
 20
1262.625216072962
 30
0.0
 11
510.2072992397217
 21
1264.625216072962
 31
0.0
  0
LINE
  5
123B
330
2
100
AcDbEntity
  8
エンボス
  6
Continuous
100
AcDbLine
 10
503.2072992397217
 20
1290.625216072962
 30
0.0
 11
510.2072992397217
 21
1292.625216072962
 31
0.0
  0
LINE
  5
123C
330
2
100
AcDbEntity
  8
本体
  6
Continuous
100
AcDbLine
 10
503.2072992397217
 20
1245.642635905382
 30
0.0
 11
503.2072992397217
 21
1203.642635905382
 31
0.0
  0
LINE
  5
123D
330
2
100
AcDbEntity
  8
本体
  6
Continuous
100
AcDbLine
 10
510.2072992397217
 20
1245.642635905382
 30
0.0
 11
510.2072992397217
 21
1203.642635905382
 31
0.0
  0
LINE
  5
123E
330
2
100
AcDbEntity
  8
エンボス
  6
Continuous
100
AcDbLine
 10
510.2072992397217
 20
1235.625216072962
 30
0.0
 11
503.2072992397217
 21
1237.625216072962
 31
0.0
  0
LINE
  5
123F
330
2
100
AcDbEntity
  8
エンボス
  6
Continuous
100
AcDbLine
 10
503.2072992397217
 20
1228.625216072962
 30
0.0
 11
510.2072992397217
 21
1226.625216072962
 31
0.0
  0
LINE
  5
1240
330
2
100
AcDbEntity
  8
エンボス
  6
Continuous
100
AcDbLine
 10
510.2072992397217
 20
1223.625216072962
 30
0.0
 11
503.2072992397217
 21
1221.625216072962
 31
0.0
  0
LINE
  5
1241
330
2
100
AcDbEntity
  8
エンボス
  6
Continuous
100
AcDbLine
 10
510.2072992397217
 20
1207.625216072962
 30
0.0
 11
503.2072992397217
 21
1209.625216072962
 31
0.0
  0
LINE
  5
1242
330
2
100
AcDbEntity
  8
エンボス
  6
Continuous
100
AcDbLine
 10
503.2072992397217
 20
1212.625216072962
 30
0.0
 11
510.2072992397217
 21
1214.625216072962
 31
0.0
  0
LINE
  5
1243
330
2
100
AcDbEntity
  8
エンボス
  6
Continuous
100
AcDbLine
 10
503.2072992397217
 20
1240.625216072962
 30
0.0
 11
510.2072992397217
 21
1242.625216072962
 31
0.0
  0
LINE
  5
1244
330
2
100
AcDbEntity
  8
本体
  6
Continuous
100
AcDbLine
 10
503.2072992397217
 20
1195.642635905382
 30
0.0
 11
503.2072992397217
 21
1153.642635905382
 31
0.0
  0
LINE
  5
1245
330
2
100
AcDbEntity
  8
本体
  6
Continuous
100
AcDbLine
 10
510.2072992397217
 20
1195.642635905382
 30
0.0
 11
510.2072992397217
 21
1153.642635905382
 31
0.0
  0
LINE
  5
1246
330
2
100
AcDbEntity
  8
エンボス
  6
Continuous
100
AcDbLine
 10
510.2072992397217
 20
1185.625216072962
 30
0.0
 11
503.2072992397217
 21
1187.625216072962
 31
0.0
  0
LINE
  5
1247
330
2
100
AcDbEntity
  8
エンボス
  6
Continuous
100
AcDbLine
 10
503.2072992397217
 20
1178.625216072962
 30
0.0
 11
510.2072992397217
 21
1176.625216072962
 31
0.0
  0
LINE
  5
1248
330
2
100
AcDbEntity
  8
エンボス
  6
Continuous
100
AcDbLine
 10
510.2072992397217
 20
1173.625216072962
 30
0.0
 11
503.2072992397217
 21
1171.625216072962
 31
0.0
  0
LINE
  5
1249
330
2
100
AcDbEntity
  8
エンボス
  6
Continuous
100
AcDbLine
 10
510.2072992397217
 20
1157.625216072962
 30
0.0
 11
503.2072992397217
 21
1159.625216072962
 31
0.0
  0
LINE
  5
124A
330
2
100
AcDbEntity
  8
エンボス
  6
Continuous
100
AcDbLine
 10
503.2072992397217
 20
1162.625216072962
 30
0.0
 11
510.2072992397217
 21
1164.625216072962
 31
0.0
  0
LINE
  5
124B
330
2
100
AcDbEntity
  8
エンボス
  6
Continuous
100
AcDbLine
 10
503.2072992397217
 20
1190.625216072962
 30
0.0
 11
510.2072992397217
 21
1192.625216072962
 31
0.0
  0
LINE
  5
124C
330
2
100
AcDbEntity
  8
本体
  6
Continuous
100
AcDbLine
 10
503.2072992397217
 20
1145.642635905382
 30
0.0
 11
503.2072992397217
 21
1103.642635905382
 31
0.0
  0
LINE
  5
124D
330
2
100
AcDbEntity
  8
本体
  6
Continuous
100
AcDbLine
 10
510.2072992397217
 20
1145.642635905382
 30
0.0
 11
510.2072992397217
 21
1103.642635905382
 31
0.0
  0
LINE
  5
124E
330
2
100
AcDbEntity
  8
エンボス
  6
Continuous
100
AcDbLine
 10
510.2072992397217
 20
1135.625216072962
 30
0.0
 11
503.2072992397217
 21
1137.625216072962
 31
0.0
  0
LINE
  5
124F
330
2
100
AcDbEntity
  8
エンボス
  6
Continuous
100
AcDbLine
 10
503.2072992397217
 20
1128.625216072962
 30
0.0
 11
510.2072992397217
 21
1126.625216072962
 31
0.0
  0
LINE
  5
1250
330
2
100
AcDbEntity
  8
エンボス
  6
Continuous
100
AcDbLine
 10
510.2072992397217
 20
1123.625216072962
 30
0.0
 11
503.2072992397217
 21
1121.625216072962
 31
0.0
  0
LINE
  5
1251
330
2
100
AcDbEntity
  8
エンボス
  6
Continuous
100
AcDbLine
 10
510.2072992397217
 20
1107.625216072962
 30
0.0
 11
503.2072992397217
 21
1109.625216072962
 31
0.0
  0
LINE
  5
1252
330
2
100
AcDbEntity
  8
エンボス
  6
Continuous
100
AcDbLine
 10
503.2072992397217
 20
1112.625216072962
 30
0.0
 11
510.2072992397217
 21
1114.625216072962
 31
0.0
  0
LINE
  5
1253
330
2
100
AcDbEntity
  8
エンボス
  6
Continuous
100
AcDbLine
 10
503.2072992397217
 20
1140.625216072962
 30
0.0
 11
510.2072992397217
 21
1142.625216072962
 31
0.0
  0
LINE
  5
1254
330
2
100
AcDbEntity
  8
本体
  6
Continuous
100
AcDbLine
 10
503.2072992397217
 20
1095.642635905382
 30
0.0
 11
503.2072992397217
 21
1053.642635905382
 31
0.0
  0
LINE
  5
1255
330
2
100
AcDbEntity
  8
本体
  6
Continuous
100
AcDbLine
 10
510.2072992397217
 20
1095.642635905382
 30
0.0
 11
510.2072992397217
 21
1053.642635905382
 31
0.0
  0
LINE
  5
1256
330
2
100
AcDbEntity
  8
エンボス
  6
Continuous
100
AcDbLine
 10
510.2072992397217
 20
1085.625216072962
 30
0.0
 11
503.2072992397217
 21
1087.625216072962
 31
0.0
  0
LINE
  5
1257
330
2
100
AcDbEntity
  8
エンボス
  6
Continuous
100
AcDbLine
 10
503.2072992397217
 20
1078.625216072962
 30
0.0
 11
510.2072992397217
 21
1076.625216072962
 31
0.0
  0
LINE
  5
1258
330
2
100
AcDbEntity
  8
エンボス
  6
Continuous
100
AcDbLine
 10
510.2072992397217
 20
1073.625216072962
 30
0.0
 11
503.2072992397217
 21
1071.625216072962
 31
0.0
  0
LINE
  5
1259
330
2
100
AcDbEntity
  8
エンボス
  6
Continuous
100
AcDbLine
 10
510.2072992397217
 20
1057.625216072962
 30
0.0
 11
503.2072992397217
 21
1059.625216072962
 31
0.0
  0
LINE
  5
125A
330
2
100
AcDbEntity
  8
エンボス
  6
Continuous
100
AcDbLine
 10
503.2072992397217
 20
1062.625216072962
 30
0.0
 11
510.2072992397217
 21
1064.625216072962
 31
0.0
  0
LINE
  5
125B
330
2
100
AcDbEntity
  8
エンボス
  6
Continuous
100
AcDbLine
 10
503.2072992397217
 20
1090.625216072962
 30
0.0
 11
510.2072992397217
 21
1092.625216072962
 31
0.0
  0
INSERT
  5
1263
102
{ACAD_REACTORS
330
12DE
102
}
330
2
100
AcDbEntity
  8
本体
100
AcDbBlockReference
  2
*U32
 10
2174.391142154493
 20
1653.916070349527
 30
0.0
  0
LEADER
  5
12EE
330
2
100
AcDbEntity
  8
寸法線
  6
Continuous
100
AcDbLeader
  3
ISO-25
 73
     0
 74
     0
 75
     1
 40
30.0
 41
210.6091370558376
 76
     3
 10
998.4607445107767
 20
1574.470044674937
 30
0.0
 10
1054.171422629431
 20
1652.680722793592
 30
0.0
 10
1069.171422629431
 20
1652.680722793592
 30
0.0
340
12EF
1001
ACAD
1000
DSTYLE
1002
{
1070
     5
1000
OPEN30
1070
    77
1070
     1
1070
   147
1040
0.5
1070
   342
1005
155
1002
}
  0
MTEXT
  5
12EF
102
{ACAD_REACTORS
330
12EE
102
}
330
2
100
AcDbEntity
  8
寸法線
  6
Continuous
100
AcDbMText
 10
1074.171422629431
 20
1657.680722793592
 30
0.0
 40
30.0
 41
0.0
 71
     7
 72
     1
  1
GIB7\U+00D74\U+00D775
 73
     1
 44
1.0
1001
ACAD
1000
MTEXTBEGIN
1070
    73
1070
     1
1070
    44
1040
1.0
1070
    74
1070
     0
1000
MTEXTEND
  0
LEADER
  5
12F0
330
2
100
AcDbEntity
  8
寸法線
  6
Continuous
100
AcDbLeader
  3
ISO-25
 73
     0
 74
     0
 75
     1
 40
30.0
 41
35.78680203045685
 76
     3
 10
998.4607445107767
 20
1450.521817874964
 30
0.0
 10
1054.171422629431
 20
1528.732495993619
 30
0.0
 10
1069.171422629431
 20
1528.732495993619
 30
0.0
340
12F1
1001
ACAD
1000
DSTYLE
1002
{
1070
     5
1000
OPEN30
1070
    77
1070
     1
1070
   147
1040
0.5
1070
   342
1005
155
1002
}
  0
MTEXT
  5
12F1
102
{ACAD_REACTORS
330
12F0
102
}
330
2
100
AcDbEntity
  8
寸法線
  6
Continuous
100
AcDbMText
 10
1074.171422629431
 20
1533.732495993619
 30
0.0
 40
30.0
 41
0.0
 71
     7
 72
     1
  1
TB
 73
     1
 44
1.0
1001
ACAD
1000
MTEXTBEGIN
1070
    73
1070
     1
1070
    44
1040
1.0
1070
    74
1070
     0
1000
MTEXTEND
  0
ENDSEC
  0
SECTION
  2
OBJECTS
  0
DICTIONARY
  5
7
330
0
100
AcDbDictionary
281
     1
  3
ACAD_ASSOCNETWORK
350
1177
  3
ACAD_CIP_PREVIOUS_PRODUCT_INFO
350
1032
  3
ACAD_COLOR
350
1010
  3
ACAD_DETAILVIEWSTYLE
350
1029
  3
ACAD_GROUP
350
539
  3
ACAD_LAYOUT
350
51F
  3
ACAD_MATERIAL
350
FDE
  3
ACAD_MLEADERSTYLE
350
1025
  3
ACAD_MLINESTYLE
350
53A
  3
ACAD_PLOTSETTINGS
350
53B
  3
ACAD_PLOTSTYLENAME
350
6
  3
ACAD_SCALELIST
350
1013
  3
ACAD_SECTIONVIEWSTYLE
350
1027
  3
ACAD_TABLESTYLE
350
1011
  3
ACAD_VISUALSTYLE
350
FF7
  3
ACDB_RECOMPOSE_DATA
350
135D
  3
AcDbVariableDictionary
350
108D
  3
DWGPROPS
350
135E
  0
DICTIONARY
  5
1050
330
534
100
AcDbDictionary
280
     1
281
     1
  0
DICTIONARY
  5
1143
330
52C
100
AcDbDictionary
280
     1
281
     1
  3
ACAD_LAYERSTATES
360
1144
  0
DICTIONARY
  5
1033
330
64
100
AcDbDictionary
280
     1
281
     1
  3
ADSK_XREC_LAYER_RECONCILED
360
1034
  0
DICTIONARY
  5
1035
330
6A
100
AcDbDictionary
280
     1
281
     1
  3
ADSK_XREC_LAYER_RECONCILED
360
1036
  0
DICTIONARY
  5
1037
330
4
100
AcDbDictionary
280
     1
281
     1
  3
ADSK_XREC_LAYER_RECONCILED
360
1038
  0
DICTIONARY
  5
103B
330
67
100
AcDbDictionary
280
     1
281
     1
  3
ADSK_XREC_LAYER_RECONCILED
360
103C
  0
DICTIONARY
  5
103D
330
11
100
AcDbDictionary
280
     1
281
     1
  3
ADSK_XREC_LAYER_RECONCILED
360
103E
  0
DICTIONARY
  5
1041
330
F3A
100
AcDbDictionary
280
     1
281
     1
  3
ADSK_XREC_LAYER_RECONCILED
360
1042
  0
DICTIONARY
  5
1043
330
F54
100
AcDbDictionary
280
     1
281
     1
  3
ADSK_XREC_LAYER_RECONCILED
360
1044
  0
DICTIONARY
  5
51A
330
2
100
AcDbDictionary
280
     1
281
     1
  3
ACAD_ASSOCNETWORK
360
1175
  3
ACAD_LAYOUTSELFREF
360
F00
  0
DICTIONARY
  5
521
330
520
100
AcDbDictionary
280
     1
281
     1
  3
ACAD_LAYOUTSELFREF
360
F0D
  0
DICTIONARY
  5
527
330
526
100
AcDbDictionary
280
     1
281
     1
  3
ACAD_LAYOUTSELFREF
360
F0E
  0
DICTIONARY
  5
10A4
330
10A0
100
AcDbDictionary
280
     1
281
     1
  0
DICTIONARY
  5
139F
330
1160
100
AcDbDictionary
280
     1
281
     1
  3
AcDbBlockTableRecordData
360
13A0
  0
DICTIONARY
  5
13A2
330
1260
100
AcDbDictionary
280
     1
281
     1
  3
AcDbBlockTableRecordData
360
13A3
  0
DICTIONARY
  5
1177
102
{ACAD_REACTORS
330
7
102
}
330
7
100
AcDbDictionary
281
     1
  3
ACAD_ASSOCNETWORK
350
1178
  0
XRECORD
  5
1032
102
{ACAD_REACTORS
330
7
102
}
330
7
100
AcDbXrecord
280
     1
300
ACDLT
300
2014
300
ACDLT_F_S
  0
DICTIONARY
  5
1010
102
{ACAD_REACTORS
330
7
102
}
330
7
100
AcDbDictionary
281
     1
  0
DICTIONARY
  5
1029
102
{ACAD_REACTORS
330
7
102
}
330
7
100
AcDbDictionary
281
     1
  3
Metric50
350
102A
  0
DICTIONARY
  5
539
102
{ACAD_REACTORS
330
7
102
}
330
7
100
AcDbDictionary
281
     1
  3
*A1
350
F4E
  3
*A2
350
F53
  0
DICTIONARY
  5
51F
102
{ACAD_REACTORS
330
7
102
}
330
7
100
AcDbDictionary
281
     1
  3
Layout1
350
525
  3
Layout2
350
52B
  3
Model
350
51E
  0
DICTIONARY
  5
FDE
102
{ACAD_REACTORS
330
7
102
}
330
7
100
AcDbDictionary
281
     1
  3
ByBlock
350
FE7
  3
ByLayer
350
FDF
  3
Global
350
FEF
  0
DICTIONARY
  5
1025
102
{ACAD_REACTORS
330
7
102
}
330
7
100
AcDbDictionary
281
     1
  3
Standard
350
1026
  0
DICTIONARY
  5
53A
102
{ACAD_REACTORS
330
7
102
}
330
7
100
AcDbDictionary
281
     1
  3
Standard
350
53C
  0
DICTIONARY
  5
53B
102
{ACAD_REACTORS
330
7
102
}
330
7
100
AcDbDictionary
281
     1
  0
ACDBDICTIONARYWDFLT
  5
6
102
{ACAD_REACTORS
330
7
102
}
330
7
100
AcDbDictionary
281
     1
  3
Normal
350
5
100
AcDbDictionaryWithDefault
340
5
  0
DICTIONARY
  5
1013
102
{ACAD_REACTORS
330
7
102
}
330
7
100
AcDbDictionary
281
     1
  3
A0
350
1014
  3
A1
350
1015
  3
A2
350
1016
  3
A3
350
1017
  3
A4
350
1018
  3
A5
350
1019
  3
A6
350
101A
  3
A7
350
101B
  3
A8
350
101C
  3
A9
350
101D
  3
B0
350
101E
  3
B1
350
101F
  3
B2
350
1020
  3
B3
350
1021
  3
B4
350
1022
  3
B5
350
1023
  3
B6
350
1024
  0
DICTIONARY
  5
1027
102
{ACAD_REACTORS
330
7
102
}
330
7
100
AcDbDictionary
281
     1
  3
Metric50
350
1028
  0
DICTIONARY
  5
1011
102
{ACAD_REACTORS
330
7
102
}
330
7
100
AcDbDictionary
281
     1
  3
Standard
350
1012
  0
DICTIONARY
  5
FF7
102
{ACAD_REACTORS
330
7
102
}
330
7
100
AcDbDictionary
281
     1
  3
2dWireframe
350
FFD
  3
Basic
350
FFC
  3
Brighten
350
1003
  3
ColorChange
350
1007
  3
Conceptual
350
1000
  3
Dim
350
1002
  3
EdgeColorOff
350
100F
  3
Facepattern
350
1006
  3
Flat
350
FF8
  3
FlatWithEdges
350
FF9
  3
Gouraud
350
FFA
  3
GouraudWithEdges
350
FFB
  3
Hidden
350
FFF
  3
JitterOff
350
100D
  3
Linepattern
350
1005
  3
OverhangOff
350
100E
  3
Realistic
350
1001
  3
Shaded
350
100C
  3
Shaded with edges
350
100B
  3
Shades of Gray
350
1008
  3
Sketchy
350
1009
  3
Thicken
350
1004
  3
Wireframe
350
FFE
  3
X-Ray
350
100A
  0
XRECORD
  5
135D
102
{ACAD_REACTORS
330
7
102
}
330
7
100
AcDbXrecord
280
     1
 90
        1
330
1012
  0
DICTIONARY
  5
108D
102
{ACAD_REACTORS
330
7
102
}
330
7
100
AcDbDictionary
281
     1
  3
CANNOSCALE
350
1092
  3
CMLEADERSTYLE
350
108F
  3
CTABLESTYLE
350
108E
  3
CVIEWDETAILSTYLE
350
1090
  3
CVIEWSECTIONSTYLE
350
1091
  3
DIMASSOC
350
1095
  3
INDEXCTL
350
1094
  3
SORTENTS
350
1093
  3
XCLIPFRAME
350
135B
  0
XRECORD
  5
135E
102
{ACAD_REACTORS
330
7
102
}
330
7
100
AcDbXrecord
280
     1
  1
DWGPROPS COOKIE
  2

  3

  4

  6

  7

  8
takara
  9

300
=
301
=
302
=
303
=
304
=
305
=
306
=
307
=
308
=
309
=
 40
0.0567842592592593
 41
2453510.558637211
 42
2457564.74243934
  1

 90
        0
  0
DICTIONARY
  5
1144
102
{ACAD_REACTORS
330
1143
102
}
330
1143
100
AcDbDictionary
281
     1
  3
_LAYISO_STATE
350
1145
1001
AcLayerTools
1000
51E
1000
0
  0
XRECORD
  5
1034
102
{ACAD_REACTORS
330
1033
102
}
330
1033
100
AcDbXrecord
280
     1
290
     1
  0
XRECORD
  5
1036
102
{ACAD_REACTORS
330
1035
102
}
330
1035
100
AcDbXrecord
280
     1
290
     1
  0
XRECORD
  5
1038
102
{ACAD_REACTORS
330
1037
102
}
330
1037
100
AcDbXrecord
280
     1
290
     1
  0
XRECORD
  5
103C
102
{ACAD_REACTORS
330
103B
102
}
330
103B
100
AcDbXrecord
280
     1
290
     1
  0
XRECORD
  5
103E
102
{ACAD_REACTORS
330
103D
102
}
330
103D
100
AcDbXrecord
280
     1
290
     1
  0
XRECORD
  5
1042
102
{ACAD_REACTORS
330
1041
102
}
330
1041
100
AcDbXrecord
280
     1
290
     1
  0
XRECORD
  5
1044
102
{ACAD_REACTORS
330
1043
102
}
330
1043
100
AcDbXrecord
280
     1
290
     1
  0
DICTIONARY
  5
1175
102
{ACAD_REACTORS
330
51A
102
}
330
51A
100
AcDbDictionary
281
     1
  3
ACAD_ASSOCNETWORK
350
1176
  0
XRECORD
  5
F00
102
{ACAD_REACTORS
330
51A
102
}
330
51A
100
AcDbXrecord
280
     1
340
2
  0
XRECORD
  5
F0D
102
{ACAD_REACTORS
330
521
102
}
330
521
100
AcDbXrecord
280
     1
340
520
  0
XRECORD
  5
F0E
102
{ACAD_REACTORS
330
527
102
}
330
527
100
AcDbXrecord
280
     1
340
526
  0
DICTIONARY
  5
13A0
102
{ACAD_REACTORS
330
139F
102
}
330
139F
100
AcDbDictionary
280
     1
281
     1
  3
Edit
360
13A1
  0
DICTIONARY
  5
13A3
102
{ACAD_REACTORS
330
13A2
102
}
330
13A2
100
AcDbDictionary
280
     1
281
     1
  3
Edit
360
13A4
  0
ACDBASSOCNETWORK
  5
1178
102
{ACAD_REACTORS
330
1177
102
}
330
1177
100
AcDbAssocAction
 90
        1
 90
        1
330
0
360
0
 90
        0
 90
        0
 90
        0
100
AcDbAssocNetwork
 90
        0
 90
        1
 90
        1
330
1176
 90
        1
330
1176
  0
ACDBDETAILVIEWSTYLE
  5
102A
102
{ACAD_XDICTIONARY
360
139D
102
}
102
{ACAD_REACTORS
330
1029
102
}
330
1029
100
AcDbModelDocViewStyle
 70
     0
  3
Metric50
290
     0
100
AcDbDetailViewStyle
 70
     0
 71
     0
 90
        3
 71
     1
340
9
 40
5.0
340
0
 40
5.0
300

 40
0.0
280
     1
 71
     2
340
8
 90
       25
 71
     3
340
9
 40
5.0
 90
        0
 40
15.0
 90
        1
300
%<\AcVar ViewDetailId>% (%<\AcVar ViewScale \f "%sn">%)
 71
     4
340
8
 90
       25
340
8
 90
       25
280
     0
  0
GROUP
  5
F4E
102
{ACAD_REACTORS
330
539
102
}
330
539
100
AcDbGroup
300

 70
     1
 71
     1
340
541
340
545
340
C6A
340
546
  0
GROUP
  5
F53
102
{ACAD_REACTORS
330
539
102
}
330
539
100
AcDbGroup
300

 70
     1
 71
     1
340
F50
340
F4F
340
F51
340
F52
  0
LAYOUT
  5
525
102
{ACAD_XDICTIONARY
360
1361
102
}
102
{ACAD_REACTORS
330
51F
102
}
330
51F
100
AcDbPlotSettings
  1

  2
None
  4

  6

 40
0.0
 41
0.0
 42
0.0
 43
0.0
 44
0.0
 45
0.0
 46
0.0
 47
0.0
 48
0.0
 49
0.0
140
0.0
141
0.0
142
1.0
143
1.0
 70
   688
 72
     0
 73
     0
 74
     5
  7
monochrome.ctb
 75
    16
147
1.0
148
0.0
149
0.0
100
AcDbLayout
  1
Layout1
 70
     1
 71
     1
 10
0.0
 20
0.0
 11
12.0
 21
9.0
 12
0.0
 22
0.0
 32
0.0
 14
0.0
 24
0.0
 34
0.0
 15
0.0
 25
0.0
 35
0.0
146
0.0
 13
0.0
 23
0.0
 33
0.0
 16
1.0
 26
0.0
 36
0.0
 17
0.0
 27
1.0
 37
0.0
 76
     0
330
520
  0
LAYOUT
  5
52B
102
{ACAD_XDICTIONARY
360
1363
102
}
102
{ACAD_REACTORS
330
51F
102
}
330
51F
100
AcDbPlotSettings
  1

  2
None
  4

  6

 40
0.0
 41
0.0
 42
0.0
 43
0.0
 44
0.0
 45
0.0
 46
0.0
 47
0.0
 48
0.0
 49
0.0
140
0.0
141
0.0
142
1.0
143
1.0
 70
   688
 72
     0
 73
     0
 74
     5
  7
monochrome.ctb
 75
    16
147
1.0
148
0.0
149
0.0
100
AcDbLayout
  1
Layout2
 70
     1
 71
     2
 10
0.0
 20
0.0
 11
12.0
 21
9.0
 12
0.0
 22
0.0
 32
0.0
 14
0.0
 24
0.0
 34
0.0
 15
0.0
 25
0.0
 35
0.0
146
0.0
 13
0.0
 23
0.0
 33
0.0
 16
1.0
 26
0.0
 36
0.0
 17
0.0
 27
1.0
 37
0.0
 76
     0
330
526
  0
LAYOUT
  5
51E
102
{ACAD_XDICTIONARY
360
135F
102
}
102
{ACAD_REACTORS
330
51F
102
}
330
51F
100
AcDbPlotSettings
  1

  2
EPSON LP-9400
  4
A4
  6

 40
5.873749732971191
 41
5.873747825622558
 42
5.873748779296875
 43
5.873748779296875
 44
209.9733276367187
 45
297.0106506347656
 46
2.339999999999999
 47
0.0
 48
0.0
 49
0.0
140
0.0
141
0.0
142
1.0
143
9.816891609963194
 70
 11956
 72
     1
 73
     1
 74
     1
  7
monochrome.ctb
 75
     0
147
0.1018652379725877
148
1264.94917075748
149
959.6633564695521
100
AcDbLayout
  1
Model
 70
     1
 71
     0
 10
0.0
 20
0.0
 11
12.0
 21
9.0
 12
0.0
 22
0.0
 32
0.0
 14
0.0
 24
0.0
 34
0.0
 15
0.0
 25
0.0
 35
0.0
146
0.0
 13
0.0
 23
0.0
 33
0.0
 16
1.0
 26
0.0
 36
0.0
 17
0.0
 27
1.0
 37
0.0
 76
     0
330
2
331
FDC
  0
MATERIAL
  5
FE7
102
{ACAD_XDICTIONARY
360
FE8
102
}
102
{ACAD_REACTORS
330
FDE
102
}
330
FDE
100
AcDbMaterial
  1
ByBlock
 72
     0
 43
0.0008202099737533
 43
0.0
 43
0.0
 43
0.0
 43
0.0
 43
0.0008202099737533
 43
0.0
 43
0.0
 43
0.0
 43
0.0
 43
1.0
 43
0.0
 43
0.0
 43
0.0
 43
0.0
 43
1.0
 77
     0
 47
0.0008202099737533
 47
0.0
 47
0.0
 47
0.0
 47
0.0
 47
0.0008202099737533
 47
0.0
 47
0.0
 47
0.0
 47
0.0
 47
1.0
 47
0.0
 47
0.0
 47
0.0
 47
0.0
 47
1.0
171
     0
 49
0.0008202099737533
 49
0.0
 49
0.0
 49
0.0
 49
0.0
 49
0.0008202099737533
 49
0.0
 49
0.0
 49
0.0
 49
0.0
 49
1.0
 49
0.0
 49
0.0
 49
0.0
 49
0.0
 49
1.0
175
     0
142
0.0008202099737533
142
0.0
142
0.0
142
0.0
142
0.0
142
0.0008202099737533
142
0.0
142
0.0
142
0.0
142
0.0
142
1.0
142
0.0
142
0.0
142
0.0
142
0.0
142
1.0
179
     0
144
0.0008202099737533
144
0.0
144
0.0
144
0.0
144
0.0
144
0.0008202099737533
144
0.0
144
0.0
144
0.0
144
0.0
144
1.0
144
0.0
144
0.0
144
0.0
144
0.0
144
1.0
147
0.0008202099737533
147
0.0
147
0.0
147
0.0
147
0.0
147
0.0008202099737533
147
0.0
147
0.0
147
0.0
147
0.0
147
1.0
147
0.0
147
0.0
147
0.0
147
0.0
147
1.0
  0
MATERIAL
  5
FDF
102
{ACAD_XDICTIONARY
360
FE0
102
}
102
{ACAD_REACTORS
330
FDE
102
}
330
FDE
100
AcDbMaterial
  1
ByLayer
 72
     0
 43
0.0008202099737533
 43
0.0
 43
0.0
 43
0.0
 43
0.0
 43
0.0008202099737533
 43
0.0
 43
0.0
 43
0.0
 43
0.0
 43
1.0
 43
0.0
 43
0.0
 43
0.0
 43
0.0
 43
1.0
 77
     0
 47
0.0008202099737533
 47
0.0
 47
0.0
 47
0.0
 47
0.0
 47
0.0008202099737533
 47
0.0
 47
0.0
 47
0.0
 47
0.0
 47
1.0
 47
0.0
 47
0.0
 47
0.0
 47
0.0
 47
1.0
171
     0
 49
0.0008202099737533
 49
0.0
 49
0.0
 49
0.0
 49
0.0
 49
0.0008202099737533
 49
0.0
 49
0.0
 49
0.0
 49
0.0
 49
1.0
 49
0.0
 49
0.0
 49
0.0
 49
0.0
 49
1.0
175
     0
142
0.0008202099737533
142
0.0
142
0.0
142
0.0
142
0.0
142
0.0008202099737533
142
0.0
142
0.0
142
0.0
142
0.0
142
1.0
142
0.0
142
0.0
142
0.0
142
0.0
142
1.0
179
     0
144
0.0008202099737533
144
0.0
144
0.0
144
0.0
144
0.0
144
0.0008202099737533
144
0.0
144
0.0
144
0.0
144
0.0
144
1.0
144
0.0
144
0.0
144
0.0
144
0.0
144
1.0
147
0.0008202099737533
147
0.0
147
0.0
147
0.0
147
0.0
147
0.0008202099737533
147
0.0
147
0.0
147
0.0
147
0.0
147
1.0
147
0.0
147
0.0
147
0.0
147
0.0
147
1.0
  0
MATERIAL
  5
FEF
102
{ACAD_XDICTIONARY
360
FF0
102
}
102
{ACAD_REACTORS
330
FDE
102
}
330
FDE
100
AcDbMaterial
  1
Global
 72
     0
 43
0.0008202099737533
 43
0.0
 43
0.0
 43
0.0
 43
0.0
 43
0.0008202099737533
 43
0.0
 43
0.0
 43
0.0
 43
0.0
 43
1.0
 43
0.0
 43
0.0
 43
0.0
 43
0.0
 43
1.0
 77
     0
 47
0.0008202099737533
 47
0.0
 47
0.0
 47
0.0
 47
0.0
 47
0.0008202099737533
 47
0.0
 47
0.0
 47
0.0
 47
0.0
 47
1.0
 47
0.0
 47
0.0
 47
0.0
 47
0.0
 47
1.0
171
     0
 49
0.0008202099737533
 49
0.0
 49
0.0
 49
0.0
 49
0.0
 49
0.0008202099737533
 49
0.0
 49
0.0
 49
0.0
 49
0.0
 49
1.0
 49
0.0
 49
0.0
 49
0.0
 49
0.0
 49
1.0
175
     0
142
0.0008202099737533
142
0.0
142
0.0
142
0.0
142
0.0
142
0.0008202099737533
142
0.0
142
0.0
142
0.0
142
0.0
142
1.0
142
0.0
142
0.0
142
0.0
142
0.0
142
1.0
179
     0
144
0.0008202099737533
144
0.0
144
0.0
144
0.0
144
0.0
144
0.0008202099737533
144
0.0
144
0.0
144
0.0
144
0.0
144
1.0
144
0.0
144
0.0
144
0.0
144
0.0
144
1.0
147
0.0008202099737533
147
0.0
147
0.0
147
0.0
147
0.0
147
0.0008202099737533
147
0.0
147
0.0
147
0.0
147
0.0
147
1.0
147
0.0
147
0.0
147
0.0
147
0.0
147
1.0
  0
MLEADERSTYLE
  5
1026
102
{ACAD_XDICTIONARY
360
1399
102
}
102
{ACAD_REACTORS
330
1025
102
}
330
1025
100
AcDbMLeaderStyle
170
     2
171
     1
172
     0
 90
        2
 40
0.0
 41
0.0
173
     1
 91
-1056964608
340
530
 92
       -2
290
     1
 42
2.0
291
     1
 43
0.36
  3
Standard
 44
4.0
300

342
9
174
     1
178
     6
175
     1
176
     0
 93
-1056964608
 45
4.0
292
     0
297
     0
 46
4.0
 94
-1056964608
 47
1.0
 49
1.0
140
1.0
293
     1
141
0.0
294
     1
177
     0
142
1.0
295
     0
296
     0
143
0.125
1001
ACAD_MLEADERVER
1070
     2
  0
MLINESTYLE
  5
53C
102
{ACAD_REACTORS
330
53A
102
}
330
53A
100
AcDbMlineStyle
  2
STANDARD
 70
     0
  3

 62
   256
 51
90.0
 52
90.0
 71
     2
 49
0.5
 62
   256
  6
BYLAYER
 49
-0.5
 62
   256
  6
BYLAYER
  0
ACDBPLACEHOLDER
  5
5
102
{ACAD_REACTORS
330
6
102
}
330
6
  0
SCALE
  5
1014
102
{ACAD_REACTORS
330
1013
102
}
330
1013
100
AcDbScale
 70
     0
300
1:1
140
1.0
141
1.0
290
     1
  0
SCALE
  5
1015
102
{ACAD_REACTORS
330
1013
102
}
330
1013
100
AcDbScale
 70
     0
300
1:2
140
1.0
141
2.0
290
     0
  0
SCALE
  5
1016
102
{ACAD_REACTORS
330
1013
102
}
330
1013
100
AcDbScale
 70
     0
300
1:4
140
1.0
141
4.0
290
     0
  0
SCALE
  5
1017
102
{ACAD_REACTORS
330
1013
102
}
330
1013
100
AcDbScale
 70
     0
300
1:5
140
1.0
141
5.0
290
     0
  0
SCALE
  5
1018
102
{ACAD_REACTORS
330
1013
102
}
330
1013
100
AcDbScale
 70
     0
300
1:8
140
1.0
141
8.0
290
     0
  0
SCALE
  5
1019
102
{ACAD_REACTORS
330
1013
102
}
330
1013
100
AcDbScale
 70
     0
300
1:10
140
1.0
141
10.0
290
     0
  0
SCALE
  5
101A
102
{ACAD_REACTORS
330
1013
102
}
330
1013
100
AcDbScale
 70
     0
300
1:16
140
1.0
141
16.0
290
     0
  0
SCALE
  5
101B
102
{ACAD_REACTORS
330
1013
102
}
330
1013
100
AcDbScale
 70
     0
300
1:20
140
1.0
141
20.0
290
     0
  0
SCALE
  5
101C
102
{ACAD_REACTORS
330
1013
102
}
330
1013
100
AcDbScale
 70
     0
300
1:30
140
1.0
141
30.0
290
     0
  0
SCALE
  5
101D
102
{ACAD_REACTORS
330
1013
102
}
330
1013
100
AcDbScale
 70
     0
300
1:40
140
1.0
141
40.0
290
     0
  0
SCALE
  5
101E
102
{ACAD_REACTORS
330
1013
102
}
330
1013
100
AcDbScale
 70
     0
300
1:50
140
1.0
141
50.0
290
     0
  0
SCALE
  5
101F
102
{ACAD_REACTORS
330
1013
102
}
330
1013
100
AcDbScale
 70
     0
300
1:100
140
1.0
141
100.0
290
     0
  0
SCALE
  5
1020
102
{ACAD_REACTORS
330
1013
102
}
330
1013
100
AcDbScale
 70
     0
300
2:1
140
2.0
141
1.0
290
     0
  0
SCALE
  5
1021
102
{ACAD_REACTORS
330
1013
102
}
330
1013
100
AcDbScale
 70
     0
300
4:1
140
4.0
141
1.0
290
     0
  0
SCALE
  5
1022
102
{ACAD_REACTORS
330
1013
102
}
330
1013
100
AcDbScale
 70
     0
300
8:1
140
8.0
141
1.0
290
     0
  0
SCALE
  5
1023
102
{ACAD_REACTORS
330
1013
102
}
330
1013
100
AcDbScale
 70
     0
300
10:1
140
10.0
141
1.0
290
     0
  0
SCALE
  5
1024
102
{ACAD_REACTORS
330
1013
102
}
330
1013
100
AcDbScale
 70
     0
300
100:1
140
100.0
141
1.0
290
     0
  0
ACDBSECTIONVIEWSTYLE
  5
1028
102
{ACAD_XDICTIONARY
360
139B
102
}
102
{ACAD_REACTORS
330
1027
102
}
330
1027
100
AcDbModelDocViewStyle
 70
     0
  3
Metric50
290
     0
100
AcDbSectionViewStyle
 70
     0
 71
     0
 90
      102
 71
     1
340
9
 40
5.0
340
0
340
0
 40
5.0
300
I, O, Q, S, X, Z
 40
10.0
 90
        0
 40
2.5
 90
        0
 71
     2
340
8
 90
       25
340
8
 90
       50
 40
5.0
 40
2.5
 40
5.0
 71
     3
340
9
 40
5.0
 90
        0
 40
15.0
 90
        1
300
%<\AcVar ViewSectionStartId>%-%<\AcVar ViewSectionEndId>% (%<\AcVar ViewScale \f "%sn">%)
 71
     4
300
ANSI31
 40
1.0
 90
        0
290
     0
290
     0
 90
        6
 40
0.0
 40
1.570796326794896
 40
0.2617993877991494
 40
1.308996938995747
 40
-0.2617993877991494
 40
1.832595714594046
  0
TABLESTYLE
  5
1012
102
{ACAD_XDICTIONARY
360
1046
102
}
102
{ACAD_REACTORS
330
1011
102
}
330
1011
100
AcDbTableStyle
  3
Standard
 70
     0
 71
     0
 40
1.5
 41
1.5
280
     0
281
     0
  7
Standard
140
4.5
170
     2
 62
     0
 63
     7
283
     0
274
    -2
284
     1
 64
     0
275
    -2
285
     1
 65
     0
276
    -2
286
     1
 66
     0
277
    -2
287
     1
 67
     0
278
    -2
288
     1
 68
     0
279
    -2
289
     1
 69
     0
  7
Standard
140
6.0
170
     5
 62
     0
 63
     7
283
     0
274
    -2
284
     1
 64
     0
275
    -2
285
     1
 65
     0
276
    -2
286
     1
 66
     0
277
    -2
287
     1
 67
     0
278
    -2
288
     1
 68
     0
279
    -2
289
     1
 69
     0
  7
Standard
140
4.5
170
     5
 62
     0
 63
     7
283
     0
274
    -2
284
     1
 64
     0
275
    -2
285
     1
 65
     0
276
    -2
286
     1
 66
     0
277
    -2
287
     1
 67
     0
278
    -2
288
     1
 68
     0
279
    -2
289
     1
 69
     0
  0
VISUALSTYLE
  5
FFD
102
{ACAD_XDICTIONARY
360
1372
102
}
102
{ACAD_REACTORS
330
FF7
102
}
330
FF7
100
AcDbVisualStyle
  2
2dWireframe
 70
     4
 71
     0
 72
     2
 73
     0
 90
        0
 40
-0.6
 41
-30.0
 62
     5
 63
     7
 74
     1
 91
        4
 64
     7
 65
   257
 75
     1
175
     1
 42
1.0
 92
        0
 66
   257
 43
1.0
 76
     1
 77
     6
 78
     2
 67
     7
 79
     5
170
     0
171
     0
290
     0
174
     0
 93
        1
 44
0.0
173
     0
291
     0
 45
0.0
1001
ACAD
1000
AcDbSavedByObjectVersion
1070
     0
  0
VISUALSTYLE
  5
FFC
102
{ACAD_XDICTIONARY
360
1370
102
}
102
{ACAD_REACTORS
330
FF7
102
}
330
FF7
100
AcDbVisualStyle
  2
Basic
 70
     7
 71
     1
 72
     0
 73
     1
 90
        0
 40
-0.6
 41
-30.0
 62
     5
 63
     7
 74
     0
 91
        4
 64
     7
 65
   257
 75
     1
175
     1
 42
1.0
 92
        8
 66
     7
 43
1.0
 76
     1
 77
     6
 78
     2
 67
     7
 79
     5
170
     0
171
     0
290
     0
174
     0
 93
        1
 44
0.0
173
     0
291
     1
 45
0.0
1001
ACAD
1000
AcDbSavedByObjectVersion
1070
     0
  0
VISUALSTYLE
  5
1003
102
{ACAD_XDICTIONARY
360
137E
102
}
102
{ACAD_REACTORS
330
FF7
102
}
330
FF7
100
AcDbVisualStyle
  2
Brighten
 70
    12
 71
     2
 72
     2
 73
     0
 90
        0
 40
-0.6
 41
-30.0
 62
     5
 63
     7
 74
     1
 91
        4
 64
     7
 65
   257
 75
     1
175
     1
 42
1.0
 92
        8
 66
     7
 43
1.0
 76
     1
 77
     6
 78
     2
 67
     7
 79
     5
170
     0
171
     0
290
     0
174
     0
 93
        1
 44
50.0
173
     0
291
     1
 45
0.0
1001
ACAD
1000
AcDbSavedByObjectVersion
1070
     0
  0
VISUALSTYLE
  5
1007
102
{ACAD_XDICTIONARY
360
1386
102
}
102
{ACAD_REACTORS
330
FF7
102
}
330
FF7
100
AcDbVisualStyle
  2
ColorChange
 70
    16
 71
     2
 72
     2
 73
     3
 90
        0
 40
-0.6
 41
-30.0
 62
     5
 63
     8
 74
     1
 91
        4
 64
     7
 65
   257
 75
     1
175
     1
 42
1.0
 92
        8
 66
     8
 43
1.0
 76
     1
 77
     6
 78
     2
 67
     7
 79
     5
170
     0
171
     0
290
     0
174
     0
 93
        1
 44
0.0
173
     0
291
     1
 45
0.0
1001
ACAD
1000
AcDbSavedByObjectVersion
1070
     0
  0
VISUALSTYLE
  5
1000
102
{ACAD_XDICTIONARY
360
1378
102
}
102
{ACAD_REACTORS
330
FF7
102
}
330
FF7
100
AcDbVisualStyle
  2
Conceptual
 70
     9
 71
     3
 72
     2
 73
     0
 90
        0
 40
-0.6
 41
-30.0
 62
     5
 63
     7
 74
     2
 91
        2
 64
     7
 65
   257
 75
     1
175
     1
 42
179.0
 92
        8
 66
     7
 43
1.0
 76
     1
 77
     6
 78
     2
 67
     7
 79
     3
170
     0
171
     0
290
     0
174
     0
 93
        1
 44
0.0
173
     0
291
     0
 45
0.0
1001
ACAD
1000
AcDbSavedByObjectVersion
1070
     0
  0
VISUALSTYLE
  5
1002
102
{ACAD_XDICTIONARY
360
137C
102
}
102
{ACAD_REACTORS
330
FF7
102
}
330
FF7
100
AcDbVisualStyle
  2
Dim
 70
    11
 71
     2
 72
     2
 73
     0
 90
        0
 40
-0.6
 41
-30.0
 62
     5
 63
     7
 74
     1
 91
        4
 64
     7
 65
   257
 75
     1
175
     1
 42
1.0
 92
        8
 66
     7
 43
1.0
 76
     1
 77
     6
 78
     2
 67
     7
 79
     5
170
     0
171
     0
290
     0
174
     0
 93
        1
 44
-50.0
173
     0
291
     1
 45
0.0
1001
ACAD
1000
AcDbSavedByObjectVersion
1070
     0
  0
VISUALSTYLE
  5
100F
102
{ACAD_XDICTIONARY
360
1396
102
}
102
{ACAD_REACTORS
330
FF7
102
}
330
FF7
100
AcDbVisualStyle
  2
EdgeColorOff
 70
    22
 71
     2
 72
     2
 73
     0
 90
        0
 40
-0.6
 41
-30.0
 62
     5
 63
     7
 74
     1
 91
        4
 64
     7
 65
   257
 75
     1
175
     1
 42
1.0
 92
        8
 66
     7
 43
1.0
 76
     1
 77
     6
 78
     2
 67
     7
 79
     5
170
     0
171
     0
290
     0
174
     0
 93
        1
 44
0.0
173
     0
291
     1
 45
0.0
1001
ACAD
1000
AcDbSavedByObjectVersion
1070
     0
  0
VISUALSTYLE
  5
1006
102
{ACAD_XDICTIONARY
360
1384
102
}
102
{ACAD_REACTORS
330
FF7
102
}
330
FF7
100
AcDbVisualStyle
  2
Facepattern
 70
    15
 71
     2
 72
     2
 73
     0
 90
        0
 40
-0.6
 41
-30.0
 62
     5
 63
     7
 74
     1
 91
        4
 64
     7
 65
   257
 75
     1
175
     1
 42
1.0
 92
        8
 66
     7
 43
1.0
 76
     1
 77
     6
 78
     2
 67
     7
 79
     5
170
     0
171
     0
290
     0
174
     0
 93
        1
 44
0.0
173
     0
291
     1
 45
0.0
1001
ACAD
1000
AcDbSavedByObjectVersion
1070
     0
  0
VISUALSTYLE
  5
FF8
102
{ACAD_XDICTIONARY
360
1368
102
}
102
{ACAD_REACTORS
330
FF7
102
}
330
FF7
100
AcDbVisualStyle
  2
Flat
 70
     0
 71
     2
 72
     1
 73
     1
 90
        2
 40
-0.6
 41
30.0
 62
     5
 63
     7
 74
     0
 91
        0
 64
     7
 65
   257
 75
     1
175
     1
 42
1.0
 92
        8
 66
     7
 43
1.0
 76
     1
 77
     6
 78
     2
 67
     7
 79
     5
170
     0
171
     0
290
     0
174
     0
 93
       13
 44
0.0
173
     0
291
     1
 45
0.0
1001
ACAD
1000
AcDbSavedByObjectVersion
1070
     0
  0
VISUALSTYLE
  5
FF9
102
{ACAD_XDICTIONARY
360
136A
102
}
102
{ACAD_REACTORS
330
FF7
102
}
330
FF7
100
AcDbVisualStyle
  2
FlatWithEdges
 70
     1
 71
     2
 72
     1
 73
     1
 90
        2
 40
-0.6
 41
30.0
 62
     5
 63
     7
 74
     1
 91
        0
 64
     7
 65
   257
 75
     1
175
     1
 42
1.0
 92
        0
 66
   257
 43
1.0
 76
     1
 77
     6
 78
     2
 67
     7
 79
     5
170
     0
171
     0
290
     0
174
     0
 93
       13
 44
0.0
173
     0
291
     1
 45
0.0
1001
ACAD
1000
AcDbSavedByObjectVersion
1070
     0
  0
VISUALSTYLE
  5
FFA
102
{ACAD_XDICTIONARY
360
136C
102
}
102
{ACAD_REACTORS
330
FF7
102
}
330
FF7
100
AcDbVisualStyle
  2
Gouraud
 70
     2
 71
     2
 72
     2
 73
     1
 90
        2
 40
-0.6
 41
30.0
 62
     5
 63
     7
 74
     0
 91
        0
 64
     7
 65
   257
 75
     1
175
     1
 42
1.0
 92
        0
 66
     7
 43
1.0
 76
     1
 77
     6
 78
     2
 67
     7
 79
     5
170
     0
171
     0
290
     0
174
     0
 93
       13
 44
0.0
173
     0
291
     1
 45
0.0
1001
ACAD
1000
AcDbSavedByObjectVersion
1070
     0
  0
VISUALSTYLE
  5
FFB
102
{ACAD_XDICTIONARY
360
136E
102
}
102
{ACAD_REACTORS
330
FF7
102
}
330
FF7
100
AcDbVisualStyle
  2
GouraudWithEdges
 70
     3
 71
     2
 72
     2
 73
     1
 90
        2
 40
-0.6
 41
30.0
 62
     5
 63
     7
 74
     1
 91
        0
 64
     7
 65
   257
 75
     1
175
     1
 42
1.0
 92
        0
 66
   257
 43
1.0
 76
     1
 77
     6
 78
     2
 67
     7
 79
     5
170
     0
171
     0
290
     0
174
     0
 93
       13
 44
0.0
173
     0
291
     1
 45
0.0
1001
ACAD
1000
AcDbSavedByObjectVersion
1070
     0
  0
VISUALSTYLE
  5
FFF
102
{ACAD_XDICTIONARY
360
1376
102
}
102
{ACAD_REACTORS
330
FF7
102
}
330
FF7
100
AcDbVisualStyle
  2
Hidden
 70
     6
 71
     1
 72
     2
 73
     2
 90
        0
 40
-0.6
 41
-30.0
 62
     5
 63
     7
 74
     2
 91
        2
 64
     7
 65
   257
 75
     2
175
     1
 42
40.0
 92
        0
 66
   257
 43
1.0
 76
     1
 77
     6
 78
     2
 67
     7
 79
     3
170
     0
171
     0
290
     0
174
     0
 93
        1
 44
0.0
173
     0
291
     0
 45
0.0
1001
ACAD
1000
AcDbSavedByObjectVersion
1070
     0
  0
VISUALSTYLE
  5
100D
102
{ACAD_XDICTIONARY
360
1392
102
}
102
{ACAD_REACTORS
330
FF7
102
}
330
FF7
100
AcDbVisualStyle
  2
JitterOff
 70
    20
 71
     2
 72
     2
 73
     0
 90
        0
 40
-0.6
 41
-30.0
 62
     5
 63
     7
 74
     1
 91
        4
 64
     7
 65
   257
 75
     1
175
     1
 42
1.0
 92
       10
 66
     7
 43
1.0
 76
     1
 77
     6
 78
     2
 67
     7
 79
     5
170
     0
171
     0
290
     0
174
     0
 93
        1
 44
0.0
173
     0
291
     1
 45
0.0
1001
ACAD
1000
AcDbSavedByObjectVersion
1070
     0
  0
VISUALSTYLE
  5
1005
102
{ACAD_XDICTIONARY
360
1382
102
}
102
{ACAD_REACTORS
330
FF7
102
}
330
FF7
100
AcDbVisualStyle
  2
Linepattern
 70
    14
 71
     2
 72
     2
 73
     0
 90
        0
 40
-0.6
 41
-30.0
 62
     5
 63
     7
 74
     1
 91
        4
 64
     7
 65
   257
 75
     7
175
     7
 42
1.0
 92
        8
 66
     7
 43
1.0
 76
     1
 77
     6
 78
     2
 67
     7
 79
     5
170
     0
171
     0
290
     0
174
     0
 93
        1
 44
0.0
173
     0
291
     1
 45
0.0
1001
ACAD
1000
AcDbSavedByObjectVersion
1070
     0
  0
VISUALSTYLE
  5
100E
102
{ACAD_XDICTIONARY
360
1394
102
}
102
{ACAD_REACTORS
330
FF7
102
}
330
FF7
100
AcDbVisualStyle
  2
OverhangOff
 70
    21
 71
     2
 72
     2
 73
     0
 90
        0
 40
-0.6
 41
-30.0
 62
     5
 63
     7
 74
     1
 91
        4
 64
     7
 65
   257
 75
     1
175
     1
 42
1.0
 92
        9
 66
     7
 43
1.0
 76
     1
 77
     6
 78
     2
 67
     7
 79
     5
170
     0
171
     0
290
     0
174
     0
 93
        1
 44
0.0
173
     0
291
     1
 45
0.0
1001
ACAD
1000
AcDbSavedByObjectVersion
1070
     0
  0
VISUALSTYLE
  5
1001
102
{ACAD_XDICTIONARY
360
137A
102
}
102
{ACAD_REACTORS
330
FF7
102
}
330
FF7
100
AcDbVisualStyle
  2
Realistic
 70
     8
 71
     2
 72
     2
 73
     0
 90
        2
 40
-0.6
 41
30.0
 62
     5
 63
     7
 74
     0
 91
        0
 64
     7
 65
   257
 75
     1
175
     1
 42
1.0
 92
        8
 66
   257
 43
1.0
 76
     1
 77
     6
 78
     2
 67
     7
 79
     3
170
     0
171
     0
290
     0
174
     0
 93
       13
 44
0.0
173
     0
291
     0
 45
0.0
1001
ACAD
1000
AcDbSavedByObjectVersion
1070
     0
  0
VISUALSTYLE
  5
100C
102
{ACAD_XDICTIONARY
360
1390
102
}
102
{ACAD_REACTORS
330
FF7
102
}
330
FF7
100
AcDbVisualStyle
  2
Shaded
 70
    27
 71
     2
 72
     2
 73
     1
 90
        2
 40
-0.6
 41
30.0
 62
     5
 63
     7
 74
     0
 91
        4
 64
     7
 65
   257
 75
     1
175
     1
 42
1.0
 92
        8
 66
   257
 43
1.0
 76
     1
 77
     6
 78
     2
 67
     8
 79
     3
170
     0
171
     0
290
     0
174
     0
 93
        5
 44
0.0
173
     0
291
     0
 45
0.0
1001
ACAD
1000
AcDbSavedByObjectVersion
1070
     0
  0
VISUALSTYLE
  5
100B
102
{ACAD_XDICTIONARY
360
138E
102
}
102
{ACAD_REACTORS
330
FF7
102
}
330
FF7
100
AcDbVisualStyle
  2
Shaded with edges
 70
    26
 71
     2
 72
     2
 73
     1
 90
        2
 40
-0.6
 41
30.0
 62
     5
 63
     7
 74
     1
 91
       10
 64
     7
 65
   257
 75
     2
175
     1
 42
1.0
 92
        8
 66
   257
 43
1.0
 76
     1
 77
     6
 78
     2
 67
     7
 79
     3
170
     0
171
     0
290
     0
174
     0
 93
        5
 44
0.0
173
     0
291
     0
 45
0.0
1001
ACAD
1000
AcDbSavedByObjectVersion
1070
     0
  0
VISUALSTYLE
  5
1008
102
{ACAD_XDICTIONARY
360
1388
102
}
102
{ACAD_REACTORS
330
FF7
102
}
330
FF7
100
AcDbVisualStyle
  2
Shades of Gray
 70
    23
 71
     2
 72
     2
 73
     3
 90
        0
 40
-0.6
 41
-30.0
 62
     5
 63
     7
 74
     2
 91
        2
 64
     7
 65
     7
 75
     1
175
     1
 42
40.0
 92
        8
 66
     7
 43
1.0
 76
     1
 77
     6
 78
     2
 67
     7
 79
     3
170
     0
171
     0
290
     0
174
     0
 93
        1
 44
0.0
173
     0
291
     0
 45
0.0
1001
ACAD
1000
AcDbSavedByObjectVersion
1070
     0
  0
VISUALSTYLE
  5
1009
102
{ACAD_XDICTIONARY
360
138A
102
}
102
{ACAD_REACTORS
330
FF7
102
}
330
FF7
100
AcDbVisualStyle
  2
Sketchy
 70
    24
 71
     1
 72
     2
 73
     2
 90
        0
 40
-0.6
 41
-30.0
 62
     5
 63
     7
 74
     2
 91
        2
 64
     7
 65
     7
 75
     1
175
     1
 42
40.0
 92
       11
 66
     7
 43
1.0
 76
     1
 77
     6
 78
     2
 67
     7
 79
     6
170
     0
171
     0
290
     0
174
     0
 93
        1
 44
0.0
173
     0
291
     0
 45
0.0
1001
ACAD
1000
AcDbSavedByObjectVersion
1070
     0
  0
VISUALSTYLE
  5
1004
102
{ACAD_XDICTIONARY
360
1380
102
}
102
{ACAD_REACTORS
330
FF7
102
}
330
FF7
100
AcDbVisualStyle
  2
Thicken
 70
    13
 71
     2
 72
     2
 73
     0
 90
        0
 40
-0.6
 41
-30.0
 62
     5
 63
     7
 74
     1
 91
        4
 64
     7
 65
   257
 75
     1
175
     1
 42
1.0
 92
       12
 66
     7
 43
1.0
 76
     1
 77
     6
 78
     2
 67
     7
 79
     5
170
     0
171
     0
290
     0
174
     0
 93
        1
 44
0.0
173
     0
291
     1
 45
0.0
1001
ACAD
1000
AcDbSavedByObjectVersion
1070
     0
  0
VISUALSTYLE
  5
FFE
102
{ACAD_XDICTIONARY
360
1374
102
}
102
{ACAD_REACTORS
330
FF7
102
}
330
FF7
100
AcDbVisualStyle
  2
Wireframe
 70
     5
 71
     0
 72
     2
 73
     0
 90
        0
 40
-0.6
 41
-30.0
 62
     5
 63
     7
 74
     1
 91
        4
 64
     7
 65
   257
 75
     1
175
     1
 42
1.0
 92
        0
 66
   257
 43
1.0
 76
     1
 77
     6
 78
     2
 67
     7
 79
     3
170
     0
171
     0
290
     0
174
     0
 93
        1
 44
0.0
173
     0
291
     0
 45
0.0
1001
ACAD
1000
AcDbSavedByObjectVersion
1070
     0
  0
VISUALSTYLE
  5
100A
102
{ACAD_XDICTIONARY
360
138C
102
}
102
{ACAD_REACTORS
330
FF7
102
}
330
FF7
100
AcDbVisualStyle
  2
X-Ray
 70
    25
 71
     2
 72
     2
 73
     1
 90
        1
 40
0.5
 41
-30.0
 62
     5
 63
     7
 74
     1
 91
        0
 64
     7
 65
   257
 75
     1
175
     1
 42
1.0
 92
        8
 66
     7
 43
1.0
 76
     1
 77
     6
 78
     2
 67
     7
 79
     3
170
     0
171
     0
290
     0
174
     0
 93
       13
 44
0.0
173
     0
291
     0
 45
0.0
1001
ACAD
1000
AcDbSavedByObjectVersion
1070
     0
  0
DICTIONARYVAR
  5
1092
102
{ACAD_REACTORS
330
108D
102
}
330
108D
100
DictionaryVariables
280
     0
  1
1:1
  0
DICTIONARYVAR
  5
108F
102
{ACAD_REACTORS
330
108D
102
}
330
108D
100
DictionaryVariables
280
     0
  1
STANDARD
  0
DICTIONARYVAR
  5
108E
102
{ACAD_REACTORS
330
108D
102
}
330
108D
100
DictionaryVariables
280
     0
  1
STANDARD
  0
DICTIONARYVAR
  5
1090
102
{ACAD_REACTORS
330
108D
102
}
330
108D
100
DictionaryVariables
280
     0
  1
Metric50
  0
DICTIONARYVAR
  5
1091
102
{ACAD_REACTORS
330
108D
102
}
330
108D
100
DictionaryVariables
280
     0
  1
Metric50
  0
DICTIONARYVAR
  5
1095
102
{ACAD_REACTORS
330
108D
102
}
330
108D
100
DictionaryVariables
280
     0
  1
1
  0
DICTIONARYVAR
  5
1094
102
{ACAD_REACTORS
330
108D
102
}
330
108D
100
DictionaryVariables
280
     0
  1
0
  0
DICTIONARYVAR
  5
1093
102
{ACAD_REACTORS
330
108D
102
}
330
108D
100
DictionaryVariables
280
     0
  1
127
  0
DICTIONARYVAR
  5
135B
102
{ACAD_REACTORS
330
108D
102
}
330
108D
100
DictionaryVariables
280
     0
  1
2
  0
XRECORD
  5
1145
102
{ACAD_XDICTIONARY
360
1146
102
}
102
{ACAD_REACTORS
330
1144
102
}
330
1144
100
AcDbXrecord
280
     1
 91
      535
301

290
     0
302
寸法線
330
F54
 90
        8
 62
     1
370
     5
331
14D
  1
色_1
440
        0
330
F3A
 90
        8
 62
   112
370
    13
331
8
  1
色_112
440
        0
330
D5A
 90
        8
 62
     3
370
     9
331
8
  1
色_3
440
        0
330
16A
 90
        0
 62
     7
370
    -3
331
8
  1
色_7
440
        0
330
11
 90
        8
 62
     7
370
    -3
331
8
  1
色_7
440
        0
330
67
 90
        8
 62
     4
370
     5
331
8
  1
色_4
440
        0
330
2E
 90
        8
 62
    31
370
     9
331
8
  1
色_31
440
        0
330
4
 90
        8
 62
     2
370
     9
331
8
  1
色_2
440
        0
330
6A
 90
        8
 62
     7
370
    13
331
8
  1
色_7
440
        0
330
64
 90
        8
 62
     7
370
    -3
331
8
  1
色_7
440
        0
  0
ACDBASSOCNETWORK
  5
1176
102
{ACAD_REACTORS
330
1175
102
}
330
1175
100
AcDbAssocAction
 90
        1
 90
        1
330
1178
360
0
 90
        1
 90
        0
 90
        0
100
AcDbAssocNetwork
 90
        0
 90
        2
 90
        2
360
1179
360
12D8
 90
        2
330
1179
330
12D8
  0
XRECORD
  5
13A1
102
{ACAD_REACTORS
330
13A0
102
}
330
13A0
100
AcDbXrecord
280
     1
1070
     0
1070
     1
1070
     1
  0
XRECORD
  5
13A4
102
{ACAD_REACTORS
330
13A3
102
}
330
13A3
100
AcDbXrecord
280
     1
1070
     0
1070
     1
1070
     1
  0
DICTIONARY
  5
139D
330
102A
100
AcDbDictionary
280
     1
281
     1
  3
ACAD_XREC_ROUNDTRIP
360
139E
  0
DICTIONARY
  5
1361
330
525
100
AcDbDictionary
280
     1
281
     1
  3
ACAD_XREC_ROUNDTRIP
360
1362
  0
DICTIONARY
  5
1363
330
52B
100
AcDbDictionary
280
     1
281
     1
  3
ACAD_XREC_ROUNDTRIP
360
1364
  0
DICTIONARY
  5
135F
330
51E
100
AcDbDictionary
280
     1
281
     1
  3
ACAD_XREC_ROUNDTRIP
360
1360
  0
DICTIONARY
  5
FE8
330
FE7
100
AcDbDictionary
280
     1
281
     1
  3
ACAD_XREC_ROUNDTRIP
360
1366
  3
BUMPTILE
360
FEA
  3
DIFFUSETILE
360
FE9
  3
OPACITYTILE
360
FED
  3
REFLECTIONTILE
360
FEC
  3
REFRACTIONTILE
360
FEE
  3
SPECULARTILE
360
FEB
  0
DICTIONARY
  5
FE0
330
FDF
100
AcDbDictionary
280
     1
281
     1
  3
ACAD_XREC_ROUNDTRIP
360
1365
  3
BUMPTILE
360
FE2
  3
DIFFUSETILE
360
FE1
  3
OPACITYTILE
360
FE5
  3
REFLECTIONTILE
360
FE4
  3
REFRACTIONTILE
360
FE6
  3
SPECULARTILE
360
FE3
  0
DICTIONARY
  5
FF0
330
FEF
100
AcDbDictionary
280
     1
281
     1
  3
ACAD_XREC_ROUNDTRIP
360
1367
  3
BUMPTILE
360
FF2
  3
DIFFUSETILE
360
FF1
  3
OPACITYTILE
360
FF5
  3
REFLECTIONTILE
360
FF4
  3
REFRACTIONTILE
360
FF6
  3
SPECULARTILE
360
FF3
  0
DICTIONARY
  5
1399
330
1026
100
AcDbDictionary
280
     1
281
     1
  3
ACAD_XREC_ROUNDTRIP
360
139A
  0
DICTIONARY
  5
139B
330
1028
100
AcDbDictionary
280
     1
281
     1
  3
ACAD_XREC_ROUNDTRIP
360
139C
  0
DICTIONARY
  5
1046
330
1012
100
AcDbDictionary
280
     1
281
     1
  3
ACAD_ROUNDTRIP_2008_TABLESTYLE_CELLSTYLEMAP
360
135C
  3
ACAD_XREC_ROUNDTRIP
360
1398
  0
DICTIONARY
  5
1372
330
FFD
100
AcDbDictionary
280
     1
281
     1
  3
ACAD_XREC_ROUNDTRIP
360
1373
  0
DICTIONARY
  5
1370
330
FFC
100
AcDbDictionary
280
     1
281
     1
  3
ACAD_XREC_ROUNDTRIP
360
1371
  0
DICTIONARY
  5
137E
330
1003
100
AcDbDictionary
280
     1
281
     1
  3
ACAD_XREC_ROUNDTRIP
360
137F
  0
DICTIONARY
  5
1386
330
1007
100
AcDbDictionary
280
     1
281
     1
  3
ACAD_XREC_ROUNDTRIP
360
1387
  0
DICTIONARY
  5
1378
330
1000
100
AcDbDictionary
280
     1
281
     1
  3
ACAD_XREC_ROUNDTRIP
360
1379
  0
DICTIONARY
  5
137C
330
1002
100
AcDbDictionary
280
     1
281
     1
  3
ACAD_XREC_ROUNDTRIP
360
137D
  0
DICTIONARY
  5
1396
330
100F
100
AcDbDictionary
280
     1
281
     1
  3
ACAD_XREC_ROUNDTRIP
360
1397
  0
DICTIONARY
  5
1384
330
1006
100
AcDbDictionary
280
     1
281
     1
  3
ACAD_XREC_ROUNDTRIP
360
1385
  0
DICTIONARY
  5
1368
330
FF8
100
AcDbDictionary
280
     1
281
     1
  3
ACAD_XREC_ROUNDTRIP
360
1369
  0
DICTIONARY
  5
136A
330
FF9
100
AcDbDictionary
280
     1
281
     1
  3
ACAD_XREC_ROUNDTRIP
360
136B
  0
DICTIONARY
  5
136C
330
FFA
100
AcDbDictionary
280
     1
281
     1
  3
ACAD_XREC_ROUNDTRIP
360
136D
  0
DICTIONARY
  5
136E
330
FFB
100
AcDbDictionary
280
     1
281
     1
  3
ACAD_XREC_ROUNDTRIP
360
136F
  0
DICTIONARY
  5
1376
330
FFF
100
AcDbDictionary
280
     1
281
     1
  3
ACAD_XREC_ROUNDTRIP
360
1377
  0
DICTIONARY
  5
1392
330
100D
100
AcDbDictionary
280
     1
281
     1
  3
ACAD_XREC_ROUNDTRIP
360
1393
  0
DICTIONARY
  5
1382
330
1005
100
AcDbDictionary
280
     1
281
     1
  3
ACAD_XREC_ROUNDTRIP
360
1383
  0
DICTIONARY
  5
1394
330
100E
100
AcDbDictionary
280
     1
281
     1
  3
ACAD_XREC_ROUNDTRIP
360
1395
  0
DICTIONARY
  5
137A
330
1001
100
AcDbDictionary
280
     1
281
     1
  3
ACAD_XREC_ROUNDTRIP
360
137B
  0
DICTIONARY
  5
1390
330
100C
100
AcDbDictionary
280
     1
281
     1
  3
ACAD_XREC_ROUNDTRIP
360
1391
  0
DICTIONARY
  5
138E
330
100B
100
AcDbDictionary
280
     1
281
     1
  3
ACAD_XREC_ROUNDTRIP
360
138F
  0
DICTIONARY
  5
1388
330
1008
100
AcDbDictionary
280
     1
281
     1
  3
ACAD_XREC_ROUNDTRIP
360
1389
  0
DICTIONARY
  5
138A
330
1009
100
AcDbDictionary
280
     1
281
     1
  3
ACAD_XREC_ROUNDTRIP
360
138B
  0
DICTIONARY
  5
1380
330
1004
100
AcDbDictionary
280
     1
281
     1
  3
ACAD_XREC_ROUNDTRIP
360
1381
  0
DICTIONARY
  5
1374
330
FFE
100
AcDbDictionary
280
     1
281
     1
  3
ACAD_XREC_ROUNDTRIP
360
1375
  0
DICTIONARY
  5
138C
330
100A
100
AcDbDictionary
280
     1
281
     1
  3
ACAD_XREC_ROUNDTRIP
360
138D
  0
DICTIONARY
  5
1146
330
1145
100
AcDbDictionary
280
     1
281
     1
  3
AcadLayerStateAnnoScale
360
1147
  0
ACDBASSOCACTION
  5
1179
330
1176
100
AcDbAssocAction
 90
        1
 90
        1
330
1176
360
117A
 90
        1
 90
        3
 90
        3
360
117D
360
117E
360
117F
  0
ACDBASSOCACTION
  5
12D8
330
1176
100
AcDbAssocAction
 90
        1
 90
        1
330
1176
360
12D9
 90
        2
 90
        3
 90
        3
360
12DC
360
12DD
360
12DE
  0
XRECORD
  5
139E
102
{ACAD_REACTORS
330
139D
102
}
330
139D
100
AcDbXrecord
280
     1
102
DISPLAYNAME
  1
Metric50
102
FLAGS
 90
        0
  0
XRECORD
  5
1362
102
{ACAD_REACTORS
330
1361
102
}
330
1361
100
AcDbXrecord
280
     1
102
SHADEPLOT
 70
     0
102
SHADEPLOTRESLEVEL
 70
     2
102
SHADEPLOTCUSTOMDPI
 70
   300
  0
XRECORD
  5
1364
102
{ACAD_REACTORS
330
1363
102
}
330
1363
100
AcDbXrecord
280
     1
102
SHADEPLOT
 70
     0
102
SHADEPLOTRESLEVEL
 70
     2
102
SHADEPLOTCUSTOMDPI
 70
   300
  0
XRECORD
  5
1360
102
{ACAD_REACTORS
330
135F
102
}
330
135F
100
AcDbXrecord
280
     1
102
SHADEPLOT
 70
     0
102
SHADEPLOTRESLEVEL
 70
     2
102
SHADEPLOTCUSTOMDPI
 70
   300
  0
XRECORD
  5
1366
102
{ACAD_REACTORS
330
FE8
102
}
330
FE8
100
AcDbXrecord
280
     1
102
MATERIAL
148
0.0
149
0.0
149
0.0
 93
        0
 94
      127
282
     0
 72
     0
 77
     0
171
     0
175
     0
179
     0
273
     0
  0
XRECORD
  5
FEA
102
{ACAD_REACTORS
330
FE8
102
}
330
FE8
100
AcDbXrecord
280
     1
270
     1
271
     1
  0
XRECORD
  5
FE9
102
{ACAD_REACTORS
330
FE8
102
}
330
FE8
100
AcDbXrecord
280
     1
270
     1
271
     1
  0
XRECORD
  5
FED
102
{ACAD_REACTORS
330
FE8
102
}
330
FE8
100
AcDbXrecord
280
     1
270
     1
271
     1
  0
XRECORD
  5
FEC
102
{ACAD_REACTORS
330
FE8
102
}
330
FE8
100
AcDbXrecord
280
     1
270
     1
271
     1
  0
XRECORD
  5
FEE
102
{ACAD_REACTORS
330
FE8
102
}
330
FE8
100
AcDbXrecord
280
     1
270
     1
271
     1
  0
XRECORD
  5
FEB
102
{ACAD_REACTORS
330
FE8
102
}
330
FE8
100
AcDbXrecord
280
     1
270
     1
271
     1
  0
XRECORD
  5
1365
102
{ACAD_REACTORS
330
FE0
102
}
330
FE0
100
AcDbXrecord
280
     1
102
MATERIAL
148
0.0
149
0.0
149
0.0
 93
        0
 94
      127
282
     0
 72
     0
 77
     0
171
     0
175
     0
179
     0
273
     0
  0
XRECORD
  5
FE2
102
{ACAD_REACTORS
330
FE0
102
}
330
FE0
100
AcDbXrecord
280
     1
270
     1
271
     1
  0
XRECORD
  5
FE1
102
{ACAD_REACTORS
330
FE0
102
}
330
FE0
100
AcDbXrecord
280
     1
270
     1
271
     1
  0
XRECORD
  5
FE5
102
{ACAD_REACTORS
330
FE0
102
}
330
FE0
100
AcDbXrecord
280
     1
270
     1
271
     1
  0
XRECORD
  5
FE4
102
{ACAD_REACTORS
330
FE0
102
}
330
FE0
100
AcDbXrecord
280
     1
270
     1
271
     1
  0
XRECORD
  5
FE6
102
{ACAD_REACTORS
330
FE0
102
}
330
FE0
100
AcDbXrecord
280
     1
270
     1
271
     1
  0
XRECORD
  5
FE3
102
{ACAD_REACTORS
330
FE0
102
}
330
FE0
100
AcDbXrecord
280
     1
270
     1
271
     1
  0
XRECORD
  5
1367
102
{ACAD_REACTORS
330
FF0
102
}
330
FF0
100
AcDbXrecord
280
     1
102
MATERIAL
148
0.0
149
0.0
149
0.0
 93
        0
 94
      127
282
     0
 72
     0
 77
     0
171
     0
175
     0
179
     0
273
     0
  0
XRECORD
  5
FF2
102
{ACAD_REACTORS
330
FF0
102
}
330
FF0
100
AcDbXrecord
280
     1
270
     1
271
     1
  0
XRECORD
  5
FF1
102
{ACAD_REACTORS
330
FF0
102
}
330
FF0
100
AcDbXrecord
280
     1
270
     1
271
     1
  0
XRECORD
  5
FF5
102
{ACAD_REACTORS
330
FF0
102
}
330
FF0
100
AcDbXrecord
280
     1
270
     1
271
     1
  0
XRECORD
  5
FF4
102
{ACAD_REACTORS
330
FF0
102
}
330
FF0
100
AcDbXrecord
280
     1
270
     1
271
     1
  0
XRECORD
  5
FF6
102
{ACAD_REACTORS
330
FF0
102
}
330
FF0
100
AcDbXrecord
280
     1
270
     1
271
     1
  0
XRECORD
  5
FF3
102
{ACAD_REACTORS
330
FF0
102
}
330
FF0
100
AcDbXrecord
280
     1
270
     1
271
     1
  0
XRECORD
  5
139A
102
{ACAD_REACTORS
330
1399
102
}
330
1399
100
AcDbXrecord
280
     1
102
ACAD_ROUNDTRIP_2012_MLEADER_STYLE
298
     1
  0
XRECORD
  5
139C
102
{ACAD_REACTORS
330
139B
102
}
330
139B
100
AcDbXrecord
280
     1
102
DISPLAYNAME
  1
Metric50
102
FLAGS
 90
        0
  0
CELLSTYLEMAP
  5
135C
102
{ACAD_REACTORS
330
1046
102
}
330
1046
100
AcDbCellStyleMap
 90
        3
300
CELLSTYLE
  1
TABLEFORMAT_BEGIN
 90
        5
170
     1
 91
        0
 92
    32768
 62
   257
 93
        1
300
CONTENTFORMAT
  1
CONTENTFORMAT_BEGIN
 90
        0
 91
        0
 92
      512
 93
        0
300

 40
0.0
140
1.0
 94
        5
 62
     0
340
9
144
6.0
309
CONTENTFORMAT_END
171
     1
301
MARGIN
  1
CELLMARGIN_BEGIN
 40
1.5
 40
1.5
 40
1.5
 40
1.5
 40
4.5
 40
4.5
309
CELLMARGIN_END
 94
        6
 95
        1
302
GRIDFORMAT
  1
GRIDFORMAT_BEGIN
 90
        0
 91
        1
 62
     0
 92
       -2
340
0
 93
        0
 40
1.125
309
GRIDFORMAT_END
 95
        2
302
GRIDFORMAT
  1
GRIDFORMAT_BEGIN
 90
        0
 91
        1
 62
     0
 92
       -2
340
0
 93
        0
 40
1.125
309
GRIDFORMAT_END
 95
        4
302
GRIDFORMAT
  1
GRIDFORMAT_BEGIN
 90
        0
 91
        1
 62
     0
 92
       -2
340
0
 93
        0
 40
1.125
309
GRIDFORMAT_END
 95
        8
302
GRIDFORMAT
  1
GRIDFORMAT_BEGIN
 90
        0
 91
        1
 62
     0
 92
       -2
340
0
 93
        0
 40
1.125
309
GRIDFORMAT_END
 95
       16
302
GRIDFORMAT
  1
GRIDFORMAT_BEGIN
 90
        0
 91
        1
 62
     0
 92
       -2
340
0
 93
        0
 40
1.125
309
GRIDFORMAT_END
 95
       32
302
GRIDFORMAT
  1
GRIDFORMAT_BEGIN
 90
        0
 91
        1
 62
     0
 92
       -2
340
0
 93
        0
 40
1.125
309
GRIDFORMAT_END
309
TABLEFORMAT_END
  1
CELLSTYLE_BEGIN
 90
        1
 91
        1
300
_TITLE
309
CELLSTYLE_END
300
CELLSTYLE
  1
TABLEFORMAT_BEGIN
 90
        5
170
     1
 91
        0
 92
        0
 62
   257
 93
        1
300
CONTENTFORMAT
  1
CONTENTFORMAT_BEGIN
 90
        0
 91
        0
 92
      512
 93
        0
300

 40
0.0
140
1.0
 94
        5
 62
     0
340
9
144
4.5
309
CONTENTFORMAT_END
171
     1
301
MARGIN
  1
CELLMARGIN_BEGIN
 40
1.5
 40
1.5
 40
1.5
 40
1.5
 40
4.5
 40
4.5
309
CELLMARGIN_END
 94
        6
 95
        1
302
GRIDFORMAT
  1
GRIDFORMAT_BEGIN
 90
        0
 91
        1
 62
     0
 92
       -2
340
0
 93
        0
 40
1.125
309
GRIDFORMAT_END
 95
        2
302
GRIDFORMAT
  1
GRIDFORMAT_BEGIN
 90
        0
 91
        1
 62
     0
 92
       -2
340
0
 93
        0
 40
1.125
309
GRIDFORMAT_END
 95
        4
302
GRIDFORMAT
  1
GRIDFORMAT_BEGIN
 90
        0
 91
        1
 62
     0
 92
       -2
340
0
 93
        0
 40
1.125
309
GRIDFORMAT_END
 95
        8
302
GRIDFORMAT
  1
GRIDFORMAT_BEGIN
 90
        0
 91
        1
 62
     0
 92
       -2
340
0
 93
        0
 40
1.125
309
GRIDFORMAT_END
 95
       16
302
GRIDFORMAT
  1
GRIDFORMAT_BEGIN
 90
        0
 91
        1
 62
     0
 92
       -2
340
0
 93
        0
 40
1.125
309
GRIDFORMAT_END
 95
       32
302
GRIDFORMAT
  1
GRIDFORMAT_BEGIN
 90
        0
 91
        1
 62
     0
 92
       -2
340
0
 93
        0
 40
1.125
309
GRIDFORMAT_END
309
TABLEFORMAT_END
  1
CELLSTYLE_BEGIN
 90
        2
 91
        1
300
_HEADER
309
CELLSTYLE_END
300
CELLSTYLE
  1
TABLEFORMAT_BEGIN
 90
        5
170
     1
 91
        0
 92
        0
 62
   257
 93
        1
300
CONTENTFORMAT
  1
CONTENTFORMAT_BEGIN
 90
        0
 91
        0
 92
      512
 93
        0
300

 40
0.0
140
1.0
 94
        2
 62
     0
340
9
144
4.5
309
CONTENTFORMAT_END
171
     1
301
MARGIN
  1
CELLMARGIN_BEGIN
 40
1.5
 40
1.5
 40
1.5
 40
1.5
 40
4.5
 40
4.5
309
CELLMARGIN_END
 94
        6
 95
        1
302
GRIDFORMAT
  1
GRIDFORMAT_BEGIN
 90
        0
 91
        1
 62
     0
 92
       -2
340
0
 93
        0
 40
1.125
309
GRIDFORMAT_END
 95
        2
302
GRIDFORMAT
  1
GRIDFORMAT_BEGIN
 90
        0
 91
        1
 62
     0
 92
       -2
340
0
 93
        0
 40
1.125
309
GRIDFORMAT_END
 95
        4
302
GRIDFORMAT
  1
GRIDFORMAT_BEGIN
 90
        0
 91
        1
 62
     0
 92
       -2
340
0
 93
        0
 40
1.125
309
GRIDFORMAT_END
 95
        8
302
GRIDFORMAT
  1
GRIDFORMAT_BEGIN
 90
        0
 91
        1
 62
     0
 92
       -2
340
0
 93
        0
 40
1.125
309
GRIDFORMAT_END
 95
       16
302
GRIDFORMAT
  1
GRIDFORMAT_BEGIN
 90
        0
 91
        1
 62
     0
 92
       -2
340
0
 93
        0
 40
1.125
309
GRIDFORMAT_END
 95
       32
302
GRIDFORMAT
  1
GRIDFORMAT_BEGIN
 90
        0
 91
        1
 62
     0
 92
       -2
340
0
 93
        0
 40
1.125
309
GRIDFORMAT_END
309
TABLEFORMAT_END
  1
CELLSTYLE_BEGIN
 90
        3
 91
        2
300
_DATA
309
CELLSTYLE_END
  0
XRECORD
  5
1398
102
{ACAD_REACTORS
330
1046
102
}
330
1046
100
AcDbXrecord
280
     1
102
ACAD_ROUNDTRIP_PRE2007_TABLESTYLE
 90
      512
 91
        0
  1

 92
      512
 93
        0
  2

 94
      512
 95
        0
  3

  0
XRECORD
  5
1373
102
{ACAD_REACTORS
330
1372
102
}
330
1372
100
AcDbXrecord
280
     1
102
RTVSPost2010Prop28
280
     1
102
RTVSPost2010PropOp28
 70
     1
102
RTVSPost2010Prop29
280
     1
102
RTVSPost2010PropOp29
 70
     1
102
RTVSPost2010Prop30
280
     0
102
RTVSPost2010PropOp30
 70
     1
102
RTVSPost2010Prop31
280
     0
102
RTVSPost2010PropOp31
 70
     1
102
RTVSPost2010Prop32
280
     0
102
RTVSPost2010PropOp32
 70
     1
102
RTVSPost2010Prop33
280
     0
102
RTVSPost2010PropOp33
 70
     1
102
RTVSPost2010Prop34
280
     0
102
RTVSPost2010PropOp34
 70
     1
102
RTVSPost2010Prop35
280
     0
102
RTVSPost2010PropOp35
 70
     1
102
RTVSPost2010Prop36
280
     0
102
RTVSPost2010PropOp36
 70
     1
102
RTVSPost2010Prop37
 90
       50
102
RTVSPost2010PropOp37
 70
     1
102
RTVSPost2010Prop38
140
0.0
102
RTVSPost2010PropOp38
 70
     1
102
RTVSPost2010Prop39
140
1.0
102
RTVSPost2010PropOp39
 70
     1
102
RTVSPost2010Prop40
 90
        0
102
RTVSPost2010PropOp40
 70
     1
102
RTVSPost2010Prop41ColorIndex
 90
       18
102
RTVSPost2010Prop41ColorRGB
 90
        0
102
RTVSPost2010PropOp41
 70
     1
102
RTVSPost2010Prop42
 90
       50
102
RTVSPost2010PropOp42
 70
     1
102
RTVSPost2010Prop43
 90
        3
102
RTVSPost2010PropOp43
 70
     1
102
RTVSPost2010Prop44ColorIndex
 90
        5
102
RTVSPost2010Prop44ColorRGB
 90
      255
102
RTVSPost2010PropOp44
 70
     1
102
RTVSPost2010Prop45
280
     0
102
RTVSPost2010PropOp45
 70
     1
102
RTVSPost2010Prop46
 90
       50
102
RTVSPost2010PropOp46
 70
     1
102
RTVSPost2010Prop47
 90
       50
102
RTVSPost2010PropOp47
 70
     1
102
RTVSPost2010Prop48
 90
       50
102
RTVSPost2010PropOp48
 70
     1
102
RTVSPost2010Prop49
280
     0
102
RTVSPost2010PropOp49
 70
     1
102
RTVSPost2010Prop50
 90
       50
102
RTVSPost2010PropOp50
 70
     1
102
RTVSPost2010Prop51ColorIndex
 90
      256
102
RTVSPost2010Prop51ColorRGB
 90
-16777216
102
RTVSPost2010PropOp51
 70
     0
102
RTVSPost2010Prop52
140
1.0
102
RTVSPost2010PropOp52
 70
     0
102
RTVSPost2010Prop53
 90
        2
102
RTVSPost2010PropOp53
 70
     1
102
RTVSPost2010Prop54
  1
strokes_ogs.tif
102
RTVSPost2010PropOp54
 70
     1
102
RTVSPost2010Prop55
280
     0
102
RTVSPost2010PropOp55
 70
     1
102
RTVSPost2010Prop56
140
1.0
102
RTVSPost2010PropOp56
 70
     1
102
RTVSPost2010Prop57
140
1.0
102
RTVSPost2010PropOp57
 70
     1
102
RTVSPropertyOp0
 70
     1
102
RTVSPropertyOp1
 70
     1
102
RTVSPropertyOp2
 70
     1
102
RTVSPropertyOp3
 70
     1
102
RTVSPropertyOp4
 70
     1
102
RTVSPropertyOp5
 70
     1
102
RTVSPropertyOp6
 70
     1
102
RTVSPropertyOp7
 70
     1
102
RTVSPropertyOp8
 70
     1
102
RTVSPropertyOp9
 70
     1
102
RTVSPropertyOp10
 70
     1
102
RTVSPropertyOp11
 70
     1
102
RTVSPropertyOp12
 70
     1
102
RTVSPropertyOp13
 70
     1
102
RTVSPropertyOp14
 70
     1
102
RTVSPropertyOp15
 70
     1
102
RTVSPropertyOp16
 70
     1
102
RTVSPropertyOp17
 70
     1
102
RTVSPropertyOp18
 70
     1
102
RTVSPropertyOp19
 70
     1
102
RTVSPropertyOp20
 70
     1
102
RTVSPropertyOp21
 70
     1
102
RTVSPropertyOp22
 70
     1
102
RTVSPropertyOp23
 70
     1
102
RTVSPropertyOp24
 70
     1
102
RTVSPropertyOp25
 70
     1
102
RTVSPropertyOp26
 70
     1
102
RTVSPropertyOp27
 70
     1
102
RTVSPropertyOp28
 70
     1
102
RTVSPropertyOp29
 70
     1
102
RTVSPropertyOp30
 70
     1
102
RTVSPropertyOp31
 70
     1
102
RTVSPropertyOp32
 70
     1
102
RTVSPropertyOp33
 70
     1
102
RTVSPropertyOp34
 70
     1
102
RTVSPropertyOp35
 70
     1
102
RTVSPropertyOp36
 70
     1
102
RTVSPropertyOp37
 70
     1
102
RTVSPropertyOp38
 70
     1
102
RTVSPropertyOp39
 70
     1
102
RTVSPropertyOp40
 70
     1
102
RTVSPropertyOp41
 70
     1
102
RTVSPropertyOp42
 70
     1
102
RTVSPropertyOp43
 70
     1
102
RTVSPropertyOp44
 70
     1
102
RTVSPropertyOp45
 70
     1
102
RTVSPropertyOp46
 70
     1
102
RTVSPropertyOp47
 70
     1
102
RTVSPropertyOp48
 70
     1
102
RTVSPropertyOp49
 70
     1
102
RTVSPropertyOp50
 70
     1
102
RTVSPropertyOp51
 70
     0
102
RTVSPropertyOp52
 70
     0
102
RTVSPropertyOp53
 70
     1
102
RTVSPropertyOp54
 70
     1
102
RTVSPropertyOp55
 70
     1
102
RTVSPropertyOp56
 70
     1
102
RTVSPropertyOp57
 70
     1
102
RTVSPropertyOp58
 70
     1
102
RTVSPropertyOp59
 70
     1
102
RTVSPropertyOp60
 70
     1
102
RTVSPropertyOp61
 70
     1
102
RTVSPropertyOp62
 70
     1
  0
XRECORD
  5
1371
102
{ACAD_REACTORS
330
1370
102
}
330
1370
100
AcDbXrecord
280
     1
102
RTVSPost2010Prop28
280
     0
102
RTVSPost2010PropOp28
 70
     1
102
RTVSPost2010Prop29
280
     1
102
RTVSPost2010PropOp29
 70
     1
102
RTVSPost2010Prop30
280
     1
102
RTVSPost2010PropOp30
 70
     1
102
RTVSPost2010Prop31
280
     0
102
RTVSPost2010PropOp31
 70
     1
102
RTVSPost2010Prop32
280
     0
102
RTVSPost2010PropOp32
 70
     1
102
RTVSPost2010Prop33
280
     0
102
RTVSPost2010PropOp33
 70
     1
102
RTVSPost2010Prop34
280
     0
102
RTVSPost2010PropOp34
 70
     1
102
RTVSPost2010Prop35
280
     0
102
RTVSPost2010PropOp35
 70
     1
102
RTVSPost2010Prop36
280
     0
102
RTVSPost2010PropOp36
 70
     1
102
RTVSPost2010Prop37
 90
       50
102
RTVSPost2010PropOp37
 70
     1
102
RTVSPost2010Prop38
140
0.0
102
RTVSPost2010PropOp38
 70
     1
102
RTVSPost2010Prop39
140
1.0
102
RTVSPost2010PropOp39
 70
     1
102
RTVSPost2010Prop40
 90
        0
102
RTVSPost2010PropOp40
 70
     1
102
RTVSPost2010Prop41ColorIndex
 90
       18
102
RTVSPost2010Prop41ColorRGB
 90
        0
102
RTVSPost2010PropOp41
 70
     1
102
RTVSPost2010Prop42
 90
       50
102
RTVSPost2010PropOp42
 70
     1
102
RTVSPost2010Prop43
 90
        3
102
RTVSPost2010PropOp43
 70
     1
102
RTVSPost2010Prop44ColorIndex
 90
        5
102
RTVSPost2010Prop44ColorRGB
 90
      255
102
RTVSPost2010PropOp44
 70
     1
102
RTVSPost2010Prop45
280
     0
102
RTVSPost2010PropOp45
 70
     1
102
RTVSPost2010Prop46
 90
       50
102
RTVSPost2010PropOp46
 70
     1
102
RTVSPost2010Prop47
 90
       50
102
RTVSPost2010PropOp47
 70
     1
102
RTVSPost2010Prop48
 90
       50
102
RTVSPost2010PropOp48
 70
     1
102
RTVSPost2010Prop49
280
     0
102
RTVSPost2010PropOp49
 70
     1
102
RTVSPost2010Prop50
 90
       50
102
RTVSPost2010PropOp50
 70
     1
102
RTVSPost2010Prop51ColorIndex
 90
      256
102
RTVSPost2010Prop51ColorRGB
 90
-16777216
102
RTVSPost2010PropOp51
 70
     0
102
RTVSPost2010Prop52
140
1.0
102
RTVSPost2010PropOp52
 70
     0
102
RTVSPost2010Prop53
 90
        2
102
RTVSPost2010PropOp53
 70
     1
102
RTVSPost2010Prop54
  1
strokes_ogs.tif
102
RTVSPost2010PropOp54
 70
     1
102
RTVSPost2010Prop55
280
     0
102
RTVSPost2010PropOp55
 70
     1
102
RTVSPost2010Prop56
140
1.0
102
RTVSPost2010PropOp56
 70
     1
102
RTVSPost2010Prop57
140
1.0
102
RTVSPost2010PropOp57
 70
     1
102
RTVSPropertyOp0
 70
     1
102
RTVSPropertyOp1
 70
     1
102
RTVSPropertyOp2
 70
     1
102
RTVSPropertyOp3
 70
     1
102
RTVSPropertyOp4
 70
     1
102
RTVSPropertyOp5
 70
     1
102
RTVSPropertyOp6
 70
     1
102
RTVSPropertyOp7
 70
     1
102
RTVSPropertyOp8
 70
     1
102
RTVSPropertyOp9
 70
     1
102
RTVSPropertyOp10
 70
     1
102
RTVSPropertyOp11
 70
     1
102
RTVSPropertyOp12
 70
     1
102
RTVSPropertyOp13
 70
     1
102
RTVSPropertyOp14
 70
     1
102
RTVSPropertyOp15
 70
     1
102
RTVSPropertyOp16
 70
     1
102
RTVSPropertyOp17
 70
     1
102
RTVSPropertyOp18
 70
     1
102
RTVSPropertyOp19
 70
     1
102
RTVSPropertyOp20
 70
     1
102
RTVSPropertyOp21
 70
     1
102
RTVSPropertyOp22
 70
     1
102
RTVSPropertyOp23
 70
     1
102
RTVSPropertyOp24
 70
     1
102
RTVSPropertyOp25
 70
     1
102
RTVSPropertyOp26
 70
     1
102
RTVSPropertyOp27
 70
     1
102
RTVSPropertyOp28
 70
     1
102
RTVSPropertyOp29
 70
     1
102
RTVSPropertyOp30
 70
     1
102
RTVSPropertyOp31
 70
     1
102
RTVSPropertyOp32
 70
     1
102
RTVSPropertyOp33
 70
     1
102
RTVSPropertyOp34
 70
     1
102
RTVSPropertyOp35
 70
     1
102
RTVSPropertyOp36
 70
     1
102
RTVSPropertyOp37
 70
     1
102
RTVSPropertyOp38
 70
     1
102
RTVSPropertyOp39
 70
     1
102
RTVSPropertyOp40
 70
     1
102
RTVSPropertyOp41
 70
     1
102
RTVSPropertyOp42
 70
     1
102
RTVSPropertyOp43
 70
     1
102
RTVSPropertyOp44
 70
     1
102
RTVSPropertyOp45
 70
     1
102
RTVSPropertyOp46
 70
     1
102
RTVSPropertyOp47
 70
     1
102
RTVSPropertyOp48
 70
     1
102
RTVSPropertyOp49
 70
     1
102
RTVSPropertyOp50
 70
     1
102
RTVSPropertyOp51
 70
     0
102
RTVSPropertyOp52
 70
     0
102
RTVSPropertyOp53
 70
     1
102
RTVSPropertyOp54
 70
     1
102
RTVSPropertyOp55
 70
     1
102
RTVSPropertyOp56
 70
     1
102
RTVSPropertyOp57
 70
     1
102
RTVSPropertyOp58
 70
     1
102
RTVSPropertyOp59
 70
     1
102
RTVSPropertyOp60
 70
     1
102
RTVSPropertyOp61
 70
     1
102
RTVSPropertyOp62
 70
     1
  0
XRECORD
  5
137F
102
{ACAD_REACTORS
330
137E
102
}
330
137E
100
AcDbXrecord
280
     1
102
RTVSPost2010Prop28
280
     0
102
RTVSPost2010PropOp28
 70
     1
102
RTVSPost2010Prop29
280
     1
102
RTVSPost2010PropOp29
 70
     1
102
RTVSPost2010Prop30
280
     1
102
RTVSPost2010PropOp30
 70
     1
102
RTVSPost2010Prop31
280
     0
102
RTVSPost2010PropOp31
 70
     1
102
RTVSPost2010Prop32
280
     0
102
RTVSPost2010PropOp32
 70
     1
102
RTVSPost2010Prop33
280
     0
102
RTVSPost2010PropOp33
 70
     1
102
RTVSPost2010Prop34
280
     0
102
RTVSPost2010PropOp34
 70
     1
102
RTVSPost2010Prop35
280
     0
102
RTVSPost2010PropOp35
 70
     1
102
RTVSPost2010Prop36
280
     0
102
RTVSPost2010PropOp36
 70
     1
102
RTVSPost2010Prop37
 90
       50
102
RTVSPost2010PropOp37
 70
     1
102
RTVSPost2010Prop38
140
0.0
102
RTVSPost2010PropOp38
 70
     1
102
RTVSPost2010Prop39
140
1.0
102
RTVSPost2010PropOp39
 70
     1
102
RTVSPost2010Prop40
 90
        0
102
RTVSPost2010PropOp40
 70
     1
102
RTVSPost2010Prop41ColorIndex
 90
       18
102
RTVSPost2010Prop41ColorRGB
 90
        0
102
RTVSPost2010PropOp41
 70
     1
102
RTVSPost2010Prop42
 90
       50
102
RTVSPost2010PropOp42
 70
     1
102
RTVSPost2010Prop43
 90
        3
102
RTVSPost2010PropOp43
 70
     1
102
RTVSPost2010Prop44ColorIndex
 90
        5
102
RTVSPost2010Prop44ColorRGB
 90
      255
102
RTVSPost2010PropOp44
 70
     1
102
RTVSPost2010Prop45
280
     0
102
RTVSPost2010PropOp45
 70
     1
102
RTVSPost2010Prop46
 90
       50
102
RTVSPost2010PropOp46
 70
     1
102
RTVSPost2010Prop47
 90
       50
102
RTVSPost2010PropOp47
 70
     1
102
RTVSPost2010Prop48
 90
       50
102
RTVSPost2010PropOp48
 70
     1
102
RTVSPost2010Prop49
280
     0
102
RTVSPost2010PropOp49
 70
     1
102
RTVSPost2010Prop50
 90
       50
102
RTVSPost2010PropOp50
 70
     1
102
RTVSPost2010Prop51ColorIndex
 90
      256
102
RTVSPost2010Prop51ColorRGB
 90
-16777216
102
RTVSPost2010PropOp51
 70
     0
102
RTVSPost2010Prop52
140
1.0
102
RTVSPost2010PropOp52
 70
     0
102
RTVSPost2010Prop53
 90
        2
102
RTVSPost2010PropOp53
 70
     1
102
RTVSPost2010Prop54
  1
strokes_ogs.tif
102
RTVSPost2010PropOp54
 70
     1
102
RTVSPost2010Prop55
280
     0
102
RTVSPost2010PropOp55
 70
     1
102
RTVSPost2010Prop56
140
1.0
102
RTVSPost2010PropOp56
 70
     1
102
RTVSPost2010Prop57
140
1.0
102
RTVSPost2010PropOp57
 70
     1
102
RTVSPropertyOp0
 70
     1
102
RTVSPropertyOp1
 70
     1
102
RTVSPropertyOp2
 70
     1
102
RTVSPropertyOp3
 70
     1
102
RTVSPropertyOp4
 70
     1
102
RTVSPropertyOp5
 70
     1
102
RTVSPropertyOp6
 70
     1
102
RTVSPropertyOp7
 70
     1
102
RTVSPropertyOp8
 70
     1
102
RTVSPropertyOp9
 70
     1
102
RTVSPropertyOp10
 70
     1
102
RTVSPropertyOp11
 70
     1
102
RTVSPropertyOp12
 70
     1
102
RTVSPropertyOp13
 70
     1
102
RTVSPropertyOp14
 70
     1
102
RTVSPropertyOp15
 70
     1
102
RTVSPropertyOp16
 70
     1
102
RTVSPropertyOp17
 70
     1
102
RTVSPropertyOp18
 70
     1
102
RTVSPropertyOp19
 70
     1
102
RTVSPropertyOp20
 70
     1
102
RTVSPropertyOp21
 70
     1
102
RTVSPropertyOp22
 70
     1
102
RTVSPropertyOp23
 70
     1
102
RTVSPropertyOp24
 70
     1
102
RTVSPropertyOp25
 70
     1
102
RTVSPropertyOp26
 70
     1
102
RTVSPropertyOp27
 70
     1
102
RTVSPropertyOp28
 70
     1
102
RTVSPropertyOp29
 70
     1
102
RTVSPropertyOp30
 70
     1
102
RTVSPropertyOp31
 70
     1
102
RTVSPropertyOp32
 70
     1
102
RTVSPropertyOp33
 70
     1
102
RTVSPropertyOp34
 70
     1
102
RTVSPropertyOp35
 70
     1
102
RTVSPropertyOp36
 70
     1
102
RTVSPropertyOp37
 70
     1
102
RTVSPropertyOp38
 70
     1
102
RTVSPropertyOp39
 70
     1
102
RTVSPropertyOp40
 70
     1
102
RTVSPropertyOp41
 70
     1
102
RTVSPropertyOp42
 70
     1
102
RTVSPropertyOp43
 70
     1
102
RTVSPropertyOp44
 70
     1
102
RTVSPropertyOp45
 70
     1
102
RTVSPropertyOp46
 70
     1
102
RTVSPropertyOp47
 70
     1
102
RTVSPropertyOp48
 70
     1
102
RTVSPropertyOp49
 70
     1
102
RTVSPropertyOp50
 70
     1
102
RTVSPropertyOp51
 70
     0
102
RTVSPropertyOp52
 70
     0
102
RTVSPropertyOp53
 70
     1
102
RTVSPropertyOp54
 70
     1
102
RTVSPropertyOp55
 70
     1
102
RTVSPropertyOp56
 70
     1
102
RTVSPropertyOp57
 70
     1
102
RTVSPropertyOp58
 70
     1
102
RTVSPropertyOp59
 70
     1
102
RTVSPropertyOp60
 70
     1
102
RTVSPropertyOp61
 70
     1
102
RTVSPropertyOp62
 70
     1
  0
XRECORD
  5
1387
102
{ACAD_REACTORS
330
1386
102
}
330
1386
100
AcDbXrecord
280
     1
102
RTVSPost2010Prop28
280
     0
102
RTVSPost2010PropOp28
 70
     1
102
RTVSPost2010Prop29
280
     1
102
RTVSPost2010PropOp29
 70
     1
102
RTVSPost2010Prop30
280
     1
102
RTVSPost2010PropOp30
 70
     1
102
RTVSPost2010Prop31
280
     0
102
RTVSPost2010PropOp31
 70
     1
102
RTVSPost2010Prop32
280
     0
102
RTVSPost2010PropOp32
 70
     1
102
RTVSPost2010Prop33
280
     0
102
RTVSPost2010PropOp33
 70
     1
102
RTVSPost2010Prop34
280
     0
102
RTVSPost2010PropOp34
 70
     1
102
RTVSPost2010Prop35
280
     0
102
RTVSPost2010PropOp35
 70
     1
102
RTVSPost2010Prop36
280
     0
102
RTVSPost2010PropOp36
 70
     1
102
RTVSPost2010Prop37
 90
       50
102
RTVSPost2010PropOp37
 70
     1
102
RTVSPost2010Prop38
140
0.0
102
RTVSPost2010PropOp38
 70
     1
102
RTVSPost2010Prop39
140
1.0
102
RTVSPost2010PropOp39
 70
     1
102
RTVSPost2010Prop40
 90
        0
102
RTVSPost2010PropOp40
 70
     1
102
RTVSPost2010Prop41ColorIndex
 90
       18
102
RTVSPost2010Prop41ColorRGB
 90
        0
102
RTVSPost2010PropOp41
 70
     1
102
RTVSPost2010Prop42
 90
       50
102
RTVSPost2010PropOp42
 70
     1
102
RTVSPost2010Prop43
 90
        3
102
RTVSPost2010PropOp43
 70
     1
102
RTVSPost2010Prop44ColorIndex
 90
        5
102
RTVSPost2010Prop44ColorRGB
 90
      255
102
RTVSPost2010PropOp44
 70
     1
102
RTVSPost2010Prop45
280
     0
102
RTVSPost2010PropOp45
 70
     1
102
RTVSPost2010Prop46
 90
       50
102
RTVSPost2010PropOp46
 70
     1
102
RTVSPost2010Prop47
 90
       50
102
RTVSPost2010PropOp47
 70
     1
102
RTVSPost2010Prop48
 90
       50
102
RTVSPost2010PropOp48
 70
     1
102
RTVSPost2010Prop49
280
     0
102
RTVSPost2010PropOp49
 70
     1
102
RTVSPost2010Prop50
 90
       50
102
RTVSPost2010PropOp50
 70
     1
102
RTVSPost2010Prop51ColorIndex
 90
      256
102
RTVSPost2010Prop51ColorRGB
 90
-16777216
102
RTVSPost2010PropOp51
 70
     0
102
RTVSPost2010Prop52
140
1.0
102
RTVSPost2010PropOp52
 70
     0
102
RTVSPost2010Prop53
 90
        2
102
RTVSPost2010PropOp53
 70
     1
102
RTVSPost2010Prop54
  1
strokes_ogs.tif
102
RTVSPost2010PropOp54
 70
     1
102
RTVSPost2010Prop55
280
     0
102
RTVSPost2010PropOp55
 70
     1
102
RTVSPost2010Prop56
140
1.0
102
RTVSPost2010PropOp56
 70
     1
102
RTVSPost2010Prop57
140
1.0
102
RTVSPost2010PropOp57
 70
     1
102
RTVSPropertyOp0
 70
     1
102
RTVSPropertyOp1
 70
     1
102
RTVSPropertyOp2
 70
     1
102
RTVSPropertyOp3
 70
     1
102
RTVSPropertyOp4
 70
     1
102
RTVSPropertyOp5
 70
     1
102
RTVSPropertyOp6
 70
     1
102
RTVSPropertyOp7
 70
     1
102
RTVSPropertyOp8
 70
     1
102
RTVSPropertyOp9
 70
     1
102
RTVSPropertyOp10
 70
     1
102
RTVSPropertyOp11
 70
     1
102
RTVSPropertyOp12
 70
     1
102
RTVSPropertyOp13
 70
     1
102
RTVSPropertyOp14
 70
     1
102
RTVSPropertyOp15
 70
     1
102
RTVSPropertyOp16
 70
     1
102
RTVSPropertyOp17
 70
     1
102
RTVSPropertyOp18
 70
     1
102
RTVSPropertyOp19
 70
     1
102
RTVSPropertyOp20
 70
     1
102
RTVSPropertyOp21
 70
     1
102
RTVSPropertyOp22
 70
     1
102
RTVSPropertyOp23
 70
     1
102
RTVSPropertyOp24
 70
     1
102
RTVSPropertyOp25
 70
     1
102
RTVSPropertyOp26
 70
     1
102
RTVSPropertyOp27
 70
     1
102
RTVSPropertyOp28
 70
     1
102
RTVSPropertyOp29
 70
     1
102
RTVSPropertyOp30
 70
     1
102
RTVSPropertyOp31
 70
     1
102
RTVSPropertyOp32
 70
     1
102
RTVSPropertyOp33
 70
     1
102
RTVSPropertyOp34
 70
     1
102
RTVSPropertyOp35
 70
     1
102
RTVSPropertyOp36
 70
     1
102
RTVSPropertyOp37
 70
     1
102
RTVSPropertyOp38
 70
     1
102
RTVSPropertyOp39
 70
     1
102
RTVSPropertyOp40
 70
     1
102
RTVSPropertyOp41
 70
     1
102
RTVSPropertyOp42
 70
     1
102
RTVSPropertyOp43
 70
     1
102
RTVSPropertyOp44
 70
     1
102
RTVSPropertyOp45
 70
     1
102
RTVSPropertyOp46
 70
     1
102
RTVSPropertyOp47
 70
     1
102
RTVSPropertyOp48
 70
     1
102
RTVSPropertyOp49
 70
     1
102
RTVSPropertyOp50
 70
     1
102
RTVSPropertyOp51
 70
     0
102
RTVSPropertyOp52
 70
     0
102
RTVSPropertyOp53
 70
     1
102
RTVSPropertyOp54
 70
     1
102
RTVSPropertyOp55
 70
     1
102
RTVSPropertyOp56
 70
     1
102
RTVSPropertyOp57
 70
     1
102
RTVSPropertyOp58
 70
     1
102
RTVSPropertyOp59
 70
     1
102
RTVSPropertyOp60
 70
     1
102
RTVSPropertyOp61
 70
     1
102
RTVSPropertyOp62
 70
     1
  0
XRECORD
  5
1379
102
{ACAD_REACTORS
330
1378
102
}
330
1378
100
AcDbXrecord
280
     1
102
RTVSPost2010Prop28
280
     0
102
RTVSPost2010PropOp28
 70
     1
102
RTVSPost2010Prop29
280
     1
102
RTVSPost2010PropOp29
 70
     1
102
RTVSPost2010Prop30
280
     1
102
RTVSPost2010PropOp30
 70
     1
102
RTVSPost2010Prop31
280
     0
102
RTVSPost2010PropOp31
 70
     1
102
RTVSPost2010Prop32
280
     0
102
RTVSPost2010PropOp32
 70
     1
102
RTVSPost2010Prop33
280
     0
102
RTVSPost2010PropOp33
 70
     1
102
RTVSPost2010Prop34
280
     0
102
RTVSPost2010PropOp34
 70
     1
102
RTVSPost2010Prop35
280
     0
102
RTVSPost2010PropOp35
 70
     1
102
RTVSPost2010Prop36
280
     0
102
RTVSPost2010PropOp36
 70
     1
102
RTVSPost2010Prop37
 90
       50
102
RTVSPost2010PropOp37
 70
     1
102
RTVSPost2010Prop38
140
0.0
102
RTVSPost2010PropOp38
 70
     1
102
RTVSPost2010Prop39
140
1.0
102
RTVSPost2010PropOp39
 70
     1
102
RTVSPost2010Prop40
 90
        0
102
RTVSPost2010PropOp40
 70
     1
102
RTVSPost2010Prop41ColorIndex
 90
       18
102
RTVSPost2010Prop41ColorRGB
 90
        0
102
RTVSPost2010PropOp41
 70
     1
102
RTVSPost2010Prop42
 90
       50
102
RTVSPost2010PropOp42
 70
     1
102
RTVSPost2010Prop43
 90
        3
102
RTVSPost2010PropOp43
 70
     1
102
RTVSPost2010Prop44ColorIndex
 90
        5
102
RTVSPost2010Prop44ColorRGB
 90
      255
102
RTVSPost2010PropOp44
 70
     1
102
RTVSPost2010Prop45
280
     0
102
RTVSPost2010PropOp45
 70
     1
102
RTVSPost2010Prop46
 90
       50
102
RTVSPost2010PropOp46
 70
     1
102
RTVSPost2010Prop47
 90
       50
102
RTVSPost2010PropOp47
 70
     1
102
RTVSPost2010Prop48
 90
       50
102
RTVSPost2010PropOp48
 70
     1
102
RTVSPost2010Prop49
280
     0
102
RTVSPost2010PropOp49
 70
     1
102
RTVSPost2010Prop50
 90
       50
102
RTVSPost2010PropOp50
 70
     1
102
RTVSPost2010Prop51ColorIndex
 90
      256
102
RTVSPost2010Prop51ColorRGB
 90
-16777216
102
RTVSPost2010PropOp51
 70
     0
102
RTVSPost2010Prop52
140
1.0
102
RTVSPost2010PropOp52
 70
     0
102
RTVSPost2010Prop53
 90
        2
102
RTVSPost2010PropOp53
 70
     1
102
RTVSPost2010Prop54
  1
strokes_ogs.tif
102
RTVSPost2010PropOp54
 70
     1
102
RTVSPost2010Prop55
280
     0
102
RTVSPost2010PropOp55
 70
     1
102
RTVSPost2010Prop56
140
1.0
102
RTVSPost2010PropOp56
 70
     1
102
RTVSPost2010Prop57
140
1.0
102
RTVSPost2010PropOp57
 70
     1
102
RTVSPropertyOp0
 70
     1
102
RTVSPropertyOp1
 70
     1
102
RTVSPropertyOp2
 70
     1
102
RTVSPropertyOp3
 70
     1
102
RTVSPropertyOp4
 70
     1
102
RTVSPropertyOp5
 70
     1
102
RTVSPropertyOp6
 70
     1
102
RTVSPropertyOp7
 70
     1
102
RTVSPropertyOp8
 70
     1
102
RTVSPropertyOp9
 70
     1
102
RTVSPropertyOp10
 70
     1
102
RTVSPropertyOp11
 70
     1
102
RTVSPropertyOp12
 70
     1
102
RTVSPropertyOp13
 70
     1
102
RTVSPropertyOp14
 70
     1
102
RTVSPropertyOp15
 70
     1
102
RTVSPropertyOp16
 70
     1
102
RTVSPropertyOp17
 70
     1
102
RTVSPropertyOp18
 70
     1
102
RTVSPropertyOp19
 70
     1
102
RTVSPropertyOp20
 70
     1
102
RTVSPropertyOp21
 70
     1
102
RTVSPropertyOp22
 70
     1
102
RTVSPropertyOp23
 70
     1
102
RTVSPropertyOp24
 70
     1
102
RTVSPropertyOp25
 70
     1
102
RTVSPropertyOp26
 70
     1
102
RTVSPropertyOp27
 70
     1
102
RTVSPropertyOp28
 70
     1
102
RTVSPropertyOp29
 70
     1
102
RTVSPropertyOp30
 70
     1
102
RTVSPropertyOp31
 70
     1
102
RTVSPropertyOp32
 70
     1
102
RTVSPropertyOp33
 70
     1
102
RTVSPropertyOp34
 70
     1
102
RTVSPropertyOp35
 70
     1
102
RTVSPropertyOp36
 70
     1
102
RTVSPropertyOp37
 70
     1
102
RTVSPropertyOp38
 70
     1
102
RTVSPropertyOp39
 70
     1
102
RTVSPropertyOp40
 70
     1
102
RTVSPropertyOp41
 70
     1
102
RTVSPropertyOp42
 70
     1
102
RTVSPropertyOp43
 70
     1
102
RTVSPropertyOp44
 70
     1
102
RTVSPropertyOp45
 70
     1
102
RTVSPropertyOp46
 70
     1
102
RTVSPropertyOp47
 70
     1
102
RTVSPropertyOp48
 70
     1
102
RTVSPropertyOp49
 70
     1
102
RTVSPropertyOp50
 70
     1
102
RTVSPropertyOp51
 70
     0
102
RTVSPropertyOp52
 70
     0
102
RTVSPropertyOp53
 70
     1
102
RTVSPropertyOp54
 70
     1
102
RTVSPropertyOp55
 70
     1
102
RTVSPropertyOp56
 70
     1
102
RTVSPropertyOp57
 70
     1
102
RTVSPropertyOp58
 70
     1
102
RTVSPropertyOp59
 70
     1
102
RTVSPropertyOp60
 70
     1
102
RTVSPropertyOp61
 70
     1
102
RTVSPropertyOp62
 70
     1
  0
XRECORD
  5
137D
102
{ACAD_REACTORS
330
137C
102
}
330
137C
100
AcDbXrecord
280
     1
102
RTVSPost2010Prop28
280
     0
102
RTVSPost2010PropOp28
 70
     1
102
RTVSPost2010Prop29
280
     1
102
RTVSPost2010PropOp29
 70
     1
102
RTVSPost2010Prop30
280
     1
102
RTVSPost2010PropOp30
 70
     1
102
RTVSPost2010Prop31
280
     0
102
RTVSPost2010PropOp31
 70
     1
102
RTVSPost2010Prop32
280
     0
102
RTVSPost2010PropOp32
 70
     1
102
RTVSPost2010Prop33
280
     0
102
RTVSPost2010PropOp33
 70
     1
102
RTVSPost2010Prop34
280
     0
102
RTVSPost2010PropOp34
 70
     1
102
RTVSPost2010Prop35
280
     0
102
RTVSPost2010PropOp35
 70
     1
102
RTVSPost2010Prop36
280
     0
102
RTVSPost2010PropOp36
 70
     1
102
RTVSPost2010Prop37
 90
       50
102
RTVSPost2010PropOp37
 70
     1
102
RTVSPost2010Prop38
140
0.0
102
RTVSPost2010PropOp38
 70
     1
102
RTVSPost2010Prop39
140
1.0
102
RTVSPost2010PropOp39
 70
     1
102
RTVSPost2010Prop40
 90
        0
102
RTVSPost2010PropOp40
 70
     1
102
RTVSPost2010Prop41ColorIndex
 90
       18
102
RTVSPost2010Prop41ColorRGB
 90
        0
102
RTVSPost2010PropOp41
 70
     1
102
RTVSPost2010Prop42
 90
       50
102
RTVSPost2010PropOp42
 70
     1
102
RTVSPost2010Prop43
 90
        3
102
RTVSPost2010PropOp43
 70
     1
102
RTVSPost2010Prop44ColorIndex
 90
        5
102
RTVSPost2010Prop44ColorRGB
 90
      255
102
RTVSPost2010PropOp44
 70
     1
102
RTVSPost2010Prop45
280
     0
102
RTVSPost2010PropOp45
 70
     1
102
RTVSPost2010Prop46
 90
       50
102
RTVSPost2010PropOp46
 70
     1
102
RTVSPost2010Prop47
 90
       50
102
RTVSPost2010PropOp47
 70
     1
102
RTVSPost2010Prop48
 90
       50
102
RTVSPost2010PropOp48
 70
     1
102
RTVSPost2010Prop49
280
     0
102
RTVSPost2010PropOp49
 70
     1
102
RTVSPost2010Prop50
 90
       50
102
RTVSPost2010PropOp50
 70
     1
102
RTVSPost2010Prop51ColorIndex
 90
      256
102
RTVSPost2010Prop51ColorRGB
 90
-16777216
102
RTVSPost2010PropOp51
 70
     0
102
RTVSPost2010Prop52
140
1.0
102
RTVSPost2010PropOp52
 70
     0
102
RTVSPost2010Prop53
 90
        2
102
RTVSPost2010PropOp53
 70
     1
102
RTVSPost2010Prop54
  1
strokes_ogs.tif
102
RTVSPost2010PropOp54
 70
     1
102
RTVSPost2010Prop55
280
     0
102
RTVSPost2010PropOp55
 70
     1
102
RTVSPost2010Prop56
140
1.0
102
RTVSPost2010PropOp56
 70
     1
102
RTVSPost2010Prop57
140
1.0
102
RTVSPost2010PropOp57
 70
     1
102
RTVSPropertyOp0
 70
     1
102
RTVSPropertyOp1
 70
     1
102
RTVSPropertyOp2
 70
     1
102
RTVSPropertyOp3
 70
     1
102
RTVSPropertyOp4
 70
     1
102
RTVSPropertyOp5
 70
     1
102
RTVSPropertyOp6
 70
     1
102
RTVSPropertyOp7
 70
     1
102
RTVSPropertyOp8
 70
     1
102
RTVSPropertyOp9
 70
     1
102
RTVSPropertyOp10
 70
     1
102
RTVSPropertyOp11
 70
     1
102
RTVSPropertyOp12
 70
     1
102
RTVSPropertyOp13
 70
     1
102
RTVSPropertyOp14
 70
     1
102
RTVSPropertyOp15
 70
     1
102
RTVSPropertyOp16
 70
     1
102
RTVSPropertyOp17
 70
     1
102
RTVSPropertyOp18
 70
     1
102
RTVSPropertyOp19
 70
     1
102
RTVSPropertyOp20
 70
     1
102
RTVSPropertyOp21
 70
     1
102
RTVSPropertyOp22
 70
     1
102
RTVSPropertyOp23
 70
     1
102
RTVSPropertyOp24
 70
     1
102
RTVSPropertyOp25
 70
     1
102
RTVSPropertyOp26
 70
     1
102
RTVSPropertyOp27
 70
     1
102
RTVSPropertyOp28
 70
     1
102
RTVSPropertyOp29
 70
     1
102
RTVSPropertyOp30
 70
     1
102
RTVSPropertyOp31
 70
     1
102
RTVSPropertyOp32
 70
     1
102
RTVSPropertyOp33
 70
     1
102
RTVSPropertyOp34
 70
     1
102
RTVSPropertyOp35
 70
     1
102
RTVSPropertyOp36
 70
     1
102
RTVSPropertyOp37
 70
     1
102
RTVSPropertyOp38
 70
     1
102
RTVSPropertyOp39
 70
     1
102
RTVSPropertyOp40
 70
     1
102
RTVSPropertyOp41
 70
     1
102
RTVSPropertyOp42
 70
     1
102
RTVSPropertyOp43
 70
     1
102
RTVSPropertyOp44
 70
     1
102
RTVSPropertyOp45
 70
     1
102
RTVSPropertyOp46
 70
     1
102
RTVSPropertyOp47
 70
     1
102
RTVSPropertyOp48
 70
     1
102
RTVSPropertyOp49
 70
     1
102
RTVSPropertyOp50
 70
     1
102
RTVSPropertyOp51
 70
     0
102
RTVSPropertyOp52
 70
     0
102
RTVSPropertyOp53
 70
     1
102
RTVSPropertyOp54
 70
     1
102
RTVSPropertyOp55
 70
     1
102
RTVSPropertyOp56
 70
     1
102
RTVSPropertyOp57
 70
     1
102
RTVSPropertyOp58
 70
     1
102
RTVSPropertyOp59
 70
     1
102
RTVSPropertyOp60
 70
     1
102
RTVSPropertyOp61
 70
     1
102
RTVSPropertyOp62
 70
     1
  0
XRECORD
  5
1397
102
{ACAD_REACTORS
330
1396
102
}
330
1396
100
AcDbXrecord
280
     1
102
RTVSPost2010Prop28
280
     0
102
RTVSPost2010PropOp28
 70
     0
102
RTVSPost2010Prop29
280
     1
102
RTVSPost2010PropOp29
 70
     0
102
RTVSPost2010Prop30
280
     1
102
RTVSPost2010PropOp30
 70
     0
102
RTVSPost2010Prop31
280
     0
102
RTVSPost2010PropOp31
 70
     0
102
RTVSPost2010Prop32
280
     0
102
RTVSPost2010PropOp32
 70
     0
102
RTVSPost2010Prop33
280
     0
102
RTVSPost2010PropOp33
 70
     0
102
RTVSPost2010Prop34
280
     0
102
RTVSPost2010PropOp34
 70
     0
102
RTVSPost2010Prop35
280
     0
102
RTVSPost2010PropOp35
 70
     0
102
RTVSPost2010Prop36
280
     0
102
RTVSPost2010PropOp36
 70
     0
102
RTVSPost2010Prop37
 90
       50
102
RTVSPost2010PropOp37
 70
     0
102
RTVSPost2010Prop38
140
0.0
102
RTVSPost2010PropOp38
 70
     0
102
RTVSPost2010Prop39
140
1.0
102
RTVSPost2010PropOp39
 70
     0
102
RTVSPost2010Prop40
 90
        0
102
RTVSPost2010PropOp40
 70
     0
102
RTVSPost2010Prop41ColorIndex
 90
       18
102
RTVSPost2010Prop41ColorRGB
 90
        0
102
RTVSPost2010PropOp41
 70
     0
102
RTVSPost2010Prop42
 90
       50
102
RTVSPost2010PropOp42
 70
     0
102
RTVSPost2010Prop43
 90
        3
102
RTVSPost2010PropOp43
 70
     0
102
RTVSPost2010Prop44ColorIndex
 90
        5
102
RTVSPost2010Prop44ColorRGB
 90
      255
102
RTVSPost2010PropOp44
 70
     0
102
RTVSPost2010Prop45
280
     0
102
RTVSPost2010PropOp45
 70
     0
102
RTVSPost2010Prop46
 90
       50
102
RTVSPost2010PropOp46
 70
     0
102
RTVSPost2010Prop47
 90
       50
102
RTVSPost2010PropOp47
 70
     0
102
RTVSPost2010Prop48
 90
       50
102
RTVSPost2010PropOp48
 70
     0
102
RTVSPost2010Prop49
280
     0
102
RTVSPost2010PropOp49
 70
     0
102
RTVSPost2010Prop50
 90
       50
102
RTVSPost2010PropOp50
 70
     0
102
RTVSPost2010Prop51ColorIndex
 90
      256
102
RTVSPost2010Prop51ColorRGB
 90
-16777216
102
RTVSPost2010PropOp51
 70
     0
102
RTVSPost2010Prop52
140
1.0
102
RTVSPost2010PropOp52
 70
     0
102
RTVSPost2010Prop53
 90
        2
102
RTVSPost2010PropOp53
 70
     0
102
RTVSPost2010Prop54
  1
strokes_ogs.tif
102
RTVSPost2010PropOp54
 70
     0
102
RTVSPost2010Prop55
280
     0
102
RTVSPost2010PropOp55
 70
     0
102
RTVSPost2010Prop56
140
1.0
102
RTVSPost2010PropOp56
 70
     0
102
RTVSPost2010Prop57
140
1.0
102
RTVSPost2010PropOp57
 70
     0
102
RTVSPropertyOp0
 70
     0
102
RTVSPropertyOp1
 70
     0
102
RTVSPropertyOp2
 70
     0
102
RTVSPropertyOp3
 70
     0
102
RTVSPropertyOp4
 70
     0
102
RTVSPropertyOp5
 70
     0
102
RTVSPropertyOp6
 70
     0
102
RTVSPropertyOp7
 70
     0
102
RTVSPropertyOp8
 70
     0
102
RTVSPropertyOp9
 70
     0
102
RTVSPropertyOp10
 70
     0
102
RTVSPropertyOp11
 70
     0
102
RTVSPropertyOp12
 70
     0
102
RTVSPropertyOp13
 70
     0
102
RTVSPropertyOp14
 70
     2
102
RTVSPropertyOp15
 70
     0
102
RTVSPropertyOp16
 70
     0
102
RTVSPropertyOp17
 70
     0
102
RTVSPropertyOp18
 70
     0
102
RTVSPropertyOp19
 70
     0
102
RTVSPropertyOp20
 70
     0
102
RTVSPropertyOp21
 70
     0
102
RTVSPropertyOp22
 70
     0
102
RTVSPropertyOp23
 70
     0
102
RTVSPropertyOp24
 70
     0
102
RTVSPropertyOp25
 70
     0
102
RTVSPropertyOp26
 70
     0
102
RTVSPropertyOp27
 70
     0
102
RTVSPropertyOp28
 70
     0
102
RTVSPropertyOp29
 70
     0
102
RTVSPropertyOp30
 70
     0
102
RTVSPropertyOp31
 70
     0
102
RTVSPropertyOp32
 70
     0
102
RTVSPropertyOp33
 70
     0
102
RTVSPropertyOp34
 70
     0
102
RTVSPropertyOp35
 70
     0
102
RTVSPropertyOp36
 70
     0
102
RTVSPropertyOp37
 70
     0
102
RTVSPropertyOp38
 70
     0
102
RTVSPropertyOp39
 70
     0
102
RTVSPropertyOp40
 70
     0
102
RTVSPropertyOp41
 70
     0
102
RTVSPropertyOp42
 70
     0
102
RTVSPropertyOp43
 70
     0
102
RTVSPropertyOp44
 70
     0
102
RTVSPropertyOp45
 70
     0
102
RTVSPropertyOp46
 70
     0
102
RTVSPropertyOp47
 70
     0
102
RTVSPropertyOp48
 70
     0
102
RTVSPropertyOp49
 70
     0
102
RTVSPropertyOp50
 70
     0
102
RTVSPropertyOp51
 70
     0
102
RTVSPropertyOp52
 70
     0
102
RTVSPropertyOp53
 70
     0
102
RTVSPropertyOp54
 70
     0
102
RTVSPropertyOp55
 70
     0
102
RTVSPropertyOp56
 70
     0
102
RTVSPropertyOp57
 70
     0
102
RTVSPropertyOp58
 70
     0
102
RTVSPropertyOp59
 70
     0
102
RTVSPropertyOp60
 70
     0
102
RTVSPropertyOp61
 70
     0
102
RTVSPropertyOp62
 70
     0
  0
XRECORD
  5
1385
102
{ACAD_REACTORS
330
1384
102
}
330
1384
100
AcDbXrecord
280
     1
102
RTVSPost2010Prop28
280
     0
102
RTVSPost2010PropOp28
 70
     1
102
RTVSPost2010Prop29
280
     1
102
RTVSPost2010PropOp29
 70
     1
102
RTVSPost2010Prop30
280
     1
102
RTVSPost2010PropOp30
 70
     1
102
RTVSPost2010Prop31
280
     0
102
RTVSPost2010PropOp31
 70
     1
102
RTVSPost2010Prop32
280
     0
102
RTVSPost2010PropOp32
 70
     1
102
RTVSPost2010Prop33
280
     0
102
RTVSPost2010PropOp33
 70
     1
102
RTVSPost2010Prop34
280
     0
102
RTVSPost2010PropOp34
 70
     1
102
RTVSPost2010Prop35
280
     0
102
RTVSPost2010PropOp35
 70
     1
102
RTVSPost2010Prop36
280
     0
102
RTVSPost2010PropOp36
 70
     1
102
RTVSPost2010Prop37
 90
       50
102
RTVSPost2010PropOp37
 70
     1
102
RTVSPost2010Prop38
140
0.0
102
RTVSPost2010PropOp38
 70
     1
102
RTVSPost2010Prop39
140
1.0
102
RTVSPost2010PropOp39
 70
     1
102
RTVSPost2010Prop40
 90
        0
102
RTVSPost2010PropOp40
 70
     1
102
RTVSPost2010Prop41ColorIndex
 90
       18
102
RTVSPost2010Prop41ColorRGB
 90
        0
102
RTVSPost2010PropOp41
 70
     1
102
RTVSPost2010Prop42
 90
       50
102
RTVSPost2010PropOp42
 70
     1
102
RTVSPost2010Prop43
 90
        3
102
RTVSPost2010PropOp43
 70
     1
102
RTVSPost2010Prop44ColorIndex
 90
        5
102
RTVSPost2010Prop44ColorRGB
 90
      255
102
RTVSPost2010PropOp44
 70
     1
102
RTVSPost2010Prop45
280
     0
102
RTVSPost2010PropOp45
 70
     1
102
RTVSPost2010Prop46
 90
       50
102
RTVSPost2010PropOp46
 70
     1
102
RTVSPost2010Prop47
 90
       50
102
RTVSPost2010PropOp47
 70
     1
102
RTVSPost2010Prop48
 90
       50
102
RTVSPost2010PropOp48
 70
     1
102
RTVSPost2010Prop49
280
     0
102
RTVSPost2010PropOp49
 70
     1
102
RTVSPost2010Prop50
 90
       50
102
RTVSPost2010PropOp50
 70
     1
102
RTVSPost2010Prop51ColorIndex
 90
      256
102
RTVSPost2010Prop51ColorRGB
 90
-16777216
102
RTVSPost2010PropOp51
 70
     0
102
RTVSPost2010Prop52
140
1.0
102
RTVSPost2010PropOp52
 70
     0
102
RTVSPost2010Prop53
 90
        2
102
RTVSPost2010PropOp53
 70
     1
102
RTVSPost2010Prop54
  1
strokes_ogs.tif
102
RTVSPost2010PropOp54
 70
     1
102
RTVSPost2010Prop55
280
     0
102
RTVSPost2010PropOp55
 70
     1
102
RTVSPost2010Prop56
140
1.0
102
RTVSPost2010PropOp56
 70
     1
102
RTVSPost2010Prop57
140
1.0
102
RTVSPost2010PropOp57
 70
     1
102
RTVSPropertyOp0
 70
     1
102
RTVSPropertyOp1
 70
     1
102
RTVSPropertyOp2
 70
     1
102
RTVSPropertyOp3
 70
     1
102
RTVSPropertyOp4
 70
     1
102
RTVSPropertyOp5
 70
     1
102
RTVSPropertyOp6
 70
     1
102
RTVSPropertyOp7
 70
     1
102
RTVSPropertyOp8
 70
     1
102
RTVSPropertyOp9
 70
     1
102
RTVSPropertyOp10
 70
     1
102
RTVSPropertyOp11
 70
     1
102
RTVSPropertyOp12
 70
     1
102
RTVSPropertyOp13
 70
     1
102
RTVSPropertyOp14
 70
     1
102
RTVSPropertyOp15
 70
     1
102
RTVSPropertyOp16
 70
     1
102
RTVSPropertyOp17
 70
     1
102
RTVSPropertyOp18
 70
     1
102
RTVSPropertyOp19
 70
     1
102
RTVSPropertyOp20
 70
     1
102
RTVSPropertyOp21
 70
     1
102
RTVSPropertyOp22
 70
     1
102
RTVSPropertyOp23
 70
     1
102
RTVSPropertyOp24
 70
     1
102
RTVSPropertyOp25
 70
     1
102
RTVSPropertyOp26
 70
     1
102
RTVSPropertyOp27
 70
     1
102
RTVSPropertyOp28
 70
     1
102
RTVSPropertyOp29
 70
     1
102
RTVSPropertyOp30
 70
     1
102
RTVSPropertyOp31
 70
     1
102
RTVSPropertyOp32
 70
     1
102
RTVSPropertyOp33
 70
     1
102
RTVSPropertyOp34
 70
     1
102
RTVSPropertyOp35
 70
     1
102
RTVSPropertyOp36
 70
     1
102
RTVSPropertyOp37
 70
     1
102
RTVSPropertyOp38
 70
     1
102
RTVSPropertyOp39
 70
     1
102
RTVSPropertyOp40
 70
     1
102
RTVSPropertyOp41
 70
     1
102
RTVSPropertyOp42
 70
     1
102
RTVSPropertyOp43
 70
     1
102
RTVSPropertyOp44
 70
     1
102
RTVSPropertyOp45
 70
     1
102
RTVSPropertyOp46
 70
     1
102
RTVSPropertyOp47
 70
     1
102
RTVSPropertyOp48
 70
     1
102
RTVSPropertyOp49
 70
     1
102
RTVSPropertyOp50
 70
     1
102
RTVSPropertyOp51
 70
     0
102
RTVSPropertyOp52
 70
     0
102
RTVSPropertyOp53
 70
     1
102
RTVSPropertyOp54
 70
     1
102
RTVSPropertyOp55
 70
     1
102
RTVSPropertyOp56
 70
     1
102
RTVSPropertyOp57
 70
     1
102
RTVSPropertyOp58
 70
     1
102
RTVSPropertyOp59
 70
     1
102
RTVSPropertyOp60
 70
     1
102
RTVSPropertyOp61
 70
     1
102
RTVSPropertyOp62
 70
     1
  0
XRECORD
  5
1369
102
{ACAD_REACTORS
330
1368
102
}
330
1368
100
AcDbXrecord
280
     1
102
RTVSPost2010Prop28
280
     0
102
RTVSPost2010PropOp28
 70
     1
102
RTVSPost2010Prop29
280
     1
102
RTVSPost2010PropOp29
 70
     1
102
RTVSPost2010Prop30
280
     1
102
RTVSPost2010PropOp30
 70
     1
102
RTVSPost2010Prop31
280
     0
102
RTVSPost2010PropOp31
 70
     1
102
RTVSPost2010Prop32
280
     0
102
RTVSPost2010PropOp32
 70
     1
102
RTVSPost2010Prop33
280
     0
102
RTVSPost2010PropOp33
 70
     1
102
RTVSPost2010Prop34
280
     0
102
RTVSPost2010PropOp34
 70
     1
102
RTVSPost2010Prop35
280
     0
102
RTVSPost2010PropOp35
 70
     1
102
RTVSPost2010Prop36
280
     0
102
RTVSPost2010PropOp36
 70
     1
102
RTVSPost2010Prop37
 90
       50
102
RTVSPost2010PropOp37
 70
     1
102
RTVSPost2010Prop38
140
0.0
102
RTVSPost2010PropOp38
 70
     1
102
RTVSPost2010Prop39
140
1.0
102
RTVSPost2010PropOp39
 70
     1
102
RTVSPost2010Prop40
 90
        0
102
RTVSPost2010PropOp40
 70
     1
102
RTVSPost2010Prop41ColorIndex
 90
       18
102
RTVSPost2010Prop41ColorRGB
 90
        0
102
RTVSPost2010PropOp41
 70
     1
102
RTVSPost2010Prop42
 90
       50
102
RTVSPost2010PropOp42
 70
     1
102
RTVSPost2010Prop43
 90
        3
102
RTVSPost2010PropOp43
 70
     1
102
RTVSPost2010Prop44ColorIndex
 90
        5
102
RTVSPost2010Prop44ColorRGB
 90
      255
102
RTVSPost2010PropOp44
 70
     1
102
RTVSPost2010Prop45
280
     0
102
RTVSPost2010PropOp45
 70
     1
102
RTVSPost2010Prop46
 90
       50
102
RTVSPost2010PropOp46
 70
     1
102
RTVSPost2010Prop47
 90
       50
102
RTVSPost2010PropOp47
 70
     1
102
RTVSPost2010Prop48
 90
       50
102
RTVSPost2010PropOp48
 70
     1
102
RTVSPost2010Prop49
280
     0
102
RTVSPost2010PropOp49
 70
     1
102
RTVSPost2010Prop50
 90
       50
102
RTVSPost2010PropOp50
 70
     1
102
RTVSPost2010Prop51ColorIndex
 90
      256
102
RTVSPost2010Prop51ColorRGB
 90
-16777216
102
RTVSPost2010PropOp51
 70
     0
102
RTVSPost2010Prop52
140
1.0
102
RTVSPost2010PropOp52
 70
     0
102
RTVSPost2010Prop53
 90
        2
102
RTVSPost2010PropOp53
 70
     1
102
RTVSPost2010Prop54
  1
strokes_ogs.tif
102
RTVSPost2010PropOp54
 70
     1
102
RTVSPost2010Prop55
280
     0
102
RTVSPost2010PropOp55
 70
     1
102
RTVSPost2010Prop56
140
1.0
102
RTVSPost2010PropOp56
 70
     1
102
RTVSPost2010Prop57
140
1.0
102
RTVSPost2010PropOp57
 70
     1
102
RTVSPropertyOp0
 70
     1
102
RTVSPropertyOp1
 70
     1
102
RTVSPropertyOp2
 70
     1
102
RTVSPropertyOp3
 70
     1
102
RTVSPropertyOp4
 70
     1
102
RTVSPropertyOp5
 70
     1
102
RTVSPropertyOp6
 70
     1
102
RTVSPropertyOp7
 70
     1
102
RTVSPropertyOp8
 70
     1
102
RTVSPropertyOp9
 70
     1
102
RTVSPropertyOp10
 70
     1
102
RTVSPropertyOp11
 70
     1
102
RTVSPropertyOp12
 70
     1
102
RTVSPropertyOp13
 70
     1
102
RTVSPropertyOp14
 70
     1
102
RTVSPropertyOp15
 70
     1
102
RTVSPropertyOp16
 70
     1
102
RTVSPropertyOp17
 70
     1
102
RTVSPropertyOp18
 70
     1
102
RTVSPropertyOp19
 70
     1
102
RTVSPropertyOp20
 70
     1
102
RTVSPropertyOp21
 70
     1
102
RTVSPropertyOp22
 70
     1
102
RTVSPropertyOp23
 70
     1
102
RTVSPropertyOp24
 70
     1
102
RTVSPropertyOp25
 70
     1
102
RTVSPropertyOp26
 70
     1
102
RTVSPropertyOp27
 70
     1
102
RTVSPropertyOp28
 70
     1
102
RTVSPropertyOp29
 70
     1
102
RTVSPropertyOp30
 70
     1
102
RTVSPropertyOp31
 70
     1
102
RTVSPropertyOp32
 70
     1
102
RTVSPropertyOp33
 70
     1
102
RTVSPropertyOp34
 70
     1
102
RTVSPropertyOp35
 70
     1
102
RTVSPropertyOp36
 70
     1
102
RTVSPropertyOp37
 70
     1
102
RTVSPropertyOp38
 70
     1
102
RTVSPropertyOp39
 70
     1
102
RTVSPropertyOp40
 70
     1
102
RTVSPropertyOp41
 70
     1
102
RTVSPropertyOp42
 70
     1
102
RTVSPropertyOp43
 70
     1
102
RTVSPropertyOp44
 70
     1
102
RTVSPropertyOp45
 70
     1
102
RTVSPropertyOp46
 70
     1
102
RTVSPropertyOp47
 70
     1
102
RTVSPropertyOp48
 70
     1
102
RTVSPropertyOp49
 70
     1
102
RTVSPropertyOp50
 70
     1
102
RTVSPropertyOp51
 70
     0
102
RTVSPropertyOp52
 70
     0
102
RTVSPropertyOp53
 70
     1
102
RTVSPropertyOp54
 70
     1
102
RTVSPropertyOp55
 70
     1
102
RTVSPropertyOp56
 70
     1
102
RTVSPropertyOp57
 70
     1
102
RTVSPropertyOp58
 70
     1
102
RTVSPropertyOp59
 70
     1
102
RTVSPropertyOp60
 70
     1
102
RTVSPropertyOp61
 70
     1
102
RTVSPropertyOp62
 70
     1
  0
XRECORD
  5
136B
102
{ACAD_REACTORS
330
136A
102
}
330
136A
100
AcDbXrecord
280
     1
102
RTVSPost2010Prop28
280
     0
102
RTVSPost2010PropOp28
 70
     1
102
RTVSPost2010Prop29
280
     1
102
RTVSPost2010PropOp29
 70
     1
102
RTVSPost2010Prop30
280
     1
102
RTVSPost2010PropOp30
 70
     1
102
RTVSPost2010Prop31
280
     0
102
RTVSPost2010PropOp31
 70
     1
102
RTVSPost2010Prop32
280
     0
102
RTVSPost2010PropOp32
 70
     1
102
RTVSPost2010Prop33
280
     0
102
RTVSPost2010PropOp33
 70
     1
102
RTVSPost2010Prop34
280
     0
102
RTVSPost2010PropOp34
 70
     1
102
RTVSPost2010Prop35
280
     0
102
RTVSPost2010PropOp35
 70
     1
102
RTVSPost2010Prop36
280
     0
102
RTVSPost2010PropOp36
 70
     1
102
RTVSPost2010Prop37
 90
       50
102
RTVSPost2010PropOp37
 70
     1
102
RTVSPost2010Prop38
140
0.0
102
RTVSPost2010PropOp38
 70
     1
102
RTVSPost2010Prop39
140
1.0
102
RTVSPost2010PropOp39
 70
     1
102
RTVSPost2010Prop40
 90
        0
102
RTVSPost2010PropOp40
 70
     1
102
RTVSPost2010Prop41ColorIndex
 90
       18
102
RTVSPost2010Prop41ColorRGB
 90
        0
102
RTVSPost2010PropOp41
 70
     1
102
RTVSPost2010Prop42
 90
       50
102
RTVSPost2010PropOp42
 70
     1
102
RTVSPost2010Prop43
 90
        3
102
RTVSPost2010PropOp43
 70
     1
102
RTVSPost2010Prop44ColorIndex
 90
        5
102
RTVSPost2010Prop44ColorRGB
 90
      255
102
RTVSPost2010PropOp44
 70
     1
102
RTVSPost2010Prop45
280
     0
102
RTVSPost2010PropOp45
 70
     1
102
RTVSPost2010Prop46
 90
       50
102
RTVSPost2010PropOp46
 70
     1
102
RTVSPost2010Prop47
 90
       50
102
RTVSPost2010PropOp47
 70
     1
102
RTVSPost2010Prop48
 90
       50
102
RTVSPost2010PropOp48
 70
     1
102
RTVSPost2010Prop49
280
     0
102
RTVSPost2010PropOp49
 70
     1
102
RTVSPost2010Prop50
 90
       50
102
RTVSPost2010PropOp50
 70
     1
102
RTVSPost2010Prop51ColorIndex
 90
      256
102
RTVSPost2010Prop51ColorRGB
 90
-16777216
102
RTVSPost2010PropOp51
 70
     0
102
RTVSPost2010Prop52
140
1.0
102
RTVSPost2010PropOp52
 70
     0
102
RTVSPost2010Prop53
 90
        2
102
RTVSPost2010PropOp53
 70
     1
102
RTVSPost2010Prop54
  1
strokes_ogs.tif
102
RTVSPost2010PropOp54
 70
     1
102
RTVSPost2010Prop55
280
     0
102
RTVSPost2010PropOp55
 70
     1
102
RTVSPost2010Prop56
140
1.0
102
RTVSPost2010PropOp56
 70
     1
102
RTVSPost2010Prop57
140
1.0
102
RTVSPost2010PropOp57
 70
     1
102
RTVSPropertyOp0
 70
     1
102
RTVSPropertyOp1
 70
     1
102
RTVSPropertyOp2
 70
     1
102
RTVSPropertyOp3
 70
     1
102
RTVSPropertyOp4
 70
     1
102
RTVSPropertyOp5
 70
     1
102
RTVSPropertyOp6
 70
     1
102
RTVSPropertyOp7
 70
     1
102
RTVSPropertyOp8
 70
     1
102
RTVSPropertyOp9
 70
     1
102
RTVSPropertyOp10
 70
     1
102
RTVSPropertyOp11
 70
     1
102
RTVSPropertyOp12
 70
     1
102
RTVSPropertyOp13
 70
     1
102
RTVSPropertyOp14
 70
     1
102
RTVSPropertyOp15
 70
     1
102
RTVSPropertyOp16
 70
     1
102
RTVSPropertyOp17
 70
     1
102
RTVSPropertyOp18
 70
     1
102
RTVSPropertyOp19
 70
     1
102
RTVSPropertyOp20
 70
     1
102
RTVSPropertyOp21
 70
     1
102
RTVSPropertyOp22
 70
     1
102
RTVSPropertyOp23
 70
     1
102
RTVSPropertyOp24
 70
     1
102
RTVSPropertyOp25
 70
     1
102
RTVSPropertyOp26
 70
     1
102
RTVSPropertyOp27
 70
     1
102
RTVSPropertyOp28
 70
     1
102
RTVSPropertyOp29
 70
     1
102
RTVSPropertyOp30
 70
     1
102
RTVSPropertyOp31
 70
     1
102
RTVSPropertyOp32
 70
     1
102
RTVSPropertyOp33
 70
     1
102
RTVSPropertyOp34
 70
     1
102
RTVSPropertyOp35
 70
     1
102
RTVSPropertyOp36
 70
     1
102
RTVSPropertyOp37
 70
     1
102
RTVSPropertyOp38
 70
     1
102
RTVSPropertyOp39
 70
     1
102
RTVSPropertyOp40
 70
     1
102
RTVSPropertyOp41
 70
     1
102
RTVSPropertyOp42
 70
     1
102
RTVSPropertyOp43
 70
     1
102
RTVSPropertyOp44
 70
     1
102
RTVSPropertyOp45
 70
     1
102
RTVSPropertyOp46
 70
     1
102
RTVSPropertyOp47
 70
     1
102
RTVSPropertyOp48
 70
     1
102
RTVSPropertyOp49
 70
     1
102
RTVSPropertyOp50
 70
     1
102
RTVSPropertyOp51
 70
     0
102
RTVSPropertyOp52
 70
     0
102
RTVSPropertyOp53
 70
     1
102
RTVSPropertyOp54
 70
     1
102
RTVSPropertyOp55
 70
     1
102
RTVSPropertyOp56
 70
     1
102
RTVSPropertyOp57
 70
     1
102
RTVSPropertyOp58
 70
     1
102
RTVSPropertyOp59
 70
     1
102
RTVSPropertyOp60
 70
     1
102
RTVSPropertyOp61
 70
     1
102
RTVSPropertyOp62
 70
     1
  0
XRECORD
  5
136D
102
{ACAD_REACTORS
330
136C
102
}
330
136C
100
AcDbXrecord
280
     1
102
RTVSPost2010Prop28
280
     0
102
RTVSPost2010PropOp28
 70
     1
102
RTVSPost2010Prop29
280
     1
102
RTVSPost2010PropOp29
 70
     1
102
RTVSPost2010Prop30
280
     1
102
RTVSPost2010PropOp30
 70
     1
102
RTVSPost2010Prop31
280
     0
102
RTVSPost2010PropOp31
 70
     1
102
RTVSPost2010Prop32
280
     0
102
RTVSPost2010PropOp32
 70
     1
102
RTVSPost2010Prop33
280
     0
102
RTVSPost2010PropOp33
 70
     1
102
RTVSPost2010Prop34
280
     0
102
RTVSPost2010PropOp34
 70
     1
102
RTVSPost2010Prop35
280
     0
102
RTVSPost2010PropOp35
 70
     1
102
RTVSPost2010Prop36
280
     0
102
RTVSPost2010PropOp36
 70
     1
102
RTVSPost2010Prop37
 90
       50
102
RTVSPost2010PropOp37
 70
     1
102
RTVSPost2010Prop38
140
0.0
102
RTVSPost2010PropOp38
 70
     1
102
RTVSPost2010Prop39
140
1.0
102
RTVSPost2010PropOp39
 70
     1
102
RTVSPost2010Prop40
 90
        0
102
RTVSPost2010PropOp40
 70
     1
102
RTVSPost2010Prop41ColorIndex
 90
       18
102
RTVSPost2010Prop41ColorRGB
 90
        0
102
RTVSPost2010PropOp41
 70
     1
102
RTVSPost2010Prop42
 90
       50
102
RTVSPost2010PropOp42
 70
     1
102
RTVSPost2010Prop43
 90
        3
102
RTVSPost2010PropOp43
 70
     1
102
RTVSPost2010Prop44ColorIndex
 90
        5
102
RTVSPost2010Prop44ColorRGB
 90
      255
102
RTVSPost2010PropOp44
 70
     1
102
RTVSPost2010Prop45
280
     0
102
RTVSPost2010PropOp45
 70
     1
102
RTVSPost2010Prop46
 90
       50
102
RTVSPost2010PropOp46
 70
     1
102
RTVSPost2010Prop47
 90
       50
102
RTVSPost2010PropOp47
 70
     1
102
RTVSPost2010Prop48
 90
       50
102
RTVSPost2010PropOp48
 70
     1
102
RTVSPost2010Prop49
280
     0
102
RTVSPost2010PropOp49
 70
     1
102
RTVSPost2010Prop50
 90
       50
102
RTVSPost2010PropOp50
 70
     1
102
RTVSPost2010Prop51ColorIndex
 90
      256
102
RTVSPost2010Prop51ColorRGB
 90
-16777216
102
RTVSPost2010PropOp51
 70
     0
102
RTVSPost2010Prop52
140
1.0
102
RTVSPost2010PropOp52
 70
     0
102
RTVSPost2010Prop53
 90
        2
102
RTVSPost2010PropOp53
 70
     1
102
RTVSPost2010Prop54
  1
strokes_ogs.tif
102
RTVSPost2010PropOp54
 70
     1
102
RTVSPost2010Prop55
280
     0
102
RTVSPost2010PropOp55
 70
     1
102
RTVSPost2010Prop56
140
1.0
102
RTVSPost2010PropOp56
 70
     1
102
RTVSPost2010Prop57
140
1.0
102
RTVSPost2010PropOp57
 70
     1
102
RTVSPropertyOp0
 70
     1
102
RTVSPropertyOp1
 70
     1
102
RTVSPropertyOp2
 70
     1
102
RTVSPropertyOp3
 70
     1
102
RTVSPropertyOp4
 70
     1
102
RTVSPropertyOp5
 70
     1
102
RTVSPropertyOp6
 70
     1
102
RTVSPropertyOp7
 70
     1
102
RTVSPropertyOp8
 70
     1
102
RTVSPropertyOp9
 70
     1
102
RTVSPropertyOp10
 70
     1
102
RTVSPropertyOp11
 70
     1
102
RTVSPropertyOp12
 70
     1
102
RTVSPropertyOp13
 70
     1
102
RTVSPropertyOp14
 70
     1
102
RTVSPropertyOp15
 70
     1
102
RTVSPropertyOp16
 70
     1
102
RTVSPropertyOp17
 70
     1
102
RTVSPropertyOp18
 70
     1
102
RTVSPropertyOp19
 70
     1
102
RTVSPropertyOp20
 70
     1
102
RTVSPropertyOp21
 70
     1
102
RTVSPropertyOp22
 70
     1
102
RTVSPropertyOp23
 70
     1
102
RTVSPropertyOp24
 70
     1
102
RTVSPropertyOp25
 70
     1
102
RTVSPropertyOp26
 70
     1
102
RTVSPropertyOp27
 70
     1
102
RTVSPropertyOp28
 70
     1
102
RTVSPropertyOp29
 70
     1
102
RTVSPropertyOp30
 70
     1
102
RTVSPropertyOp31
 70
     1
102
RTVSPropertyOp32
 70
     1
102
RTVSPropertyOp33
 70
     1
102
RTVSPropertyOp34
 70
     1
102
RTVSPropertyOp35
 70
     1
102
RTVSPropertyOp36
 70
     1
102
RTVSPropertyOp37
 70
     1
102
RTVSPropertyOp38
 70
     1
102
RTVSPropertyOp39
 70
     1
102
RTVSPropertyOp40
 70
     1
102
RTVSPropertyOp41
 70
     1
102
RTVSPropertyOp42
 70
     1
102
RTVSPropertyOp43
 70
     1
102
RTVSPropertyOp44
 70
     1
102
RTVSPropertyOp45
 70
     1
102
RTVSPropertyOp46
 70
     1
102
RTVSPropertyOp47
 70
     1
102
RTVSPropertyOp48
 70
     1
102
RTVSPropertyOp49
 70
     1
102
RTVSPropertyOp50
 70
     1
102
RTVSPropertyOp51
 70
     0
102
RTVSPropertyOp52
 70
     0
102
RTVSPropertyOp53
 70
     1
102
RTVSPropertyOp54
 70
     1
102
RTVSPropertyOp55
 70
     1
102
RTVSPropertyOp56
 70
     1
102
RTVSPropertyOp57
 70
     1
102
RTVSPropertyOp58
 70
     1
102
RTVSPropertyOp59
 70
     1
102
RTVSPropertyOp60
 70
     1
102
RTVSPropertyOp61
 70
     1
102
RTVSPropertyOp62
 70
     1
  0
XRECORD
  5
136F
102
{ACAD_REACTORS
330
136E
102
}
330
136E
100
AcDbXrecord
280
     1
102
RTVSPost2010Prop28
280
     0
102
RTVSPost2010PropOp28
 70
     1
102
RTVSPost2010Prop29
280
     1
102
RTVSPost2010PropOp29
 70
     1
102
RTVSPost2010Prop30
280
     1
102
RTVSPost2010PropOp30
 70
     1
102
RTVSPost2010Prop31
280
     0
102
RTVSPost2010PropOp31
 70
     1
102
RTVSPost2010Prop32
280
     0
102
RTVSPost2010PropOp32
 70
     1
102
RTVSPost2010Prop33
280
     0
102
RTVSPost2010PropOp33
 70
     1
102
RTVSPost2010Prop34
280
     0
102
RTVSPost2010PropOp34
 70
     1
102
RTVSPost2010Prop35
280
     0
102
RTVSPost2010PropOp35
 70
     1
102
RTVSPost2010Prop36
280
     0
102
RTVSPost2010PropOp36
 70
     1
102
RTVSPost2010Prop37
 90
       50
102
RTVSPost2010PropOp37
 70
     1
102
RTVSPost2010Prop38
140
0.0
102
RTVSPost2010PropOp38
 70
     1
102
RTVSPost2010Prop39
140
1.0
102
RTVSPost2010PropOp39
 70
     1
102
RTVSPost2010Prop40
 90
        0
102
RTVSPost2010PropOp40
 70
     1
102
RTVSPost2010Prop41ColorIndex
 90
       18
102
RTVSPost2010Prop41ColorRGB
 90
        0
102
RTVSPost2010PropOp41
 70
     1
102
RTVSPost2010Prop42
 90
       50
102
RTVSPost2010PropOp42
 70
     1
102
RTVSPost2010Prop43
 90
        3
102
RTVSPost2010PropOp43
 70
     1
102
RTVSPost2010Prop44ColorIndex
 90
        5
102
RTVSPost2010Prop44ColorRGB
 90
      255
102
RTVSPost2010PropOp44
 70
     1
102
RTVSPost2010Prop45
280
     0
102
RTVSPost2010PropOp45
 70
     1
102
RTVSPost2010Prop46
 90
       50
102
RTVSPost2010PropOp46
 70
     1
102
RTVSPost2010Prop47
 90
       50
102
RTVSPost2010PropOp47
 70
     1
102
RTVSPost2010Prop48
 90
       50
102
RTVSPost2010PropOp48
 70
     1
102
RTVSPost2010Prop49
280
     0
102
RTVSPost2010PropOp49
 70
     1
102
RTVSPost2010Prop50
 90
       50
102
RTVSPost2010PropOp50
 70
     1
102
RTVSPost2010Prop51ColorIndex
 90
      256
102
RTVSPost2010Prop51ColorRGB
 90
-16777216
102
RTVSPost2010PropOp51
 70
     0
102
RTVSPost2010Prop52
140
1.0
102
RTVSPost2010PropOp52
 70
     0
102
RTVSPost2010Prop53
 90
        2
102
RTVSPost2010PropOp53
 70
     1
102
RTVSPost2010Prop54
  1
strokes_ogs.tif
102
RTVSPost2010PropOp54
 70
     1
102
RTVSPost2010Prop55
280
     0
102
RTVSPost2010PropOp55
 70
     1
102
RTVSPost2010Prop56
140
1.0
102
RTVSPost2010PropOp56
 70
     1
102
RTVSPost2010Prop57
140
1.0
102
RTVSPost2010PropOp57
 70
     1
102
RTVSPropertyOp0
 70
     1
102
RTVSPropertyOp1
 70
     1
102
RTVSPropertyOp2
 70
     1
102
RTVSPropertyOp3
 70
     1
102
RTVSPropertyOp4
 70
     1
102
RTVSPropertyOp5
 70
     1
102
RTVSPropertyOp6
 70
     1
102
RTVSPropertyOp7
 70
     1
102
RTVSPropertyOp8
 70
     1
102
RTVSPropertyOp9
 70
     1
102
RTVSPropertyOp10
 70
     1
102
RTVSPropertyOp11
 70
     1
102
RTVSPropertyOp12
 70
     1
102
RTVSPropertyOp13
 70
     1
102
RTVSPropertyOp14
 70
     1
102
RTVSPropertyOp15
 70
     1
102
RTVSPropertyOp16
 70
     1
102
RTVSPropertyOp17
 70
     1
102
RTVSPropertyOp18
 70
     1
102
RTVSPropertyOp19
 70
     1
102
RTVSPropertyOp20
 70
     1
102
RTVSPropertyOp21
 70
     1
102
RTVSPropertyOp22
 70
     1
102
RTVSPropertyOp23
 70
     1
102
RTVSPropertyOp24
 70
     1
102
RTVSPropertyOp25
 70
     1
102
RTVSPropertyOp26
 70
     1
102
RTVSPropertyOp27
 70
     1
102
RTVSPropertyOp28
 70
     1
102
RTVSPropertyOp29
 70
     1
102
RTVSPropertyOp30
 70
     1
102
RTVSPropertyOp31
 70
     1
102
RTVSPropertyOp32
 70
     1
102
RTVSPropertyOp33
 70
     1
102
RTVSPropertyOp34
 70
     1
102
RTVSPropertyOp35
 70
     1
102
RTVSPropertyOp36
 70
     1
102
RTVSPropertyOp37
 70
     1
102
RTVSPropertyOp38
 70
     1
102
RTVSPropertyOp39
 70
     1
102
RTVSPropertyOp40
 70
     1
102
RTVSPropertyOp41
 70
     1
102
RTVSPropertyOp42
 70
     1
102
RTVSPropertyOp43
 70
     1
102
RTVSPropertyOp44
 70
     1
102
RTVSPropertyOp45
 70
     1
102
RTVSPropertyOp46
 70
     1
102
RTVSPropertyOp47
 70
     1
102
RTVSPropertyOp48
 70
     1
102
RTVSPropertyOp49
 70
     1
102
RTVSPropertyOp50
 70
     1
102
RTVSPropertyOp51
 70
     0
102
RTVSPropertyOp52
 70
     0
102
RTVSPropertyOp53
 70
     1
102
RTVSPropertyOp54
 70
     1
102
RTVSPropertyOp55
 70
     1
102
RTVSPropertyOp56
 70
     1
102
RTVSPropertyOp57
 70
     1
102
RTVSPropertyOp58
 70
     1
102
RTVSPropertyOp59
 70
     1
102
RTVSPropertyOp60
 70
     1
102
RTVSPropertyOp61
 70
     1
102
RTVSPropertyOp62
 70
     1
  0
XRECORD
  5
1377
102
{ACAD_REACTORS
330
1376
102
}
330
1376
100
AcDbXrecord
280
     1
102
RTVSPost2010Prop28
280
     0
102
RTVSPost2010PropOp28
 70
     1
102
RTVSPost2010Prop29
280
     1
102
RTVSPost2010PropOp29
 70
     1
102
RTVSPost2010Prop30
280
     1
102
RTVSPost2010PropOp30
 70
     1
102
RTVSPost2010Prop31
280
     0
102
RTVSPost2010PropOp31
 70
     1
102
RTVSPost2010Prop32
280
     0
102
RTVSPost2010PropOp32
 70
     1
102
RTVSPost2010Prop33
280
     0
102
RTVSPost2010PropOp33
 70
     1
102
RTVSPost2010Prop34
280
     0
102
RTVSPost2010PropOp34
 70
     1
102
RTVSPost2010Prop35
280
     0
102
RTVSPost2010PropOp35
 70
     1
102
RTVSPost2010Prop36
280
     0
102
RTVSPost2010PropOp36
 70
     1
102
RTVSPost2010Prop37
 90
       50
102
RTVSPost2010PropOp37
 70
     1
102
RTVSPost2010Prop38
140
0.0
102
RTVSPost2010PropOp38
 70
     1
102
RTVSPost2010Prop39
140
1.0
102
RTVSPost2010PropOp39
 70
     1
102
RTVSPost2010Prop40
 90
        0
102
RTVSPost2010PropOp40
 70
     1
102
RTVSPost2010Prop41ColorIndex
 90
       18
102
RTVSPost2010Prop41ColorRGB
 90
        0
102
RTVSPost2010PropOp41
 70
     1
102
RTVSPost2010Prop42
 90
       50
102
RTVSPost2010PropOp42
 70
     1
102
RTVSPost2010Prop43
 90
        3
102
RTVSPost2010PropOp43
 70
     1
102
RTVSPost2010Prop44ColorIndex
 90
        5
102
RTVSPost2010Prop44ColorRGB
 90
      255
102
RTVSPost2010PropOp44
 70
     1
102
RTVSPost2010Prop45
280
     0
102
RTVSPost2010PropOp45
 70
     1
102
RTVSPost2010Prop46
 90
       50
102
RTVSPost2010PropOp46
 70
     1
102
RTVSPost2010Prop47
 90
       50
102
RTVSPost2010PropOp47
 70
     1
102
RTVSPost2010Prop48
 90
       50
102
RTVSPost2010PropOp48
 70
     1
102
RTVSPost2010Prop49
280
     0
102
RTVSPost2010PropOp49
 70
     1
102
RTVSPost2010Prop50
 90
       50
102
RTVSPost2010PropOp50
 70
     1
102
RTVSPost2010Prop51ColorIndex
 90
      256
102
RTVSPost2010Prop51ColorRGB
 90
-16777216
102
RTVSPost2010PropOp51
 70
     0
102
RTVSPost2010Prop52
140
1.0
102
RTVSPost2010PropOp52
 70
     0
102
RTVSPost2010Prop53
 90
        2
102
RTVSPost2010PropOp53
 70
     1
102
RTVSPost2010Prop54
  1
strokes_ogs.tif
102
RTVSPost2010PropOp54
 70
     1
102
RTVSPost2010Prop55
280
     0
102
RTVSPost2010PropOp55
 70
     1
102
RTVSPost2010Prop56
140
1.0
102
RTVSPost2010PropOp56
 70
     1
102
RTVSPost2010Prop57
140
1.0
102
RTVSPost2010PropOp57
 70
     1
102
RTVSPropertyOp0
 70
     1
102
RTVSPropertyOp1
 70
     1
102
RTVSPropertyOp2
 70
     1
102
RTVSPropertyOp3
 70
     1
102
RTVSPropertyOp4
 70
     1
102
RTVSPropertyOp5
 70
     1
102
RTVSPropertyOp6
 70
     1
102
RTVSPropertyOp7
 70
     1
102
RTVSPropertyOp8
 70
     1
102
RTVSPropertyOp9
 70
     1
102
RTVSPropertyOp10
 70
     1
102
RTVSPropertyOp11
 70
     1
102
RTVSPropertyOp12
 70
     1
102
RTVSPropertyOp13
 70
     1
102
RTVSPropertyOp14
 70
     1
102
RTVSPropertyOp15
 70
     1
102
RTVSPropertyOp16
 70
     1
102
RTVSPropertyOp17
 70
     1
102
RTVSPropertyOp18
 70
     1
102
RTVSPropertyOp19
 70
     1
102
RTVSPropertyOp20
 70
     1
102
RTVSPropertyOp21
 70
     1
102
RTVSPropertyOp22
 70
     1
102
RTVSPropertyOp23
 70
     1
102
RTVSPropertyOp24
 70
     1
102
RTVSPropertyOp25
 70
     1
102
RTVSPropertyOp26
 70
     1
102
RTVSPropertyOp27
 70
     1
102
RTVSPropertyOp28
 70
     1
102
RTVSPropertyOp29
 70
     1
102
RTVSPropertyOp30
 70
     1
102
RTVSPropertyOp31
 70
     1
102
RTVSPropertyOp32
 70
     1
102
RTVSPropertyOp33
 70
     1
102
RTVSPropertyOp34
 70
     1
102
RTVSPropertyOp35
 70
     1
102
RTVSPropertyOp36
 70
     1
102
RTVSPropertyOp37
 70
     1
102
RTVSPropertyOp38
 70
     1
102
RTVSPropertyOp39
 70
     1
102
RTVSPropertyOp40
 70
     1
102
RTVSPropertyOp41
 70
     1
102
RTVSPropertyOp42
 70
     1
102
RTVSPropertyOp43
 70
     1
102
RTVSPropertyOp44
 70
     1
102
RTVSPropertyOp45
 70
     1
102
RTVSPropertyOp46
 70
     1
102
RTVSPropertyOp47
 70
     1
102
RTVSPropertyOp48
 70
     1
102
RTVSPropertyOp49
 70
     1
102
RTVSPropertyOp50
 70
     1
102
RTVSPropertyOp51
 70
     0
102
RTVSPropertyOp52
 70
     0
102
RTVSPropertyOp53
 70
     1
102
RTVSPropertyOp54
 70
     1
102
RTVSPropertyOp55
 70
     1
102
RTVSPropertyOp56
 70
     1
102
RTVSPropertyOp57
 70
     1
102
RTVSPropertyOp58
 70
     1
102
RTVSPropertyOp59
 70
     1
102
RTVSPropertyOp60
 70
     1
102
RTVSPropertyOp61
 70
     1
102
RTVSPropertyOp62
 70
     1
  0
XRECORD
  5
1393
102
{ACAD_REACTORS
330
1392
102
}
330
1392
100
AcDbXrecord
280
     1
102
RTVSPost2010Prop28
280
     0
102
RTVSPost2010PropOp28
 70
     0
102
RTVSPost2010Prop29
280
     1
102
RTVSPost2010PropOp29
 70
     0
102
RTVSPost2010Prop30
280
     1
102
RTVSPost2010PropOp30
 70
     0
102
RTVSPost2010Prop31
280
     0
102
RTVSPost2010PropOp31
 70
     0
102
RTVSPost2010Prop32
280
     0
102
RTVSPost2010PropOp32
 70
     0
102
RTVSPost2010Prop33
280
     0
102
RTVSPost2010PropOp33
 70
     0
102
RTVSPost2010Prop34
280
     0
102
RTVSPost2010PropOp34
 70
     0
102
RTVSPost2010Prop35
280
     0
102
RTVSPost2010PropOp35
 70
     0
102
RTVSPost2010Prop36
280
     0
102
RTVSPost2010PropOp36
 70
     0
102
RTVSPost2010Prop37
 90
       50
102
RTVSPost2010PropOp37
 70
     0
102
RTVSPost2010Prop38
140
0.0
102
RTVSPost2010PropOp38
 70
     0
102
RTVSPost2010Prop39
140
1.0
102
RTVSPost2010PropOp39
 70
     0
102
RTVSPost2010Prop40
 90
        0
102
RTVSPost2010PropOp40
 70
     0
102
RTVSPost2010Prop41ColorIndex
 90
       18
102
RTVSPost2010Prop41ColorRGB
 90
        0
102
RTVSPost2010PropOp41
 70
     0
102
RTVSPost2010Prop42
 90
       50
102
RTVSPost2010PropOp42
 70
     0
102
RTVSPost2010Prop43
 90
        3
102
RTVSPost2010PropOp43
 70
     0
102
RTVSPost2010Prop44ColorIndex
 90
        5
102
RTVSPost2010Prop44ColorRGB
 90
      255
102
RTVSPost2010PropOp44
 70
     0
102
RTVSPost2010Prop45
280
     0
102
RTVSPost2010PropOp45
 70
     0
102
RTVSPost2010Prop46
 90
       50
102
RTVSPost2010PropOp46
 70
     0
102
RTVSPost2010Prop47
 90
       50
102
RTVSPost2010PropOp47
 70
     0
102
RTVSPost2010Prop48
 90
       50
102
RTVSPost2010PropOp48
 70
     0
102
RTVSPost2010Prop49
280
     0
102
RTVSPost2010PropOp49
 70
     0
102
RTVSPost2010Prop50
 90
       50
102
RTVSPost2010PropOp50
 70
     0
102
RTVSPost2010Prop51ColorIndex
 90
      256
102
RTVSPost2010Prop51ColorRGB
 90
-16777216
102
RTVSPost2010PropOp51
 70
     0
102
RTVSPost2010Prop52
140
1.0
102
RTVSPost2010PropOp52
 70
     0
102
RTVSPost2010Prop53
 90
        2
102
RTVSPost2010PropOp53
 70
     0
102
RTVSPost2010Prop54
  1
strokes_ogs.tif
102
RTVSPost2010PropOp54
 70
     0
102
RTVSPost2010Prop55
280
     0
102
RTVSPost2010PropOp55
 70
     0
102
RTVSPost2010Prop56
140
1.0
102
RTVSPost2010PropOp56
 70
     0
102
RTVSPost2010Prop57
140
1.0
102
RTVSPost2010PropOp57
 70
     0
102
RTVSPropertyOp0
 70
     0
102
RTVSPropertyOp1
 70
     0
102
RTVSPropertyOp2
 70
     0
102
RTVSPropertyOp3
 70
     0
102
RTVSPropertyOp4
 70
     0
102
RTVSPropertyOp5
 70
     0
102
RTVSPropertyOp6
 70
     0
102
RTVSPropertyOp7
 70
     0
102
RTVSPropertyOp8
 70
     0
102
RTVSPropertyOp9
 70
     0
102
RTVSPropertyOp10
 70
     0
102
RTVSPropertyOp11
 70
     0
102
RTVSPropertyOp12
 70
     0
102
RTVSPropertyOp13
 70
     0
102
RTVSPropertyOp14
 70
     2
102
RTVSPropertyOp15
 70
     0
102
RTVSPropertyOp16
 70
     0
102
RTVSPropertyOp17
 70
     0
102
RTVSPropertyOp18
 70
     0
102
RTVSPropertyOp19
 70
     0
102
RTVSPropertyOp20
 70
     0
102
RTVSPropertyOp21
 70
     0
102
RTVSPropertyOp22
 70
     0
102
RTVSPropertyOp23
 70
     0
102
RTVSPropertyOp24
 70
     0
102
RTVSPropertyOp25
 70
     0
102
RTVSPropertyOp26
 70
     0
102
RTVSPropertyOp27
 70
     0
102
RTVSPropertyOp28
 70
     0
102
RTVSPropertyOp29
 70
     0
102
RTVSPropertyOp30
 70
     0
102
RTVSPropertyOp31
 70
     0
102
RTVSPropertyOp32
 70
     0
102
RTVSPropertyOp33
 70
     0
102
RTVSPropertyOp34
 70
     0
102
RTVSPropertyOp35
 70
     0
102
RTVSPropertyOp36
 70
     0
102
RTVSPropertyOp37
 70
     0
102
RTVSPropertyOp38
 70
     0
102
RTVSPropertyOp39
 70
     0
102
RTVSPropertyOp40
 70
     0
102
RTVSPropertyOp41
 70
     0
102
RTVSPropertyOp42
 70
     0
102
RTVSPropertyOp43
 70
     0
102
RTVSPropertyOp44
 70
     0
102
RTVSPropertyOp45
 70
     0
102
RTVSPropertyOp46
 70
     0
102
RTVSPropertyOp47
 70
     0
102
RTVSPropertyOp48
 70
     0
102
RTVSPropertyOp49
 70
     0
102
RTVSPropertyOp50
 70
     0
102
RTVSPropertyOp51
 70
     0
102
RTVSPropertyOp52
 70
     0
102
RTVSPropertyOp53
 70
     0
102
RTVSPropertyOp54
 70
     0
102
RTVSPropertyOp55
 70
     0
102
RTVSPropertyOp56
 70
     0
102
RTVSPropertyOp57
 70
     0
102
RTVSPropertyOp58
 70
     0
102
RTVSPropertyOp59
 70
     0
102
RTVSPropertyOp60
 70
     0
102
RTVSPropertyOp61
 70
     0
102
RTVSPropertyOp62
 70
     0
  0
XRECORD
  5
1383
102
{ACAD_REACTORS
330
1382
102
}
330
1382
100
AcDbXrecord
280
     1
102
RTVSPost2010Prop28
280
     0
102
RTVSPost2010PropOp28
 70
     1
102
RTVSPost2010Prop29
280
     1
102
RTVSPost2010PropOp29
 70
     1
102
RTVSPost2010Prop30
280
     1
102
RTVSPost2010PropOp30
 70
     1
102
RTVSPost2010Prop31
280
     0
102
RTVSPost2010PropOp31
 70
     1
102
RTVSPost2010Prop32
280
     0
102
RTVSPost2010PropOp32
 70
     1
102
RTVSPost2010Prop33
280
     0
102
RTVSPost2010PropOp33
 70
     1
102
RTVSPost2010Prop34
280
     0
102
RTVSPost2010PropOp34
 70
     1
102
RTVSPost2010Prop35
280
     0
102
RTVSPost2010PropOp35
 70
     1
102
RTVSPost2010Prop36
280
     0
102
RTVSPost2010PropOp36
 70
     1
102
RTVSPost2010Prop37
 90
       50
102
RTVSPost2010PropOp37
 70
     1
102
RTVSPost2010Prop38
140
0.0
102
RTVSPost2010PropOp38
 70
     1
102
RTVSPost2010Prop39
140
1.0
102
RTVSPost2010PropOp39
 70
     1
102
RTVSPost2010Prop40
 90
        0
102
RTVSPost2010PropOp40
 70
     1
102
RTVSPost2010Prop41ColorIndex
 90
       18
102
RTVSPost2010Prop41ColorRGB
 90
        0
102
RTVSPost2010PropOp41
 70
     1
102
RTVSPost2010Prop42
 90
       50
102
RTVSPost2010PropOp42
 70
     1
102
RTVSPost2010Prop43
 90
        3
102
RTVSPost2010PropOp43
 70
     1
102
RTVSPost2010Prop44ColorIndex
 90
        5
102
RTVSPost2010Prop44ColorRGB
 90
      255
102
RTVSPost2010PropOp44
 70
     1
102
RTVSPost2010Prop45
280
     0
102
RTVSPost2010PropOp45
 70
     1
102
RTVSPost2010Prop46
 90
       50
102
RTVSPost2010PropOp46
 70
     1
102
RTVSPost2010Prop47
 90
       50
102
RTVSPost2010PropOp47
 70
     1
102
RTVSPost2010Prop48
 90
       50
102
RTVSPost2010PropOp48
 70
     1
102
RTVSPost2010Prop49
280
     0
102
RTVSPost2010PropOp49
 70
     1
102
RTVSPost2010Prop50
 90
       50
102
RTVSPost2010PropOp50
 70
     1
102
RTVSPost2010Prop51ColorIndex
 90
      256
102
RTVSPost2010Prop51ColorRGB
 90
-16777216
102
RTVSPost2010PropOp51
 70
     0
102
RTVSPost2010Prop52
140
1.0
102
RTVSPost2010PropOp52
 70
     0
102
RTVSPost2010Prop53
 90
        2
102
RTVSPost2010PropOp53
 70
     1
102
RTVSPost2010Prop54
  1
strokes_ogs.tif
102
RTVSPost2010PropOp54
 70
     1
102
RTVSPost2010Prop55
280
     0
102
RTVSPost2010PropOp55
 70
     1
102
RTVSPost2010Prop56
140
1.0
102
RTVSPost2010PropOp56
 70
     1
102
RTVSPost2010Prop57
140
1.0
102
RTVSPost2010PropOp57
 70
     1
102
RTVSPropertyOp0
 70
     1
102
RTVSPropertyOp1
 70
     1
102
RTVSPropertyOp2
 70
     1
102
RTVSPropertyOp3
 70
     1
102
RTVSPropertyOp4
 70
     1
102
RTVSPropertyOp5
 70
     1
102
RTVSPropertyOp6
 70
     1
102
RTVSPropertyOp7
 70
     1
102
RTVSPropertyOp8
 70
     1
102
RTVSPropertyOp9
 70
     1
102
RTVSPropertyOp10
 70
     1
102
RTVSPropertyOp11
 70
     1
102
RTVSPropertyOp12
 70
     1
102
RTVSPropertyOp13
 70
     1
102
RTVSPropertyOp14
 70
     1
102
RTVSPropertyOp15
 70
     1
102
RTVSPropertyOp16
 70
     1
102
RTVSPropertyOp17
 70
     1
102
RTVSPropertyOp18
 70
     1
102
RTVSPropertyOp19
 70
     1
102
RTVSPropertyOp20
 70
     1
102
RTVSPropertyOp21
 70
     1
102
RTVSPropertyOp22
 70
     1
102
RTVSPropertyOp23
 70
     1
102
RTVSPropertyOp24
 70
     1
102
RTVSPropertyOp25
 70
     1
102
RTVSPropertyOp26
 70
     1
102
RTVSPropertyOp27
 70
     1
102
RTVSPropertyOp28
 70
     1
102
RTVSPropertyOp29
 70
     1
102
RTVSPropertyOp30
 70
     1
102
RTVSPropertyOp31
 70
     1
102
RTVSPropertyOp32
 70
     1
102
RTVSPropertyOp33
 70
     1
102
RTVSPropertyOp34
 70
     1
102
RTVSPropertyOp35
 70
     1
102
RTVSPropertyOp36
 70
     1
102
RTVSPropertyOp37
 70
     1
102
RTVSPropertyOp38
 70
     1
102
RTVSPropertyOp39
 70
     1
102
RTVSPropertyOp40
 70
     1
102
RTVSPropertyOp41
 70
     1
102
RTVSPropertyOp42
 70
     1
102
RTVSPropertyOp43
 70
     1
102
RTVSPropertyOp44
 70
     1
102
RTVSPropertyOp45
 70
     1
102
RTVSPropertyOp46
 70
     1
102
RTVSPropertyOp47
 70
     1
102
RTVSPropertyOp48
 70
     1
102
RTVSPropertyOp49
 70
     1
102
RTVSPropertyOp50
 70
     1
102
RTVSPropertyOp51
 70
     0
102
RTVSPropertyOp52
 70
     0
102
RTVSPropertyOp53
 70
     1
102
RTVSPropertyOp54
 70
     1
102
RTVSPropertyOp55
 70
     1
102
RTVSPropertyOp56
 70
     1
102
RTVSPropertyOp57
 70
     1
102
RTVSPropertyOp58
 70
     1
102
RTVSPropertyOp59
 70
     1
102
RTVSPropertyOp60
 70
     1
102
RTVSPropertyOp61
 70
     1
102
RTVSPropertyOp62
 70
     1
  0
XRECORD
  5
1395
102
{ACAD_REACTORS
330
1394
102
}
330
1394
100
AcDbXrecord
280
     1
102
RTVSPost2010Prop28
280
     0
102
RTVSPost2010PropOp28
 70
     0
102
RTVSPost2010Prop29
280
     1
102
RTVSPost2010PropOp29
 70
     0
102
RTVSPost2010Prop30
280
     1
102
RTVSPost2010PropOp30
 70
     0
102
RTVSPost2010Prop31
280
     0
102
RTVSPost2010PropOp31
 70
     0
102
RTVSPost2010Prop32
280
     0
102
RTVSPost2010PropOp32
 70
     0
102
RTVSPost2010Prop33
280
     0
102
RTVSPost2010PropOp33
 70
     0
102
RTVSPost2010Prop34
280
     0
102
RTVSPost2010PropOp34
 70
     0
102
RTVSPost2010Prop35
280
     0
102
RTVSPost2010PropOp35
 70
     0
102
RTVSPost2010Prop36
280
     0
102
RTVSPost2010PropOp36
 70
     0
102
RTVSPost2010Prop37
 90
       50
102
RTVSPost2010PropOp37
 70
     0
102
RTVSPost2010Prop38
140
0.0
102
RTVSPost2010PropOp38
 70
     0
102
RTVSPost2010Prop39
140
1.0
102
RTVSPost2010PropOp39
 70
     0
102
RTVSPost2010Prop40
 90
        0
102
RTVSPost2010PropOp40
 70
     0
102
RTVSPost2010Prop41ColorIndex
 90
       18
102
RTVSPost2010Prop41ColorRGB
 90
        0
102
RTVSPost2010PropOp41
 70
     0
102
RTVSPost2010Prop42
 90
       50
102
RTVSPost2010PropOp42
 70
     0
102
RTVSPost2010Prop43
 90
        3
102
RTVSPost2010PropOp43
 70
     0
102
RTVSPost2010Prop44ColorIndex
 90
        5
102
RTVSPost2010Prop44ColorRGB
 90
      255
102
RTVSPost2010PropOp44
 70
     0
102
RTVSPost2010Prop45
280
     0
102
RTVSPost2010PropOp45
 70
     0
102
RTVSPost2010Prop46
 90
       50
102
RTVSPost2010PropOp46
 70
     0
102
RTVSPost2010Prop47
 90
       50
102
RTVSPost2010PropOp47
 70
     0
102
RTVSPost2010Prop48
 90
       50
102
RTVSPost2010PropOp48
 70
     0
102
RTVSPost2010Prop49
280
     0
102
RTVSPost2010PropOp49
 70
     0
102
RTVSPost2010Prop50
 90
       50
102
RTVSPost2010PropOp50
 70
     0
102
RTVSPost2010Prop51ColorIndex
 90
      256
102
RTVSPost2010Prop51ColorRGB
 90
-16777216
102
RTVSPost2010PropOp51
 70
     0
102
RTVSPost2010Prop52
140
1.0
102
RTVSPost2010PropOp52
 70
     0
102
RTVSPost2010Prop53
 90
        2
102
RTVSPost2010PropOp53
 70
     0
102
RTVSPost2010Prop54
  1
strokes_ogs.tif
102
RTVSPost2010PropOp54
 70
     0
102
RTVSPost2010Prop55
280
     0
102
RTVSPost2010PropOp55
 70
     0
102
RTVSPost2010Prop56
140
1.0
102
RTVSPost2010PropOp56
 70
     0
102
RTVSPost2010Prop57
140
1.0
102
RTVSPost2010PropOp57
 70
     0
102
RTVSPropertyOp0
 70
     0
102
RTVSPropertyOp1
 70
     0
102
RTVSPropertyOp2
 70
     0
102
RTVSPropertyOp3
 70
     0
102
RTVSPropertyOp4
 70
     0
102
RTVSPropertyOp5
 70
     0
102
RTVSPropertyOp6
 70
     0
102
RTVSPropertyOp7
 70
     0
102
RTVSPropertyOp8
 70
     0
102
RTVSPropertyOp9
 70
     0
102
RTVSPropertyOp10
 70
     0
102
RTVSPropertyOp11
 70
     0
102
RTVSPropertyOp12
 70
     0
102
RTVSPropertyOp13
 70
     0
102
RTVSPropertyOp14
 70
     2
102
RTVSPropertyOp15
 70
     0
102
RTVSPropertyOp16
 70
     0
102
RTVSPropertyOp17
 70
     0
102
RTVSPropertyOp18
 70
     0
102
RTVSPropertyOp19
 70
     0
102
RTVSPropertyOp20
 70
     0
102
RTVSPropertyOp21
 70
     0
102
RTVSPropertyOp22
 70
     0
102
RTVSPropertyOp23
 70
     0
102
RTVSPropertyOp24
 70
     0
102
RTVSPropertyOp25
 70
     0
102
RTVSPropertyOp26
 70
     0
102
RTVSPropertyOp27
 70
     0
102
RTVSPropertyOp28
 70
     0
102
RTVSPropertyOp29
 70
     0
102
RTVSPropertyOp30
 70
     0
102
RTVSPropertyOp31
 70
     0
102
RTVSPropertyOp32
 70
     0
102
RTVSPropertyOp33
 70
     0
102
RTVSPropertyOp34
 70
     0
102
RTVSPropertyOp35
 70
     0
102
RTVSPropertyOp36
 70
     0
102
RTVSPropertyOp37
 70
     0
102
RTVSPropertyOp38
 70
     0
102
RTVSPropertyOp39
 70
     0
102
RTVSPropertyOp40
 70
     0
102
RTVSPropertyOp41
 70
     0
102
RTVSPropertyOp42
 70
     0
102
RTVSPropertyOp43
 70
     0
102
RTVSPropertyOp44
 70
     0
102
RTVSPropertyOp45
 70
     0
102
RTVSPropertyOp46
 70
     0
102
RTVSPropertyOp47
 70
     0
102
RTVSPropertyOp48
 70
     0
102
RTVSPropertyOp49
 70
     0
102
RTVSPropertyOp50
 70
     0
102
RTVSPropertyOp51
 70
     0
102
RTVSPropertyOp52
 70
     0
102
RTVSPropertyOp53
 70
     0
102
RTVSPropertyOp54
 70
     0
102
RTVSPropertyOp55
 70
     0
102
RTVSPropertyOp56
 70
     0
102
RTVSPropertyOp57
 70
     0
102
RTVSPropertyOp58
 70
     0
102
RTVSPropertyOp59
 70
     0
102
RTVSPropertyOp60
 70
     0
102
RTVSPropertyOp61
 70
     0
102
RTVSPropertyOp62
 70
     0
  0
XRECORD
  5
137B
102
{ACAD_REACTORS
330
137A
102
}
330
137A
100
AcDbXrecord
280
     1
102
RTVSPost2010Prop28
280
     0
102
RTVSPost2010PropOp28
 70
     1
102
RTVSPost2010Prop29
280
     1
102
RTVSPost2010PropOp29
 70
     1
102
RTVSPost2010Prop30
280
     1
102
RTVSPost2010PropOp30
 70
     1
102
RTVSPost2010Prop31
280
     0
102
RTVSPost2010PropOp31
 70
     1
102
RTVSPost2010Prop32
280
     0
102
RTVSPost2010PropOp32
 70
     1
102
RTVSPost2010Prop33
280
     0
102
RTVSPost2010PropOp33
 70
     1
102
RTVSPost2010Prop34
280
     0
102
RTVSPost2010PropOp34
 70
     1
102
RTVSPost2010Prop35
280
     0
102
RTVSPost2010PropOp35
 70
     1
102
RTVSPost2010Prop36
280
     0
102
RTVSPost2010PropOp36
 70
     1
102
RTVSPost2010Prop37
 90
       50
102
RTVSPost2010PropOp37
 70
     1
102
RTVSPost2010Prop38
140
0.0
102
RTVSPost2010PropOp38
 70
     1
102
RTVSPost2010Prop39
140
1.0
102
RTVSPost2010PropOp39
 70
     1
102
RTVSPost2010Prop40
 90
        0
102
RTVSPost2010PropOp40
 70
     1
102
RTVSPost2010Prop41ColorIndex
 90
       18
102
RTVSPost2010Prop41ColorRGB
 90
        0
102
RTVSPost2010PropOp41
 70
     1
102
RTVSPost2010Prop42
 90
       50
102
RTVSPost2010PropOp42
 70
     1
102
RTVSPost2010Prop43
 90
        3
102
RTVSPost2010PropOp43
 70
     1
102
RTVSPost2010Prop44ColorIndex
 90
        5
102
RTVSPost2010Prop44ColorRGB
 90
      255
102
RTVSPost2010PropOp44
 70
     1
102
RTVSPost2010Prop45
280
     0
102
RTVSPost2010PropOp45
 70
     1
102
RTVSPost2010Prop46
 90
       50
102
RTVSPost2010PropOp46
 70
     1
102
RTVSPost2010Prop47
 90
       50
102
RTVSPost2010PropOp47
 70
     1
102
RTVSPost2010Prop48
 90
       50
102
RTVSPost2010PropOp48
 70
     1
102
RTVSPost2010Prop49
280
     0
102
RTVSPost2010PropOp49
 70
     1
102
RTVSPost2010Prop50
 90
       50
102
RTVSPost2010PropOp50
 70
     1
102
RTVSPost2010Prop51ColorIndex
 90
      256
102
RTVSPost2010Prop51ColorRGB
 90
-16777216
102
RTVSPost2010PropOp51
 70
     0
102
RTVSPost2010Prop52
140
1.0
102
RTVSPost2010PropOp52
 70
     0
102
RTVSPost2010Prop53
 90
        2
102
RTVSPost2010PropOp53
 70
     1
102
RTVSPost2010Prop54
  1
strokes_ogs.tif
102
RTVSPost2010PropOp54
 70
     1
102
RTVSPost2010Prop55
280
     0
102
RTVSPost2010PropOp55
 70
     1
102
RTVSPost2010Prop56
140
1.0
102
RTVSPost2010PropOp56
 70
     1
102
RTVSPost2010Prop57
140
1.0
102
RTVSPost2010PropOp57
 70
     1
102
RTVSPropertyOp0
 70
     1
102
RTVSPropertyOp1
 70
     1
102
RTVSPropertyOp2
 70
     1
102
RTVSPropertyOp3
 70
     1
102
RTVSPropertyOp4
 70
     1
102
RTVSPropertyOp5
 70
     1
102
RTVSPropertyOp6
 70
     1
102
RTVSPropertyOp7
 70
     1
102
RTVSPropertyOp8
 70
     1
102
RTVSPropertyOp9
 70
     1
102
RTVSPropertyOp10
 70
     1
102
RTVSPropertyOp11
 70
     1
102
RTVSPropertyOp12
 70
     1
102
RTVSPropertyOp13
 70
     1
102
RTVSPropertyOp14
 70
     1
102
RTVSPropertyOp15
 70
     1
102
RTVSPropertyOp16
 70
     1
102
RTVSPropertyOp17
 70
     1
102
RTVSPropertyOp18
 70
     1
102
RTVSPropertyOp19
 70
     1
102
RTVSPropertyOp20
 70
     1
102
RTVSPropertyOp21
 70
     1
102
RTVSPropertyOp22
 70
     1
102
RTVSPropertyOp23
 70
     1
102
RTVSPropertyOp24
 70
     1
102
RTVSPropertyOp25
 70
     1
102
RTVSPropertyOp26
 70
     1
102
RTVSPropertyOp27
 70
     1
102
RTVSPropertyOp28
 70
     1
102
RTVSPropertyOp29
 70
     1
102
RTVSPropertyOp30
 70
     1
102
RTVSPropertyOp31
 70
     1
102
RTVSPropertyOp32
 70
     1
102
RTVSPropertyOp33
 70
     1
102
RTVSPropertyOp34
 70
     1
102
RTVSPropertyOp35
 70
     1
102
RTVSPropertyOp36
 70
     1
102
RTVSPropertyOp37
 70
     1
102
RTVSPropertyOp38
 70
     1
102
RTVSPropertyOp39
 70
     1
102
RTVSPropertyOp40
 70
     1
102
RTVSPropertyOp41
 70
     1
102
RTVSPropertyOp42
 70
     1
102
RTVSPropertyOp43
 70
     1
102
RTVSPropertyOp44
 70
     1
102
RTVSPropertyOp45
 70
     1
102
RTVSPropertyOp46
 70
     1
102
RTVSPropertyOp47
 70
     1
102
RTVSPropertyOp48
 70
     1
102
RTVSPropertyOp49
 70
     1
102
RTVSPropertyOp50
 70
     1
102
RTVSPropertyOp51
 70
     0
102
RTVSPropertyOp52
 70
     0
102
RTVSPropertyOp53
 70
     1
102
RTVSPropertyOp54
 70
     1
102
RTVSPropertyOp55
 70
     1
102
RTVSPropertyOp56
 70
     1
102
RTVSPropertyOp57
 70
     1
102
RTVSPropertyOp58
 70
     1
102
RTVSPropertyOp59
 70
     1
102
RTVSPropertyOp60
 70
     1
102
RTVSPropertyOp61
 70
     1
102
RTVSPropertyOp62
 70
     1
  0
XRECORD
  5
1391
102
{ACAD_REACTORS
330
1390
102
}
330
1390
100
AcDbXrecord
280
     1
102
RTVSPost2010Prop28
280
     0
102
RTVSPost2010PropOp28
 70
     1
102
RTVSPost2010Prop29
280
     1
102
RTVSPost2010PropOp29
 70
     1
102
RTVSPost2010Prop30
280
     1
102
RTVSPost2010PropOp30
 70
     1
102
RTVSPost2010Prop31
280
     0
102
RTVSPost2010PropOp31
 70
     1
102
RTVSPost2010Prop32
280
     0
102
RTVSPost2010PropOp32
 70
     1
102
RTVSPost2010Prop33
280
     0
102
RTVSPost2010PropOp33
 70
     1
102
RTVSPost2010Prop34
280
     0
102
RTVSPost2010PropOp34
 70
     1
102
RTVSPost2010Prop35
280
     0
102
RTVSPost2010PropOp35
 70
     1
102
RTVSPost2010Prop36
280
     0
102
RTVSPost2010PropOp36
 70
     1
102
RTVSPost2010Prop37
 90
       50
102
RTVSPost2010PropOp37
 70
     1
102
RTVSPost2010Prop38
140
0.0
102
RTVSPost2010PropOp38
 70
     1
102
RTVSPost2010Prop39
140
1.0
102
RTVSPost2010PropOp39
 70
     1
102
RTVSPost2010Prop40
 90
        0
102
RTVSPost2010PropOp40
 70
     1
102
RTVSPost2010Prop41ColorIndex
 90
       18
102
RTVSPost2010Prop41ColorRGB
 90
        0
102
RTVSPost2010PropOp41
 70
     1
102
RTVSPost2010Prop42
 90
       50
102
RTVSPost2010PropOp42
 70
     1
102
RTVSPost2010Prop43
 90
        3
102
RTVSPost2010PropOp43
 70
     1
102
RTVSPost2010Prop44ColorIndex
 90
        5
102
RTVSPost2010Prop44ColorRGB
 90
      255
102
RTVSPost2010PropOp44
 70
     1
102
RTVSPost2010Prop45
280
     0
102
RTVSPost2010PropOp45
 70
     1
102
RTVSPost2010Prop46
 90
       50
102
RTVSPost2010PropOp46
 70
     1
102
RTVSPost2010Prop47
 90
       50
102
RTVSPost2010PropOp47
 70
     1
102
RTVSPost2010Prop48
 90
       50
102
RTVSPost2010PropOp48
 70
     1
102
RTVSPost2010Prop49
280
     0
102
RTVSPost2010PropOp49
 70
     1
102
RTVSPost2010Prop50
 90
       50
102
RTVSPost2010PropOp50
 70
     1
102
RTVSPost2010Prop51ColorIndex
 90
      256
102
RTVSPost2010Prop51ColorRGB
 90
-16777216
102
RTVSPost2010PropOp51
 70
     0
102
RTVSPost2010Prop52
140
1.0
102
RTVSPost2010PropOp52
 70
     0
102
RTVSPost2010Prop53
 90
        2
102
RTVSPost2010PropOp53
 70
     1
102
RTVSPost2010Prop54
  1
strokes_ogs.tif
102
RTVSPost2010PropOp54
 70
     1
102
RTVSPost2010Prop55
280
     0
102
RTVSPost2010PropOp55
 70
     1
102
RTVSPost2010Prop56
140
1.0
102
RTVSPost2010PropOp56
 70
     1
102
RTVSPost2010Prop57
140
1.0
102
RTVSPost2010PropOp57
 70
     1
102
RTVSPropertyOp0
 70
     1
102
RTVSPropertyOp1
 70
     1
102
RTVSPropertyOp2
 70
     1
102
RTVSPropertyOp3
 70
     1
102
RTVSPropertyOp4
 70
     1
102
RTVSPropertyOp5
 70
     1
102
RTVSPropertyOp6
 70
     1
102
RTVSPropertyOp7
 70
     1
102
RTVSPropertyOp8
 70
     1
102
RTVSPropertyOp9
 70
     1
102
RTVSPropertyOp10
 70
     1
102
RTVSPropertyOp11
 70
     1
102
RTVSPropertyOp12
 70
     1
102
RTVSPropertyOp13
 70
     1
102
RTVSPropertyOp14
 70
     1
102
RTVSPropertyOp15
 70
     1
102
RTVSPropertyOp16
 70
     1
102
RTVSPropertyOp17
 70
     1
102
RTVSPropertyOp18
 70
     1
102
RTVSPropertyOp19
 70
     1
102
RTVSPropertyOp20
 70
     1
102
RTVSPropertyOp21
 70
     1
102
RTVSPropertyOp22
 70
     1
102
RTVSPropertyOp23
 70
     1
102
RTVSPropertyOp24
 70
     1
102
RTVSPropertyOp25
 70
     1
102
RTVSPropertyOp26
 70
     1
102
RTVSPropertyOp27
 70
     1
102
RTVSPropertyOp28
 70
     1
102
RTVSPropertyOp29
 70
     1
102
RTVSPropertyOp30
 70
     1
102
RTVSPropertyOp31
 70
     1
102
RTVSPropertyOp32
 70
     1
102
RTVSPropertyOp33
 70
     1
102
RTVSPropertyOp34
 70
     1
102
RTVSPropertyOp35
 70
     1
102
RTVSPropertyOp36
 70
     1
102
RTVSPropertyOp37
 70
     1
102
RTVSPropertyOp38
 70
     1
102
RTVSPropertyOp39
 70
     1
102
RTVSPropertyOp40
 70
     1
102
RTVSPropertyOp41
 70
     1
102
RTVSPropertyOp42
 70
     1
102
RTVSPropertyOp43
 70
     1
102
RTVSPropertyOp44
 70
     1
102
RTVSPropertyOp45
 70
     1
102
RTVSPropertyOp46
 70
     1
102
RTVSPropertyOp47
 70
     1
102
RTVSPropertyOp48
 70
     1
102
RTVSPropertyOp49
 70
     1
102
RTVSPropertyOp50
 70
     1
102
RTVSPropertyOp51
 70
     0
102
RTVSPropertyOp52
 70
     0
102
RTVSPropertyOp53
 70
     1
102
RTVSPropertyOp54
 70
     1
102
RTVSPropertyOp55
 70
     1
102
RTVSPropertyOp56
 70
     1
102
RTVSPropertyOp57
 70
     1
102
RTVSPropertyOp58
 70
     1
102
RTVSPropertyOp59
 70
     1
102
RTVSPropertyOp60
 70
     1
102
RTVSPropertyOp61
 70
     1
102
RTVSPropertyOp62
 70
     1
  0
XRECORD
  5
138F
102
{ACAD_REACTORS
330
138E
102
}
330
138E
100
AcDbXrecord
280
     1
102
RTVSPost2010Prop28
280
     0
102
RTVSPost2010PropOp28
 70
     1
102
RTVSPost2010Prop29
280
     1
102
RTVSPost2010PropOp29
 70
     1
102
RTVSPost2010Prop30
280
     1
102
RTVSPost2010PropOp30
 70
     1
102
RTVSPost2010Prop31
280
     0
102
RTVSPost2010PropOp31
 70
     1
102
RTVSPost2010Prop32
280
     0
102
RTVSPost2010PropOp32
 70
     1
102
RTVSPost2010Prop33
280
     0
102
RTVSPost2010PropOp33
 70
     1
102
RTVSPost2010Prop34
280
     0
102
RTVSPost2010PropOp34
 70
     1
102
RTVSPost2010Prop35
280
     0
102
RTVSPost2010PropOp35
 70
     1
102
RTVSPost2010Prop36
280
     0
102
RTVSPost2010PropOp36
 70
     1
102
RTVSPost2010Prop37
 90
       50
102
RTVSPost2010PropOp37
 70
     1
102
RTVSPost2010Prop38
140
0.0
102
RTVSPost2010PropOp38
 70
     1
102
RTVSPost2010Prop39
140
1.0
102
RTVSPost2010PropOp39
 70
     1
102
RTVSPost2010Prop40
 90
        0
102
RTVSPost2010PropOp40
 70
     1
102
RTVSPost2010Prop41ColorIndex
 90
       18
102
RTVSPost2010Prop41ColorRGB
 90
        0
102
RTVSPost2010PropOp41
 70
     1
102
RTVSPost2010Prop42
 90
       50
102
RTVSPost2010PropOp42
 70
     1
102
RTVSPost2010Prop43
 90
        3
102
RTVSPost2010PropOp43
 70
     1
102
RTVSPost2010Prop44ColorIndex
 90
        5
102
RTVSPost2010Prop44ColorRGB
 90
      255
102
RTVSPost2010PropOp44
 70
     1
102
RTVSPost2010Prop45
280
     0
102
RTVSPost2010PropOp45
 70
     1
102
RTVSPost2010Prop46
 90
       50
102
RTVSPost2010PropOp46
 70
     1
102
RTVSPost2010Prop47
 90
       50
102
RTVSPost2010PropOp47
 70
     1
102
RTVSPost2010Prop48
 90
       50
102
RTVSPost2010PropOp48
 70
     1
102
RTVSPost2010Prop49
280
     0
102
RTVSPost2010PropOp49
 70
     1
102
RTVSPost2010Prop50
 90
       50
102
RTVSPost2010PropOp50
 70
     1
102
RTVSPost2010Prop51ColorIndex
 90
      256
102
RTVSPost2010Prop51ColorRGB
 90
-16777216
102
RTVSPost2010PropOp51
 70
     0
102
RTVSPost2010Prop52
140
1.0
102
RTVSPost2010PropOp52
 70
     0
102
RTVSPost2010Prop53
 90
        2
102
RTVSPost2010PropOp53
 70
     1
102
RTVSPost2010Prop54
  1
strokes_ogs.tif
102
RTVSPost2010PropOp54
 70
     1
102
RTVSPost2010Prop55
280
     0
102
RTVSPost2010PropOp55
 70
     1
102
RTVSPost2010Prop56
140
1.0
102
RTVSPost2010PropOp56
 70
     1
102
RTVSPost2010Prop57
140
1.0
102
RTVSPost2010PropOp57
 70
     1
102
RTVSPropertyOp0
 70
     1
102
RTVSPropertyOp1
 70
     1
102
RTVSPropertyOp2
 70
     1
102
RTVSPropertyOp3
 70
     1
102
RTVSPropertyOp4
 70
     1
102
RTVSPropertyOp5
 70
     1
102
RTVSPropertyOp6
 70
     1
102
RTVSPropertyOp7
 70
     1
102
RTVSPropertyOp8
 70
     1
102
RTVSPropertyOp9
 70
     1
102
RTVSPropertyOp10
 70
     1
102
RTVSPropertyOp11
 70
     1
102
RTVSPropertyOp12
 70
     1
102
RTVSPropertyOp13
 70
     1
102
RTVSPropertyOp14
 70
     1
102
RTVSPropertyOp15
 70
     1
102
RTVSPropertyOp16
 70
     1
102
RTVSPropertyOp17
 70
     1
102
RTVSPropertyOp18
 70
     1
102
RTVSPropertyOp19
 70
     1
102
RTVSPropertyOp20
 70
     1
102
RTVSPropertyOp21
 70
     1
102
RTVSPropertyOp22
 70
     1
102
RTVSPropertyOp23
 70
     1
102
RTVSPropertyOp24
 70
     1
102
RTVSPropertyOp25
 70
     1
102
RTVSPropertyOp26
 70
     1
102
RTVSPropertyOp27
 70
     1
102
RTVSPropertyOp28
 70
     1
102
RTVSPropertyOp29
 70
     1
102
RTVSPropertyOp30
 70
     1
102
RTVSPropertyOp31
 70
     1
102
RTVSPropertyOp32
 70
     1
102
RTVSPropertyOp33
 70
     1
102
RTVSPropertyOp34
 70
     1
102
RTVSPropertyOp35
 70
     1
102
RTVSPropertyOp36
 70
     1
102
RTVSPropertyOp37
 70
     1
102
RTVSPropertyOp38
 70
     1
102
RTVSPropertyOp39
 70
     1
102
RTVSPropertyOp40
 70
     1
102
RTVSPropertyOp41
 70
     1
102
RTVSPropertyOp42
 70
     1
102
RTVSPropertyOp43
 70
     1
102
RTVSPropertyOp44
 70
     1
102
RTVSPropertyOp45
 70
     1
102
RTVSPropertyOp46
 70
     1
102
RTVSPropertyOp47
 70
     1
102
RTVSPropertyOp48
 70
     1
102
RTVSPropertyOp49
 70
     1
102
RTVSPropertyOp50
 70
     1
102
RTVSPropertyOp51
 70
     0
102
RTVSPropertyOp52
 70
     0
102
RTVSPropertyOp53
 70
     1
102
RTVSPropertyOp54
 70
     1
102
RTVSPropertyOp55
 70
     1
102
RTVSPropertyOp56
 70
     1
102
RTVSPropertyOp57
 70
     1
102
RTVSPropertyOp58
 70
     1
102
RTVSPropertyOp59
 70
     1
102
RTVSPropertyOp60
 70
     1
102
RTVSPropertyOp61
 70
     1
102
RTVSPropertyOp62
 70
     1
  0
XRECORD
  5
1389
102
{ACAD_REACTORS
330
1388
102
}
330
1388
100
AcDbXrecord
280
     1
102
RTVSPost2010Prop28
280
     0
102
RTVSPost2010PropOp28
 70
     1
102
RTVSPost2010Prop29
280
     1
102
RTVSPost2010PropOp29
 70
     1
102
RTVSPost2010Prop30
280
     1
102
RTVSPost2010PropOp30
 70
     1
102
RTVSPost2010Prop31
280
     0
102
RTVSPost2010PropOp31
 70
     1
102
RTVSPost2010Prop32
280
     0
102
RTVSPost2010PropOp32
 70
     1
102
RTVSPost2010Prop33
280
     0
102
RTVSPost2010PropOp33
 70
     1
102
RTVSPost2010Prop34
280
     0
102
RTVSPost2010PropOp34
 70
     1
102
RTVSPost2010Prop35
280
     0
102
RTVSPost2010PropOp35
 70
     1
102
RTVSPost2010Prop36
280
     0
102
RTVSPost2010PropOp36
 70
     1
102
RTVSPost2010Prop37
 90
       50
102
RTVSPost2010PropOp37
 70
     1
102
RTVSPost2010Prop38
140
0.0
102
RTVSPost2010PropOp38
 70
     1
102
RTVSPost2010Prop39
140
1.0
102
RTVSPost2010PropOp39
 70
     1
102
RTVSPost2010Prop40
 90
        0
102
RTVSPost2010PropOp40
 70
     1
102
RTVSPost2010Prop41ColorIndex
 90
       18
102
RTVSPost2010Prop41ColorRGB
 90
        0
102
RTVSPost2010PropOp41
 70
     1
102
RTVSPost2010Prop42
 90
       50
102
RTVSPost2010PropOp42
 70
     1
102
RTVSPost2010Prop43
 90
        3
102
RTVSPost2010PropOp43
 70
     1
102
RTVSPost2010Prop44ColorIndex
 90
        5
102
RTVSPost2010Prop44ColorRGB
 90
      255
102
RTVSPost2010PropOp44
 70
     1
102
RTVSPost2010Prop45
280
     0
102
RTVSPost2010PropOp45
 70
     1
102
RTVSPost2010Prop46
 90
       50
102
RTVSPost2010PropOp46
 70
     1
102
RTVSPost2010Prop47
 90
       50
102
RTVSPost2010PropOp47
 70
     1
102
RTVSPost2010Prop48
 90
       50
102
RTVSPost2010PropOp48
 70
     1
102
RTVSPost2010Prop49
280
     0
102
RTVSPost2010PropOp49
 70
     1
102
RTVSPost2010Prop50
 90
       50
102
RTVSPost2010PropOp50
 70
     1
102
RTVSPost2010Prop51ColorIndex
 90
      256
102
RTVSPost2010Prop51ColorRGB
 90
-16777216
102
RTVSPost2010PropOp51
 70
     0
102
RTVSPost2010Prop52
140
1.0
102
RTVSPost2010PropOp52
 70
     0
102
RTVSPost2010Prop53
 90
        2
102
RTVSPost2010PropOp53
 70
     1
102
RTVSPost2010Prop54
  1
strokes_ogs.tif
102
RTVSPost2010PropOp54
 70
     1
102
RTVSPost2010Prop55
280
     0
102
RTVSPost2010PropOp55
 70
     1
102
RTVSPost2010Prop56
140
1.0
102
RTVSPost2010PropOp56
 70
     1
102
RTVSPost2010Prop57
140
1.0
102
RTVSPost2010PropOp57
 70
     1
102
RTVSPropertyOp0
 70
     1
102
RTVSPropertyOp1
 70
     1
102
RTVSPropertyOp2
 70
     1
102
RTVSPropertyOp3
 70
     1
102
RTVSPropertyOp4
 70
     1
102
RTVSPropertyOp5
 70
     1
102
RTVSPropertyOp6
 70
     1
102
RTVSPropertyOp7
 70
     1
102
RTVSPropertyOp8
 70
     1
102
RTVSPropertyOp9
 70
     1
102
RTVSPropertyOp10
 70
     1
102
RTVSPropertyOp11
 70
     1
102
RTVSPropertyOp12
 70
     1
102
RTVSPropertyOp13
 70
     1
102
RTVSPropertyOp14
 70
     1
102
RTVSPropertyOp15
 70
     1
102
RTVSPropertyOp16
 70
     1
102
RTVSPropertyOp17
 70
     1
102
RTVSPropertyOp18
 70
     1
102
RTVSPropertyOp19
 70
     1
102
RTVSPropertyOp20
 70
     1
102
RTVSPropertyOp21
 70
     1
102
RTVSPropertyOp22
 70
     1
102
RTVSPropertyOp23
 70
     1
102
RTVSPropertyOp24
 70
     1
102
RTVSPropertyOp25
 70
     1
102
RTVSPropertyOp26
 70
     1
102
RTVSPropertyOp27
 70
     1
102
RTVSPropertyOp28
 70
     1
102
RTVSPropertyOp29
 70
     1
102
RTVSPropertyOp30
 70
     1
102
RTVSPropertyOp31
 70
     1
102
RTVSPropertyOp32
 70
     1
102
RTVSPropertyOp33
 70
     1
102
RTVSPropertyOp34
 70
     1
102
RTVSPropertyOp35
 70
     1
102
RTVSPropertyOp36
 70
     1
102
RTVSPropertyOp37
 70
     1
102
RTVSPropertyOp38
 70
     1
102
RTVSPropertyOp39
 70
     1
102
RTVSPropertyOp40
 70
     1
102
RTVSPropertyOp41
 70
     1
102
RTVSPropertyOp42
 70
     1
102
RTVSPropertyOp43
 70
     1
102
RTVSPropertyOp44
 70
     1
102
RTVSPropertyOp45
 70
     1
102
RTVSPropertyOp46
 70
     1
102
RTVSPropertyOp47
 70
     1
102
RTVSPropertyOp48
 70
     1
102
RTVSPropertyOp49
 70
     1
102
RTVSPropertyOp50
 70
     1
102
RTVSPropertyOp51
 70
     0
102
RTVSPropertyOp52
 70
     0
102
RTVSPropertyOp53
 70
     1
102
RTVSPropertyOp54
 70
     1
102
RTVSPropertyOp55
 70
     1
102
RTVSPropertyOp56
 70
     1
102
RTVSPropertyOp57
 70
     1
102
RTVSPropertyOp58
 70
     1
102
RTVSPropertyOp59
 70
     1
102
RTVSPropertyOp60
 70
     1
102
RTVSPropertyOp61
 70
     1
102
RTVSPropertyOp62
 70
     1
  0
XRECORD
  5
138B
102
{ACAD_REACTORS
330
138A
102
}
330
138A
100
AcDbXrecord
280
     1
102
RTVSPost2010Prop28
280
     0
102
RTVSPost2010PropOp28
 70
     1
102
RTVSPost2010Prop29
280
     1
102
RTVSPost2010PropOp29
 70
     1
102
RTVSPost2010Prop30
280
     1
102
RTVSPost2010PropOp30
 70
     1
102
RTVSPost2010Prop31
280
     0
102
RTVSPost2010PropOp31
 70
     1
102
RTVSPost2010Prop32
280
     0
102
RTVSPost2010PropOp32
 70
     1
102
RTVSPost2010Prop33
280
     0
102
RTVSPost2010PropOp33
 70
     1
102
RTVSPost2010Prop34
280
     0
102
RTVSPost2010PropOp34
 70
     1
102
RTVSPost2010Prop35
280
     0
102
RTVSPost2010PropOp35
 70
     1
102
RTVSPost2010Prop36
280
     0
102
RTVSPost2010PropOp36
 70
     1
102
RTVSPost2010Prop37
 90
       50
102
RTVSPost2010PropOp37
 70
     1
102
RTVSPost2010Prop38
140
0.0
102
RTVSPost2010PropOp38
 70
     1
102
RTVSPost2010Prop39
140
1.0
102
RTVSPost2010PropOp39
 70
     1
102
RTVSPost2010Prop40
 90
        0
102
RTVSPost2010PropOp40
 70
     1
102
RTVSPost2010Prop41ColorIndex
 90
       18
102
RTVSPost2010Prop41ColorRGB
 90
        0
102
RTVSPost2010PropOp41
 70
     1
102
RTVSPost2010Prop42
 90
       50
102
RTVSPost2010PropOp42
 70
     1
102
RTVSPost2010Prop43
 90
        3
102
RTVSPost2010PropOp43
 70
     1
102
RTVSPost2010Prop44ColorIndex
 90
        5
102
RTVSPost2010Prop44ColorRGB
 90
      255
102
RTVSPost2010PropOp44
 70
     1
102
RTVSPost2010Prop45
280
     0
102
RTVSPost2010PropOp45
 70
     1
102
RTVSPost2010Prop46
 90
       50
102
RTVSPost2010PropOp46
 70
     1
102
RTVSPost2010Prop47
 90
       50
102
RTVSPost2010PropOp47
 70
     1
102
RTVSPost2010Prop48
 90
       50
102
RTVSPost2010PropOp48
 70
     1
102
RTVSPost2010Prop49
280
     0
102
RTVSPost2010PropOp49
 70
     1
102
RTVSPost2010Prop50
 90
       50
102
RTVSPost2010PropOp50
 70
     1
102
RTVSPost2010Prop51ColorIndex
 90
      256
102
RTVSPost2010Prop51ColorRGB
 90
-16777216
102
RTVSPost2010PropOp51
 70
     0
102
RTVSPost2010Prop52
140
1.0
102
RTVSPost2010PropOp52
 70
     0
102
RTVSPost2010Prop53
 90
        2
102
RTVSPost2010PropOp53
 70
     1
102
RTVSPost2010Prop54
  1
strokes_ogs.tif
102
RTVSPost2010PropOp54
 70
     1
102
RTVSPost2010Prop55
280
     0
102
RTVSPost2010PropOp55
 70
     1
102
RTVSPost2010Prop56
140
1.0
102
RTVSPost2010PropOp56
 70
     1
102
RTVSPost2010Prop57
140
1.0
102
RTVSPost2010PropOp57
 70
     1
102
RTVSPropertyOp0
 70
     1
102
RTVSPropertyOp1
 70
     1
102
RTVSPropertyOp2
 70
     1
102
RTVSPropertyOp3
 70
     1
102
RTVSPropertyOp4
 70
     1
102
RTVSPropertyOp5
 70
     1
102
RTVSPropertyOp6
 70
     1
102
RTVSPropertyOp7
 70
     1
102
RTVSPropertyOp8
 70
     1
102
RTVSPropertyOp9
 70
     1
102
RTVSPropertyOp10
 70
     1
102
RTVSPropertyOp11
 70
     1
102
RTVSPropertyOp12
 70
     1
102
RTVSPropertyOp13
 70
     1
102
RTVSPropertyOp14
 70
     1
102
RTVSPropertyOp15
 70
     1
102
RTVSPropertyOp16
 70
     1
102
RTVSPropertyOp17
 70
     1
102
RTVSPropertyOp18
 70
     1
102
RTVSPropertyOp19
 70
     1
102
RTVSPropertyOp20
 70
     1
102
RTVSPropertyOp21
 70
     1
102
RTVSPropertyOp22
 70
     1
102
RTVSPropertyOp23
 70
     1
102
RTVSPropertyOp24
 70
     1
102
RTVSPropertyOp25
 70
     1
102
RTVSPropertyOp26
 70
     1
102
RTVSPropertyOp27
 70
     1
102
RTVSPropertyOp28
 70
     1
102
RTVSPropertyOp29
 70
     1
102
RTVSPropertyOp30
 70
     1
102
RTVSPropertyOp31
 70
     1
102
RTVSPropertyOp32
 70
     1
102
RTVSPropertyOp33
 70
     1
102
RTVSPropertyOp34
 70
     1
102
RTVSPropertyOp35
 70
     1
102
RTVSPropertyOp36
 70
     1
102
RTVSPropertyOp37
 70
     1
102
RTVSPropertyOp38
 70
     1
102
RTVSPropertyOp39
 70
     1
102
RTVSPropertyOp40
 70
     1
102
RTVSPropertyOp41
 70
     1
102
RTVSPropertyOp42
 70
     1
102
RTVSPropertyOp43
 70
     1
102
RTVSPropertyOp44
 70
     1
102
RTVSPropertyOp45
 70
     1
102
RTVSPropertyOp46
 70
     1
102
RTVSPropertyOp47
 70
     1
102
RTVSPropertyOp48
 70
     1
102
RTVSPropertyOp49
 70
     1
102
RTVSPropertyOp50
 70
     1
102
RTVSPropertyOp51
 70
     0
102
RTVSPropertyOp52
 70
     0
102
RTVSPropertyOp53
 70
     1
102
RTVSPropertyOp54
 70
     1
102
RTVSPropertyOp55
 70
     1
102
RTVSPropertyOp56
 70
     1
102
RTVSPropertyOp57
 70
     1
102
RTVSPropertyOp58
 70
     1
102
RTVSPropertyOp59
 70
     1
102
RTVSPropertyOp60
 70
     1
102
RTVSPropertyOp61
 70
     1
102
RTVSPropertyOp62
 70
     1
  0
XRECORD
  5
1381
102
{ACAD_REACTORS
330
1380
102
}
330
1380
100
AcDbXrecord
280
     1
102
RTVSPost2010Prop28
280
     0
102
RTVSPost2010PropOp28
 70
     1
102
RTVSPost2010Prop29
280
     1
102
RTVSPost2010PropOp29
 70
     1
102
RTVSPost2010Prop30
280
     1
102
RTVSPost2010PropOp30
 70
     1
102
RTVSPost2010Prop31
280
     0
102
RTVSPost2010PropOp31
 70
     1
102
RTVSPost2010Prop32
280
     0
102
RTVSPost2010PropOp32
 70
     1
102
RTVSPost2010Prop33
280
     0
102
RTVSPost2010PropOp33
 70
     1
102
RTVSPost2010Prop34
280
     0
102
RTVSPost2010PropOp34
 70
     1
102
RTVSPost2010Prop35
280
     0
102
RTVSPost2010PropOp35
 70
     1
102
RTVSPost2010Prop36
280
     0
102
RTVSPost2010PropOp36
 70
     1
102
RTVSPost2010Prop37
 90
       50
102
RTVSPost2010PropOp37
 70
     1
102
RTVSPost2010Prop38
140
0.0
102
RTVSPost2010PropOp38
 70
     1
102
RTVSPost2010Prop39
140
1.0
102
RTVSPost2010PropOp39
 70
     1
102
RTVSPost2010Prop40
 90
        0
102
RTVSPost2010PropOp40
 70
     1
102
RTVSPost2010Prop41ColorIndex
 90
       18
102
RTVSPost2010Prop41ColorRGB
 90
        0
102
RTVSPost2010PropOp41
 70
     1
102
RTVSPost2010Prop42
 90
       50
102
RTVSPost2010PropOp42
 70
     1
102
RTVSPost2010Prop43
 90
        3
102
RTVSPost2010PropOp43
 70
     1
102
RTVSPost2010Prop44ColorIndex
 90
        5
102
RTVSPost2010Prop44ColorRGB
 90
      255
102
RTVSPost2010PropOp44
 70
     1
102
RTVSPost2010Prop45
280
     0
102
RTVSPost2010PropOp45
 70
     1
102
RTVSPost2010Prop46
 90
       50
102
RTVSPost2010PropOp46
 70
     1
102
RTVSPost2010Prop47
 90
       50
102
RTVSPost2010PropOp47
 70
     1
102
RTVSPost2010Prop48
 90
       50
102
RTVSPost2010PropOp48
 70
     1
102
RTVSPost2010Prop49
280
     0
102
RTVSPost2010PropOp49
 70
     1
102
RTVSPost2010Prop50
 90
       50
102
RTVSPost2010PropOp50
 70
     1
102
RTVSPost2010Prop51ColorIndex
 90
      256
102
RTVSPost2010Prop51ColorRGB
 90
-16777216
102
RTVSPost2010PropOp51
 70
     0
102
RTVSPost2010Prop52
140
1.0
102
RTVSPost2010PropOp52
 70
     0
102
RTVSPost2010Prop53
 90
        2
102
RTVSPost2010PropOp53
 70
     1
102
RTVSPost2010Prop54
  1
strokes_ogs.tif
102
RTVSPost2010PropOp54
 70
     1
102
RTVSPost2010Prop55
280
     0
102
RTVSPost2010PropOp55
 70
     1
102
RTVSPost2010Prop56
140
1.0
102
RTVSPost2010PropOp56
 70
     1
102
RTVSPost2010Prop57
140
1.0
102
RTVSPost2010PropOp57
 70
     1
102
RTVSPropertyOp0
 70
     1
102
RTVSPropertyOp1
 70
     1
102
RTVSPropertyOp2
 70
     1
102
RTVSPropertyOp3
 70
     1
102
RTVSPropertyOp4
 70
     1
102
RTVSPropertyOp5
 70
     1
102
RTVSPropertyOp6
 70
     1
102
RTVSPropertyOp7
 70
     1
102
RTVSPropertyOp8
 70
     1
102
RTVSPropertyOp9
 70
     1
102
RTVSPropertyOp10
 70
     1
102
RTVSPropertyOp11
 70
     1
102
RTVSPropertyOp12
 70
     1
102
RTVSPropertyOp13
 70
     1
102
RTVSPropertyOp14
 70
     1
102
RTVSPropertyOp15
 70
     1
102
RTVSPropertyOp16
 70
     1
102
RTVSPropertyOp17
 70
     1
102
RTVSPropertyOp18
 70
     1
102
RTVSPropertyOp19
 70
     1
102
RTVSPropertyOp20
 70
     1
102
RTVSPropertyOp21
 70
     1
102
RTVSPropertyOp22
 70
     1
102
RTVSPropertyOp23
 70
     1
102
RTVSPropertyOp24
 70
     1
102
RTVSPropertyOp25
 70
     1
102
RTVSPropertyOp26
 70
     1
102
RTVSPropertyOp27
 70
     1
102
RTVSPropertyOp28
 70
     1
102
RTVSPropertyOp29
 70
     1
102
RTVSPropertyOp30
 70
     1
102
RTVSPropertyOp31
 70
     1
102
RTVSPropertyOp32
 70
     1
102
RTVSPropertyOp33
 70
     1
102
RTVSPropertyOp34
 70
     1
102
RTVSPropertyOp35
 70
     1
102
RTVSPropertyOp36
 70
     1
102
RTVSPropertyOp37
 70
     1
102
RTVSPropertyOp38
 70
     1
102
RTVSPropertyOp39
 70
     1
102
RTVSPropertyOp40
 70
     1
102
RTVSPropertyOp41
 70
     1
102
RTVSPropertyOp42
 70
     1
102
RTVSPropertyOp43
 70
     1
102
RTVSPropertyOp44
 70
     1
102
RTVSPropertyOp45
 70
     1
102
RTVSPropertyOp46
 70
     1
102
RTVSPropertyOp47
 70
     1
102
RTVSPropertyOp48
 70
     1
102
RTVSPropertyOp49
 70
     1
102
RTVSPropertyOp50
 70
     1
102
RTVSPropertyOp51
 70
     0
102
RTVSPropertyOp52
 70
     0
102
RTVSPropertyOp53
 70
     1
102
RTVSPropertyOp54
 70
     1
102
RTVSPropertyOp55
 70
     1
102
RTVSPropertyOp56
 70
     1
102
RTVSPropertyOp57
 70
     1
102
RTVSPropertyOp58
 70
     1
102
RTVSPropertyOp59
 70
     1
102
RTVSPropertyOp60
 70
     1
102
RTVSPropertyOp61
 70
     1
102
RTVSPropertyOp62
 70
     1
  0
XRECORD
  5
1375
102
{ACAD_REACTORS
330
1374
102
}
330
1374
100
AcDbXrecord
280
     1
102
RTVSPost2010Prop28
280
     0
102
RTVSPost2010PropOp28
 70
     1
102
RTVSPost2010Prop29
280
     1
102
RTVSPost2010PropOp29
 70
     1
102
RTVSPost2010Prop30
280
     1
102
RTVSPost2010PropOp30
 70
     1
102
RTVSPost2010Prop31
280
     0
102
RTVSPost2010PropOp31
 70
     1
102
RTVSPost2010Prop32
280
     0
102
RTVSPost2010PropOp32
 70
     1
102
RTVSPost2010Prop33
280
     0
102
RTVSPost2010PropOp33
 70
     1
102
RTVSPost2010Prop34
280
     0
102
RTVSPost2010PropOp34
 70
     1
102
RTVSPost2010Prop35
280
     0
102
RTVSPost2010PropOp35
 70
     1
102
RTVSPost2010Prop36
280
     0
102
RTVSPost2010PropOp36
 70
     1
102
RTVSPost2010Prop37
 90
       50
102
RTVSPost2010PropOp37
 70
     1
102
RTVSPost2010Prop38
140
0.0
102
RTVSPost2010PropOp38
 70
     1
102
RTVSPost2010Prop39
140
1.0
102
RTVSPost2010PropOp39
 70
     1
102
RTVSPost2010Prop40
 90
        0
102
RTVSPost2010PropOp40
 70
     1
102
RTVSPost2010Prop41ColorIndex
 90
       18
102
RTVSPost2010Prop41ColorRGB
 90
        0
102
RTVSPost2010PropOp41
 70
     1
102
RTVSPost2010Prop42
 90
       50
102
RTVSPost2010PropOp42
 70
     1
102
RTVSPost2010Prop43
 90
        3
102
RTVSPost2010PropOp43
 70
     1
102
RTVSPost2010Prop44ColorIndex
 90
        5
102
RTVSPost2010Prop44ColorRGB
 90
      255
102
RTVSPost2010PropOp44
 70
     1
102
RTVSPost2010Prop45
280
     0
102
RTVSPost2010PropOp45
 70
     1
102
RTVSPost2010Prop46
 90
       50
102
RTVSPost2010PropOp46
 70
     1
102
RTVSPost2010Prop47
 90
       50
102
RTVSPost2010PropOp47
 70
     1
102
RTVSPost2010Prop48
 90
       50
102
RTVSPost2010PropOp48
 70
     1
102
RTVSPost2010Prop49
280
     0
102
RTVSPost2010PropOp49
 70
     1
102
RTVSPost2010Prop50
 90
       50
102
RTVSPost2010PropOp50
 70
     1
102
RTVSPost2010Prop51ColorIndex
 90
      256
102
RTVSPost2010Prop51ColorRGB
 90
-16777216
102
RTVSPost2010PropOp51
 70
     0
102
RTVSPost2010Prop52
140
1.0
102
RTVSPost2010PropOp52
 70
     0
102
RTVSPost2010Prop53
 90
        2
102
RTVSPost2010PropOp53
 70
     1
102
RTVSPost2010Prop54
  1
strokes_ogs.tif
102
RTVSPost2010PropOp54
 70
     1
102
RTVSPost2010Prop55
280
     0
102
RTVSPost2010PropOp55
 70
     1
102
RTVSPost2010Prop56
140
1.0
102
RTVSPost2010PropOp56
 70
     1
102
RTVSPost2010Prop57
140
1.0
102
RTVSPost2010PropOp57
 70
     1
102
RTVSPropertyOp0
 70
     1
102
RTVSPropertyOp1
 70
     1
102
RTVSPropertyOp2
 70
     1
102
RTVSPropertyOp3
 70
     1
102
RTVSPropertyOp4
 70
     1
102
RTVSPropertyOp5
 70
     1
102
RTVSPropertyOp6
 70
     1
102
RTVSPropertyOp7
 70
     1
102
RTVSPropertyOp8
 70
     1
102
RTVSPropertyOp9
 70
     1
102
RTVSPropertyOp10
 70
     1
102
RTVSPropertyOp11
 70
     1
102
RTVSPropertyOp12
 70
     1
102
RTVSPropertyOp13
 70
     1
102
RTVSPropertyOp14
 70
     1
102
RTVSPropertyOp15
 70
     1
102
RTVSPropertyOp16
 70
     1
102
RTVSPropertyOp17
 70
     1
102
RTVSPropertyOp18
 70
     1
102
RTVSPropertyOp19
 70
     1
102
RTVSPropertyOp20
 70
     1
102
RTVSPropertyOp21
 70
     1
102
RTVSPropertyOp22
 70
     1
102
RTVSPropertyOp23
 70
     1
102
RTVSPropertyOp24
 70
     1
102
RTVSPropertyOp25
 70
     1
102
RTVSPropertyOp26
 70
     1
102
RTVSPropertyOp27
 70
     1
102
RTVSPropertyOp28
 70
     1
102
RTVSPropertyOp29
 70
     1
102
RTVSPropertyOp30
 70
     1
102
RTVSPropertyOp31
 70
     1
102
RTVSPropertyOp32
 70
     1
102
RTVSPropertyOp33
 70
     1
102
RTVSPropertyOp34
 70
     1
102
RTVSPropertyOp35
 70
     1
102
RTVSPropertyOp36
 70
     1
102
RTVSPropertyOp37
 70
     1
102
RTVSPropertyOp38
 70
     1
102
RTVSPropertyOp39
 70
     1
102
RTVSPropertyOp40
 70
     1
102
RTVSPropertyOp41
 70
     1
102
RTVSPropertyOp42
 70
     1
102
RTVSPropertyOp43
 70
     1
102
RTVSPropertyOp44
 70
     1
102
RTVSPropertyOp45
 70
     1
102
RTVSPropertyOp46
 70
     1
102
RTVSPropertyOp47
 70
     1
102
RTVSPropertyOp48
 70
     1
102
RTVSPropertyOp49
 70
     1
102
RTVSPropertyOp50
 70
     1
102
RTVSPropertyOp51
 70
     0
102
RTVSPropertyOp52
 70
     0
102
RTVSPropertyOp53
 70
     1
102
RTVSPropertyOp54
 70
     1
102
RTVSPropertyOp55
 70
     1
102
RTVSPropertyOp56
 70
     1
102
RTVSPropertyOp57
 70
     1
102
RTVSPropertyOp58
 70
     1
102
RTVSPropertyOp59
 70
     1
102
RTVSPropertyOp60
 70
     1
102
RTVSPropertyOp61
 70
     1
102
RTVSPropertyOp62
 70
     1
  0
XRECORD
  5
138D
102
{ACAD_REACTORS
330
138C
102
}
330
138C
100
AcDbXrecord
280
     1
102
RTVSPost2010Prop28
280
     0
102
RTVSPost2010PropOp28
 70
     1
102
RTVSPost2010Prop29
280
     1
102
RTVSPost2010PropOp29
 70
     1
102
RTVSPost2010Prop30
280
     1
102
RTVSPost2010PropOp30
 70
     1
102
RTVSPost2010Prop31
280
     0
102
RTVSPost2010PropOp31
 70
     1
102
RTVSPost2010Prop32
280
     0
102
RTVSPost2010PropOp32
 70
     1
102
RTVSPost2010Prop33
280
     0
102
RTVSPost2010PropOp33
 70
     1
102
RTVSPost2010Prop34
280
     0
102
RTVSPost2010PropOp34
 70
     1
102
RTVSPost2010Prop35
280
     0
102
RTVSPost2010PropOp35
 70
     1
102
RTVSPost2010Prop36
280
     0
102
RTVSPost2010PropOp36
 70
     1
102
RTVSPost2010Prop37
 90
       50
102
RTVSPost2010PropOp37
 70
     1
102
RTVSPost2010Prop38
140
0.0
102
RTVSPost2010PropOp38
 70
     1
102
RTVSPost2010Prop39
140
1.0
102
RTVSPost2010PropOp39
 70
     1
102
RTVSPost2010Prop40
 90
        0
102
RTVSPost2010PropOp40
 70
     1
102
RTVSPost2010Prop41ColorIndex
 90
       18
102
RTVSPost2010Prop41ColorRGB
 90
        0
102
RTVSPost2010PropOp41
 70
     1
102
RTVSPost2010Prop42
 90
       50
102
RTVSPost2010PropOp42
 70
     1
102
RTVSPost2010Prop43
 90
        3
102
RTVSPost2010PropOp43
 70
     1
102
RTVSPost2010Prop44ColorIndex
 90
        5
102
RTVSPost2010Prop44ColorRGB
 90
      255
102
RTVSPost2010PropOp44
 70
     1
102
RTVSPost2010Prop45
280
     0
102
RTVSPost2010PropOp45
 70
     1
102
RTVSPost2010Prop46
 90
       50
102
RTVSPost2010PropOp46
 70
     1
102
RTVSPost2010Prop47
 90
       50
102
RTVSPost2010PropOp47
 70
     1
102
RTVSPost2010Prop48
 90
       50
102
RTVSPost2010PropOp48
 70
     1
102
RTVSPost2010Prop49
280
     0
102
RTVSPost2010PropOp49
 70
     1
102
RTVSPost2010Prop50
 90
       50
102
RTVSPost2010PropOp50
 70
     1
102
RTVSPost2010Prop51ColorIndex
 90
      256
102
RTVSPost2010Prop51ColorRGB
 90
-16777216
102
RTVSPost2010PropOp51
 70
     0
102
RTVSPost2010Prop52
140
1.0
102
RTVSPost2010PropOp52
 70
     0
102
RTVSPost2010Prop53
 90
        2
102
RTVSPost2010PropOp53
 70
     1
102
RTVSPost2010Prop54
  1
strokes_ogs.tif
102
RTVSPost2010PropOp54
 70
     1
102
RTVSPost2010Prop55
280
     0
102
RTVSPost2010PropOp55
 70
     1
102
RTVSPost2010Prop56
140
1.0
102
RTVSPost2010PropOp56
 70
     1
102
RTVSPost2010Prop57
140
1.0
102
RTVSPost2010PropOp57
 70
     1
102
RTVSPropertyOp0
 70
     1
102
RTVSPropertyOp1
 70
     1
102
RTVSPropertyOp2
 70
     1
102
RTVSPropertyOp3
 70
     1
102
RTVSPropertyOp4
 70
     1
102
RTVSPropertyOp5
 70
     1
102
RTVSPropertyOp6
 70
     1
102
RTVSPropertyOp7
 70
     1
102
RTVSPropertyOp8
 70
     1
102
RTVSPropertyOp9
 70
     1
102
RTVSPropertyOp10
 70
     1
102
RTVSPropertyOp11
 70
     1
102
RTVSPropertyOp12
 70
     1
102
RTVSPropertyOp13
 70
     1
102
RTVSPropertyOp14
 70
     1
102
RTVSPropertyOp15
 70
     1
102
RTVSPropertyOp16
 70
     1
102
RTVSPropertyOp17
 70
     1
102
RTVSPropertyOp18
 70
     1
102
RTVSPropertyOp19
 70
     1
102
RTVSPropertyOp20
 70
     1
102
RTVSPropertyOp21
 70
     1
102
RTVSPropertyOp22
 70
     1
102
RTVSPropertyOp23
 70
     1
102
RTVSPropertyOp24
 70
     1
102
RTVSPropertyOp25
 70
     1
102
RTVSPropertyOp26
 70
     1
102
RTVSPropertyOp27
 70
     1
102
RTVSPropertyOp28
 70
     1
102
RTVSPropertyOp29
 70
     1
102
RTVSPropertyOp30
 70
     1
102
RTVSPropertyOp31
 70
     1
102
RTVSPropertyOp32
 70
     1
102
RTVSPropertyOp33
 70
     1
102
RTVSPropertyOp34
 70
     1
102
RTVSPropertyOp35
 70
     1
102
RTVSPropertyOp36
 70
     1
102
RTVSPropertyOp37
 70
     1
102
RTVSPropertyOp38
 70
     1
102
RTVSPropertyOp39
 70
     1
102
RTVSPropertyOp40
 70
     1
102
RTVSPropertyOp41
 70
     1
102
RTVSPropertyOp42
 70
     1
102
RTVSPropertyOp43
 70
     1
102
RTVSPropertyOp44
 70
     1
102
RTVSPropertyOp45
 70
     1
102
RTVSPropertyOp46
 70
     1
102
RTVSPropertyOp47
 70
     1
102
RTVSPropertyOp48
 70
     1
102
RTVSPropertyOp49
 70
     1
102
RTVSPropertyOp50
 70
     1
102
RTVSPropertyOp51
 70
     0
102
RTVSPropertyOp52
 70
     0
102
RTVSPropertyOp53
 70
     1
102
RTVSPropertyOp54
 70
     1
102
RTVSPropertyOp55
 70
     1
102
RTVSPropertyOp56
 70
     1
102
RTVSPropertyOp57
 70
     1
102
RTVSPropertyOp58
 70
     1
102
RTVSPropertyOp59
 70
     1
102
RTVSPropertyOp60
 70
     1
102
RTVSPropertyOp61
 70
     1
102
RTVSPropertyOp62
 70
     1
  0
XRECORD
  5
1147
102
{ACAD_REACTORS
330
1146
102
}
330
1146
100
AcDbXrecord
280
     1
330
1014
  0
ACDBASSOCARRAYACTIONBODY
  5
117A
330
1179
100
AcDbAssocActionBody
 90
        1
100
AcDbAssocParamBasedActionBody
 90
        0
 90
        0
 90
        3
360
117B
360
117C
360
1180
 90
        0
 90
        9
 90
        0
  1
AlignItems
 90
        0
 90
        1
 90
        0
330
0
330
0
 90
        0
  1
AxesAngle
 90
        2
 90
        1
 40
1.570796326794896
330
0
330
0
 90
        0
  1
ItemSpacing
 90
        1
 90
        1
 40
35.3
330
0
330
0
 90
        0
  1
Items
 90
        0
 90
        1
 90
       12
330
0
330
0
 90
        0
  1
LevelSpacing
 90
        1
 90
        1
 40
1.0
330
0
330
0
 90
        0
  1
Levels
 90
        0
 90
        1
 90
        1
330
0
330
0
 90
        0
  1
RowElevation
 90
        1
 90
        1
 40
0.0
330
0
330
0
 90
        0
  1
RowSpacing
 90
        1
 90
        1
 40
112.5
330
0
330
0
 90
        0
  1
Rows
 90
        0
 90
        1
 90
        1
330
0
330
0
100
AcDbAssocArrayActionBody
 90
        1
  1
AcDbAssocArrayRectangularParameters
 90
        0
 90
       12
  1
AcDbAssocArrayItem
100
AcDbAssocArrayItem
 90
        0
 90
        0
 90
        0
 90
        0
 90
        8
 11
0.0
 21
0.0
 31
0.0
330
1182
100
AcDbAssocArrayItem
 90
        0
 90
        1
 90
        0
 90
        0
 90
        8
 11
35.3
 21
0.0
 31
0.0
330
1183
100
AcDbAssocArrayItem
 90
        0
 90
        2
 90
        0
 90
        0
 90
        8
 11
70.59999999999999
 21
0.0
 31
0.0
330
1184
100
AcDbAssocArrayItem
 90
        0
 90
        3
 90
        0
 90
        0
 90
        8
 11
105.9
 21
0.0
 31
0.0
330
1185
100
AcDbAssocArrayItem
 90
        0
 90
        4
 90
        0
 90
        0
 90
        8
 11
141.2
 21
0.0
 31
0.0
330
1186
100
AcDbAssocArrayItem
 90
        0
 90
        5
 90
        0
 90
        0
 90
        8
 11
176.5
 21
0.0
 31
0.0
330
1187
100
AcDbAssocArrayItem
 90
        0
 90
        6
 90
        0
 90
        0
 90
        8
 11
211.8
 21
0.0
 31
0.0
330
1188
100
AcDbAssocArrayItem
 90
        0
 90
        7
 90
        0
 90
        0
 90
        8
 11
247.1
 21
0.0
 31
0.0
330
1189
100
AcDbAssocArrayItem
 90
        0
 90
        8
 90
        0
 90
        0
 90
        8
 11
282.4
 21
0.0
 31
0.0
330
118A
100
AcDbAssocArrayItem
 90
        0
 90
        9
 90
        0
 90
        0
 90
        8
 11
317.7
 21
0.0
 31
0.0
330
118B
100
AcDbAssocArrayItem
 90
        0
 90
       10
 90
        0
 90
        0
 90
        8
 11
353.0
 21
0.0
 31
0.0
330
118C
100
AcDbAssocArrayItem
 90
        0
 90
       11
 90
        0
 90
        0
 90
        8
 11
388.3
 21
0.0
 31
0.0
330
118D
 40
1.0
 40
0.0
 40
0.0
 40
562.4072992397215
 40
0.0
 40
1.0
 40
0.0
 40
536.2222047001455
 40
0.0
 40
0.0
 40
1.0
 40
0.0
 40
0.0
 40
0.0
 40
0.0
 40
1.0
  0
ACDBASSOCDEPENDENCY
  5
117D
330
1179
100
AcDbAssocDependency
 90
        2
 90
        1
290
     0
290
     1
290
     1
290
     1
 90
        0
330
1160
290
     0
330
0
330
0
360
0
 90
        1
  0
ACDBASSOCDEPENDENCY
  5
117E
330
1179
100
AcDbAssocDependency
 90
        2
 90
        1
290
     1
290
     0
290
     1
290
     1
 90
        0
330
115D
290
     0
330
0
330
0
360
0
 90
        2
  0
ACDBASSOCDEPENDENCY
  5
117F
330
1179
100
AcDbAssocDependency
 90
        2
 90
        0
290
     1
290
     1
290
     1
290
     1
 90
-2147483648
330
1163
290
     0
330
0
330
0
360
0
 90
        3
  0
ACDBASSOCARRAYACTIONBODY
  5
12D9
330
12D8
100
AcDbAssocActionBody
 90
        1
100
AcDbAssocParamBasedActionBody
 90
        0
 90
        0
 90
        3
360
12DA
360
12DB
360
12DF
 90
        0
 90
        9
 90
        0
  1
AlignItems
 90
        0
 90
        1
 90
        0
330
0
330
0
 90
        0
  1
AxesAngle
 90
        2
 90
        1
 40
1.570796326794896
330
0
330
0
 90
        0
  1
ItemSpacing
 90
        1
 90
        1
 40
35.3
330
0
330
0
 90
        0
  1
Items
 90
        0
 90
        1
 90
       13
330
0
330
0
 90
        0
  1
LevelSpacing
 90
        1
 90
        1
 40
1.0
330
0
330
0
 90
        0
  1
Levels
 90
        0
 90
        1
 90
        1
330
0
330
0
 90
        0
  1
RowElevation
 90
        1
 90
        1
 40
0.0
330
0
330
0
 90
        0
  1
RowSpacing
 90
        1
 90
        1
 40
1937.320303332435
330
0
330
0
 90
        0
  1
Rows
 90
        0
 90
        1
 90
        1
330
0
330
0
100
AcDbAssocArrayActionBody
 90
        1
  1
AcDbAssocArrayRectangularParameters
 90
        0
 90
       13
  1
AcDbAssocArrayItem
100
AcDbAssocArrayItem
 90
        0
 90
        0
 90
        0
 90
        0
 90
        8
 11
0.0
 21
0.0
 31
0.0
330
12E1
100
AcDbAssocArrayItem
 90
        0
 90
        1
 90
        0
 90
        0
 90
        8
 11
35.3
 21
0.0
 31
0.0
330
12E2
100
AcDbAssocArrayItem
 90
        0
 90
        2
 90
        0
 90
        0
 90
        8
 11
70.59999999999999
 21
0.0
 31
0.0
330
12E3
100
AcDbAssocArrayItem
 90
        0
 90
        3
 90
        0
 90
        0
 90
        8
 11
105.9
 21
0.0
 31
0.0
330
12E4
100
AcDbAssocArrayItem
 90
        0
 90
        4
 90
        0
 90
        0
 90
        8
 11
141.2
 21
0.0
 31
0.0
330
12E5
100
AcDbAssocArrayItem
 90
        0
 90
        5
 90
        0
 90
        0
 90
        8
 11
176.5
 21
0.0
 31
0.0
330
12E6
100
AcDbAssocArrayItem
 90
        0
 90
        6
 90
        0
 90
        0
 90
        8
 11
211.8
 21
0.0
 31
0.0
330
12E7
100
AcDbAssocArrayItem
 90
        0
 90
        7
 90
        0
 90
        0
 90
        8
 11
247.1
 21
0.0
 31
0.0
330
12E8
100
AcDbAssocArrayItem
 90
        0
 90
        8
 90
        0
 90
        0
 90
        8
 11
282.4
 21
0.0
 31
0.0
330
12E9
100
AcDbAssocArrayItem
 90
        0
 90
        9
 90
        0
 90
        0
 90
        8
 11
317.7
 21
0.0
 31
0.0
330
12EA
100
AcDbAssocArrayItem
 90
        0
 90
       10
 90
        0
 90
        0
 90
        8
 11
353.0
 21
0.0
 31
0.0
330
12EB
100
AcDbAssocArrayItem
 90
        0
 90
       11
 90
        0
 90
        0
 90
        8
 11
388.3
 21
0.0
 31
0.0
330
12EC
100
AcDbAssocArrayItem
 90
        0
 90
       12
 90
        0
 90
        0
 90
        8
 11
423.5999999999999
 21
0.0
 31
0.0
330
12ED
 40
1.0
 40
0.0
 40
0.0
 40
2174.391142154493
 40
0.0
 40
1.0
 40
0.0
 40
1653.916070349527
 40
0.0
 40
0.0
 40
1.0
 40
0.0
 40
0.0
 40
0.0
 40
0.0
 40
1.0
  0
ACDBASSOCDEPENDENCY
  5
12DC
330
12D8
100
AcDbAssocDependency
 90
        2
 90
        1
290
     0
290
     1
290
     1
290
     1
 90
        0
330
1260
290
     0
330
0
330
0
360
0
 90
        1
  0
ACDBASSOCDEPENDENCY
  5
12DD
330
12D8
100
AcDbAssocDependency
 90
        2
 90
        1
290
     1
290
     0
290
     1
290
     1
 90
        0
330
125D
290
     0
330
0
330
0
360
0
 90
        2
  0
ACDBASSOCDEPENDENCY
  5
12DE
330
12D8
100
AcDbAssocDependency
 90
        2
 90
        0
290
     1
290
     1
290
     1
290
     1
 90
-2147483648
330
1263
290
     0
330
0
330
0
360
0
 90
        3
  0
ACDBASSOCVERTEXACTIONPARAM
  5
117B
330
117A
100
AcDbAssocActionParam
 90
        0
  1
BaseNormal
100
AcDbAssocSingleDependencyActionParam
 90
        0
330
0
100
AcDbAssocVertexActionParam
 90
        0
 10
0.0
 20
0.0
 30
1.0
  0
ACDBASSOCVERTEXACTIONPARAM
  5
117C
330
117A
100
AcDbAssocActionParam
 90
        0
  1
Origin
100
AcDbAssocSingleDependencyActionParam
 90
        0
330
0
100
AcDbAssocVertexActionParam
 90
        0
 10
0.0
 20
0.0
 30
0.0
  0
ACDBASSOCVERTEXACTIONPARAM
  5
1180
330
117A
100
AcDbAssocActionParam
 90
        0
  1
basePoint
100
AcDbAssocSingleDependencyActionParam
 90
        0
330
0
100
AcDbAssocVertexActionParam
 90
        0
 10
0.0
 20
0.0
 30
0.0
  0
ACDBASSOCVERTEXACTIONPARAM
  5
12DA
330
12D9
100
AcDbAssocActionParam
 90
        0
  1
BaseNormal
100
AcDbAssocSingleDependencyActionParam
 90
        0
330
0
100
AcDbAssocVertexActionParam
 90
        0
 10
0.0
 20
0.0
 30
1.0
  0
ACDBASSOCVERTEXACTIONPARAM
  5
12DB
330
12D9
100
AcDbAssocActionParam
 90
        0
  1
Origin
100
AcDbAssocSingleDependencyActionParam
 90
        0
330
0
100
AcDbAssocVertexActionParam
 90
        0
 10
0.0
 20
0.0
 30
0.0
  0
ACDBASSOCVERTEXACTIONPARAM
  5
12DF
330
12D9
100
AcDbAssocActionParam
 90
        0
  1
basePoint
100
AcDbAssocSingleDependencyActionParam
 90
        0
330
0
100
AcDbAssocVertexActionParam
 90
        0
 10
0.0
 20
0.0
 30
0.0
  0
ENDSEC
  0
EOF
