  0
SECTION
  2
HEADER
  9
$ACADVER
  1
AC1015
  9
$ACADMAINTVER
 70
    20
  9
$DWGCODEPAGE
  3
ANSI_932
  9
$INSBASE
 10
0.0
 20
0.0
 30
0.0
  9
$EXTMIN
 10
0.0
 20
0.0
 30
0.0
  9
$EXTMAX
 10
2789.511161023071
 20
1973.26911249564
 30
0.0
  9
$LIMMIN
 10
0.0
 20
0.0
  9
$LIMMAX
 10
297.0
 20
209.0
  9
$ORTHOMODE
 70
     1
  9
$REGENMODE
 70
     1
  9
$FILLMODE
 70
     1
  9
$QTEXTMODE
 70
     0
  9
$MIRRTEXT
 70
     1
  9
$LTSCALE
 40
1.0
  9
$ATTMODE
 70
     1
  9
$TEXTSIZE
 40
2.5
  9
$TRACEWID
 40
1.0
  9
$TEXTSTYLE
  7
Standard
  9
$CLAYER
  8
寸法線
  9
$CELTYPE
  6
ByLayer
  9
$CECOLOR
 62
   256
  9
$CELTSCALE
 40
3.0
  9
$DISPSILH
 70
     0
  9
$DIMSCALE
 40
10.0
  9
$DIMASZ
 40
1.5
  9
$DIMEXO
 40
2.0
  9
$DIMDLI
 40
3.75
  9
$DIMRND
 40
0.0
  9
$DIMDLE
 40
0.0
  9
$DIMEXE
 40
1.5
  9
$DIMTP
 40
0.0
  9
$DIMTM
 40
0.0
  9
$DIMTXT
 40
3.0
  9
$DIMCEN
 40
2.5
  9
$DIMTSZ
 40
0.0
  9
$DIMTOL
 70
     0
  9
$DIMLIM
 70
     0
  9
$DIMTIH
 70
     0
  9
$DIMTOH
 70
     0
  9
$DIMSE1
 70
     0
  9
$DIMSE2
 70
     0
  9
$DIMTAD
 70
     1
  9
$DIMZIN
 70
     8
  9
$DIMBLK
  1
Open30
  9
$DIMASO
 70
     1
  9
$DIMSHO
 70
     1
  9
$DIMPOST
  1

  9
$DIMAPOST
  1

  9
$DIMALT
 70
     0
  9
$DIMALTD
 70
     3
  9
$DIMALTF
 40
0.03937007874016
  9
$DIMLFAC
 40
1.0
  9
$DIMTOFL
 70
     1
  9
$DIMTVP
 40
0.0
  9
$DIMTIX
 70
     0
  9
$DIMSOXD
 70
     0
  9
$DIMSAH
 70
     0
  9
$DIMBLK1
  1

  9
$DIMBLK2
  1

  9
$DIMSTYLE
  2
ISO-25
  9
$DIMCLRD
 70
     0
  9
$DIMCLRE
 70
     0
  9
$DIMCLRT
 70
     0
  9
$DIMTFAC
 40
1.0
  9
$DIMGAP
 40
0.5
  9
$DIMJUST
 70
     0
  9
$DIMSD1
 70
     0
  9
$DIMSD2
 70
     0
  9
$DIMTOLJ
 70
     0
  9
$DIMTZIN
 70
     8
  9
$DIMALTZ
 70
     0
  9
$DIMALTTZ
 70
     0
  9
$DIMUPT
 70
     0
  9
$DIMDEC
 70
     2
  9
$DIMTDEC
 70
     2
  9
$DIMALTU
 70
     2
  9
$DIMALTTD
 70
     3
  9
$DIMTXSTY
  7
Standard
  9
$DIMAUNIT
 70
     0
  9
$DIMADEC
 70
     0
  9
$DIMALTRND
 40
0.0
  9
$DIMAZIN
 70
     0
  9
$DIMDSEP
 70
    46
  9
$DIMATFIT
 70
     0
  9
$DIMFRAC
 70
     0
  9
$DIMLDRBLK
  1
Open30
  9
$DIMLUNIT
 70
     2
  9
$DIMLWD
 70
    -2
  9
$DIMLWE
 70
    -2
  9
$DIMTMOVE
 70
     0
  9
$LUNITS
 70
     2
  9
$LUPREC
 70
     4
  9
$SKETCHINC
 40
1.0
  9
$FILLETRAD
 40
9.9
  9
$AUNITS
 70
     0
  9
$AUPREC
 70
     0
  9
$MENU
  1
.
  9
$ELEVATION
 40
0.0
  9
$PELEVATION
 40
0.0
  9
$THICKNESS
 40
0.0
  9
$LIMCHECK
 70
     0
  9
$CHAMFERA
 40
10.0
  9
$CHAMFERB
 40
10.0
  9
$CHAMFERC
 40
20.0
  9
$CHAMFERD
 40
0.0
  9
$SKPOLY
 70
     0
  9
$TDCREATE
 40
2453510.558637211
  9
$TDUCREATE
 40
2453510.183637211
  9
$TDUPDATE
 40
2457563.730429237
  9
$TDUUPDATE
 40
2457563.355429236
  9
$TDINDWG
 40
0.0569639005
  9
$TDUSRTIMER
 40
0.0569639005
  9
$USRTIMER
 70
     1
  9
$ANGBASE
 50
0.0
  9
$ANGDIR
 70
     0
  9
$PDMODE
 70
     0
  9
$PDSIZE
 40
0.0
  9
$PLINEWID
 40
0.0
  9
$SPLFRAME
 70
     0
  9
$SPLINETYPE
 70
     6
  9
$SPLINESEGS
 70
     8
  9
$HANDSEED
  5
1E2E
  9
$SURFTAB1
 70
     6
  9
$SURFTAB2
 70
     6
  9
$SURFTYPE
 70
     6
  9
$SURFU
 70
     6
  9
$SURFV
 70
     6
  9
$UCSBASE
  2

  9
$UCSNAME
  2

  9
$UCSORG
 10
0.0
 20
0.0
 30
0.0
  9
$UCSXDIR
 10
1.0
 20
0.0
 30
0.0
  9
$UCSYDIR
 10
0.0
 20
1.0
 30
0.0
  9
$UCSORTHOREF
  2

  9
$UCSORTHOVIEW
 70
     0
  9
$UCSORGTOP
 10
0.0
 20
0.0
 30
0.0
  9
$UCSORGBOTTOM
 10
0.0
 20
0.0
 30
0.0
  9
$UCSORGLEFT
 10
0.0
 20
0.0
 30
0.0
  9
$UCSORGRIGHT
 10
0.0
 20
0.0
 30
0.0
  9
$UCSORGFRONT
 10
0.0
 20
0.0
 30
0.0
  9
$UCSORGBACK
 10
0.0
 20
0.0
 30
0.0
  9
$PUCSBASE
  2

  9
$PUCSNAME
  2

  9
$PUCSORG
 10
0.0
 20
0.0
 30
0.0
  9
$PUCSXDIR
 10
1.0
 20
0.0
 30
0.0
  9
$PUCSYDIR
 10
0.0
 20
1.0
 30
0.0
  9
$PUCSORTHOREF
  2

  9
$PUCSORTHOVIEW
 70
     0
  9
$PUCSORGTOP
 10
0.0
 20
0.0
 30
0.0
  9
$PUCSORGBOTTOM
 10
0.0
 20
0.0
 30
0.0
  9
$PUCSORGLEFT
 10
0.0
 20
0.0
 30
0.0
  9
$PUCSORGRIGHT
 10
0.0
 20
0.0
 30
0.0
  9
$PUCSORGFRONT
 10
0.0
 20
0.0
 30
0.0
  9
$PUCSORGBACK
 10
0.0
 20
0.0
 30
0.0
  9
$USERI1
 70
     0
  9
$USERI2
 70
     0
  9
$USERI3
 70
     0
  9
$USERI4
 70
     0
  9
$USERI5
 70
     0
  9
$USERR1
 40
0.0
  9
$USERR2
 40
0.0
  9
$USERR3
 40
0.0
  9
$USERR4
 40
0.0
  9
$USERR5
 40
0.0
  9
$WORLDVIEW
 70
     1
  9
$SHADEDGE
 70
     3
  9
$SHADEDIF
 70
    70
  9
$TILEMODE
 70
     1
  9
$MAXACTVP
 70
    48
  9
$PINSBASE
 10
0.0
 20
0.0
 30
0.0
  9
$PLIMCHECK
 70
     0
  9
$PEXTMIN
 10
0.0
 20
0.0
 30
0.0
  9
$PEXTMAX
 10
0.0
 20
0.0
 30
0.0
  9
$PLIMMIN
 10
0.0
 20
0.0
  9
$PLIMMAX
 10
12.0
 20
9.0
  9
$UNITMODE
 70
     0
  9
$VISRETAIN
 70
     1
  9
$PLINEGEN
 70
     0
  9
$PSLTSCALE
 70
     1
  9
$TREEDEPTH
 70
  3020
  9
$CMLSTYLE
  2
Standard
  9
$CMLJUST
 70
     0
  9
$CMLSCALE
 40
20.0
  9
$PROXYGRAPHICS
 70
     1
  9
$MEASUREMENT
 70
     1
  9
$CELWEIGHT
370
    -1
  9
$ENDCAPS
280
     0
  9
$JOINSTYLE
280
     0
  9
$LWDISPLAY
290
     0
  9
$INSUNITS
 70
     4
  9
$HYPERLINKBASE
  1

  9
$STYLESHEET
  1
monochrome.ctb
  9
$XEDIT
290
     1
  9
$CEPSNTYPE
380
     0
  9
$PSTYLEMODE
290
     1
  9
$FINGERPRINTGUID
  2

  9
$VERSIONGUID
  2
{9B5656D0-1DDE-4FF3-9D86-9BA2FF517854}
  9
$EXTNAMES
290
     1
  9
$PSVPSCALE
 40
0.0
  9
$OLESTARTUP
290
     0
  0
ENDSEC
  0
SECTION
  2
CLASSES
  0
CLASS
  1
ACDBDICTIONARYWDFLT
  2
AcDbDictionaryWithDefault
  3
ObjectDBX Classes
 90
        0
280
     0
281
     0
  0
CLASS
  1
ACDBPLACEHOLDER
  2
AcDbPlaceHolder
  3
ObjectDBX Classes
 90
        0
280
     0
281
     0
  0
CLASS
  1
LAYOUT
  2
AcDbLayout
  3
ObjectDBX Classes
 90
        0
280
     0
281
     0
  0
CLASS
  1
DICTIONARYVAR
  2
AcDbDictionaryVar
  3
ObjectDBX Classes
 90
        0
280
     0
281
     0
  0
CLASS
  1
MATERIAL
  2
AcDbMaterial
  3
ObjectDBX Classes
 90
     1153
280
     0
281
     0
  0
CLASS
  1
VISUALSTYLE
  2
AcDbVisualStyle
  3
ObjectDBX Classes
 90
     4095
280
     0
281
     0
  0
CLASS
  1
TABLESTYLE
  2
AcDbTableStyle
  3
ObjectDBX Classes
 90
     4095
280
     0
281
     0
  0
CLASS
  1
SCALE
  2
AcDbScale
  3
ObjectDBX Classes
 90
     1153
280
     0
281
     0
  0
CLASS
  1
MLEADERSTYLE
  2
AcDbMLeaderStyle
  3
ACDB_MLEADERSTYLE_CLASS
 90
     4095
280
     0
281
     0
  0
CLASS
  1
ACDBSECTIONVIEWSTYLE
  2
AcDbSectionViewStyle
  3
ObjectDBX Classes
 90
     1025
280
     0
281
     0
  0
CLASS
  1
ACDBDETAILVIEWSTYLE
  2
AcDbDetailViewStyle
  3
ObjectDBX Classes
 90
     1025
280
     0
281
     0
  0
CLASS
  1
CELLSTYLEMAP
  2
AcDbCellStyleMap
  3
ObjectDBX Classes
 90
     1152
280
     0
281
     0
  0
CLASS
  1
ACARRAYJIGENTITY
  2
AcArrayJigEntity
  3
ACAD_ARRAY
 90
      129
280
     0
281
     1
  0
CLASS
  1
ACDBASSOCNETWORK
  2
AcDbAssocNetwork
  3
ObjectDBX Classes
 90
     1025
280
     0
281
     0
  0
CLASS
  1
ACDBASSOCACTION
  2
AcDbAssocAction
  3
ObjectDBX Classes
 90
     1025
280
     0
281
     0
  0
CLASS
  1
ACDBASSOCARRAYACTIONBODY
  2
AcDbAssocArrayActionBody
  3
ObjectDBX Classes
 90
     1025
280
     0
281
     0
  0
CLASS
  1
ACDBASSOCVERTEXACTIONPARAM
  2
AcDbAssocVertexActionParam
  3
ObjectDBX Classes
 90
     1025
280
     0
281
     0
  0
CLASS
  1
ACDBASSOCDEPENDENCY
  2
AcDbAssocDependency
  3
ObjectDBX Classes
 90
     1025
280
     0
281
     0
  0
CLASS
  1
ACDBASSOCARRAYRECTANGULARPARAMETERS
  2
AcDbAssocArrayRectangularParameters
  3
ObjectDBX Classes
 90
    33793
280
     0
281
     0
  0
ENDSEC
  0
SECTION
  2
TABLES
  0
TABLE
  2
VPORT
  5
83D
102
{ACAD_XDICTIONARY
360
1A8E
102
}
330
0
100
AcDbSymbolTable
 70
     1
  0
VPORT
  5
1A1A
330
83D
100
AcDbSymbolTableRecord
100
AcDbViewportTableRecord
  2
*Active
 70
     0
 10
0.0
 20
0.0
 11
1.0
 21
1.0
 12
1394.755580511535
 22
986.6345562478201
 13
0.0
 23
0.0
 14
10.0
 24
10.0
 15
10.0
 25
10.0
 16
0.0
 26
0.0
 36
1.0
 17
0.0
 27
0.0
 37
0.0
 40
1991.207922609237
 41
2.814871016691957
 42
50.0
 43
0.0
 44
0.0
 50
0.0
 51
0.0
 71
     0
 72
   100
 73
     1
 74
     3
 75
     0
 76
     0
 77
     0
 78
     0
281
     0
 65
     1
110
0.0
120
0.0
130
0.0
111
1.0
121
0.0
131
0.0
112
0.0
122
1.0
132
0.0
 79
     0
146
0.0
1001
ACAD_NAV_VCDISPLAY
1070
     3
  0
ENDTAB
  0
TABLE
  2
LTYPE
  5
838
330
0
100
AcDbSymbolTable
 70
     7
  0
LTYPE
  5
839
330
838
100
AcDbSymbolTableRecord
100
AcDbLinetypeTableRecord
  2
ByBlock
 70
     0
  3

 72
    65
 73
     0
 40
0.0
  0
LTYPE
  5
83A
330
838
100
AcDbSymbolTableRecord
100
AcDbLinetypeTableRecord
  2
ByLayer
 70
     0
  3

 72
    65
 73
     0
 40
0.0
  0
LTYPE
  5
8
330
838
100
AcDbSymbolTableRecord
100
AcDbLinetypeTableRecord
  2
Continuous
 70
     0
  3
Solid line
 72
    65
 73
     0
 40
0.0
  0
LTYPE
  5
22E
330
838
100
AcDbSymbolTableRecord
100
AcDbLinetypeTableRecord
  2
HIDDEN
 70
     0
  3
Hidden __ __ __ __ __ __ __ __ __ __ __ __ __ _
 72
    65
 73
     2
 40
9.524999999999998
 49
6.349999999999999
 74
     0
 49
-3.174999999999999
 74
     0
  0
LTYPE
  5
1D1
330
838
100
AcDbSymbolTableRecord
100
AcDbLinetypeTableRecord
  2
CENTER
 70
     0
  3
------ - ------ - ----
 72
    65
 73
     4
 40
10.0
 49
6.25
 74
     0
 49
-1.25
 74
     0
 49
1.25
 74
     0
 49
-1.25
 74
     0
  0
ENDTAB
  0
TABLE
  2
LAYER
  5
835
102
{ACAD_XDICTIONARY
360
1B81
102
}
330
0
100
AcDbSymbolTable
 70
    10
  0
LAYER
  5
64
102
{ACAD_XDICTIONARY
360
1A71
102
}
330
835
100
AcDbSymbolTableRecord
100
AcDbLayerTableRecord
  2
0
 70
     0
 62
     7
  6
Continuous
370
    -3
390
5
  0
LAYER
  5
6A
102
{ACAD_XDICTIONARY
360
1A73
102
}
330
835
100
AcDbSymbolTableRecord
100
AcDbLayerTableRecord
  2
本体
 70
     0
 62
     7
  6
Continuous
370
    13
390
5
  0
LAYER
  5
4
102
{ACAD_XDICTIONARY
360
1A75
102
}
330
835
100
AcDbSymbolTableRecord
100
AcDbLayerTableRecord
  2
寸法線
 70
     0
 62
     2
  6
Continuous
370
     9
390
5
  0
LAYER
  5
67
102
{ACAD_XDICTIONARY
360
1A79
102
}
330
835
100
AcDbSymbolTableRecord
100
AcDbLayerTableRecord
  2
エンボス
 70
     0
 62
     4
  6
Continuous
370
     5
390
5
  0
LAYER
  5
11
102
{ACAD_XDICTIONARY
360
1A7B
102
}
330
835
100
AcDbSymbolTableRecord
100
AcDbLayerTableRecord
  2
外枠
 70
     0
 62
     7
  6
Continuous
370
    -3
390
5
  0
LAYER
  5
1EE
330
835
100
AcDbSymbolTableRecord
100
AcDbLayerTableRecord
  2
Defpoints
 70
     0
 62
     7
  6
Continuous
290
     0
370
    -3
390
5
  0
LAYER
  5
18FB
102
{ACAD_XDICTIONARY
360
1A7F
102
}
330
835
100
AcDbSymbolTableRecord
100
AcDbLayerTableRecord
  2
嵩上断面
 70
     0
 62
   112
  6
Continuous
370
    13
390
5
  0
LAYER
  5
1918
102
{ACAD_XDICTIONARY
360
1A81
102
}
330
835
100
AcDbSymbolTableRecord
100
AcDbLayerTableRecord
  2
中心線
 70
     0
 62
     1
  6
CENTER
370
     5
390
5
  0
ENDTAB
  0
TABLE
  2
STYLE
  5
836
330
0
100
AcDbSymbolTable
 70
     4
  0
STYLE
  5
9
330
836
100
AcDbSymbolTableRecord
100
AcDbTextStyleTableRecord
  2
Standard
 70
     0
 40
0.0
 41
1.0
 50
0.0
 71
     0
 42
2.5
  3

  4

1001
ACAD
1000
MS Gothic
1071
    32817
  0
ENDTAB
  0
TABLE
  2
VIEW
  5
83B
330
0
100
AcDbSymbolTable
 70
     0
  0
ENDTAB
  0
TABLE
  2
UCS
  5
83C
330
0
100
AcDbSymbolTable
 70
     0
  0
ENDTAB
  0
TABLE
  2
APPID
  5
83F
330
0
100
AcDbSymbolTable
 70
     5
  0
APPID
  5
A
330
83F
100
AcDbSymbolTableRecord
100
AcDbRegAppTableRecord
  2
ACAD
 70
     0
  0
APPID
  5
1A83
330
83F
100
AcDbSymbolTableRecord
100
AcDbRegAppTableRecord
  2
ACAD_NAV_VCDISPLAY
 70
     0
  0
APPID
  5
1AC4
330
83F
100
AcDbSymbolTableRecord
100
AcDbRegAppTableRecord
  2
ACAD_MLEADERVER
 70
     0
  0
APPID
  5
1ADD
330
83F
100
AcDbSymbolTableRecord
100
AcDbRegAppTableRecord
  2
ACAD_EXEMPT_FROM_CAD_STANDARDS
 70
     0
  0
APPID
  5
1B86
330
83F
100
AcDbSymbolTableRecord
100
AcDbRegAppTableRecord
  2
AcLayerTools
 70
     0
  0
ENDTAB
  0
TABLE
  2
DIMSTYLE
  5
840
330
0
100
AcDbSymbolTable
 70
     3
100
AcDbDimStyleTable
 71
     1
340
1E0
  0
DIMSTYLE
105
1E0
102
{ACAD_REACTORS
330
816
330
1E3
330
1F3
330
20D
330
21A
330
22F
330
23C
330
85D
330
15EB
102
}
330
840
100
AcDbSymbolTableRecord
100
AcDbDimStyleTableRecord
  2
ISO-25
 70
     0
 40
10.0
 41
1.5
 42
2.0
 43
3.75
 44
1.5
 73
     0
 74
     0
 77
     1
 78
     8
140
3.0
141
2.5
143
0.03937007874016
147
0.5
171
     3
172
     1
271
     2
272
     2
274
     3
283
     0
284
     8
289
     0
340
9
341
1D9
342
1D9
  0
DIMSTYLE
105
18FE
330
840
100
AcDbSymbolTableRecord
100
AcDbDimStyleTableRecord
  2
Standard
 70
     0
340
9
  0
ENDTAB
  0
TABLE
  2
BLOCK_RECORD
  5
1
330
0
100
AcDbSymbolTable
 70
    33
  0
BLOCK_RECORD
  5
2
102
{ACAD_XDICTIONARY
360
823
102
}
330
1
100
AcDbSymbolTableRecord
100
AcDbBlockTableRecord
  2
*Model_Space
340
827
  0
BLOCK_RECORD
  5
829
102
{ACAD_XDICTIONARY
360
82A
102
}
330
1
100
AcDbSymbolTableRecord
100
AcDbBlockTableRecord
  2
*Paper_Space
340
82E
  0
BLOCK_RECORD
  5
82F
102
{ACAD_XDICTIONARY
360
830
102
}
330
1
100
AcDbSymbolTableRecord
100
AcDbBlockTableRecord
  2
*Paper_Space0
340
834
  0
BLOCK_RECORD
  5
1D9
330
1
100
AcDbSymbolTableRecord
100
AcDbBlockTableRecord
  2
_Open30
340
0
102
{BLKREFS
331
19C0
331
19C1
331
19C9
331
19CA
331
19D4
331
19D5
331
19DD
331
19DE
331
19E6
331
19E7
331
19EF
331
19F0
331
19F8
331
19F9
331
1A01
331
1A02
331
1A0A
331
1A0B
102
}
  0
BLOCK_RECORD
  5
65
330
1
100
AcDbSymbolTableRecord
100
AcDbBlockTableRecord
  2
GIB詳細
340
0
102
{BLKREFS
331
63
102
}
1001
ACAD
1000
DesignCenter Data
1002
{
1070
     1
1070
     4
1002
}
  0
BLOCK_RECORD
  5
1CE
330
1
100
AcDbSymbolTableRecord
100
AcDbBlockTableRecord
  2
TB8
340
0
102
{BLKREFS
331
1CD
331
1D6
331
1D7
331
580
331
5F9
331
672
331
857
331
858
331
859
331
85A
331
85B
331
85C
331
3B0
102
}
1001
ACAD
1000
DesignCenter Data
1002
{
1070
     1
1070
     4
1002
}
  0
BLOCK_RECORD
  5
36B
330
1
100
AcDbSymbolTableRecord
100
AcDbBlockTableRecord
  2
7mm部材エンボス4
340
0
102
{BLKREFS
331
1C53
331
1C54
331
1CCD
331
1CCE
331
1BE1
331
1BE2
102
}
1001
ACAD
1000
DesignCenter Data
1002
{
1070
     1
1070
     4
1002
}
  0
BLOCK_RECORD
  5
817
330
1
100
AcDbSymbolTableRecord
100
AcDbBlockTableRecord
  2
*D7
340
0
  0
BLOCK_RECORD
  5
1E4
330
1
100
AcDbSymbolTableRecord
100
AcDbBlockTableRecord
  2
*D8
340
0
  0
BLOCK_RECORD
  5
1F4
330
1
100
AcDbSymbolTableRecord
100
AcDbBlockTableRecord
  2
*D9
340
0
  0
BLOCK_RECORD
  5
20E
330
1
100
AcDbSymbolTableRecord
100
AcDbBlockTableRecord
  2
*D10
340
0
  0
BLOCK_RECORD
  5
21B
330
1
100
AcDbSymbolTableRecord
100
AcDbBlockTableRecord
  2
*D11
340
0
  0
BLOCK_RECORD
  5
230
330
1
100
AcDbSymbolTableRecord
100
AcDbBlockTableRecord
  2
*D12
340
0
  0
BLOCK_RECORD
  5
23D
330
1
100
AcDbSymbolTableRecord
100
AcDbBlockTableRecord
  2
*D13
340
0
  0
BLOCK_RECORD
  5
85E
330
1
100
AcDbSymbolTableRecord
100
AcDbBlockTableRecord
  2
*D14
340
0
  0
BLOCK_RECORD
  5
15EC
330
1
100
AcDbSymbolTableRecord
100
AcDbBlockTableRecord
  2
*D15
340
0
  0
BLOCK_RECORD
  5
18FF
330
1
100
AcDbSymbolTableRecord
100
AcDbBlockTableRecord
  2
P-H85
340
0
102
{BLKREFS
331
1916
331
1917
102
}
  0
BLOCK_RECORD
  5
1ADE
102
{ACAD_XDICTIONARY
360
1AE2
102
}
330
1
100
AcDbSymbolTableRecord
100
AcDbBlockTableRecord
  2
鎌下
340
0
102
{BLKREFS
331
1AE5
102
}
1001
ACAD
1000
DesignCenter Data
1002
{
1070
     1
1070
     4
1002
}
  0
BLOCK_RECORD
  5
1B9B
102
{ACAD_REACTORS
330
1BBC
102
}
330
1
100
AcDbSymbolTableRecord
100
AcDbBlockTableRecord
  2
*U29
340
0
102
{BLKREFS
331
1BC0
331
1BC1
331
1BC2
331
1BC3
331
1BC4
331
1BC5
331
1BC6
331
1BC7
331
1BC8
331
1BC9
331
1BCA
331
1BCB
331
1BCC
331
1BCD
331
1BCE
331
1BCF
331
1BD0
331
1BD1
331
1BD2
331
1BD3
331
1BD4
331
1BD5
331
1BD6
331
1BD7
331
1BD8
331
1BD9
102
}
  0
BLOCK_RECORD
  5
1B9E
102
{ACAD_XDICTIONARY
360
1E28
102
}
102
{ACAD_REACTORS
330
1BBB
102
}
330
1
100
AcDbSymbolTableRecord
100
AcDbBlockTableRecord
  2
*U30
340
0
102
{BLKREFS
331
1BA1
102
}
  0
BLOCK_RECORD
  5
1CBF
102
{ACAD_REACTORS
330
1D3F
102
}
330
1
100
AcDbSymbolTableRecord
100
AcDbBlockTableRecord
  2
*U31
340
0
102
{BLKREFS
331
1D43
331
1D46
331
1D49
331
1D4C
331
1D4F
331
1D52
331
1D55
331
1D58
331
1D5B
331
1D5E
331
1D61
331
1D64
331
1D67
331
1D6A
331
1D6D
331
1D70
331
1D73
331
1D76
331
1D79
331
1D7C
331
1D7F
331
1D82
331
1D85
331
1D88
331
1D8B
331
1D8E
331
1D91
102
}
  0
BLOCK_RECORD
  5
1CC2
102
{ACAD_XDICTIONARY
360
1E2B
102
}
102
{ACAD_REACTORS
330
1D3E
102
}
330
1
100
AcDbSymbolTableRecord
100
AcDbBlockTableRecord
  2
*U32
340
0
102
{BLKREFS
331
1CC5
102
}
  0
ENDTAB
  0
ENDSEC
  0
SECTION
  2
BLOCKS
  0
BLOCK
  5
825
330
2
100
AcDbEntity
  8
0
100
AcDbBlockBegin
  2
*Model_Space
 70
     0
 10
0.0
 20
0.0
 30
0.0
  3
*Model_Space
  1

  0
ENDBLK
  5
826
330
2
100
AcDbEntity
  8
0
100
AcDbBlockEnd
  0
BLOCK
  5
82C
330
829
100
AcDbEntity
 67
     1
  8
0
100
AcDbBlockBegin
  2
*Paper_Space
 70
     0
 10
0.0
 20
0.0
 30
0.0
  3
*Paper_Space
  1

  0
ENDBLK
  5
82D
330
829
100
AcDbEntity
 67
     1
  8
0
100
AcDbBlockEnd
  0
BLOCK
  5
832
330
82F
100
AcDbEntity
 67
     1
  8
0
100
AcDbBlockBegin
  2
*Paper_Space0
 70
     0
 10
0.0
 20
0.0
 30
0.0
  3
*Paper_Space0
  1

  0
ENDBLK
  5
833
330
82F
100
AcDbEntity
 67
     1
  8
0
100
AcDbBlockEnd
  0
BLOCK
  5
1DD
330
1D9
100
AcDbEntity
  8
0
100
AcDbBlockBegin
  2
_Open30
 70
     0
 10
0.0
 20
0.0
 30
0.0
  3
_Open30
  1

  0
LINE
  5
1DA
330
1D9
100
AcDbEntity
  8
0
  6
ByBlock
 62
     0
370
    -2
100
AcDbLine
 10
-1.0
 20
0.26794919
 30
0.0
 11
0.0
 21
0.0
 31
0.0
  0
LINE
  5
1DB
330
1D9
100
AcDbEntity
  8
0
  6
ByBlock
 62
     0
370
    -2
100
AcDbLine
 10
0.0
 20
0.0
 30
0.0
 11
-1.0
 21
-0.26794919
 31
0.0
  0
LINE
  5
1DC
330
1D9
100
AcDbEntity
  8
0
  6
ByBlock
 62
     0
370
    -2
100
AcDbLine
 10
0.0
 20
0.0
 30
0.0
 11
-1.0
 21
0.0
 31
0.0
  0
ENDBLK
  5
1DE
330
1D9
100
AcDbEntity
  8
0
100
AcDbBlockEnd
  0
BLOCK
  5
A9
330
65
100
AcDbEntity
  8
0
100
AcDbBlockBegin
  2
GIB詳細
 70
     0
 10
0.0
 20
0.0
 30
0.0
  3
GIB詳細
  1

  0
LINE
  5
66
330
65
100
AcDbEntity
  8
エンボス
  6
Continuous
370
     0
100
AcDbLine
 10
26.66967878750091
 20
-77.78386766485943
 30
0.0
 11
26.66967878750109
 21
-100.7518676648589
 31
0.0
  0
LINE
  5
68
330
65
100
AcDbEntity
  8
エンボス
  6
Continuous
370
     0
100
AcDbLine
 10
20.62167878750051
 20
-97.43986766485926
 30
0.0
 11
20.62167878750057
 21
-100.7518676648589
 31
0.0
  0
LINE
  5
69
330
65
100
AcDbEntity
  8
本体
370
     0
100
AcDbLine
 10
37.90167878750151
 20
79.24813233514118
 30
0.0
 11
37.90167878750151
 21
-100.7518676648589
 31
0.0
  0
LINE
  5
6B
330
65
100
AcDbEntity
  8
エンボス
370
     0
100
AcDbLine
 10
26.66967878750091
 20
38.64013233514075
 30
0.0
 11
26.66967878750091
 21
12.93613233514055
 31
0.0
  0
LINE
  5
6C
330
65
100
AcDbEntity
  8
エンボス
370
     0
100
AcDbLine
 10
26.66967878750091
 20
40.15213233514034
 30
0.0
 11
26.66967878750091
 21
12.93613233514055
 31
0.0
  0
LINE
  5
6D
330
65
100
AcDbEntity
  8
エンボス
370
     0
100
AcDbLine
 10
20.62167878750051
 20
59.80813233514115
 30
0.0
 11
20.62167878750051
 21
32.59213233514036
 31
0.0
  0
LINE
  5
6E
330
65
100
AcDbEntity
  8
エンボス
  6
Continuous
370
     0
100
AcDbLine
 10
8.525678787500737
 20
26.54413233514095
 30
0.0
 11
20.62167878750051
 21
20.49613233514056
 31
0.0
  0
LINE
  5
6F
330
65
100
AcDbEntity
  8
エンボス
  6
Continuous
370
     0
100
AcDbLine
 10
8.525678787500737
 20
26.54413233514095
 30
0.0
 11
20.62167878750051
 21
32.59213233514036
 31
0.0
  0
LINE
  5
70
330
65
100
AcDbEntity
  8
エンボス
  6
Continuous
370
     0
100
AcDbLine
 10
8.525678787500737
 20
-91.39186766485886
 30
0.0
 11
20.62167878750051
 21
-85.34386766485942
 31
0.0
  0
LINE
  5
71
330
65
100
AcDbEntity
  8
エンボス
  6
Continuous
370
     0
100
AcDbLine
 10
8.525678787500737
 20
-91.39186766485886
 30
0.0
 11
20.62167878750051
 21
-97.43986766485926
 31
0.0
  0
LINE
  5
72
330
65
100
AcDbEntity
  8
エンボス
  6
Continuous
370
     0
100
AcDbLine
 10
8.525678787500737
 20
-52.07986766485925
 30
0.0
 11
20.62167878750051
 21
-58.12786766485965
 31
0.0
  0
LINE
  5
73
330
65
100
AcDbEntity
  8
エンボス
  6
Continuous
370
     0
100
AcDbLine
 10
8.525678787500737
 20
-52.07986766485925
 30
0.0
 11
20.62167878750051
 21
-46.03186766485886
 31
0.0
  0
LINE
  5
74
330
65
100
AcDbEntity
  8
エンボス
  6
Continuous
370
     0
100
AcDbLine
 10
8.525678787500737
 20
-12.76786766485964
 30
0.0
 11
20.62167878750051
 21
-6.719867664859251
 31
0.0
  0
LINE
  5
75
330
65
100
AcDbEntity
  8
エンボス
  6
Continuous
370
     0
100
AcDbLine
 10
8.525678787500737
 20
-12.76786766485964
 30
0.0
 11
20.62167878750051
 21
-18.81586766485905
 31
0.0
  0
LINE
  5
76
330
65
100
AcDbEntity
  8
エンボス
  6
Continuous
370
     0
100
AcDbLine
 10
38.76567878750075
 20
6.888132335141136
 30
0.0
 11
26.66967878750091
 21
12.93613233514055
 31
0.0
  0
LINE
  5
77
330
65
100
AcDbEntity
  8
エンボス
  6
Continuous
370
     0
100
AcDbLine
 10
38.76567878750075
 20
-32.42386766485945
 30
0.0
 11
26.66967878750091
 21
-26.37586766485906
 31
0.0
  0
LINE
  5
78
330
65
100
AcDbEntity
  8
エンボス
  6
Continuous
370
     0
100
AcDbLine
 10
38.76567878750075
 20
-32.42386766485945
 30
0.0
 11
26.66967878750091
 21
-26.37586766485906
 31
0.0
  0
LINE
  5
79
330
65
100
AcDbEntity
  8
エンボス
  6
Continuous
370
     0
100
AcDbLine
 10
38.76567878750075
 20
-71.73586766485906
 30
0.0
 11
26.66967878750091
 21
-77.78386766485943
 31
0.0
  0
LINE
  5
7A
330
65
100
AcDbEntity
  8
エンボス
  6
Continuous
370
     0
100
AcDbLine
 10
38.76567878750075
 20
-71.73586766485906
 30
0.0
 11
26.66967878750091
 21
-77.78386766485943
 31
0.0
  0
LINE
  5
7B
330
65
100
AcDbEntity
  8
エンボス
  6
Continuous
370
     0
100
AcDbLine
 10
38.76567878750075
 20
-71.73586766485906
 30
0.0
 11
26.66967878750091
 21
-77.78386766485943
 31
0.0
  0
LINE
  5
7C
330
65
100
AcDbEntity
  8
エンボス
  6
Continuous
370
     0
100
AcDbLine
 10
38.76567878750075
 20
-32.42386766485945
 30
0.0
 11
26.66967878750091
 21
-38.47186766485886
 31
0.0
  0
LINE
  5
7D
330
65
100
AcDbEntity
  8
エンボス
  6
Continuous
370
     0
100
AcDbLine
 10
38.76567878750075
 20
-32.42386766485945
 30
0.0
 11
26.66967878750091
 21
-38.47186766485886
 31
0.0
  0
LINE
  5
7E
330
65
100
AcDbEntity
  8
エンボス
  6
Continuous
370
     0
100
AcDbLine
 10
38.76567878750075
 20
-71.73586766485906
 30
0.0
 11
26.66967878750091
 21
-65.68786766485965
 31
0.0
  0
LINE
  5
7F
330
65
100
AcDbEntity
  8
エンボス
  6
Continuous
370
     0
100
AcDbLine
 10
38.76567878750075
 20
-71.73586766485906
 30
0.0
 11
26.66967878750091
 21
-65.68786766485965
 31
0.0
  0
LINE
  5
80
330
65
100
AcDbEntity
  8
エンボス
  6
Continuous
370
     0
100
AcDbLine
 10
38.76567878750075
 20
-71.73586766485906
 30
0.0
 11
26.66967878750091
 21
-65.68786766485965
 31
0.0
  0
LINE
  5
81
330
65
100
AcDbEntity
  8
エンボス
  6
Continuous
370
     0
100
AcDbLine
 10
26.66967878750091
 20
-38.47186766485886
 30
0.0
 11
26.66967878750091
 21
-65.68786766485965
 31
0.0
  0
LINE
  5
82
330
65
100
AcDbEntity
  8
エンボス
  6
Continuous
370
     0
100
AcDbLine
 10
26.66967878750091
 20
0.8401323351407512
 30
0.0
 11
26.66967878750091
 21
-26.37586766485906
 31
0.0
  0
LINE
  5
83
330
65
100
AcDbEntity
  8
エンボス
  6
Continuous
370
     0
100
AcDbLine
 10
20.62167878750051
 20
-18.81586766485905
 30
0.0
 11
20.62167878750051
 21
-46.03186766485886
 31
0.0
  0
LINE
  5
84
330
65
100
AcDbEntity
  8
エンボス
  6
Continuous
370
     0
100
AcDbLine
 10
20.62167878750051
 20
-58.12786766485965
 30
0.0
 11
20.62167878750051
 21
-85.34386766485942
 31
0.0
  0
LINE
  5
85
330
65
100
AcDbEntity
  8
エンボス
  6
Continuous
370
     0
100
AcDbLine
 10
20.62167878750051
 20
20.49613233514056
 30
0.0
 11
20.62167878750051
 21
-6.719867664859251
 31
0.0
  0
LINE
  5
86
330
65
100
AcDbEntity
  8
エンボス
  6
Continuous
370
     0
100
AcDbLine
 10
38.76567878750075
 20
6.888132335141136
 30
0.0
 11
26.66967878750091
 21
0.8401323351407512
 31
0.0
  0
LINE
  5
87
330
65
100
AcDbEntity
  8
エンボス
  6
Continuous
370
     0
100
AcDbLine
 10
8.525678787500737
 20
73.20013233514075
 30
0.0
 11
20.62167878750051
 21
79.24813233514118
 31
0.0
  0
LINE
  5
88
330
65
100
AcDbEntity
  8
エンボス
  6
Continuous
370
     0
100
AcDbLine
 10
8.525678787500737
 20
73.20013233514075
 30
0.0
 11
20.62167878750051
 21
59.80813233514115
 31
0.0
  0
LINE
  5
89
330
65
100
AcDbEntity
  8
エンボス
370
     0
100
AcDbLine
 10
26.66967878750091
 20
79.24813233514118
 30
0.0
 11
26.66967878750091
 21
52.24813233514115
 31
0.0
  0
LINE
  5
8A
330
65
100
AcDbEntity
  8
エンボス
  6
Continuous
370
     0
100
AcDbLine
 10
38.76567878750075
 20
46.20013233514074
 30
0.0
 11
26.66967878750091
 21
52.24813233514115
 31
0.0
  0
LINE
  5
8B
330
65
100
AcDbEntity
  8
エンボス
  6
Continuous
370
     0
100
AcDbLine
 10
38.76567878750075
 20
46.20013233514074
 30
0.0
 11
26.66967878750091
 21
40.15213233514034
 31
0.0
  0
LINE
  5
8C
330
65
100
AcDbEntity
  8
本体
370
     0
100
AcDbLine
 10
7.6616787875015
 20
79.24813233514118
 30
0.0
 11
7.6616787875015
 21
-100.7518676648589
 31
0.0
  0
MTEXT
  5
8D
330
65
100
AcDbEntity
  8
本体
  6
Continuous
370
     0
100
AcDbMText
 10
-96.91195000051369
 20
158.2682376554469
 30
0.0
 40
30.0
 41
252.8401
 71
     1
 72
     5
  1
GIB形状詳細
 73
     1
 44
1.0
1001
ACAD
1000
MTEXTBEGIN
1070
    73
1070
     1
1070
    44
1040
1.0
1070
    74
1070
     0
1000
MTEXTEND
  0
MTEXT
  5
8E
330
65
100
AcDbEntity
  8
寸法線
  6
Continuous
100
AcDbMText
 10
-147.3028652710904
 20
1772.180188660315
 30
0.0
 40
20.0
 41
17.2146
 71
     7
 72
     1
  1

 73
     1
 44
1.0
1001
ACAD
1000
MTEXTBEGIN
1070
    73
1070
     1
1070
    44
1040
1.0
1070
    74
1070
     0
1000
MTEXTEND
  0
MTEXT
  5
8F
330
65
100
AcDbEntity
  8
寸法線
  6
Continuous
100
AcDbMText
 10
125.7829597280838
 20
3773.683923873501
 30
0.0
 40
30.0
 41
17.2146
 71
     7
 72
     1
  1

 73
     1
 44
1.0
1001
ACAD
1000
MTEXTBEGIN
1070
    73
1070
     1
1070
    44
1040
1.0
1070
    74
1070
     0
1000
MTEXTEND
  0
MTEXT
  5
90
330
65
100
AcDbEntity
  8
寸法線
  6
Continuous
100
AcDbMText
 10
-609.4758544225992
 20
3746.116575025764
 30
0.0
 40
20.0
 41
17.2146
 71
     7
 72
     1
  1

 73
     1
 44
1.0
1001
ACAD
1000
MTEXTBEGIN
1070
    73
1070
     1
1070
    44
1040
1.0
1070
    74
1070
     0
1000
MTEXTEND
  0
MTEXT
  5
91
330
65
100
AcDbEntity
  8
寸法線
  6
Continuous
100
AcDbMText
 10
-147.3028652710904
 20
1754.680188660315
 30
0.0
 40
20.0
 41
17.2146
 71
     7
 72
     1
  1

 73
     1
 44
1.0
1001
ACAD
1000
MTEXTBEGIN
1070
    73
1070
     1
1070
    44
1040
1.0
1070
    74
1070
     0
1000
MTEXTEND
  0
MTEXT
  5
92
330
65
100
AcDbEntity
  8
寸法線
  6
Continuous
100
AcDbMText
 10
125.7829597280838
 20
3756.183923873501
 30
0.0
 40
30.0
 41
17.2146
 71
     7
 72
     1
  1

 73
     1
 44
1.0
1001
ACAD
1000
MTEXTBEGIN
1070
    73
1070
     1
1070
    44
1040
1.0
1070
    74
1070
     0
1000
MTEXTEND
  0
MTEXT
  5
93
330
65
100
AcDbEntity
  8
寸法線
  6
Continuous
100
AcDbMText
 10
-609.4758544225992
 20
3728.616575025763
 30
0.0
 40
20.0
 41
17.2146
 71
     7
 72
     1
  1

 73
     1
 44
1.0
1001
ACAD
1000
MTEXTBEGIN
1070
    73
1070
     1
1070
    44
1040
1.0
1070
    74
1070
     0
1000
MTEXTEND
  0
MTEXT
  5
94
330
65
100
AcDbEntity
  8
寸法線
  6
Continuous
100
AcDbMText
 10
-147.3028652710904
 20
1704.680188660315
 30
0.0
 40
20.0
 41
17.2146
 71
     7
 72
     1
  1

 73
     1
 44
1.0
1001
ACAD
1000
MTEXTBEGIN
1070
    73
1070
     1
1070
    44
1040
1.0
1070
    74
1070
     0
1000
MTEXTEND
  0
MTEXT
  5
95
330
65
100
AcDbEntity
  8
寸法線
  6
Continuous
100
AcDbMText
 10
125.7829597280838
 20
3706.183923873501
 30
0.0
 40
30.0
 41
17.2146
 71
     7
 72
     1
  1

 73
     1
 44
1.0
1001
ACAD
1000
MTEXTBEGIN
1070
    73
1070
     1
1070
    44
1040
1.0
1070
    74
1070
     0
1000
MTEXTEND
  0
MTEXT
  5
96
330
65
100
AcDbEntity
  8
寸法線
  6
Continuous
100
AcDbMText
 10
-609.4758544225992
 20
3678.616575025763
 30
0.0
 40
20.0
 41
17.2146
 71
     7
 72
     1
  1

 73
     1
 44
1.0
1001
ACAD
1000
MTEXTBEGIN
1070
    73
1070
     1
1070
    44
1040
1.0
1070
    74
1070
     0
1000
MTEXTEND
  0
MTEXT
  5
97
330
65
100
AcDbEntity
  8
寸法線
  6
Continuous
100
AcDbMText
 10
-147.3028652710904
 20
1654.680188660315
 30
0.0
 40
20.0
 41
17.2146
 71
     7
 72
     1
  1

 73
     1
 44
1.0
1001
ACAD
1000
MTEXTBEGIN
1070
    73
1070
     1
1070
    44
1040
1.0
1070
    74
1070
     0
1000
MTEXTEND
  0
MTEXT
  5
98
330
65
100
AcDbEntity
  8
寸法線
  6
Continuous
100
AcDbMText
 10
125.7829597280838
 20
3656.183923873501
 30
0.0
 40
30.0
 41
17.2146
 71
     7
 72
     1
  1

 73
     1
 44
1.0
1001
ACAD
1000
MTEXTBEGIN
1070
    73
1070
     1
1070
    44
1040
1.0
1070
    74
1070
     0
1000
MTEXTEND
  0
MTEXT
  5
99
330
65
100
AcDbEntity
  8
寸法線
  6
Continuous
100
AcDbMText
 10
-609.4758544225992
 20
3628.616575025763
 30
0.0
 40
20.0
 41
17.2146
 71
     7
 72
     1
  1

 73
     1
 44
1.0
1001
ACAD
1000
MTEXTBEGIN
1070
    73
1070
     1
1070
    44
1040
1.0
1070
    74
1070
     0
1000
MTEXTEND
  0
MTEXT
  5
9A
330
65
100
AcDbEntity
  8
寸法線
  6
Continuous
100
AcDbMText
 10
-147.3028652710904
 20
1604.680188660315
 30
0.0
 40
20.0
 41
17.2146
 71
     7
 72
     1
  1

 73
     1
 44
1.0
1001
ACAD
1000
MTEXTBEGIN
1070
    73
1070
     1
1070
    44
1040
1.0
1070
    74
1070
     0
1000
MTEXTEND
  0
MTEXT
  5
9B
330
65
100
AcDbEntity
  8
寸法線
  6
Continuous
100
AcDbMText
 10
125.7829597280838
 20
3606.183923873501
 30
0.0
 40
30.0
 41
17.2146
 71
     7
 72
     1
  1

 73
     1
 44
1.0
1001
ACAD
1000
MTEXTBEGIN
1070
    73
1070
     1
1070
    44
1040
1.0
1070
    74
1070
     0
1000
MTEXTEND
  0
MTEXT
  5
9C
330
65
100
AcDbEntity
  8
寸法線
  6
Continuous
100
AcDbMText
 10
-609.4758544225992
 20
3578.616575025763
 30
0.0
 40
20.0
 41
17.2146
 71
     7
 72
     1
  1

 73
     1
 44
1.0
1001
ACAD
1000
MTEXTBEGIN
1070
    73
1070
     1
1070
    44
1040
1.0
1070
    74
1070
     0
1000
MTEXTEND
  0
MTEXT
  5
9D
330
65
100
AcDbEntity
  8
寸法線
  6
Continuous
100
AcDbMText
 10
-147.3028652710904
 20
1554.680188660315
 30
0.0
 40
20.0
 41
17.2146
 71
     7
 72
     1
  1

 73
     1
 44
1.0
1001
ACAD
1000
MTEXTBEGIN
1070
    73
1070
     1
1070
    44
1040
1.0
1070
    74
1070
     0
1000
MTEXTEND
  0
MTEXT
  5
9E
330
65
100
AcDbEntity
  8
寸法線
  6
Continuous
100
AcDbMText
 10
125.7829597280838
 20
3556.183923873501
 30
0.0
 40
30.0
 41
17.2146
 71
     7
 72
     1
  1

 73
     1
 44
1.0
1001
ACAD
1000
MTEXTBEGIN
1070
    73
1070
     1
1070
    44
1040
1.0
1070
    74
1070
     0
1000
MTEXTEND
  0
MTEXT
  5
9F
330
65
100
AcDbEntity
  8
寸法線
  6
Continuous
100
AcDbMText
 10
-609.4758544225992
 20
3528.616575025763
 30
0.0
 40
20.0
 41
17.2146
 71
     7
 72
     1
  1

 73
     1
 44
1.0
1001
ACAD
1000
MTEXTBEGIN
1070
    73
1070
     1
1070
    44
1040
1.0
1070
    74
1070
     0
1000
MTEXTEND
  0
MTEXT
  5
A0
330
65
100
AcDbEntity
  8
寸法線
  6
Continuous
100
AcDbMText
 10
-147.3028652710904
 20
1504.680188660315
 30
0.0
 40
20.0
 41
17.2146
 71
     7
 72
     1
  1

 73
     1
 44
1.0
1001
ACAD
1000
MTEXTBEGIN
1070
    73
1070
     1
1070
    44
1040
1.0
1070
    74
1070
     0
1000
MTEXTEND
  0
MTEXT
  5
A1
330
65
100
AcDbEntity
  8
寸法線
  6
Continuous
100
AcDbMText
 10
125.7829597280838
 20
3506.183923873501
 30
0.0
 40
30.0
 41
17.2146
 71
     7
 72
     1
  1

 73
     1
 44
1.0
1001
ACAD
1000
MTEXTBEGIN
1070
    73
1070
     1
1070
    44
1040
1.0
1070
    74
1070
     0
1000
MTEXTEND
  0
MTEXT
  5
A2
330
65
100
AcDbEntity
  8
寸法線
  6
Continuous
100
AcDbMText
 10
-609.4758544225992
 20
3478.616575025763
 30
0.0
 40
20.0
 41
17.2146
 71
     7
 72
     1
  1

 73
     1
 44
1.0
1001
ACAD
1000
MTEXTBEGIN
1070
    73
1070
     1
1070
    44
1040
1.0
1070
    74
1070
     0
1000
MTEXTEND
  0
MTEXT
  5
A3
330
65
100
AcDbEntity
  8
寸法線
  6
Continuous
100
AcDbMText
 10
-147.3028652710904
 20
1454.680188660315
 30
0.0
 40
20.0
 41
17.2146
 71
     7
 72
     1
  1

 73
     1
 44
1.0
1001
ACAD
1000
MTEXTBEGIN
1070
    73
1070
     1
1070
    44
1040
1.0
1070
    74
1070
     0
1000
MTEXTEND
  0
MTEXT
  5
A4
330
65
100
AcDbEntity
  8
寸法線
  6
Continuous
100
AcDbMText
 10
125.7829597280838
 20
3456.183923873501
 30
0.0
 40
30.0
 41
17.2146
 71
     7
 72
     1
  1

 73
     1
 44
1.0
1001
ACAD
1000
MTEXTBEGIN
1070
    73
1070
     1
1070
    44
1040
1.0
1070
    74
1070
     0
1000
MTEXTEND
  0
MTEXT
  5
A5
330
65
100
AcDbEntity
  8
寸法線
  6
Continuous
100
AcDbMText
 10
-609.4758544225992
 20
3428.616575025763
 30
0.0
 40
20.0
 41
17.2146
 71
     7
 72
     1
  1

 73
     1
 44
1.0
1001
ACAD
1000
MTEXTBEGIN
1070
    73
1070
     1
1070
    44
1040
1.0
1070
    74
1070
     0
1000
MTEXTEND
  0
LWPOLYLINE
  5
A6
330
65
100
AcDbEntity
  8
本体
  6
Continuous
100
AcDbPolyline
 90
        4
 70
     1
 43
0.0
 10
-139.6145379512674
 20
168.6157088891093
 10
194.701175139303
 20
168.6157088891093
 10
194.701175139303
 20
-117.6274822929807
 10
-139.6145379512674
 20
-117.6274822929807
  0
HATCH
  5
A7
330
65
100
AcDbEntity
  8
エンボス
  6
Continuous
100
AcDbHatch
 10
0.0
 20
0.0
 30
0.0
210
0.0
220
0.0
230
1.0
  2
ANSI31
 70
     0
 71
     0
 91
        1
 92
        7
 72
     0
 73
     1
 93
       34
 10
26.66967878750092
 20
40.15213233514035
 10
37.90167878750151
 20
45.76813233514108
 10
37.90167878750151
 20
46.63213233514041
 10
26.66967878750092
 20
52.24813233514115
 10
26.66967878750091
 20
79.24813233514116
 10
20.62167878750047
 20
79.24813233514116
 10
8.525678787500744
 20
73.20013233514076
 10
20.62167878750051
 20
59.80813233514115
 10
20.62167878750051
 20
32.59213233514036
 10
8.525678787500737
 20
26.54413233514094
 10
20.62167878750051
 20
20.49613233514056
 10
20.62167878750051
 20
-6.719867664859251
 10
8.525678787500737
 20
-12.76786766485964
 10
20.62167878750051
 20
-18.81586766485905
 10
20.62167878750051
 20
-46.03186766485887
 10
8.525678787500737
 20
-52.07986766485925
 10
20.62167878750051
 20
-58.12786766485965
 10
20.62167878750051
 20
-85.34386766485944
 10
8.525678787500737
 20
-91.39186766485885
 10
20.62167878750051
 20
-97.43986766485924
 10
20.62167878750057
 20
-100.7518676648588
 10
26.66967878750109
 20
-100.7518676648589
 10
26.66967878750091
 20
-77.78386766485944
 10
37.90167878750151
 20
-72.16786766485872
 10
37.90167878750151
 20
-71.30386766485948
 10
26.66967878750091
 20
-65.68786766485963
 10
26.66967878750091
 20
-38.47186766485886
 10
37.90167878750151
 20
-32.85586766485902
 10
37.90167878750151
 20
-31.99186766485979
 10
26.66967878750091
 20
-26.37586766485906
 10
26.66967878750091
 20
0.8401323351407494
 10
37.90167878750151
 20
6.456132335141482
 10
37.90167878750151
 20
7.320132335140719
 10
26.66967878750091
 20
12.93613233514056
 97
        0
 75
     0
 76
     1
 52
0.0
 41
0.5
 77
     0
 78
     1
 53
45.0
 43
8.525678787500737
 44
-12.76786766485964
 45
-1.122532015133643
 46
1.122532015133644
 79
     0
 47
0.5074757335946297
 98
        1
 10
23.11907519037527
 20
30.63971558616095
  0
MTEXT
  5
A8
330
65
100
AcDbEntity
  8
本体
  6
Continuous
100
AcDbMText
 10
-79.8847425412946
 20
110.9530386434795
 30
0.0
 40
15.0
 41
230.6957
 71
     1
 72
     5
  1
※塗りつぶし部分突起
 73
     1
 44
1.0
1001
ACAD
1000
MTEXTBEGIN
1070
    73
1070
     1
1070
    44
1040
1.0
1070
    74
1070
     0
1000
MTEXTEND
  0
ENDBLK
  5
AA
330
65
100
AcDbEntity
  8
0
100
AcDbBlockEnd
  0
BLOCK
  5
1D4
330
1CE
100
AcDbEntity
  8
0
100
AcDbBlockBegin
  2
TB8
 70
     0
 10
0.0
 20
0.0
 30
0.0
  3
TB8
  1

  0
MTEXT
  5
1CF
330
1CE
100
AcDbEntity
  8
寸法線
  6
Continuous
100
AcDbMText
 10
917.3216494432054
 20
235.349302881973
 30
0.0
 40
20.0
 41
17.2146
 71
     7
 72
     1
  1

 73
     1
 44
1.0
1001
ACAD
1000
MTEXTBEGIN
1070
    73
1070
     1
1070
    44
1040
1.0
1070
    74
1070
     0
1000
MTEXTEND
  0
LINE
  5
1D0
330
1CE
100
AcDbEntity
  8
本体
  6
CENTER
 62
     1
 48
0.3
100
AcDbLine
 10
10.0
 20
0.0
 30
0.0
 11
-2.0
 21
0.0
 31
0.0
  0
LINE
  5
1D2
330
1CE
100
AcDbEntity
  8
本体
  6
CENTER
 62
     1
 48
0.3
100
AcDbLine
 10
4.0
 20
6.0
 30
0.0
 11
4.0
 21
-6.0
 31
0.0
  0
CIRCLE
  5
1D3
330
1CE
100
AcDbEntity
  8
本体
  6
Continuous
 62
     0
100
AcDbCircle
 10
4.0
 20
0.0
 30
0.0
 40
4.0
  0
ENDBLK
  5
1D5
330
1CE
100
AcDbEntity
  8
0
100
AcDbBlockEnd
  0
BLOCK
  5
375
330
36B
100
AcDbEntity
  8
0
100
AcDbBlockBegin
  2
7mm部材エンボス4
 70
     0
 10
0.0
 20
0.0
 30
0.0
  3
7mm部材エンボス4
  1

  0
MTEXT
  5
36C
330
36B
100
AcDbEntity
  8
寸法線
  6
Continuous
100
AcDbMText
 10
917.3216494432054
 20
235.349302881973
 30
0.0
 40
20.0
 41
17.2146
 71
     7
 72
     1
  1

 73
     1
 44
1.0
1001
ACAD
1000
MTEXTBEGIN
1070
    73
1070
     1
1070
    44
1040
1.0
1070
    74
1070
     0
1000
MTEXTEND
  0
MTEXT
  5
36D
330
36B
100
AcDbEntity
  8
0
100
AcDbMText
 10
2327.749997480685
 20
659.5642887207104
 30
0.0
 40
25.0
 41
224.7356
 71
     1
 72
     5
  1

 73
     1
 44
1.0
1001
ACAD
1000
MTEXTBEGIN
1070
    73
1070
     1
1070
    44
1040
1.0
1070
    74
1070
     0
1000
MTEXTEND
  0
MTEXT
  5
36E
330
36B
100
AcDbEntity
  8
0
100
AcDbMText
 10
2703.230485829543
 20
524.4532996843136
 30
0.0
 40
28.0
 41
603.8372
 71
     1
 72
     5
  1

 73
     1
 44
1.0
1001
ACAD
1000
MTEXTBEGIN
1070
    73
1070
     1
1070
    44
1040
1.0
1070
    74
1070
     0
1000
MTEXTEND
  0
LINE
  5
36F
330
36B
100
AcDbEntity
  8
0
  6
Continuous
100
AcDbLine
 10
7.000000000000001
 20
15.300094
 30
0.0
 11
0.0
 21
13.300094
 31
0.0
  0
LINE
  5
370
330
36B
100
AcDbEntity
  8
0
  6
Continuous
100
AcDbLine
 10
0.0
 20
20.300094
 30
0.0
 11
7.000000000000001
 21
18.300094
 31
0.0
  0
LINE
  5
371
330
36B
100
AcDbEntity
  8
0
  6
Continuous
100
AcDbLine
 10
-0.0000000000000018
 20
32.30009400000005
 30
0.0
 11
7.0
 21
34.30009400000005
 31
0.0
  0
LINE
  5
372
330
36B
100
AcDbEntity
  8
0
  6
Continuous
100
AcDbLine
 10
7.0
 20
27.30009400000003
 30
0.0
 11
-0.0000000000000018
 21
29.30009400000005
 31
0.0
  0
LINE
  5
373
330
36B
100
AcDbEntity
  8
0
  6
Continuous
100
AcDbLine
 10
0.0000000000000009
 20
48.300094
 30
0.0
 11
7.000000000000003
 21
46.300094
 31
0.0
  0
LINE
  5
374
330
36B
100
AcDbEntity
  8
0
  6
Continuous
100
AcDbLine
 10
7.000000000000003
 20
43.300094
 30
0.0
 11
0.0000000000000009
 21
41.300094
 31
0.0
  0
ENDBLK
  5
376
330
36B
100
AcDbEntity
  8
0
100
AcDbBlockEnd
  0
BLOCK
  5
821
330
817
100
AcDbEntity
  8
0
 48
3.0
100
AcDbBlockBegin
  2
*D7
 70
     1
 10
0.0
 20
0.0
 30
0.0
  3
*D7
  1

  0
LINE
  5
19BD
330
817
100
AcDbEntity
  8
寸法線
  6
Continuous
 62
     0
 48
3.0
370
    -2
100
AcDbLine
 10
1428.333797992348
 20
388.4072884571137
 30
0.0
 11
1428.333797992348
 21
313.4072884571137
 31
0.0
  0
LINE
  5
19BE
330
817
100
AcDbEntity
  8
寸法線
  6
Continuous
 62
     0
 48
3.0
370
    -2
100
AcDbLine
 10
453.333797992348
 20
388.4072884571137
 30
0.0
 11
453.333797992348
 21
313.4072884571137
 31
0.0
  0
LINE
  5
19BF
330
817
100
AcDbEntity
  8
寸法線
  6
Continuous
 62
     0
 48
3.0
370
    -2
100
AcDbLine
 10
1413.333797992348
 20
328.4072884571137
 30
0.0
 11
468.333797992348
 21
328.4072884571137
 31
0.0
  0
INSERT
  5
19C0
330
817
100
AcDbEntity
  8
寸法線
  6
Continuous
 62
     0
 48
3.0
370
    -2
100
AcDbBlockReference
  2
_Open30
 10
1428.333797992348
 20
328.4072884571137
 30
0.0
 41
15.0
 42
15.0
 43
15.0
  0
INSERT
  5
19C1
330
817
100
AcDbEntity
  8
寸法線
  6
Continuous
 62
     0
 48
3.0
370
    -2
100
AcDbBlockReference
  2
_Open30
 10
453.333797992348
 20
328.4072884571137
 30
0.0
 41
15.0
 42
15.0
 43
15.0
 50
180.0
  0
MTEXT
  5
19C2
330
817
100
AcDbEntity
  8
寸法線
  6
Continuous
 62
     0
 48
3.0
100
AcDbMText
 10
940.833797992348
 20
348.4072884571137
 30
0.0
 40
30.0
 41
0.0
 71
     5
 72
     1
  1
975
 73
     1
 44
1.0
1001
ACAD
1000
MTEXTBEGIN
1070
    73
1070
     1
1070
    44
1040
1.0
1070
    74
1070
     0
1000
MTEXTEND
  0
POINT
  5
19C3
330
817
100
AcDbEntity
  8
Defpoints
  6
Continuous
 62
     0
 48
3.0
100
AcDbPoint
 10
1428.333797992348
 20
408.4072884571137
 30
0.0
  0
POINT
  5
19C4
330
817
100
AcDbEntity
  8
Defpoints
  6
Continuous
 62
     0
 48
3.0
100
AcDbPoint
 10
453.333797992348
 20
408.4072884571137
 30
0.0
  0
POINT
  5
19C5
330
817
100
AcDbEntity
  8
Defpoints
  6
Continuous
 62
     0
 48
3.0
100
AcDbPoint
 10
453.333797992348
 20
328.4072884571137
 30
0.0
  0
ENDBLK
  5
822
330
817
100
AcDbEntity
  8
0
 48
3.0
100
AcDbBlockEnd
  0
BLOCK
  5
1F1
330
1E4
100
AcDbEntity
  8
0
 48
3.0
100
AcDbBlockBegin
  2
*D8
 70
     1
 10
0.0
 20
0.0
 30
0.0
  3
*D8
  1

  0
LINE
  5
19CF
330
1E4
100
AcDbEntity
  8
寸法線
  6
Continuous
 62
     0
 48
3.0
370
    -2
100
AcDbLine
 10
1188.133797992348
 20
568.4072884571137
 30
0.0
 11
1188.133797992348
 21
643.4072884571137
 31
0.0
  0
LINE
  5
19D0
330
1E4
100
AcDbEntity
  8
寸法線
  6
Continuous
 62
     0
 48
3.0
370
    -2
100
AcDbLine
 10
1223.433797992347
 20
568.4072884571137
 30
0.0
 11
1223.433797992347
 21
643.4072884571137
 31
0.0
  0
LINE
  5
19D1
330
1E4
100
AcDbEntity
  8
寸法線
  6
Continuous
 62
     0
 48
3.0
370
    -2
100
AcDbLine
 10
1173.133797992348
 20
628.4072884571137
 30
0.0
 11
1158.133797992348
 21
628.4072884571137
 31
0.0
  0
LINE
  5
19D2
330
1E4
100
AcDbEntity
  8
寸法線
  6
Continuous
 62
     0
 48
3.0
370
    -2
100
AcDbLine
 10
1238.433797992347
 20
628.4072884571137
 30
0.0
 11
1337.443950276611
 21
628.4072884571137
 31
0.0
  0
LINE
  5
19D3
330
1E4
100
AcDbEntity
  8
寸法線
  6
Continuous
 62
     0
 48
3.0
370
    -2
100
AcDbLine
 10
1188.133797992348
 20
628.4072884571137
 30
0.0
 11
1223.433797992347
 21
628.4072884571137
 31
0.0
  0
INSERT
  5
19D4
330
1E4
100
AcDbEntity
  8
寸法線
  6
Continuous
 62
     0
 48
3.0
370
    -2
100
AcDbBlockReference
  2
_Open30
 10
1188.133797992348
 20
628.4072884571137
 30
0.0
 41
15.0
 42
15.0
 43
15.0
  0
INSERT
  5
19D5
330
1E4
100
AcDbEntity
  8
寸法線
  6
Continuous
 62
     0
 48
3.0
370
    -2
100
AcDbBlockReference
  2
_Open30
 10
1223.433797992347
 20
628.4072884571137
 30
0.0
 41
15.0
 42
15.0
 43
15.0
 50
180.0
  0
MTEXT
  5
19D6
330
1E4
100
AcDbEntity
  8
寸法線
  6
Continuous
 62
     0
 48
3.0
100
AcDbMText
 10
1295.438874134479
 20
648.4072884571137
 30
0.0
 40
30.0
 41
0.0
 71
     5
 72
     1
  1
35.3
 73
     1
 44
1.0
1001
ACAD
1000
MTEXTBEGIN
1070
    73
1070
     1
1070
    44
1040
1.0
1070
    74
1070
     0
1000
MTEXTEND
  0
POINT
  5
19D7
330
1E4
100
AcDbEntity
  8
Defpoints
  6
Continuous
 62
     0
 48
3.0
100
AcDbPoint
 10
1188.133797992348
 20
548.4072884571137
 30
0.0
  0
POINT
  5
19D8
330
1E4
100
AcDbEntity
  8
Defpoints
  6
Continuous
 62
     0
 48
3.0
100
AcDbPoint
 10
1223.433797992347
 20
548.4072884571137
 30
0.0
  0
POINT
  5
19D9
330
1E4
100
AcDbEntity
  8
Defpoints
  6
Continuous
 62
     0
 48
3.0
100
AcDbPoint
 10
1223.433797992347
 20
628.4072884571137
 30
0.0
  0
ENDBLK
  5
1F2
330
1E4
100
AcDbEntity
  8
0
 48
3.0
100
AcDbBlockEnd
  0
BLOCK
  5
1FE
330
1F4
100
AcDbEntity
  8
0
 48
3.0
100
AcDbBlockBegin
  2
*D9
 70
     1
 10
0.0
 20
0.0
 30
0.0
  3
*D9
  1

  0
LINE
  5
19C6
330
1F4
100
AcDbEntity
  8
寸法線
  6
Continuous
 62
     0
 48
3.0
370
    -2
100
AcDbLine
 10
443.333797992348
 20
568.4072884571137
 30
0.0
 11
443.333797992348
 21
723.4072884571137
 31
0.0
  0
LINE
  5
19C7
330
1F4
100
AcDbEntity
  8
寸法線
  6
Continuous
 62
     0
 48
3.0
370
    -2
100
AcDbLine
 10
1438.333797992348
 20
568.4072884571137
 30
0.0
 11
1438.333797992348
 21
723.4072884571137
 31
0.0
  0
LINE
  5
19C8
330
1F4
100
AcDbEntity
  8
寸法線
  6
Continuous
 62
     0
 48
3.0
370
    -2
100
AcDbLine
 10
458.3337979923481
 20
708.4072884571137
 30
0.0
 11
1423.333797992348
 21
708.4072884571137
 31
0.0
  0
INSERT
  5
19C9
330
1F4
100
AcDbEntity
  8
寸法線
  6
Continuous
 62
     0
 48
3.0
370
    -2
100
AcDbBlockReference
  2
_Open30
 10
443.333797992348
 20
708.4072884571137
 30
0.0
 41
15.0
 42
15.0
 43
15.0
 50
180.0
  0
INSERT
  5
19CA
330
1F4
100
AcDbEntity
  8
寸法線
  6
Continuous
 62
     0
 48
3.0
370
    -2
100
AcDbBlockReference
  2
_Open30
 10
1438.333797992348
 20
708.4072884571137
 30
0.0
 41
15.0
 42
15.0
 43
15.0
  0
MTEXT
  5
19CB
330
1F4
100
AcDbEntity
  8
寸法線
  6
Continuous
 62
     0
 48
3.0
100
AcDbMText
 10
940.833797992348
 20
728.4072884571137
 30
0.0
 40
30.0
 41
0.0
 71
     5
 72
     1
  1
995
 73
     1
 44
1.0
1001
ACAD
1000
MTEXTBEGIN
1070
    73
1070
     1
1070
    44
1040
1.0
1070
    74
1070
     0
1000
MTEXTEND
  0
POINT
  5
19CC
330
1F4
100
AcDbEntity
  8
Defpoints
  6
Continuous
 62
     0
 48
3.0
100
AcDbPoint
 10
443.333797992348
 20
548.4072884571137
 30
0.0
  0
POINT
  5
19CD
330
1F4
100
AcDbEntity
  8
Defpoints
  6
Continuous
 62
     0
 48
3.0
100
AcDbPoint
 10
1438.333797992348
 20
548.4072884571137
 30
0.0
  0
POINT
  5
19CE
330
1F4
100
AcDbEntity
  8
Defpoints
  6
Continuous
 62
     0
 48
3.0
100
AcDbPoint
 10
1438.333797992348
 20
708.4072884571137
 30
0.0
  0
ENDBLK
  5
1FF
330
1F4
100
AcDbEntity
  8
0
 48
3.0
100
AcDbBlockEnd
  0
BLOCK
  5
218
330
20E
100
AcDbEntity
  8
0
 48
3.0
100
AcDbBlockBegin
  2
*D10
 70
     1
 10
0.0
 20
0.0
 30
0.0
  3
*D10
  1

  0
LINE
  5
19FE
330
20E
100
AcDbEntity
  8
寸法線
  6
Continuous
 62
     0
 48
3.0
370
    -2
100
AcDbLine
 10
1898.644268492681
 20
1631.198976504248
 30
0.0
 11
1743.644268492682
 21
1631.198976504248
 31
0.0
  0
LINE
  5
19FF
330
20E
100
AcDbEntity
  8
寸法線
  6
Continuous
 62
     0
 48
3.0
370
    -2
100
AcDbLine
 10
1898.644268492681
 20
936.1989765042485
 30
0.0
 11
1743.644268492681
 21
936.1989765042487
 31
0.0
  0
LINE
  5
1A00
330
20E
100
AcDbEntity
  8
寸法線
  6
Continuous
 62
     0
 48
3.0
370
    -2
100
AcDbLine
 10
1758.644268492682
 20
1616.198976504248
 30
0.0
 11
1758.644268492681
 21
951.1989765042486
 31
0.0
  0
INSERT
  5
1A01
330
20E
100
AcDbEntity
  8
寸法線
  6
Continuous
 62
     0
 48
3.0
370
    -2
100
AcDbBlockReference
  2
_Open30
 10
1758.644268492682
 20
1631.198976504248
 30
0.0
 41
15.0
 42
15.0
 43
15.0
 50
90.0
  0
INSERT
  5
1A02
330
20E
100
AcDbEntity
  8
寸法線
  6
Continuous
 62
     0
 48
3.0
370
    -2
100
AcDbBlockReference
  2
_Open30
 10
1758.644268492681
 20
936.1989765042487
 30
0.0
 41
15.0
 42
15.0
 43
15.0
 50
270.0
  0
MTEXT
  5
1A03
330
20E
100
AcDbEntity
  8
寸法線
  6
Continuous
 62
     0
 48
3.0
100
AcDbMText
 10
1738.644268492681
 20
1283.698976504249
 30
0.0
 40
30.0
 41
0.0
 71
     5
 72
     1
  1
695
 11
0.0000000000000001
 21
1.0
 31
0.0
 73
     1
 44
1.0
1001
ACAD
1000
MTEXTBEGIN
1070
    73
1070
     1
1070
    44
1040
1.0
1070
    74
1070
     0
1000
MTEXTEND
  0
POINT
  5
1A04
330
20E
100
AcDbEntity
  8
Defpoints
  6
Continuous
 62
     0
 48
3.0
100
AcDbPoint
 10
1918.644268492681
 20
1631.198976504248
 30
0.0
  0
POINT
  5
1A05
330
20E
100
AcDbEntity
  8
Defpoints
  6
Continuous
 62
     0
 48
3.0
100
AcDbPoint
 10
1918.644268492681
 20
936.1989765042485
 30
0.0
  0
POINT
  5
1A06
330
20E
100
AcDbEntity
  8
Defpoints
  6
Continuous
 62
     0
 48
3.0
100
AcDbPoint
 10
1758.644268492681
 20
936.1989765042487
 30
0.0
  0
ENDBLK
  5
219
330
20E
100
AcDbEntity
  8
0
 48
3.0
100
AcDbBlockEnd
  0
BLOCK
  5
225
330
21B
100
AcDbEntity
  8
0
 48
3.0
100
AcDbBlockBegin
  2
*D11
 70
     1
 10
0.0
 20
0.0
 30
0.0
  3
*D11
  1

  0
LINE
  5
19F5
330
21B
100
AcDbEntity
  8
寸法線
  6
Continuous
 62
     0
 48
3.0
370
    -2
100
AcDbLine
 10
2070.644265492681
 20
1621.198977504248
 30
0.0
 11
2153.645187000558
 21
1621.198977504248
 31
0.0
  0
LINE
  5
19F6
330
21B
100
AcDbEntity
  8
寸法線
  6
Continuous
 62
     0
 48
3.0
370
    -2
100
AcDbLine
 10
2070.644265492681
 20
946.1989755042486
 30
0.0
 11
2153.645187000558
 21
946.1989755042486
 31
0.0
  0
LINE
  5
19F7
330
21B
100
AcDbEntity
  8
寸法線
  6
Continuous
 62
     0
 48
3.0
370
    -2
100
AcDbLine
 10
2138.645187000558
 20
1606.198977504249
 30
0.0
 11
2138.645187000558
 21
961.1989755042486
 31
0.0
  0
INSERT
  5
19F8
330
21B
100
AcDbEntity
  8
寸法線
  6
Continuous
 62
     0
 48
3.0
370
    -2
100
AcDbBlockReference
  2
_Open30
 10
2138.645187000558
 20
1621.198977504248
 30
0.0
 41
15.0
 42
15.0
 43
15.0
 50
90.0
  0
INSERT
  5
19F9
330
21B
100
AcDbEntity
  8
寸法線
  6
Continuous
 62
     0
 48
3.0
370
    -2
100
AcDbBlockReference
  2
_Open30
 10
2138.645187000558
 20
946.1989755042486
 30
0.0
 41
15.0
 42
15.0
 43
15.0
 50
270.0
  0
MTEXT
  5
19FA
330
21B
100
AcDbEntity
  8
寸法線
  6
Continuous
 62
     0
 48
3.0
100
AcDbMText
 10
2118.645187000558
 20
1283.698976504249
 30
0.0
 40
30.0
 41
0.0
 71
     5
 72
     1
  1
675
 11
0.0000000000000001
 21
1.0
 31
0.0
 73
     1
 44
1.0
1001
ACAD
1000
MTEXTBEGIN
1070
    73
1070
     1
1070
    44
1040
1.0
1070
    74
1070
     0
1000
MTEXTEND
  0
POINT
  5
19FB
330
21B
100
AcDbEntity
  8
Defpoints
  6
Continuous
 62
     0
 48
3.0
100
AcDbPoint
 10
2050.644265492682
 20
1621.198977504248
 30
0.0
  0
POINT
  5
19FC
330
21B
100
AcDbEntity
  8
Defpoints
  6
Continuous
 62
     0
 48
3.0
100
AcDbPoint
 10
2050.644265492682
 20
946.1989755042486
 30
0.0
  0
POINT
  5
19FD
330
21B
100
AcDbEntity
  8
Defpoints
  6
Continuous
 62
     0
 48
3.0
100
AcDbPoint
 10
2138.645187000558
 20
946.1989755042486
 30
0.0
  0
ENDBLK
  5
226
330
21B
100
AcDbEntity
  8
0
 48
3.0
100
AcDbBlockEnd
  0
BLOCK
  5
23A
330
230
100
AcDbEntity
  8
0
 48
3.0
100
AcDbBlockBegin
  2
*D12
 70
     1
 10
0.0
 20
0.0
 30
0.0
  3
*D12
  1

  0
LINE
  5
19EC
330
230
100
AcDbEntity
  8
寸法線
  6
Continuous
 62
     0
 48
3.0
370
    -2
100
AcDbLine
 10
1450.833797992348
 20
493.4072884571137
 30
0.0
 11
1563.338421916111
 21
493.4072884571137
 31
0.0
  0
LINE
  5
19ED
330
230
100
AcDbEntity
  8
寸法線
  6
Continuous
 62
     0
 48
3.0
370
    -2
100
AcDbLine
 10
1455.833797992348
 20
548.4072884571137
 30
0.0
 11
1563.338421916112
 21
548.4072884571137
 31
0.0
  0
LINE
  5
19EE
330
230
100
AcDbEntity
  8
寸法線
  6
Continuous
 62
     0
 48
3.0
370
    -2
100
AcDbLine
 10
1548.338421916112
 20
508.4072884571137
 30
0.0
 11
1548.338421916112
 21
533.4072884571137
 31
0.0
  0
INSERT
  5
19EF
330
230
100
AcDbEntity
  8
寸法線
  6
Continuous
 62
     0
 48
3.0
370
    -2
100
AcDbBlockReference
  2
_Open30
 10
1548.338421916112
 20
493.4072884571137
 30
0.0
 41
15.0
 42
15.0
 43
15.0
 50
270.0
  0
INSERT
  5
19F0
330
230
100
AcDbEntity
  8
寸法線
  6
Continuous
 62
     0
 48
3.0
370
    -2
100
AcDbBlockReference
  2
_Open30
 10
1548.338421916112
 20
548.4072884571137
 30
0.0
 41
15.0
 42
15.0
 43
15.0
 50
90.0
  0
MTEXT
  5
19F1
330
230
100
AcDbEntity
  8
寸法線
  6
Continuous
 62
     0
 48
3.0
100
AcDbMText
 10
1528.338421916112
 20
520.9072884571139
 30
0.0
 40
30.0
 41
0.0
 71
     5
 72
     1
  1
55
 11
0.0000000000000001
 21
1.0
 31
0.0
 73
     1
 44
1.0
1001
ACAD
1000
MTEXTBEGIN
1070
    73
1070
     1
1070
    44
1040
1.0
1070
    74
1070
     0
1000
MTEXTEND
  0
POINT
  5
19F2
330
230
100
AcDbEntity
  8
Defpoints
  6
Continuous
 62
     0
 48
3.0
100
AcDbPoint
 10
1430.833797992348
 20
493.4072884571137
 30
0.0
  0
POINT
  5
19F3
330
230
100
AcDbEntity
  8
Defpoints
  6
Continuous
 62
     0
 48
3.0
100
AcDbPoint
 10
1435.833797992348
 20
548.4072884571137
 30
0.0
  0
POINT
  5
19F4
330
230
100
AcDbEntity
  8
Defpoints
  6
Continuous
 62
     0
 48
3.0
100
AcDbPoint
 10
1548.338421916112
 20
548.4072884571137
 30
0.0
  0
ENDBLK
  5
23B
330
230
100
AcDbEntity
  8
0
 48
3.0
100
AcDbBlockEnd
  0
BLOCK
  5
247
330
23D
100
AcDbEntity
  8
0
 48
3.0
100
AcDbBlockBegin
  2
*D13
 70
     1
 10
0.0
 20
0.0
 30
0.0
  3
*D13
  1

  0
LINE
  5
19DA
330
23D
100
AcDbEntity
  8
寸法線
  6
Continuous
 62
     0
 48
3.0
370
    -2
100
AcDbLine
 10
1450.833797992348
 20
408.4072884571137
 30
0.0
 11
1643.340544681824
 21
408.4072884571137
 31
0.0
  0
LINE
  5
19DB
330
23D
100
AcDbEntity
  8
寸法線
  6
Continuous
 62
     0
 48
3.0
370
    -2
100
AcDbLine
 10
1455.833797992348
 20
548.4072884571137
 30
0.0
 11
1643.340544681824
 21
548.4072884571137
 31
0.0
  0
LINE
  5
19DC
330
23D
100
AcDbEntity
  8
寸法線
  6
Continuous
 62
     0
 48
3.0
370
    -2
100
AcDbLine
 10
1628.340544681824
 20
423.4072884571137
 30
0.0
 11
1628.340544681824
 21
533.4072884571137
 31
0.0
  0
INSERT
  5
19DD
330
23D
100
AcDbEntity
  8
寸法線
  6
Continuous
 62
     0
 48
3.0
370
    -2
100
AcDbBlockReference
  2
_Open30
 10
1628.340544681824
 20
408.4072884571137
 30
0.0
 41
15.0
 42
15.0
 43
15.0
 50
270.0
  0
INSERT
  5
19DE
330
23D
100
AcDbEntity
  8
寸法線
  6
Continuous
 62
     0
 48
3.0
370
    -2
100
AcDbBlockReference
  2
_Open30
 10
1628.340544681824
 20
548.4072884571137
 30
0.0
 41
15.0
 42
15.0
 43
15.0
 50
90.0
  0
MTEXT
  5
19DF
330
23D
100
AcDbEntity
  8
寸法線
  6
Continuous
 62
     0
 48
3.0
100
AcDbMText
 10
1608.340544681824
 20
478.4072884571139
 30
0.0
 40
30.0
 41
0.0
 71
     5
 72
     1
  1
140
 11
0.0000000000000001
 21
1.0
 31
0.0
 73
     1
 44
1.0
1001
ACAD
1000
MTEXTBEGIN
1070
    73
1070
     1
1070
    44
1040
1.0
1070
    74
1070
     0
1000
MTEXTEND
  0
POINT
  5
19E0
330
23D
100
AcDbEntity
  8
Defpoints
  6
Continuous
 62
     0
 48
3.0
100
AcDbPoint
 10
1430.833797992348
 20
408.4072884571137
 30
0.0
  0
POINT
  5
19E1
330
23D
100
AcDbEntity
  8
Defpoints
  6
Continuous
 62
     0
 48
3.0
100
AcDbPoint
 10
1435.833797992348
 20
548.4072884571137
 30
0.0
  0
POINT
  5
19E2
330
23D
100
AcDbEntity
  8
Defpoints
  6
Continuous
 62
     0
 48
3.0
100
AcDbPoint
 10
1628.340544681824
 20
548.4072884571137
 30
0.0
  0
ENDBLK
  5
248
330
23D
100
AcDbEntity
  8
0
 48
3.0
100
AcDbBlockEnd
  0
BLOCK
  5
868
330
85E
100
AcDbEntity
  8
0
 48
3.0
100
AcDbBlockBegin
  2
*D14
 70
     1
 10
0.0
 20
0.0
 30
0.0
  3
*D14
  1

  0
LINE
  5
1A07
330
85E
100
AcDbEntity
  8
寸法線
 62
     0
 48
3.0
370
    -2
100
AcDbLine
 10
1898.644268492681
 20
1583.698976504248
 30
0.0
 11
1823.644268492682
 21
1583.698976504248
 31
0.0
  0
LINE
  5
1A08
330
85E
100
AcDbEntity
  8
寸法線
 62
     0
 48
3.0
370
    -2
100
AcDbLine
 10
1896.644268492681
 20
1533.698976504248
 30
0.0
 11
1823.644268492681
 21
1533.698976504248
 31
0.0
  0
LINE
  5
1A09
330
85E
100
AcDbEntity
  8
寸法線
 62
     0
 48
3.0
370
    -2
100
AcDbLine
 10
1838.644268492681
 20
1568.698976504248
 30
0.0
 11
1838.644268492681
 21
1548.698976504248
 31
0.0
  0
INSERT
  5
1A0A
330
85E
100
AcDbEntity
  8
寸法線
 62
     0
 48
3.0
370
    -2
100
AcDbBlockReference
  2
_Open30
 10
1838.644268492681
 20
1583.698976504248
 30
0.0
 41
15.0
 42
15.0
 43
15.0
 50
90.0
  0
INSERT
  5
1A0B
330
85E
100
AcDbEntity
  8
寸法線
 62
     0
 48
3.0
370
    -2
100
AcDbBlockReference
  2
_Open30
 10
1838.644268492681
 20
1533.698976504248
 30
0.0
 41
15.0
 42
15.0
 43
15.0
 50
270.0
  0
MTEXT
  5
1A0C
330
85E
100
AcDbEntity
  8
寸法線
 62
     0
 48
3.0
100
AcDbMText
 10
1818.644268492681
 20
1558.698976504249
 30
0.0
 40
30.0
 41
0.0
 71
     5
 72
     1
  1
50
 11
0.0000000000000001
 21
1.0
 31
0.0
 73
     1
 44
1.0
1001
ACAD
1000
MTEXTBEGIN
1070
    73
1070
     1
1070
    44
1040
1.0
1070
    74
1070
     0
1000
MTEXTEND
  0
POINT
  5
1A0D
330
85E
100
AcDbEntity
  8
Defpoints
 62
     0
 48
3.0
100
AcDbPoint
 10
1918.644268492681
 20
1583.698976504248
 30
0.0
  0
POINT
  5
1A0E
330
85E
100
AcDbEntity
  8
Defpoints
 62
     0
 48
3.0
100
AcDbPoint
 10
1916.644268492681
 20
1533.698976504248
 30
0.0
  0
POINT
  5
1A0F
330
85E
100
AcDbEntity
  8
Defpoints
 62
     0
 48
3.0
100
AcDbPoint
 10
1838.644268492681
 20
1533.698976504248
 30
0.0
  0
ENDBLK
  5
869
330
85E
100
AcDbEntity
  8
0
 48
3.0
100
AcDbBlockEnd
  0
BLOCK
  5
15F6
330
15EC
100
AcDbEntity
  8
0
 48
3.0
100
AcDbBlockBegin
  2
*D15
 70
     1
 10
0.0
 20
0.0
 30
0.0
  3
*D15
  1

  0
LINE
  5
19E3
330
15EC
100
AcDbEntity
  8
寸法線
 62
     0
 48
3.0
370
    -2
100
AcDbLine
 10
1448.333797992348
 20
408.4072884571137
 30
0.0
 11
1563.338421916112
 21
408.4072884571137
 31
0.0
  0
LINE
  5
19E4
330
15EC
100
AcDbEntity
  8
寸法線
 62
     0
 48
3.0
370
    -2
100
AcDbLine
 10
1448.333797992348
 20
493.4072884571137
 30
0.0
 11
1563.338421916112
 21
493.4072884571137
 31
0.0
  0
LINE
  5
19E5
330
15EC
100
AcDbEntity
  8
寸法線
 62
     0
 48
3.0
370
    -2
100
AcDbLine
 10
1548.338421916112
 20
423.4072884571137
 30
0.0
 11
1548.338421916112
 21
478.4072884571137
 31
0.0
  0
INSERT
  5
19E6
330
15EC
100
AcDbEntity
  8
寸法線
 62
     0
 48
3.0
370
    -2
100
AcDbBlockReference
  2
_Open30
 10
1548.338421916112
 20
408.4072884571137
 30
0.0
 41
15.0
 42
15.0
 43
15.0
 50
270.0
  0
INSERT
  5
19E7
330
15EC
100
AcDbEntity
  8
寸法線
 62
     0
 48
3.0
370
    -2
100
AcDbBlockReference
  2
_Open30
 10
1548.338421916112
 20
493.4072884571137
 30
0.0
 41
15.0
 42
15.0
 43
15.0
 50
90.0
  0
MTEXT
  5
19E8
330
15EC
100
AcDbEntity
  8
寸法線
 62
     0
 48
3.0
100
AcDbMText
 10
1528.338421916112
 20
450.9072884571139
 30
0.0
 40
30.0
 41
0.0
 71
     5
 72
     1
  1
85
 11
0.0000000000000001
 21
1.0
 31
0.0
 73
     1
 44
1.0
1001
ACAD
1000
MTEXTBEGIN
1070
    73
1070
     1
1070
    44
1040
1.0
1070
    74
1070
     0
1000
MTEXTEND
  0
POINT
  5
19E9
330
15EC
100
AcDbEntity
  8
Defpoints
 62
     0
 48
3.0
100
AcDbPoint
 10
1428.333797992348
 20
408.4072884571137
 30
0.0
  0
POINT
  5
19EA
330
15EC
100
AcDbEntity
  8
Defpoints
 62
     0
 48
3.0
100
AcDbPoint
 10
1428.333797992348
 20
493.4072884571137
 30
0.0
  0
POINT
  5
19EB
330
15EC
100
AcDbEntity
  8
Defpoints
 62
     0
 48
3.0
100
AcDbPoint
 10
1548.338421916112
 20
493.4072884571137
 30
0.0
  0
ENDBLK
  5
15F7
330
15EC
100
AcDbEntity
  8
0
 48
3.0
100
AcDbBlockEnd
  0
BLOCK
  5
1912
330
18FF
100
AcDbEntity
  8
0
 48
3.0
100
AcDbBlockBegin
  2
P-H85
 70
     0
 10
0.0
 20
0.0
 30
0.0
  3
P-H85
  1

  0
LINE
  5
1900
330
18FF
100
AcDbEntity
  8
嵩上断面
100
AcDbLine
 10
2.999997
 20
0.000001
 30
0.0
 11
41.99999699999999
 21
0.000001
 31
0.0
  0
LINE
  5
1901
330
18FF
100
AcDbEntity
  8
嵩上断面
100
AcDbLine
 10
-0.000003
 20
-2.999999
 30
0.0
 11
-0.000003
 21
-36.999999
 31
0.0
  0
LINE
  5
1902
330
18FF
100
AcDbEntity
  8
嵩上断面
100
AcDbLine
 10
2.999997
 20
-39.999999
 30
0.0
 11
41.99999699999999
 21
-39.999999
 31
0.0
  0
ARC
  5
1903
330
18FF
100
AcDbEntity
  8
嵩上断面
100
AcDbCircle
 10
2.999997
 20
-36.999999
 30
0.0
 40
3.0
100
AcDbArc
 50
180.0
 51
270.0
  0
ARC
  5
1904
330
18FF
100
AcDbEntity
  8
嵩上断面
100
AcDbCircle
 10
2.999997
 20
-2.999999
 30
0.0
 40
3.0
100
AcDbArc
 50
90.0
 51
180.0
  0
LINE
  5
1905
330
18FF
100
AcDbEntity
  8
嵩上断面
100
AcDbLine
 10
44.99999699999999
 20
-2.999999
 30
0.0
 11
44.99999699999999
 21
-36.999999
 31
0.0
  0
ARC
  5
1906
330
18FF
100
AcDbEntity
  8
嵩上断面
100
AcDbCircle
 10
41.99999699999999
 20
-2.999999
 30
0.0
 40
3.0
100
AcDbArc
 50
0.0
 51
90.0
  0
ARC
  5
1907
330
18FF
100
AcDbEntity
  8
嵩上断面
100
AcDbCircle
 10
41.99999699999999
 20
-36.999999
 30
0.0
 40
3.0
100
AcDbArc
 50
270.0
 51
0.0
  0
LWPOLYLINE
  5
1908
330
18FF
100
AcDbEntity
  8
嵩上断面
  6
Continuous
100
AcDbPolyline
 90
        4
 70
     1
 43
0.0
 10
2.299996999999999
 20
-37.69999900000001
 10
42.69999699999999
 20
-37.69999900000001
 10
42.69999699999999
 20
-2.299998999999999
 10
2.299996999999999
 20
-2.299998999999999
  0
LWPOLYLINE
  5
1909
330
18FF
100
AcDbEntity
  8
嵩上断面
  6
Continuous
100
AcDbPolyline
 90
        4
 70
     1
 43
0.0
 10
47.29999699999999
 20
-37.69999900000001
 10
82.69999699999999
 20
-37.69999900000001
 10
82.69999699999999
 20
-2.299998999999999
 10
47.29999699999999
 20
-2.299998999999999
  0
ARC
  5
190A
330
18FF
100
AcDbEntity
  8
嵩上断面
100
AcDbCircle
 10
81.99999699999999
 20
-2.999998999999998
 30
0.0
 40
3.0
100
AcDbArc
 50
0.0
 51
90.0
  0
ARC
  5
190B
330
18FF
100
AcDbEntity
  8
嵩上断面
100
AcDbCircle
 10
81.99999699999999
 20
-36.999999
 30
0.0
 40
3.0
100
AcDbArc
 50
270.0
 51
0.0
  0
LINE
  5
190C
330
18FF
100
AcDbEntity
  8
嵩上断面
100
AcDbLine
 10
44.999997
 20
-2.999998999999998
 30
0.0
 11
44.999997
 21
-36.999999
 31
0.0
  0
LINE
  5
190D
330
18FF
100
AcDbEntity
  8
嵩上断面
100
AcDbLine
 10
47.99999699999999
 20
-39.999999
 30
0.0
 11
81.99999699999999
 21
-39.999999
 31
0.0
  0
ARC
  5
190E
330
18FF
100
AcDbEntity
  8
嵩上断面
100
AcDbCircle
 10
47.99999699999999
 20
-36.999999
 30
0.0
 40
3.0
100
AcDbArc
 50
180.0
 51
270.0
  0
LINE
  5
190F
330
18FF
100
AcDbEntity
  8
嵩上断面
100
AcDbLine
 10
47.99999699999999
 20
0.0000009999999975
 30
0.0
 11
81.99999699999999
 21
0.0000009999999975
 31
0.0
  0
ARC
  5
1910
330
18FF
100
AcDbEntity
  8
嵩上断面
100
AcDbCircle
 10
47.99999699999999
 20
-2.999998999999998
 30
0.0
 40
3.0
100
AcDbArc
 50
90.0
 51
180.0
  0
LINE
  5
1911
330
18FF
100
AcDbEntity
  8
嵩上断面
100
AcDbLine
 10
84.999997
 20
-2.999998999999998
 30
0.0
 11
84.999997
 21
-36.999999
 31
0.0
  0
ENDBLK
  5
1913
330
18FF
100
AcDbEntity
  8
0
 48
3.0
100
AcDbBlockEnd
  0
BLOCK
  5
1AE3
330
1ADE
100
AcDbEntity
  8
0
 48
3.0
100
AcDbBlockBegin
  2
鎌下
 70
     0
 10
0.0
 20
0.0
 30
0.0
  3
鎌下
  1

  0
MTEXT
  5
1ADF
330
1ADE
100
AcDbEntity
  8
外枠
  6
Continuous
100
AcDbMText
 10
40.55333581259037
 20
-88.14888116777728
 30
0.0
 40
28.17460800000001
 41
43.8527
 71
     1
 72
     5
  1
{\fHGSeikaishotaiPRO|b0|i0|c128|p65;下}
 73
     1
 44
1.0
1001
ACAD
1000
MTEXTBEGIN
1070
    73
1070
     1
1070
    44
1040
1.0
1070
    74
1070
     0
1000
MTEXTEND
  0
MTEXT
  5
1AE0
330
1ADE
100
AcDbEntity
  8
外枠
  6
Continuous
100
AcDbMText
 10
40.55333581259037
 20
-45.61885629864991
 30
0.0
 40
28.17460800000001
 41
43.8527
 71
     1
 72
     5
  1
{\fHGSeikaishotaiPRO|b0|i0|c128|p65;鎌}
 73
     1
 44
1.0
1001
ACAD
1000
MTEXTBEGIN
1070
    73
1070
     1
1070
    44
1040
1.0
1070
    74
1070
     0
1000
MTEXTEND
  0
ELLIPSE
  5
1AE1
330
1ADE
100
AcDbEntity
  8
外枠
  6
Continuous
100
AcDbEllipse
 10
61.68068686355036
 20
-84.59863033186412
 30
0.0
 11
0.0
 21
-47.8594442149426
 31
0.0
210
0.0
220
0.0
230
1.0
 40
0.7999999999999857
 41
0.0
 42
6.283185307179586
  0
ENDBLK
  5
1AE4
330
1ADE
100
AcDbEntity
  8
0
 48
3.0
100
AcDbBlockEnd
  0
BLOCK
  5
1B9C
330
1B9B
100
AcDbEntity
  8
0
 48
3.0
100
AcDbBlockBegin
  2
*U29
 70
     1
 10
0.0
 20
0.0
 30
0.0
  3
*U29
  1

  0
LINE
  5
1BA2
330
1B9B
100
AcDbEntity
  8
本体
  6
Continuous
100
AcDbLine
 10
-16.90000000000009
 20
27.5
 30
0.0
 11
11.40000000000009
 21
27.5
 31
0.0
  0
LINE
  5
1BA3
330
1B9B
100
AcDbEntity
  8
本体
  6
Continuous
100
AcDbLine
 10
-16.90000000000009
 20
19.5
 30
0.0
 11
11.40000000000009
 21
19.5
 31
0.0
  0
LINE
  5
1BA4
330
1B9B
100
AcDbEntity
  8
本体
  6
Continuous
100
AcDbLine
 10
-16.90000000000009
 20
19.5
 30
0.0
 11
11.40000000000009
 21
27.5
 31
0.0
  0
LINE
  5
1BA5
330
1B9B
100
AcDbEntity
  8
本体
100
AcDbLine
 10
11.40000000000009
 20
27.5
 30
0.0
 11
18.40000000000009
 21
27.5
 31
0.0
  0
LINE
  5
1BA6
330
1B9B
100
AcDbEntity
  8
本体
100
AcDbLine
 10
11.40000000000009
 20
27.5
 30
0.0
 11
11.40000000000009
 21
17.5
 31
0.0
  0
LINE
  5
1BA7
330
1B9B
100
AcDbEntity
  8
本体
100
AcDbLine
 10
11.40000000000009
 20
17.5
 30
0.0
 11
12.90000000000009
 21
16.5
 31
0.0
  0
LINE
  5
1BA8
330
1B9B
100
AcDbEntity
  8
本体
100
AcDbLine
 10
18.40000000000009
 20
27.5
 30
0.0
 11
18.40000000000009
 21
17.5
 31
0.0
  0
LINE
  5
1BA9
330
1B9B
100
AcDbEntity
  8
本体
100
AcDbLine
 10
18.40000000000009
 20
17.5
 30
0.0
 11
16.90000000000009
 21
16.5
 31
0.0
  0
LINE
  5
1BAA
330
1B9B
100
AcDbEntity
  8
本体
100
AcDbLine
 10
11.40000000000009
 20
-27.5
 30
0.0
 11
18.40000000000009
 21
-27.5
 31
0.0
  0
LINE
  5
1BAB
330
1B9B
100
AcDbEntity
  8
本体
100
AcDbLine
 10
11.40000000000009
 20
-27.5
 30
0.0
 11
11.40000000000009
 21
-17.5
 31
0.0
  0
LINE
  5
1BAC
330
1B9B
100
AcDbEntity
  8
本体
100
AcDbLine
 10
11.40000000000009
 20
-17.5
 30
0.0
 11
12.90000000000009
 21
-16.5
 31
0.0
  0
LINE
  5
1BAD
330
1B9B
100
AcDbEntity
  8
本体
100
AcDbLine
 10
18.40000000000009
 20
-27.5
 30
0.0
 11
18.40000000000009
 21
-17.5
 31
0.0
  0
LINE
  5
1BAE
330
1B9B
100
AcDbEntity
  8
本体
100
AcDbLine
 10
18.40000000000009
 20
-17.5
 30
0.0
 11
16.90000000000009
 21
-16.5
 31
0.0
  0
LINE
  5
1BAF
330
1B9B
100
AcDbEntity
  8
本体
100
AcDbLine
 10
12.90000000000009
 20
16.5
 30
0.0
 11
12.90000000000009
 21
-16.5
 31
0.0
  0
LINE
  5
1BB0
330
1B9B
100
AcDbEntity
  8
本体
100
AcDbLine
 10
16.90000000000009
 20
16.5
 30
0.0
 11
16.90000000000009
 21
-16.5
 31
0.0
  0
LINE
  5
1BB1
330
1B9B
100
AcDbEntity
  8
本体
  6
Continuous
100
AcDbLine
 10
-18.40000000000009
 20
-16.5
 30
0.0
 11
12.90000000000009
 21
-16.5
 31
0.0
  0
ENDBLK
  5
1B9D
330
1B9B
100
AcDbEntity
  8
0
 48
3.0
100
AcDbBlockEnd
  0
BLOCK
  5
1B9F
330
1B9E
100
AcDbEntity
  8
0
 48
3.0
100
AcDbBlockBegin
  2
*U30
 70
     1
 10
0.0
 20
0.0
 30
0.0
  3
*U30
  1

  0
INSERT
  5
1BC0
330
1B9E
100
AcDbEntity
  8
本体
  6
ByBlock
 62
     0
370
    -2
380
     1
100
AcDbBlockReference
  2
*U29
 10
0.0
 20
0.0
 30
0.0
  0
INSERT
  5
1BC1
330
1B9E
100
AcDbEntity
  8
本体
  6
ByBlock
 62
     0
370
    -2
380
     1
100
AcDbBlockReference
  2
*U29
 10
35.3
 20
0.0
 30
0.0
  0
INSERT
  5
1BC2
330
1B9E
100
AcDbEntity
  8
本体
  6
ByBlock
 62
     0
370
    -2
380
     1
100
AcDbBlockReference
  2
*U29
 10
70.59999999999999
 20
0.0
 30
0.0
  0
INSERT
  5
1BC3
330
1B9E
100
AcDbEntity
  8
本体
  6
ByBlock
 62
     0
370
    -2
380
     1
100
AcDbBlockReference
  2
*U29
 10
105.9
 20
0.0
 30
0.0
  0
INSERT
  5
1BC4
330
1B9E
100
AcDbEntity
  8
本体
  6
ByBlock
 62
     0
370
    -2
380
     1
100
AcDbBlockReference
  2
*U29
 10
141.2
 20
0.0
 30
0.0
  0
INSERT
  5
1BC5
330
1B9E
100
AcDbEntity
  8
本体
  6
ByBlock
 62
     0
370
    -2
380
     1
100
AcDbBlockReference
  2
*U29
 10
176.5
 20
0.0
 30
0.0
  0
INSERT
  5
1BC6
330
1B9E
100
AcDbEntity
  8
本体
  6
ByBlock
 62
     0
370
    -2
380
     1
100
AcDbBlockReference
  2
*U29
 10
211.8
 20
0.0
 30
0.0
  0
INSERT
  5
1BC7
330
1B9E
100
AcDbEntity
  8
本体
  6
ByBlock
 62
     0
370
    -2
380
     1
100
AcDbBlockReference
  2
*U29
 10
247.1
 20
0.0
 30
0.0
  0
INSERT
  5
1BC8
330
1B9E
100
AcDbEntity
  8
本体
  6
ByBlock
 62
     0
370
    -2
380
     1
100
AcDbBlockReference
  2
*U29
 10
282.4
 20
0.0
 30
0.0
  0
INSERT
  5
1BC9
330
1B9E
100
AcDbEntity
  8
本体
  6
ByBlock
 62
     0
370
    -2
380
     1
100
AcDbBlockReference
  2
*U29
 10
317.7
 20
0.0
 30
0.0
  0
INSERT
  5
1BCA
330
1B9E
100
AcDbEntity
  8
本体
  6
ByBlock
 62
     0
370
    -2
380
     1
100
AcDbBlockReference
  2
*U29
 10
353.0
 20
0.0
 30
0.0
  0
INSERT
  5
1BCB
330
1B9E
100
AcDbEntity
  8
本体
  6
ByBlock
 62
     0
370
    -2
380
     1
100
AcDbBlockReference
  2
*U29
 10
388.3
 20
0.0
 30
0.0
  0
INSERT
  5
1BCC
330
1B9E
100
AcDbEntity
  8
本体
  6
ByBlock
 62
     0
370
    -2
380
     1
100
AcDbBlockReference
  2
*U29
 10
423.5999999999999
 20
0.0
 30
0.0
  0
INSERT
  5
1BCD
330
1B9E
100
AcDbEntity
  8
本体
  6
ByBlock
 62
     0
370
    -2
380
     1
100
AcDbBlockReference
  2
*U29
 10
458.8999999999999
 20
0.0
 30
0.0
  0
INSERT
  5
1BCE
330
1B9E
100
AcDbEntity
  8
本体
  6
ByBlock
 62
     0
370
    -2
380
     1
100
AcDbBlockReference
  2
*U29
 10
494.1999999999999
 20
0.0
 30
0.0
  0
INSERT
  5
1BCF
330
1B9E
100
AcDbEntity
  8
本体
  6
ByBlock
 62
     0
370
    -2
380
     1
100
AcDbBlockReference
  2
*U29
 10
529.4999999999999
 20
0.0
 30
0.0
  0
INSERT
  5
1BD0
330
1B9E
100
AcDbEntity
  8
本体
  6
ByBlock
 62
     0
370
    -2
380
     1
100
AcDbBlockReference
  2
*U29
 10
564.7999999999999
 20
0.0
 30
0.0
  0
INSERT
  5
1BD1
330
1B9E
100
AcDbEntity
  8
本体
  6
ByBlock
 62
     0
370
    -2
380
     1
100
AcDbBlockReference
  2
*U29
 10
600.0999999999999
 20
0.0
 30
0.0
  0
INSERT
  5
1BD2
330
1B9E
100
AcDbEntity
  8
本体
  6
ByBlock
 62
     0
370
    -2
380
     1
100
AcDbBlockReference
  2
*U29
 10
635.4
 20
0.0
 30
0.0
  0
INSERT
  5
1BD3
330
1B9E
100
AcDbEntity
  8
本体
  6
ByBlock
 62
     0
370
    -2
380
     1
100
AcDbBlockReference
  2
*U29
 10
670.6999999999999
 20
0.0
 30
0.0
  0
INSERT
  5
1BD4
330
1B9E
100
AcDbEntity
  8
本体
  6
ByBlock
 62
     0
370
    -2
380
     1
100
AcDbBlockReference
  2
*U29
 10
706.0
 20
0.0
 30
0.0
  0
INSERT
  5
1BD5
330
1B9E
100
AcDbEntity
  8
本体
  6
ByBlock
 62
     0
370
    -2
380
     1
100
AcDbBlockReference
  2
*U29
 10
741.2999999999999
 20
0.0
 30
0.0
  0
INSERT
  5
1BD6
330
1B9E
100
AcDbEntity
  8
本体
  6
ByBlock
 62
     0
370
    -2
380
     1
100
AcDbBlockReference
  2
*U29
 10
776.5999999999999
 20
0.0
 30
0.0
  0
INSERT
  5
1BD7
330
1B9E
100
AcDbEntity
  8
本体
  6
ByBlock
 62
     0
370
    -2
380
     1
100
AcDbBlockReference
  2
*U29
 10
811.8999999999999
 20
0.0
 30
0.0
  0
INSERT
  5
1BD8
330
1B9E
100
AcDbEntity
  8
本体
  6
ByBlock
 62
     0
370
    -2
380
     1
100
AcDbBlockReference
  2
*U29
 10
847.1999999999999
 20
0.0
 30
0.0
  0
INSERT
  5
1BD9
330
1B9E
100
AcDbEntity
  8
本体
  6
ByBlock
 62
     0
370
    -2
380
     1
100
AcDbBlockReference
  2
*U29
 10
882.4999999999999
 20
0.0
 30
0.0
  0
ENDBLK
  5
1BA0
330
1B9E
100
AcDbEntity
  8
0
 48
3.0
100
AcDbBlockEnd
  0
BLOCK
  5
1CC0
330
1CBF
100
AcDbEntity
  8
0
 48
3.0
100
AcDbBlockBegin
  2
*U31
 70
     1
 10
0.0
 20
0.0
 30
0.0
  3
*U31
  1

  0
LINE
  5
1CC6
330
1CBF
100
AcDbEntity
  8
本体
  6
Continuous
100
AcDbLine
 10
-1628.883842914771
 20
35.96785563964477
 30
0.0
 11
-1628.883842914771
 21
-1.532144360355232
 31
0.0
  0
LINE
  5
1CC7
330
1CBF
100
AcDbEntity
  8
本体
  6
Continuous
100
AcDbLine
 10
-1635.883842914771
 20
35.96785563964477
 30
0.0
 11
-1635.883842914771
 21
-1.532144360355232
 31
0.0
  0
LINE
  5
1CC8
330
1CBF
100
AcDbEntity
  8
本体
  6
Continuous
100
AcDbLine
 10
-1671.183842914771
 20
-9.532144360355232
 30
0.0
 11
-1635.883842914771
 21
-1.532144360355232
 31
0.0
  0
LINE
  5
1CC9
330
1CBF
100
AcDbEntity
  8
本体
  6
Continuous
100
AcDbLine
 10
-1635.883842914771
 20
-647.0321443603552
 30
0.0
 11
-1635.883842914771
 21
-609.5321443603552
 31
0.0
  0
LINE
  5
1CCA
330
1CBF
100
AcDbEntity
  8
本体
  6
Continuous
100
AcDbLine
 10
-1628.883842914771
 20
-647.0321443603552
 30
0.0
 11
-1628.883842914771
 21
-609.5321443603552
 31
0.0
  0
LINE
  5
1CCB
330
1CBF
100
AcDbEntity
  8
本体
  6
Continuous
100
AcDbLine
 10
-1628.883842914771
 20
-9.532144360355232
 30
0.0
 11
-1628.883842914771
 21
-51.53214436035523
 31
0.0
  0
LINE
  5
1CCC
330
1CBF
100
AcDbEntity
  8
本体
  6
Continuous
100
AcDbLine
 10
-1635.883842914771
 20
-9.532144360355232
 30
0.0
 11
-1635.883842914771
 21
-51.53214436035523
 31
0.0
  0
INSERT
  5
1CCD
330
1CBF
100
AcDbEntity
  8
エンボス
  6
Continuous
100
AcDbBlockReference
  2
7mm部材エンボス4
 10
-1635.883842914771
 20
-658.0321443603552
 30
0.0
  0
INSERT
  5
1CCE
330
1CBF
100
AcDbEntity
  8
エンボス
  6
Continuous
100
AcDbBlockReference
  2
7mm部材エンボス4
 10
-1635.883842914771
 20
-12.53214436035523
 30
0.0
  0
LINE
  5
1CCF
330
1CBF
100
AcDbEntity
  8
エンボス
  6
Continuous
100
AcDbLine
 10
-1635.883842914771
 20
-40.03214436035523
 30
0.0
 11
-1628.883842914771
 21
-38.03214436035523
 31
0.0
  0
LINE
  5
1CD0
330
1CBF
100
AcDbEntity
  8
エンボス
  6
Continuous
100
AcDbLine
 10
-1628.883842914771
 20
-45.03214436035523
 30
0.0
 11
-1635.883842914771
 21
-43.03214436035523
 31
0.0
  0
LINE
  5
1CD1
330
1CBF
100
AcDbEntity
  8
エンボス
  6
Continuous
100
AcDbLine
 10
-1628.883842914771
 20
-29.03214436035523
 30
0.0
 11
-1635.883842914771
 21
-31.03214436035524
 31
0.0
  0
LINE
  5
1CD2
330
1CBF
100
AcDbEntity
  8
エンボス
  6
Continuous
100
AcDbLine
 10
-1635.883842914771
 20
-24.03214436035523
 30
0.0
 11
-1628.883842914771
 21
-26.03214436035524
 31
0.0
  0
LINE
  5
1CD3
330
1CBF
100
AcDbEntity
  8
エンボス
  6
Continuous
100
AcDbLine
 10
-1635.883842914771
 20
-12.03214436035523
 30
0.0
 11
-1628.883842914771
 21
-10.03214436035523
 31
0.0
  0
LINE
  5
1CD4
330
1CBF
100
AcDbEntity
  8
エンボス
  6
Continuous
100
AcDbLine
 10
-1628.883842914771
 20
-17.03214436035523
 30
0.0
 11
-1635.883842914771
 21
-15.03214436035523
 31
0.0
  0
LINE
  5
1CD5
330
1CBF
100
AcDbEntity
  8
本体
  6
Continuous
100
AcDbLine
 10
-1628.883842914771
 20
-59.53214436035523
 30
0.0
 11
-1628.883842914771
 21
-101.5321443603552
 31
0.0
  0
LINE
  5
1CD6
330
1CBF
100
AcDbEntity
  8
本体
  6
Continuous
100
AcDbLine
 10
-1635.883842914771
 20
-59.53214436035523
 30
0.0
 11
-1635.883842914771
 21
-101.5321443603552
 31
0.0
  0
LINE
  5
1CD7
330
1CBF
100
AcDbEntity
  8
エンボス
  6
Continuous
100
AcDbLine
 10
-1628.883842914771
 20
-95.03214436035523
 30
0.0
 11
-1635.883842914771
 21
-93.03214436035522
 31
0.0
  0
LINE
  5
1CD8
330
1CBF
100
AcDbEntity
  8
エンボス
  6
Continuous
100
AcDbLine
 10
-1635.883842914771
 20
-90.03214436035523
 30
0.0
 11
-1628.883842914771
 21
-88.03214436035522
 31
0.0
  0
LINE
  5
1CD9
330
1CBF
100
AcDbEntity
  8
本体
  6
Continuous
100
AcDbLine
 10
-1671.183842914771
 20
-59.53214436035523
 30
0.0
 11
-1635.883842914771
 21
-51.53214436035523
 31
0.0
  0
LINE
  5
1CDA
330
1CBF
100
AcDbEntity
  8
エンボス
  6
Continuous
100
AcDbLine
 10
-1628.883842914771
 20
-67.03214436035523
 30
0.0
 11
-1635.883842914771
 21
-65.03214436035523
 31
0.0
  0
LINE
  5
1CDB
330
1CBF
100
AcDbEntity
  8
エンボス
  6
Continuous
100
AcDbLine
 10
-1635.883842914771
 20
-62.03214436035523
 30
0.0
 11
-1628.883842914771
 21
-60.03214436035523
 31
0.0
  0
LINE
  5
1CDC
330
1CBF
100
AcDbEntity
  8
エンボス
  6
Continuous
100
AcDbLine
 10
-1635.883842914771
 20
-74.03214436035523
 30
0.0
 11
-1628.883842914771
 21
-76.03214436035523
 31
0.0
  0
LINE
  5
1CDD
330
1CBF
100
AcDbEntity
  8
エンボス
  6
Continuous
100
AcDbLine
 10
-1628.883842914771
 20
-79.03214436035523
 30
0.0
 11
-1635.883842914771
 21
-81.03214436035523
 31
0.0
  0
LINE
  5
1CDE
330
1CBF
100
AcDbEntity
  8
本体
  6
Continuous
100
AcDbLine
 10
-1628.883842914771
 20
-109.5321443603552
 30
0.0
 11
-1628.883842914771
 21
-151.5321443603552
 31
0.0
  0
LINE
  5
1CDF
330
1CBF
100
AcDbEntity
  8
本体
  6
Continuous
100
AcDbLine
 10
-1635.883842914771
 20
-109.5321443603552
 30
0.0
 11
-1635.883842914771
 21
-151.5321443603552
 31
0.0
  0
LINE
  5
1CE0
330
1CBF
100
AcDbEntity
  8
エンボス
  6
Continuous
100
AcDbLine
 10
-1628.883842914771
 20
-145.0321443603552
 30
0.0
 11
-1635.883842914771
 21
-143.0321443603552
 31
0.0
  0
LINE
  5
1CE1
330
1CBF
100
AcDbEntity
  8
エンボス
  6
Continuous
100
AcDbLine
 10
-1635.883842914771
 20
-140.0321443603552
 30
0.0
 11
-1628.883842914771
 21
-138.0321443603552
 31
0.0
  0
LINE
  5
1CE2
330
1CBF
100
AcDbEntity
  8
本体
  6
Continuous
100
AcDbLine
 10
-1671.183842914771
 20
-109.5321443603552
 30
0.0
 11
-1635.883842914771
 21
-101.5321443603552
 31
0.0
  0
LINE
  5
1CE3
330
1CBF
100
AcDbEntity
  8
エンボス
  6
Continuous
100
AcDbLine
 10
-1628.883842914771
 20
-117.0321443603552
 30
0.0
 11
-1635.883842914771
 21
-115.0321443603552
 31
0.0
  0
LINE
  5
1CE4
330
1CBF
100
AcDbEntity
  8
エンボス
  6
Continuous
100
AcDbLine
 10
-1635.883842914771
 20
-112.0321443603552
 30
0.0
 11
-1628.883842914771
 21
-110.0321443603552
 31
0.0
  0
LINE
  5
1CE5
330
1CBF
100
AcDbEntity
  8
エンボス
  6
Continuous
100
AcDbLine
 10
-1635.883842914771
 20
-124.0321443603552
 30
0.0
 11
-1628.883842914771
 21
-126.0321443603552
 31
0.0
  0
LINE
  5
1CE6
330
1CBF
100
AcDbEntity
  8
エンボス
  6
Continuous
100
AcDbLine
 10
-1628.883842914771
 20
-129.0321443603552
 30
0.0
 11
-1635.883842914771
 21
-131.0321443603552
 31
0.0
  0
LINE
  5
1CE7
330
1CBF
100
AcDbEntity
  8
本体
  6
Continuous
100
AcDbLine
 10
-1628.883842914771
 20
-159.5321443603552
 30
0.0
 11
-1628.883842914771
 21
-201.5321443603552
 31
0.0
  0
LINE
  5
1CE8
330
1CBF
100
AcDbEntity
  8
本体
  6
Continuous
100
AcDbLine
 10
-1635.883842914771
 20
-159.5321443603552
 30
0.0
 11
-1635.883842914771
 21
-201.5321443603552
 31
0.0
  0
LINE
  5
1CE9
330
1CBF
100
AcDbEntity
  8
エンボス
  6
Continuous
100
AcDbLine
 10
-1628.883842914771
 20
-195.0321443603552
 30
0.0
 11
-1635.883842914771
 21
-193.0321443603552
 31
0.0
  0
LINE
  5
1CEA
330
1CBF
100
AcDbEntity
  8
エンボス
  6
Continuous
100
AcDbLine
 10
-1635.883842914771
 20
-190.0321443603552
 30
0.0
 11
-1628.883842914771
 21
-188.0321443603552
 31
0.0
  0
LINE
  5
1CEB
330
1CBF
100
AcDbEntity
  8
本体
  6
Continuous
100
AcDbLine
 10
-1671.183842914771
 20
-159.5321443603552
 30
0.0
 11
-1635.883842914771
 21
-151.5321443603552
 31
0.0
  0
LINE
  5
1CEC
330
1CBF
100
AcDbEntity
  8
エンボス
  6
Continuous
100
AcDbLine
 10
-1628.883842914771
 20
-167.0321443603552
 30
0.0
 11
-1635.883842914771
 21
-165.0321443603552
 31
0.0
  0
LINE
  5
1CED
330
1CBF
100
AcDbEntity
  8
エンボス
  6
Continuous
100
AcDbLine
 10
-1635.883842914771
 20
-162.0321443603552
 30
0.0
 11
-1628.883842914771
 21
-160.0321443603552
 31
0.0
  0
LINE
  5
1CEE
330
1CBF
100
AcDbEntity
  8
エンボス
  6
Continuous
100
AcDbLine
 10
-1635.883842914771
 20
-174.0321443603552
 30
0.0
 11
-1628.883842914771
 21
-176.0321443603552
 31
0.0
  0
LINE
  5
1CEF
330
1CBF
100
AcDbEntity
  8
エンボス
  6
Continuous
100
AcDbLine
 10
-1628.883842914771
 20
-179.0321443603552
 30
0.0
 11
-1635.883842914771
 21
-181.0321443603552
 31
0.0
  0
LINE
  5
1CF0
330
1CBF
100
AcDbEntity
  8
本体
  6
Continuous
100
AcDbLine
 10
-1628.883842914771
 20
-209.5321443603552
 30
0.0
 11
-1628.883842914771
 21
-251.5321443603552
 31
0.0
  0
LINE
  5
1CF1
330
1CBF
100
AcDbEntity
  8
本体
  6
Continuous
100
AcDbLine
 10
-1635.883842914771
 20
-209.5321443603552
 30
0.0
 11
-1635.883842914771
 21
-251.5321443603552
 31
0.0
  0
LINE
  5
1CF2
330
1CBF
100
AcDbEntity
  8
エンボス
  6
Continuous
100
AcDbLine
 10
-1628.883842914771
 20
-245.0321443603552
 30
0.0
 11
-1635.883842914771
 21
-243.0321443603552
 31
0.0
  0
LINE
  5
1CF3
330
1CBF
100
AcDbEntity
  8
エンボス
  6
Continuous
100
AcDbLine
 10
-1635.883842914771
 20
-240.0321443603552
 30
0.0
 11
-1628.883842914771
 21
-238.0321443603552
 31
0.0
  0
LINE
  5
1CF4
330
1CBF
100
AcDbEntity
  8
本体
  6
Continuous
100
AcDbLine
 10
-1671.183842914771
 20
-209.5321443603552
 30
0.0
 11
-1635.883842914771
 21
-201.5321443603552
 31
0.0
  0
LINE
  5
1CF5
330
1CBF
100
AcDbEntity
  8
エンボス
  6
Continuous
100
AcDbLine
 10
-1628.883842914771
 20
-217.0321443603552
 30
0.0
 11
-1635.883842914771
 21
-215.0321443603552
 31
0.0
  0
LINE
  5
1CF6
330
1CBF
100
AcDbEntity
  8
エンボス
  6
Continuous
100
AcDbLine
 10
-1635.883842914771
 20
-212.0321443603552
 30
0.0
 11
-1628.883842914771
 21
-210.0321443603552
 31
0.0
  0
LINE
  5
1CF7
330
1CBF
100
AcDbEntity
  8
エンボス
  6
Continuous
100
AcDbLine
 10
-1635.883842914771
 20
-224.0321443603552
 30
0.0
 11
-1628.883842914771
 21
-226.0321443603552
 31
0.0
  0
LINE
  5
1CF8
330
1CBF
100
AcDbEntity
  8
エンボス
  6
Continuous
100
AcDbLine
 10
-1628.883842914771
 20
-229.0321443603552
 30
0.0
 11
-1635.883842914771
 21
-231.0321443603552
 31
0.0
  0
LINE
  5
1CF9
330
1CBF
100
AcDbEntity
  8
本体
  6
Continuous
100
AcDbLine
 10
-1628.883842914771
 20
-259.5321443603552
 30
0.0
 11
-1628.883842914771
 21
-301.5321443603552
 31
0.0
  0
LINE
  5
1CFA
330
1CBF
100
AcDbEntity
  8
本体
  6
Continuous
100
AcDbLine
 10
-1635.883842914771
 20
-259.5321443603552
 30
0.0
 11
-1635.883842914771
 21
-301.5321443603552
 31
0.0
  0
LINE
  5
1CFB
330
1CBF
100
AcDbEntity
  8
エンボス
  6
Continuous
100
AcDbLine
 10
-1628.883842914771
 20
-295.0321443603552
 30
0.0
 11
-1635.883842914771
 21
-293.0321443603552
 31
0.0
  0
LINE
  5
1CFC
330
1CBF
100
AcDbEntity
  8
エンボス
  6
Continuous
100
AcDbLine
 10
-1635.883842914771
 20
-290.0321443603552
 30
0.0
 11
-1628.883842914771
 21
-288.0321443603552
 31
0.0
  0
LINE
  5
1CFD
330
1CBF
100
AcDbEntity
  8
本体
  6
Continuous
100
AcDbLine
 10
-1671.183842914771
 20
-259.5321443603552
 30
0.0
 11
-1635.883842914771
 21
-251.5321443603552
 31
0.0
  0
LINE
  5
1CFE
330
1CBF
100
AcDbEntity
  8
エンボス
  6
Continuous
100
AcDbLine
 10
-1628.883842914771
 20
-267.0321443603552
 30
0.0
 11
-1635.883842914771
 21
-265.0321443603552
 31
0.0
  0
LINE
  5
1CFF
330
1CBF
100
AcDbEntity
  8
エンボス
  6
Continuous
100
AcDbLine
 10
-1635.883842914771
 20
-262.0321443603552
 30
0.0
 11
-1628.883842914771
 21
-260.0321443603552
 31
0.0
  0
LINE
  5
1D00
330
1CBF
100
AcDbEntity
  8
エンボス
  6
Continuous
100
AcDbLine
 10
-1635.883842914771
 20
-274.0321443603552
 30
0.0
 11
-1628.883842914771
 21
-276.0321443603552
 31
0.0
  0
LINE
  5
1D01
330
1CBF
100
AcDbEntity
  8
エンボス
  6
Continuous
100
AcDbLine
 10
-1628.883842914771
 20
-279.0321443603552
 30
0.0
 11
-1635.883842914771
 21
-281.0321443603552
 31
0.0
  0
LINE
  5
1D02
330
1CBF
100
AcDbEntity
  8
本体
  6
Continuous
100
AcDbLine
 10
-1628.883842914771
 20
-309.5321443603552
 30
0.0
 11
-1628.883842914771
 21
-351.5321443603552
 31
0.0
  0
LINE
  5
1D03
330
1CBF
100
AcDbEntity
  8
本体
  6
Continuous
100
AcDbLine
 10
-1635.883842914771
 20
-309.5321443603552
 30
0.0
 11
-1635.883842914771
 21
-351.5321443603552
 31
0.0
  0
LINE
  5
1D04
330
1CBF
100
AcDbEntity
  8
エンボス
  6
Continuous
100
AcDbLine
 10
-1628.883842914771
 20
-345.0321443603552
 30
0.0
 11
-1635.883842914771
 21
-343.0321443603552
 31
0.0
  0
LINE
  5
1D05
330
1CBF
100
AcDbEntity
  8
エンボス
  6
Continuous
100
AcDbLine
 10
-1635.883842914771
 20
-340.0321443603552
 30
0.0
 11
-1628.883842914771
 21
-338.0321443603552
 31
0.0
  0
LINE
  5
1D06
330
1CBF
100
AcDbEntity
  8
本体
  6
Continuous
100
AcDbLine
 10
-1671.183842914771
 20
-309.5321443603552
 30
0.0
 11
-1635.883842914771
 21
-301.5321443603552
 31
0.0
  0
LINE
  5
1D07
330
1CBF
100
AcDbEntity
  8
エンボス
  6
Continuous
100
AcDbLine
 10
-1628.883842914771
 20
-317.0321443603552
 30
0.0
 11
-1635.883842914771
 21
-315.0321443603552
 31
0.0
  0
LINE
  5
1D08
330
1CBF
100
AcDbEntity
  8
エンボス
  6
Continuous
100
AcDbLine
 10
-1635.883842914771
 20
-312.0321443603552
 30
0.0
 11
-1628.883842914771
 21
-310.0321443603552
 31
0.0
  0
LINE
  5
1D09
330
1CBF
100
AcDbEntity
  8
エンボス
  6
Continuous
100
AcDbLine
 10
-1635.883842914771
 20
-324.0321443603552
 30
0.0
 11
-1628.883842914771
 21
-326.0321443603552
 31
0.0
  0
LINE
  5
1D0A
330
1CBF
100
AcDbEntity
  8
エンボス
  6
Continuous
100
AcDbLine
 10
-1628.883842914771
 20
-329.0321443603553
 30
0.0
 11
-1635.883842914771
 21
-331.0321443603552
 31
0.0
  0
LINE
  5
1D0B
330
1CBF
100
AcDbEntity
  8
本体
  6
Continuous
100
AcDbLine
 10
-1628.883842914771
 20
-359.5321443603552
 30
0.0
 11
-1628.883842914771
 21
-401.5321443603552
 31
0.0
  0
LINE
  5
1D0C
330
1CBF
100
AcDbEntity
  8
本体
  6
Continuous
100
AcDbLine
 10
-1635.883842914771
 20
-359.5321443603552
 30
0.0
 11
-1635.883842914771
 21
-401.5321443603552
 31
0.0
  0
LINE
  5
1D0D
330
1CBF
100
AcDbEntity
  8
エンボス
  6
Continuous
100
AcDbLine
 10
-1628.883842914771
 20
-395.0321443603552
 30
0.0
 11
-1635.883842914771
 21
-393.0321443603552
 31
0.0
  0
LINE
  5
1D0E
330
1CBF
100
AcDbEntity
  8
エンボス
  6
Continuous
100
AcDbLine
 10
-1635.883842914771
 20
-390.0321443603552
 30
0.0
 11
-1628.883842914771
 21
-388.0321443603552
 31
0.0
  0
LINE
  5
1D0F
330
1CBF
100
AcDbEntity
  8
本体
  6
Continuous
100
AcDbLine
 10
-1671.183842914771
 20
-359.5321443603552
 30
0.0
 11
-1635.883842914771
 21
-351.5321443603552
 31
0.0
  0
LINE
  5
1D10
330
1CBF
100
AcDbEntity
  8
エンボス
  6
Continuous
100
AcDbLine
 10
-1628.883842914771
 20
-367.0321443603552
 30
0.0
 11
-1635.883842914771
 21
-365.0321443603552
 31
0.0
  0
LINE
  5
1D11
330
1CBF
100
AcDbEntity
  8
エンボス
  6
Continuous
100
AcDbLine
 10
-1635.883842914771
 20
-362.0321443603552
 30
0.0
 11
-1628.883842914771
 21
-360.0321443603552
 31
0.0
  0
LINE
  5
1D12
330
1CBF
100
AcDbEntity
  8
エンボス
  6
Continuous
100
AcDbLine
 10
-1635.883842914771
 20
-374.0321443603552
 30
0.0
 11
-1628.883842914771
 21
-376.0321443603552
 31
0.0
  0
LINE
  5
1D13
330
1CBF
100
AcDbEntity
  8
エンボス
  6
Continuous
100
AcDbLine
 10
-1628.883842914771
 20
-379.0321443603553
 30
0.0
 11
-1635.883842914771
 21
-381.0321443603552
 31
0.0
  0
LINE
  5
1D14
330
1CBF
100
AcDbEntity
  8
本体
  6
Continuous
100
AcDbLine
 10
-1628.883842914771
 20
-409.5321443603552
 30
0.0
 11
-1628.883842914771
 21
-451.5321443603552
 31
0.0
  0
LINE
  5
1D15
330
1CBF
100
AcDbEntity
  8
本体
  6
Continuous
100
AcDbLine
 10
-1635.883842914771
 20
-409.5321443603552
 30
0.0
 11
-1635.883842914771
 21
-451.5321443603552
 31
0.0
  0
LINE
  5
1D16
330
1CBF
100
AcDbEntity
  8
エンボス
  6
Continuous
100
AcDbLine
 10
-1628.883842914771
 20
-445.0321443603552
 30
0.0
 11
-1635.883842914771
 21
-443.0321443603552
 31
0.0
  0
LINE
  5
1D17
330
1CBF
100
AcDbEntity
  8
エンボス
  6
Continuous
100
AcDbLine
 10
-1635.883842914771
 20
-440.0321443603552
 30
0.0
 11
-1628.883842914771
 21
-438.0321443603552
 31
0.0
  0
LINE
  5
1D18
330
1CBF
100
AcDbEntity
  8
本体
  6
Continuous
100
AcDbLine
 10
-1671.183842914771
 20
-409.5321443603552
 30
0.0
 11
-1635.883842914771
 21
-401.5321443603552
 31
0.0
  0
LINE
  5
1D19
330
1CBF
100
AcDbEntity
  8
エンボス
  6
Continuous
100
AcDbLine
 10
-1628.883842914771
 20
-417.0321443603552
 30
0.0
 11
-1635.883842914771
 21
-415.0321443603552
 31
0.0
  0
LINE
  5
1D1A
330
1CBF
100
AcDbEntity
  8
エンボス
  6
Continuous
100
AcDbLine
 10
-1635.883842914771
 20
-412.0321443603552
 30
0.0
 11
-1628.883842914771
 21
-410.0321443603552
 31
0.0
  0
LINE
  5
1D1B
330
1CBF
100
AcDbEntity
  8
エンボス
  6
Continuous
100
AcDbLine
 10
-1635.883842914771
 20
-424.0321443603552
 30
0.0
 11
-1628.883842914771
 21
-426.0321443603552
 31
0.0
  0
LINE
  5
1D1C
330
1CBF
100
AcDbEntity
  8
エンボス
  6
Continuous
100
AcDbLine
 10
-1628.883842914771
 20
-429.0321443603552
 30
0.0
 11
-1635.883842914771
 21
-431.0321443603552
 31
0.0
  0
LINE
  5
1D1D
330
1CBF
100
AcDbEntity
  8
本体
  6
Continuous
100
AcDbLine
 10
-1628.883842914771
 20
-459.5321443603552
 30
0.0
 11
-1628.883842914771
 21
-501.5321443603552
 31
0.0
  0
LINE
  5
1D1E
330
1CBF
100
AcDbEntity
  8
本体
  6
Continuous
100
AcDbLine
 10
-1635.883842914771
 20
-459.5321443603552
 30
0.0
 11
-1635.883842914771
 21
-501.5321443603552
 31
0.0
  0
LINE
  5
1D1F
330
1CBF
100
AcDbEntity
  8
エンボス
  6
Continuous
100
AcDbLine
 10
-1628.883842914771
 20
-495.0321443603552
 30
0.0
 11
-1635.883842914771
 21
-493.0321443603552
 31
0.0
  0
LINE
  5
1D20
330
1CBF
100
AcDbEntity
  8
エンボス
  6
Continuous
100
AcDbLine
 10
-1635.883842914771
 20
-490.0321443603552
 30
0.0
 11
-1628.883842914771
 21
-488.0321443603552
 31
0.0
  0
LINE
  5
1D21
330
1CBF
100
AcDbEntity
  8
本体
  6
Continuous
100
AcDbLine
 10
-1671.183842914771
 20
-459.5321443603552
 30
0.0
 11
-1635.883842914771
 21
-451.5321443603552
 31
0.0
  0
LINE
  5
1D22
330
1CBF
100
AcDbEntity
  8
エンボス
  6
Continuous
100
AcDbLine
 10
-1628.883842914771
 20
-467.0321443603552
 30
0.0
 11
-1635.883842914771
 21
-465.0321443603552
 31
0.0
  0
LINE
  5
1D23
330
1CBF
100
AcDbEntity
  8
エンボス
  6
Continuous
100
AcDbLine
 10
-1635.883842914771
 20
-462.0321443603552
 30
0.0
 11
-1628.883842914771
 21
-460.0321443603552
 31
0.0
  0
LINE
  5
1D24
330
1CBF
100
AcDbEntity
  8
エンボス
  6
Continuous
100
AcDbLine
 10
-1635.883842914771
 20
-474.0321443603552
 30
0.0
 11
-1628.883842914771
 21
-476.0321443603552
 31
0.0
  0
LINE
  5
1D25
330
1CBF
100
AcDbEntity
  8
エンボス
  6
Continuous
100
AcDbLine
 10
-1628.883842914771
 20
-479.0321443603552
 30
0.0
 11
-1635.883842914771
 21
-481.0321443603552
 31
0.0
  0
LINE
  5
1D26
330
1CBF
100
AcDbEntity
  8
本体
  6
Continuous
100
AcDbLine
 10
-1628.883842914771
 20
-509.5321443603552
 30
0.0
 11
-1628.883842914771
 21
-551.5321443603552
 31
0.0
  0
LINE
  5
1D27
330
1CBF
100
AcDbEntity
  8
本体
  6
Continuous
100
AcDbLine
 10
-1635.883842914771
 20
-509.5321443603552
 30
0.0
 11
-1635.883842914771
 21
-551.5321443603552
 31
0.0
  0
LINE
  5
1D28
330
1CBF
100
AcDbEntity
  8
エンボス
  6
Continuous
100
AcDbLine
 10
-1628.883842914771
 20
-545.0321443603552
 30
0.0
 11
-1635.883842914771
 21
-543.0321443603552
 31
0.0
  0
LINE
  5
1D29
330
1CBF
100
AcDbEntity
  8
エンボス
  6
Continuous
100
AcDbLine
 10
-1635.883842914771
 20
-540.0321443603552
 30
0.0
 11
-1628.883842914771
 21
-538.0321443603552
 31
0.0
  0
LINE
  5
1D2A
330
1CBF
100
AcDbEntity
  8
本体
  6
Continuous
100
AcDbLine
 10
-1671.183842914771
 20
-509.5321443603552
 30
0.0
 11
-1635.883842914771
 21
-501.5321443603552
 31
0.0
  0
LINE
  5
1D2B
330
1CBF
100
AcDbEntity
  8
エンボス
  6
Continuous
100
AcDbLine
 10
-1628.883842914771
 20
-517.0321443603552
 30
0.0
 11
-1635.883842914771
 21
-515.0321443603552
 31
0.0
  0
LINE
  5
1D2C
330
1CBF
100
AcDbEntity
  8
エンボス
  6
Continuous
100
AcDbLine
 10
-1635.883842914771
 20
-512.0321443603552
 30
0.0
 11
-1628.883842914771
 21
-510.0321443603552
 31
0.0
  0
LINE
  5
1D2D
330
1CBF
100
AcDbEntity
  8
エンボス
  6
Continuous
100
AcDbLine
 10
-1635.883842914771
 20
-524.0321443603552
 30
0.0
 11
-1628.883842914771
 21
-526.0321443603552
 31
0.0
  0
LINE
  5
1D2E
330
1CBF
100
AcDbEntity
  8
エンボス
  6
Continuous
100
AcDbLine
 10
-1628.883842914771
 20
-529.0321443603552
 30
0.0
 11
-1635.883842914771
 21
-531.0321443603552
 31
0.0
  0
LINE
  5
1D2F
330
1CBF
100
AcDbEntity
  8
本体
  6
Continuous
100
AcDbLine
 10
-1628.883842914771
 20
-559.5321443603552
 30
0.0
 11
-1628.883842914771
 21
-601.5321443603552
 31
0.0
  0
LINE
  5
1D30
330
1CBF
100
AcDbEntity
  8
本体
  6
Continuous
100
AcDbLine
 10
-1635.883842914771
 20
-559.5321443603552
 30
0.0
 11
-1635.883842914771
 21
-601.5321443603552
 31
0.0
  0
LINE
  5
1D31
330
1CBF
100
AcDbEntity
  8
エンボス
  6
Continuous
100
AcDbLine
 10
-1628.883842914771
 20
-595.0321443603552
 30
0.0
 11
-1635.883842914771
 21
-593.0321443603552
 31
0.0
  0
LINE
  5
1D32
330
1CBF
100
AcDbEntity
  8
エンボス
  6
Continuous
100
AcDbLine
 10
-1635.883842914771
 20
-590.0321443603552
 30
0.0
 11
-1628.883842914771
 21
-588.0321443603552
 31
0.0
  0
LINE
  5
1D33
330
1CBF
100
AcDbEntity
  8
本体
  6
Continuous
100
AcDbLine
 10
-1671.183842914771
 20
-559.5321443603552
 30
0.0
 11
-1635.883842914771
 21
-551.5321443603552
 31
0.0
  0
LINE
  5
1D34
330
1CBF
100
AcDbEntity
  8
エンボス
  6
Continuous
100
AcDbLine
 10
-1628.883842914771
 20
-567.0321443603552
 30
0.0
 11
-1635.883842914771
 21
-565.0321443603552
 31
0.0
  0
LINE
  5
1D35
330
1CBF
100
AcDbEntity
  8
エンボス
  6
Continuous
100
AcDbLine
 10
-1635.883842914771
 20
-562.0321443603552
 30
0.0
 11
-1628.883842914771
 21
-560.0321443603552
 31
0.0
  0
LINE
  5
1D36
330
1CBF
100
AcDbEntity
  8
エンボス
  6
Continuous
100
AcDbLine
 10
-1635.883842914771
 20
-574.0321443603552
 30
0.0
 11
-1628.883842914771
 21
-576.0321443603552
 31
0.0
  0
LINE
  5
1D37
330
1CBF
100
AcDbEntity
  8
エンボス
  6
Continuous
100
AcDbLine
 10
-1628.883842914771
 20
-579.0321443603552
 30
0.0
 11
-1635.883842914771
 21
-581.0321443603552
 31
0.0
  0
LINE
  5
1D38
330
1CBF
100
AcDbEntity
  8
本体
  6
Continuous
100
AcDbLine
 10
-1671.183842914771
 20
-609.5321443603552
 30
0.0
 11
-1635.883842914771
 21
-601.5321443603552
 31
0.0
  0
ENDBLK
  5
1CC1
330
1CBF
100
AcDbEntity
  8
0
 48
3.0
100
AcDbBlockEnd
  0
BLOCK
  5
1CC3
330
1CC2
100
AcDbEntity
  8
0
 48
3.0
100
AcDbBlockBegin
  2
*U32
 70
     1
 10
0.0
 20
0.0
 30
0.0
  3
*U32
  1

  0
INSERT
  5
1D43
330
1CC2
100
AcDbEntity
  8
本体
  6
ByBlock
 62
     0
370
    -2
380
     1
100
AcDbBlockReference
  2
*U31
 10
0.0
 20
0.0
 30
0.0
  0
INSERT
  5
1D46
330
1CC2
100
AcDbEntity
  8
本体
  6
ByBlock
 62
     0
370
    -2
380
     1
100
AcDbBlockReference
  2
*U31
 10
35.3
 20
0.0
 30
0.0
  0
INSERT
  5
1D49
330
1CC2
100
AcDbEntity
  8
本体
  6
ByBlock
 62
     0
370
    -2
380
     1
100
AcDbBlockReference
  2
*U31
 10
70.59999999999999
 20
0.0
 30
0.0
  0
INSERT
  5
1D4C
330
1CC2
100
AcDbEntity
  8
本体
  6
ByBlock
 62
     0
370
    -2
380
     1
100
AcDbBlockReference
  2
*U31
 10
105.9
 20
0.0
 30
0.0
  0
INSERT
  5
1D4F
330
1CC2
100
AcDbEntity
  8
本体
  6
ByBlock
 62
     0
370
    -2
380
     1
100
AcDbBlockReference
  2
*U31
 10
141.2
 20
0.0
 30
0.0
  0
INSERT
  5
1D52
330
1CC2
100
AcDbEntity
  8
本体
  6
ByBlock
 62
     0
370
    -2
380
     1
100
AcDbBlockReference
  2
*U31
 10
176.5
 20
0.0
 30
0.0
  0
INSERT
  5
1D55
330
1CC2
100
AcDbEntity
  8
本体
  6
ByBlock
 62
     0
370
    -2
380
     1
100
AcDbBlockReference
  2
*U31
 10
211.8
 20
0.0
 30
0.0
  0
INSERT
  5
1D58
330
1CC2
100
AcDbEntity
  8
本体
  6
ByBlock
 62
     0
370
    -2
380
     1
100
AcDbBlockReference
  2
*U31
 10
247.1
 20
0.0
 30
0.0
  0
INSERT
  5
1D5B
330
1CC2
100
AcDbEntity
  8
本体
  6
ByBlock
 62
     0
370
    -2
380
     1
100
AcDbBlockReference
  2
*U31
 10
282.4
 20
0.0
 30
0.0
  0
INSERT
  5
1D5E
330
1CC2
100
AcDbEntity
  8
本体
  6
ByBlock
 62
     0
370
    -2
380
     1
100
AcDbBlockReference
  2
*U31
 10
317.7
 20
0.0
 30
0.0
  0
INSERT
  5
1D61
330
1CC2
100
AcDbEntity
  8
本体
  6
ByBlock
 62
     0
370
    -2
380
     1
100
AcDbBlockReference
  2
*U31
 10
353.0
 20
0.0
 30
0.0
  0
INSERT
  5
1D64
330
1CC2
100
AcDbEntity
  8
本体
  6
ByBlock
 62
     0
370
    -2
380
     1
100
AcDbBlockReference
  2
*U31
 10
388.3
 20
0.0
 30
0.0
  0
INSERT
  5
1D67
330
1CC2
100
AcDbEntity
  8
本体
  6
ByBlock
 62
     0
370
    -2
380
     1
100
AcDbBlockReference
  2
*U31
 10
423.5999999999999
 20
0.0
 30
0.0
  0
INSERT
  5
1D6A
330
1CC2
100
AcDbEntity
  8
本体
  6
ByBlock
 62
     0
370
    -2
380
     1
100
AcDbBlockReference
  2
*U31
 10
458.8999999999999
 20
0.0
 30
0.0
  0
INSERT
  5
1D6D
330
1CC2
100
AcDbEntity
  8
本体
  6
ByBlock
 62
     0
370
    -2
380
     1
100
AcDbBlockReference
  2
*U31
 10
494.1999999999999
 20
0.0
 30
0.0
  0
INSERT
  5
1D70
330
1CC2
100
AcDbEntity
  8
本体
  6
ByBlock
 62
     0
370
    -2
380
     1
100
AcDbBlockReference
  2
*U31
 10
529.4999999999999
 20
0.0
 30
0.0
  0
INSERT
  5
1D73
330
1CC2
100
AcDbEntity
  8
本体
  6
ByBlock
 62
     0
370
    -2
380
     1
100
AcDbBlockReference
  2
*U31
 10
564.7999999999999
 20
0.0
 30
0.0
  0
INSERT
  5
1D76
330
1CC2
100
AcDbEntity
  8
本体
  6
ByBlock
 62
     0
370
    -2
380
     1
100
AcDbBlockReference
  2
*U31
 10
600.0999999999999
 20
0.0
 30
0.0
  0
INSERT
  5
1D79
330
1CC2
100
AcDbEntity
  8
本体
  6
ByBlock
 62
     0
370
    -2
380
     1
100
AcDbBlockReference
  2
*U31
 10
635.4
 20
0.0
 30
0.0
  0
INSERT
  5
1D7C
330
1CC2
100
AcDbEntity
  8
本体
  6
ByBlock
 62
     0
370
    -2
380
     1
100
AcDbBlockReference
  2
*U31
 10
670.6999999999999
 20
0.0
 30
0.0
  0
INSERT
  5
1D7F
330
1CC2
100
AcDbEntity
  8
本体
  6
ByBlock
 62
     0
370
    -2
380
     1
100
AcDbBlockReference
  2
*U31
 10
706.0
 20
0.0
 30
0.0
  0
INSERT
  5
1D82
330
1CC2
100
AcDbEntity
  8
本体
  6
ByBlock
 62
     0
370
    -2
380
     1
100
AcDbBlockReference
  2
*U31
 10
741.2999999999999
 20
0.0
 30
0.0
  0
INSERT
  5
1D85
330
1CC2
100
AcDbEntity
  8
本体
  6
ByBlock
 62
     0
370
    -2
380
     1
100
AcDbBlockReference
  2
*U31
 10
776.5999999999999
 20
0.0
 30
0.0
  0
INSERT
  5
1D88
330
1CC2
100
AcDbEntity
  8
本体
  6
ByBlock
 62
     0
370
    -2
380
     1
100
AcDbBlockReference
  2
*U31
 10
811.8999999999999
 20
0.0
 30
0.0
  0
INSERT
  5
1D8B
330
1CC2
100
AcDbEntity
  8
本体
  6
ByBlock
 62
     0
370
    -2
380
     1
100
AcDbBlockReference
  2
*U31
 10
847.1999999999999
 20
0.0
 30
0.0
  0
INSERT
  5
1D8E
330
1CC2
100
AcDbEntity
  8
本体
  6
ByBlock
 62
     0
370
    -2
380
     1
100
AcDbBlockReference
  2
*U31
 10
882.4999999999999
 20
0.0
 30
0.0
  0
INSERT
  5
1D91
330
1CC2
100
AcDbEntity
  8
本体
  6
ByBlock
 62
     0
370
    -2
380
     1
100
AcDbBlockReference
  2
*U31
 10
917.7999999999999
 20
0.0
 30
0.0
  0
ENDBLK
  5
1CC4
330
1CC2
100
AcDbEntity
  8
0
 48
3.0
100
AcDbBlockEnd
  0
ENDSEC
  0
SECTION
  2
ENTITIES
  0
LINE
  5
12
330
2
100
AcDbEntity
  8
外枠
 48
80.0
370
     9
100
AcDbLine
 10
0.0
 20
0.0
 30
0.0
 11
2789.511161023067
 21
0.0
 31
0.0
  0
LINE
  5
13
330
2
100
AcDbEntity
  8
外枠
 48
80.0
370
     9
100
AcDbLine
 10
2789.511161023071
 20
1973.26911249564
 30
0.0
 11
0.0
 21
1973.26911249564
 31
0.0
  0
LINE
  5
14
330
2
100
AcDbEntity
  8
外枠
 48
100.0
370
     9
100
AcDbLine
 10
10.0
 20
10.0
 30
0.0
 11
2780.119625023061
 21
10.0
 31
0.0
  0
LINE
  5
17
330
2
100
AcDbEntity
  8
外枠
  6
Continuous
 48
100.0
370
     9
100
AcDbLine
 10
9.999999999996362
 20
155.3992728208031
 30
0.0
 11
2780.119625023061
 21
155.3992728207995
 31
0.0
  0
LINE
  5
18
330
2
100
AcDbEntity
  8
外枠
  6
Continuous
 48
100.0
370
     9
100
AcDbLine
 10
9.999999999996362
 20
160.0950408208045
 30
0.0
 11
2780.119625023061
 21
160.0950408207973
 31
0.0
  0
LINE
  5
19
330
2
100
AcDbEntity
  8
外枠
 48
100.0
370
     9
100
AcDbLine
 10
10.0
 20
1963.877576495633
 30
0.0
 11
2780.119625023053
 21
1963.877576495637
 31
0.0
  0
LINE
  5
1A
330
2
100
AcDbEntity
  8
外枠
 48
80.0
370
     9
100
AcDbLine
 10
0.0
 20
0.0
 30
0.0
 11
0.0
 21
1973.26911249564
 31
0.0
  0
LINE
  5
1B
330
2
100
AcDbEntity
  8
外枠
 48
100.0
370
     9
100
AcDbLine
 10
10.0
 20
1963.877576495633
 30
0.0
 11
10.0
 21
10.0
 31
0.0
  0
LINE
  5
1C
330
2
100
AcDbEntity
  8
外枠
  6
Continuous
 48
100.0
370
     9
100
AcDbLine
 10
10.0
 20
82.69963641040158
 30
0.0
 11
1153.530108552004
 21
82.69963641039794
 31
0.0
  0
MTEXT
  5
1D
330
2
100
AcDbEntity
  8
外枠
  6
Continuous
 48
100.0
370
     9
100
AcDbMText
 10
555.6000408682721
 20
136.1535564242149
 30
0.0
 40
29.0
 41
664.6118999999999
 71
     1
 72
     5
  1
自由勾配側溝用グレーチング
 73
     1
 44
1.0
1001
ACAD
1000
MTEXTBEGIN
1070
    73
1070
     1
1070
    44
1040
1.0
1070
    74
1070
     0
1000
MTEXTEND
  0
MTEXT
  5
1E
330
2
100
AcDbEntity
  8
外枠
  6
Continuous
 48
100.0
370
     9
100
AcDbMText
 10
246.8574963386418
 20
64.81814764649607
 30
0.0
 40
35.0
 41
532.9183
 71
     1
 72
     5
  1
695\U+00D7995\U+00D755/140
 73
     1
 44
1.0
1001
ACAD
1000
MTEXTBEGIN
1070
    73
1070
     1
1070
    44
1040
1.0
1070
    74
1070
     0
1000
MTEXTEND
  0
MTEXT
  5
1F
330
2
100
AcDbEntity
  8
外枠
  6
Continuous
 48
100.0
370
     9
100
AcDbMText
 10
73.47653388609796
 20
137.3760680266387
 30
0.0
 40
30.0
 41
126.3036
 71
     1
 72
     5
  1
T-6
 73
     1
 44
1.0
1001
ACAD
1000
MTEXTBEGIN
1070
    73
1070
     1
1070
    44
1040
1.0
1070
    74
1070
     0
1000
MTEXTEND
  0
MTEXT
  5
20
330
2
100
AcDbEntity
  8
外枠
  6
Continuous
 48
100.0
370
     9
100
AcDbMText
 10
68.92783543177666
 20
59.95966632915224
 30
0.0
 40
35.0
 41
88.86979999999999
 71
     1
 72
     5
  1
TFVP
 73
     1
 44
1.0
1001
ACAD
1000
MTEXTBEGIN
1070
    73
1070
     1
1070
    44
1040
1.0
1070
    74
1070
     0
1000
MTEXTEND
  0
LINE
  5
21
330
2
100
AcDbEntity
  8
外枠
 48
100.0
370
     9
100
AcDbLine
 10
45.0
 20
155.3992728208031
 30
0.0
 11
45.0
 21
10.0
 31
0.0
  0
MTEXT
  5
22
330
2
100
AcDbEntity
  8
外枠
  6
Continuous
 48
100.0
370
     9
100
AcDbMText
 10
15.05670849094895
 20
75.82038473524153
 30
0.0
 40
20.0
 41
23.52947333656417
 71
     1
 72
     5
  1
品\P番
 73
     1
 44
1.0
1001
ACAD
1000
MTEXTBEGIN
1070
    73
1070
     1
1070
    44
1040
1.0
1070
    74
1070
     0
1000
MTEXTEND
  0
MTEXT
  5
23
330
2
100
AcDbEntity
  8
外枠
  6
Continuous
 48
100.0
370
     9
100
AcDbMText
 10
14.92010060012399
 20
149.3317229429121
 30
0.0
 40
20.0
 41
30.07989939987533
 71
     1
 72
     5
  1
荷\P重
 73
     1
 44
1.0
1001
ACAD
1000
MTEXTBEGIN
1070
    73
1070
     1
1070
    44
1040
1.0
1070
    74
1070
     0
1000
MTEXTEND
  0
LINE
  5
24
330
2
100
AcDbEntity
  8
外枠
 48
100.0
370
     9
100
AcDbLine
 10
179.1040495562847
 20
155.3992728208031
 30
0.0
 11
179.1040495562847
 21
10.0
 31
0.0
  0
MTEXT
  5
25
330
2
100
AcDbEntity
  8
外枠
  6
Continuous
 48
100.0
370
     9
100
AcDbMText
 10
268.9341625605839
 20
133.8572910967996
 30
0.0
 40
30.0
 41
163.9045
 71
     1
 72
     5
  1
VS600用
 73
     1
 44
1.0
1001
ACAD
1000
MTEXTBEGIN
1070
    73
1070
     1
1070
    44
1040
1.0
1070
    74
1070
     0
1000
MTEXTEND
  0
MTEXT
  5
26
330
2
100
AcDbEntity
  8
外枠
  6
Continuous
 48
100.0
370
     9
100
AcDbMText
 10
184.4346535744698
 20
149.3074501239389
 30
0.0
 40
20.0
 41
29.6694
 71
     1
 72
     5
  1
溝幅
 73
     1
 44
1.0
1001
ACAD
1000
MTEXTBEGIN
1070
    73
1070
     1
1070
    44
1040
1.0
1070
    74
1070
     0
1000
MTEXTEND
  0
LINE
  5
27
330
2
100
AcDbEntity
  8
外枠
 48
100.0
370
     9
100
AcDbLine
 10
214.1040495562847
 20
155.3992728208031
 30
0.0
 11
214.1040495562847
 21
82.69963641040158
 31
0.0
  0
MTEXT
  5
28
330
2
100
AcDbEntity
  8
外枠
  6
Continuous
 48
100.0
370
     9
100
AcDbMText
 10
477.8955451146976
 20
149.3074501239389
 30
0.0
 40
20.0
 41
29.6694
 71
     1
 72
     5
  1
品名
 73
     1
 44
1.0
1001
ACAD
1000
MTEXTBEGIN
1070
    73
1070
     1
1070
    44
1040
1.0
1070
    74
1070
     0
1000
MTEXTEND
  0
LINE
  5
29
330
2
100
AcDbEntity
  8
外枠
 48
100.0
370
     9
100
AcDbLine
 10
472.5649410965124
 20
155.3992728208031
 30
0.0
 11
472.5649410965124
 21
82.69963641040158
 31
0.0
  0
LINE
  5
2A
330
2
100
AcDbEntity
  8
外枠
 48
100.0
370
     9
100
AcDbLine
 10
507.5649410965125
 20
155.3992728208031
 30
0.0
 11
507.5649410965125
 21
82.69963641040158
 31
0.0
  0
MTEXT
  5
2B
330
2
100
AcDbEntity
  8
外枠
  6
Continuous
 48
100.0
370
     9
100
AcDbMText
 10
728.477887653953
 20
76.92551173516403
 30
0.0
 40
20.0
 41
664.6118999999999
 71
     1
 72
     5
  1
摘\P要
 73
     1
 44
1.0
1001
ACAD
1000
MTEXTBEGIN
1070
    73
1070
     1
1070
    44
1040
1.0
1070
    74
1070
     0
1000
MTEXTEND
  0
LINE
  5
2C
330
2
100
AcDbEntity
  8
外枠
 48
100.0
370
     9
100
AcDbLine
 10
723.8282373115871
 20
82.6996364103943
 30
0.0
 11
723.8282373115871
 21
9.999999999992724
 31
0.0
  0
LINE
  5
2F
330
2
100
AcDbEntity
  8
外枠
 48
100.0
370
     9
100
AcDbLine
 10
758.8282373115871
 20
82.6996364103943
 30
0.0
 11
758.8282373115871
 21
9.999999999992724
 31
0.0
  0
LINE
  5
31
330
2
100
AcDbEntity
  8
外枠
 48
100.0
370
     9
100
AcDbLine
 10
974.9513069700951
 20
82.6996364103943
 30
0.0
 11
974.9513069700951
 21
9.999999999992724
 31
0.0
  0
MTEXT
  5
32
330
2
100
AcDbEntity
  8
外枠
  6
Continuous
 48
100.0
370
     9
100
AcDbMText
 10
979.7329598959768
 20
74.84825461820583
 30
0.0
 40
20.0
 41
31.38947761565365
 71
     1
 72
     5
  1
材\P質
 73
     1
 44
1.0
1001
ACAD
1000
MTEXTBEGIN
1070
    73
1070
     1
1070
    44
1040
1.0
1070
    74
1070
     0
1000
MTEXTEND
  0
LINE
  5
33
330
2
100
AcDbEntity
  8
外枠
 48
100.0
370
     9
100
AcDbLine
 10
1009.951306970095
 20
82.6996364103943
 30
0.0
 11
1009.951306970095
 21
9.999999999992724
 31
0.0
  0
LINE
  5
37
330
2
100
AcDbEntity
  8
外枠
 48
80.0
370
     9
100
AcDbLine
 10
2789.511161023067
 20
0.0
 30
0.0
 11
2789.511161023071
 21
1973.26911249564
 31
0.0
  0
LINE
  5
38
330
2
100
AcDbEntity
  8
外枠
 48
100.0
370
     9
100
AcDbLine
 10
2780.119625023053
 20
1963.877576495637
 30
0.0
 11
2780.119625023061
 21
10.0
 31
0.0
  0
LINE
  5
3A
330
2
100
AcDbEntity
  8
外枠
 48
3.0
100
AcDbLine
 10
1607.072254912545
 20
61.67068719952067
 30
0.0
 11
2262.173600934632
 21
61.67068719952067
 31
0.0
  0
MTEXT
  5
3B
330
2
100
AcDbEntity
  8
外枠
  6
Continuous
 48
100.0
370
     9
100
AcDbMText
 10
1683.622173868318
 20
50.71504764095289
 30
0.0
 40
30.00024
 41
539.4827578564582
 71
     1
 72
     5
  1
T A K A R A   G R A T I N G
 73
     1
 44
1.0
1001
ACAD
1000
MTEXTBEGIN
1070
    73
1070
     1
1070
    44
1040
1.0
1070
    74
1070
     0
1000
MTEXTEND
  0
MTEXT
  5
3C
330
2
100
AcDbEntity
  8
外枠
  6
Continuous
 48
100.0
370
     9
100
AcDbMText
 10
1728.02061463669
 20
127.1672938476838
 30
0.0
 40
30.0
 41
282.8297
 71
     1
 72
     5
  1
株 式 会 社
 73
     1
 44
1.0
1001
ACAD
1000
MTEXTBEGIN
1070
    73
1070
     1
1070
    44
1040
1.0
1070
    74
1070
     0
1000
MTEXTEND
  0
LINE
  5
3D
330
2
100
AcDbEntity
  8
外枠
  6
Continuous
 48
100.0
370
     9
100
AcDbLine
 10
1508.680137877982
 20
155.3992728208068
 30
0.0
 11
1508.680137877982
 21
10.00000000000364
 31
0.0
  0
LINE
  5
3E
330
2
100
AcDbEntity
  8
外枠
  6
Continuous
 48
100.0
370
     9
100
AcDbLine
 10
1593.95141853916
 20
155.3992728207995
 30
0.0
 11
1593.95141853916
 21
9.999999999996362
 31
0.0
  0
LINE
  5
3F
330
2
100
AcDbEntity
  8
外枠
  6
Continuous
 48
100.0
370
     9
100
AcDbLine
 10
1616.777813337499
 20
106.634063069062
 30
0.0
 11
1612.463999974505
 21
110.08511375945
 31
0.0
  0
LINE
  5
40
330
2
100
AcDbEntity
  8
外枠
  6
Continuous
 48
100.0
370
     9
100
AcDbLine
 10
1616.777813337499
 20
106.634063069062
 30
0.0
 11
1612.463999974505
 21
103.183012378663
 31
0.0
  0
LINE
  5
41
330
2
100
AcDbEntity
  8
外枠
  6
Continuous
 48
100.0
370
     9
100
AcDbLine
 10
1616.777813337505
 20
113.5361644498489
 30
0.0
 11
1612.463999974505
 21
110.08511375945
 31
0.0
  0
LINE
  5
42
330
2
100
AcDbEntity
  8
外枠
  6
Continuous
 48
100.0
370
     9
100
AcDbLine
 10
1616.777813337499
 20
99.73196168827508
 30
0.0
 11
1612.463999974505
 21
103.183012378663
 31
0.0
  0
MTEXT
  5
43
330
2
100
AcDbEntity
  8
外枠
  6
Continuous
 48
100.0
370
     9
100
AcDbMText
 10
1520.476936402745
 20
137.4995509975779
 30
0.0
 40
20.0
 41
1015.1375
 71
     1
 72
     5
  1
65.0
 73
     1
 44
1.0
1001
ACAD
1000
MTEXTBEGIN
1070
    73
1070
     1
1070
    44
1040
1.0
1070
    74
1070
     0
1000
MTEXTEND
  0
MTEXT
  5
44
330
2
100
AcDbEntity
  8
外枠
  6
Continuous
 48
100.0
370
     9
100
AcDbMText
 10
1568.464698185987
 20
108.4136993179927
 30
0.0
 40
18.0
 41
25.456
 71
     1
 72
     5
  1
kg
 73
     1
 44
1.0
1001
ACAD
1000
MTEXTBEGIN
1070
    73
1070
     1
1070
    44
1040
1.0
1070
    74
1070
     0
1000
MTEXTEND
  0
LINE
  5
45
330
2
100
AcDbEntity
  8
外枠
  6
Continuous
 48
100.0
370
     9
100
AcDbLine
 10
1649.122643507042
 20
139.4120285854742
 30
0.0
 11
1653.436456870031
 21
135.9609778950862
 31
0.0
  0
LINE
  5
46
330
2
100
AcDbEntity
  8
外枠
  6
Continuous
 48
100.0
370
     9
100
AcDbLine
 10
1666.377896959009
 20
139.4120285854742
 30
0.0
 11
1662.06408359602
 21
135.9609778950862
 31
0.0
  0
MTEXT
  5
47
330
2
100
AcDbEntity
  8
外枠
  6
Continuous
 48
100.0
370
     9
100
AcDbMText
 10
1642.840555134189
 20
120.8184913847756
 30
0.0
 40
23.95393639053264
 41
23.85059431815661
 71
     1
 72
     5
  1
{\fＭＳ ゴシック|b0|i0|c128|p49;宝}
 73
     1
 44
1.0
1001
ACAD
1000
MTEXTBEGIN
1070
    73
1070
     1
1070
    44
1040
1.0
1070
    74
1070
     0
1000
MTEXTEND
  0
LINE
  5
48
330
2
100
AcDbEntity
  8
外枠
  6
Continuous
 48
100.0
370
     9
100
AcDbLine
 10
1662.06408359602
 20
135.9609778950862
 30
0.0
 11
1694.408913765557
 21
110.08511375945
 31
0.0
  0
LINE
  5
49
330
2
100
AcDbEntity
  8
外枠
  6
Continuous
 48
100.0
370
     9
100
AcDbLine
 10
1657.750270233026
 20
132.5099272046927
 30
0.0
 11
1690.095100402563
 21
106.634063069062
 31
0.0
  0
LINE
  5
4A
330
2
100
AcDbEntity
  8
外枠
  6
Continuous
 48
100.0
370
     9
100
AcDbLine
 10
1690.095100402563
 20
106.634063069062
 30
0.0
 11
1657.750270233026
 21
80.75819893343123
 31
0.0
  0
LINE
  5
4B
330
2
100
AcDbEntity
  8
外枠
  6
Continuous
 48
100.0
370
     9
100
AcDbLine
 10
1694.408913765557
 20
103.183012378663
 30
0.0
 11
1662.06408359602
 21
77.30714824303777
 31
0.0
  0
LINE
  5
4C
330
2
100
AcDbEntity
  8
外枠
  6
Continuous
 48
100.0
370
     9
100
AcDbLine
 10
1657.750270233026
 20
80.75819893342577
 30
0.0
 11
1625.405440063488
 21
106.634063069062
 31
0.0
  0
LINE
  5
4D
330
2
100
AcDbEntity
  8
外枠
  6
Continuous
 48
100.0
370
     9
100
AcDbLine
 10
1653.436456870031
 20
77.30714824303777
 30
0.0
 11
1621.0916267005
 21
103.183012378663
 31
0.0
  0
LINE
  5
4E
330
2
100
AcDbEntity
  8
外枠
  6
Continuous
 48
100.0
370
     9
100
AcDbLine
 10
1621.0916267005
 20
103.183012378663
 30
0.0
 11
1616.777813337505
 21
99.73196168827508
 31
0.0
  0
LINE
  5
4F
330
2
100
AcDbEntity
  8
外枠
  6
Continuous
 48
100.0
370
     9
100
AcDbLine
 10
1653.436456870031
 20
77.30714824303777
 30
0.0
 11
1649.122643507042
 21
73.85609755263885
 31
0.0
  0
LINE
  5
50
330
2
100
AcDbEntity
  8
外枠
  6
Continuous
 48
100.0
370
     9
100
AcDbLine
 10
1653.436456870031
 20
70.4050468622454
 30
0.0
 11
1649.122643507042
 21
73.85609755263885
 31
0.0
  0
LINE
  5
51
330
2
100
AcDbEntity
  8
外枠
  6
Continuous
 48
100.0
370
     9
100
AcDbLine
 10
1657.750270233026
 20
73.85609755263885
 30
0.0
 11
1653.436456870031
 21
70.4050468622454
 31
0.0
  0
LINE
  5
52
330
2
100
AcDbEntity
  8
外枠
  6
Continuous
 48
100.0
370
     9
100
AcDbLine
 10
1666.377896959009
 20
73.85609755263885
 30
0.0
 11
1662.06408359602
 21
70.4050468622454
 31
0.0
  0
LINE
  5
53
330
2
100
AcDbEntity
  8
外枠
  6
Continuous
 48
100.0
370
     9
100
AcDbLine
 10
1662.06408359602
 20
70.4050468622454
 30
0.0
 11
1657.750270233026
 21
73.85609755263885
 31
0.0
  0
LINE
  5
54
330
2
100
AcDbEntity
  8
外枠
  6
Continuous
 48
100.0
370
     9
100
AcDbLine
 10
1666.377896959009
 20
73.85609755263885
 30
0.0
 11
1662.06408359602
 21
77.30714824303777
 31
0.0
  0
LINE
  5
55
330
2
100
AcDbEntity
  8
外枠
  6
Continuous
 48
100.0
370
     9
100
AcDbLine
 10
1657.750270233026
 20
132.5099272046927
 30
0.0
 11
1625.405440063483
 21
106.634063069062
 31
0.0
  0
LINE
  5
56
330
2
100
AcDbEntity
  8
外枠
  6
Continuous
 48
100.0
370
     9
100
AcDbLine
 10
1653.436456870031
 20
135.9609778950862
 30
0.0
 11
1621.0916267005
 21
110.08511375945
 31
0.0
  0
LINE
  5
57
330
2
100
AcDbEntity
  8
外枠
  6
Continuous
 48
100.0
370
     9
100
AcDbLine
 10
1621.0916267005
 20
110.08511375945
 30
0.0
 11
1616.777813337505
 21
113.5361644498489
 31
0.0
  0
LINE
  5
58
330
2
100
AcDbEntity
  8
外枠
  6
Continuous
 48
100.0
370
     9
100
AcDbLine
 10
1694.408913765557
 20
103.183012378663
 30
0.0
 11
1698.722727128541
 21
99.73196168827508
 31
0.0
  0
LINE
  5
59
330
2
100
AcDbEntity
  8
外枠
  6
Continuous
 48
100.0
370
     9
100
AcDbLine
 10
1703.036540491541
 20
103.183012378663
 30
0.0
 11
1698.722727128541
 21
99.73196168827508
 31
0.0
  0
LINE
  5
5A
330
2
100
AcDbEntity
  8
外枠
  6
Continuous
 48
100.0
370
     9
100
AcDbLine
 10
1698.722727128541
 20
113.5361644498489
 30
0.0
 11
1694.408913765557
 21
110.08511375945
 31
0.0
  0
LINE
  5
5B
330
2
100
AcDbEntity
  8
外枠
  6
Continuous
 48
100.0
370
     9
100
AcDbLine
 10
1698.722727128541
 20
106.634063069062
 30
0.0
 11
1703.036540491541
 21
103.183012378663
 31
0.0
  0
LINE
  5
5C
330
2
100
AcDbEntity
  8
外枠
  6
Continuous
 48
100.0
370
     9
100
AcDbLine
 10
1698.722727128541
 20
113.5361644498489
 30
0.0
 11
1703.036540491541
 21
110.08511375945
 31
0.0
  0
LINE
  5
5D
330
2
100
AcDbEntity
  8
外枠
  6
Continuous
 48
100.0
370
     9
100
AcDbLine
 10
1703.036540491541
 20
110.08511375945
 30
0.0
 11
1698.722727128541
 21
106.634063069062
 31
0.0
  0
LINE
  5
5E
330
2
100
AcDbEntity
  8
外枠
  6
Continuous
 48
100.0
370
     9
100
AcDbLine
 10
1653.436456870031
 20
142.8630792758676
 30
0.0
 11
1649.122643507042
 21
139.4120285854742
 31
0.0
  0
LINE
  5
5F
330
2
100
AcDbEntity
  8
外枠
  6
Continuous
 48
100.0
370
     9
100
AcDbLine
 10
1662.06408359602
 20
142.8630792758676
 30
0.0
 11
1666.377896959009
 21
139.4120285854742
 31
0.0
  0
LINE
  5
60
330
2
100
AcDbEntity
  8
外枠
  6
Continuous
 48
100.0
370
     9
100
AcDbLine
 10
1653.436456870031
 20
142.8630792758676
 30
0.0
 11
1657.750270233026
 21
139.4120285854742
 31
0.0
  0
LINE
  5
61
330
2
100
AcDbEntity
  8
外枠
  6
Continuous
 48
100.0
370
     9
100
AcDbLine
 10
1662.06408359602
 20
142.8630792758676
 30
0.0
 11
1657.750270233026
 21
139.4120285854742
 31
0.0
  0
MTEXT
  5
62
330
2
100
AcDbEntity
  8
外枠
  6
Continuous
 48
100.0
370
     9
100
AcDbMText
 10
1982.246612759803
 20
141.5312822365363
 30
0.0
 40
50.0
 41
269.1378
 71
     1
 72
     5
  1
宝 機 材
 73
     1
 44
1.0
1001
ACAD
1000
MTEXTBEGIN
1070
    73
1070
     1
1070
    44
1040
1.0
1070
    74
1070
     0
1000
MTEXTEND
  0
INSERT
  5
63
330
2
100
AcDbEntity
  8
0
100
AcDbBlockReference
  2
GIB詳細
 10
2565.418449883758
 20
297.7225231137781
 30
0.0
  0
LINE
  5
AB
330
2
100
AcDbEntity
  8
外枠
  6
Continuous
 48
100.0
370
     9
100
AcDbLine
 10
2694.775480668144
 20
78.59726492113622
 30
0.0
 11
2729.639779322774
 21
43.73296626650699
 31
0.0
  0
LINE
  5
AC
330
2
100
AcDbEntity
  8
外枠
  6
Continuous
 48
100.0
370
     9
100
AcDbLine
 10
2729.639779322774
 20
113.4615635757691
 30
0.0
 11
2694.775480668144
 21
78.59726492113622
 31
0.0
  0
LINE
  5
AE
330
2
100
AcDbEntity
  8
外枠
  6
Continuous
 48
100.0
370
     9
100
AcDbLine
 10
2271.730765417811
 20
155.3992728207995
 30
0.0
 11
2271.730765417811
 21
10.0
 31
0.0
  0
LINE
  5
AF
330
2
100
AcDbEntity
  8
外枠
  6
Continuous
 48
100.0
370
     9
100
AcDbLine
 10
2387.385592047314
 20
155.3992728207995
 30
0.0
 11
2387.385592047314
 21
9.999999999996362
 31
0.0
  0
MTEXT
  5
B0
330
2
100
AcDbEntity
  8
外枠
  6
Continuous
 48
100.0
370
     9
100
AcDbMText
 10
2518.897970034654
 20
80.52451510381798
 30
0.0
 40
16.435188
 41
274.138099993296
 71
     1
 72
     5
  1
縮尺（A4用紙)
 73
     1
 44
1.0
1001
ACAD
1000
MTEXTBEGIN
1070
    73
1070
     1
1070
    44
1040
1.0
1070
    74
1070
     0
1000
MTEXTEND
  0
LINE
  5
B1
330
2
100
AcDbEntity
  8
外枠
  6
Continuous
 48
100.0
370
     9
100
AcDbLine
 10
2503.04041867681
 20
155.3992728207995
 30
0.0
 11
2503.04041867681
 21
9.999999999996362
 31
0.0
  0
LINE
  5
B2
330
2
100
AcDbEntity
  8
外枠
  6
Continuous
 48
100.0
370
     9
100
AcDbLine
 10
2676.662359028593
 20
155.3992728207995
 30
0.0
 11
2676.662359028593
 21
10.0
 31
0.0
  0
MTEXT
  5
B3
330
2
100
AcDbEntity
  8
外枠
  6
Continuous
 48
100.0
370
     9
100
AcDbMText
 10
2557.587330290393
 20
42.24161905183791
 30
0.0
 40
23.47884
 41
274.138099993296
 71
     1
 72
     5
  1
1：10
 73
     1
 44
1.0
1001
ACAD
1000
MTEXTBEGIN
1070
    73
1070
     1
1070
    44
1040
1.0
1070
    74
1070
     0
1000
MTEXTEND
  0
MTEXT
  5
B4
330
2
100
AcDbEntity
  8
外枠
  6
Continuous
 48
100.0
370
     9
100
AcDbMText
 10
2280.290404386422
 20
149.5129012429788
 30
0.0
 40
18.783072
 41
274.13809060176
 71
     1
 72
     5
  1
Check
 73
     1
 44
1.0
1001
ACAD
1000
MTEXTBEGIN
1070
    73
1070
     1
1070
    44
1040
1.0
1070
    74
1070
     0
1000
MTEXTEND
  0
MTEXT
  5
B5
330
2
100
AcDbEntity
  8
外枠
  6
Continuous
 48
100.0
370
     9
100
AcDbMText
 10
2398.03460165154
 20
149.5129012429788
 30
0.0
 40
18.783072
 41
274.13809060176
 71
     1
 72
     5
  1
Draw
 73
     1
 44
1.0
1001
ACAD
1000
MTEXTBEGIN
1070
    73
1070
     1
1070
    44
1040
1.0
1070
    74
1070
     0
1000
MTEXTEND
  0
LINE
  5
B7
330
2
100
AcDbEntity
  8
外枠
  6
Continuous
 48
100.0
370
     9
100
AcDbLine
 10
2676.662359028593
 20
85.04752041039683
 30
0.0
 11
2503.04041867681
 21
85.04752041039683
 31
0.0
  0
MTEXT
  5
B8
330
2
100
AcDbEntity
  8
外枠
  6
Continuous
 48
100.0
370
     9
100
AcDbMText
 10
2518.897970034654
 20
153.7304166203976
 30
0.0
 40
16.435188
 41
274.138099993296
 71
     1
 72
     5
  1
図面作成日
 73
     1
 44
1.0
1001
ACAD
1000
MTEXTBEGIN
1070
    73
1070
     1
1070
    44
1040
1.0
1070
    74
1070
     0
1000
MTEXTEND
  0
LINE
  5
BA
330
2
100
AcDbEntity
  8
外枠
  6
Continuous
 48
100.0
370
     9
100
AcDbLine
 10
2729.639779322774
 20
43.73296626650699
 30
0.0
 11
2764.504077977396
 21
78.59726492113622
 31
0.0
  0
LINE
  5
BB
330
2
100
AcDbEntity
  8
外枠
  6
Continuous
 48
100.0
370
     9
100
AcDbLine
 10
2764.504077977396
 20
78.59726492113622
 30
0.0
 11
2729.639779322774
 21
113.4615635757691
 31
0.0
  0
LINE
  5
C6
330
2
100
AcDbEntity
  8
本体
  6
Continuous
100
AcDbLine
 10
443.333797992348
 20
1631.198976504248
 30
0.0
 11
1438.333797992348
 21
1631.198976504248
 31
0.0
  0
LINE
  5
C7
330
2
100
AcDbEntity
  8
本体
  6
Continuous
100
AcDbLine
 10
443.333797992348
 20
1625.198976504248
 30
0.0
 11
1438.333797992348
 21
1625.198976504248
 31
0.0
  0
LINE
  5
C8
330
2
100
AcDbEntity
  8
本体
  6
Continuous
100
AcDbLine
 10
443.333797992348
 20
1587.698976504248
 30
0.0
 11
1438.333797992348
 21
1587.698976504248
 31
0.0
  0
LINE
  5
C9
330
2
100
AcDbEntity
  8
本体
  6
Continuous
100
AcDbLine
 10
443.333797992348
 20
1579.698976504248
 30
0.0
 11
1438.333797992348
 21
1579.698976504248
 31
0.0
  0
LINE
  5
108
330
2
100
AcDbEntity
  8
本体
  6
Continuous
100
AcDbLine
 10
450.3298200263438
 20
548.4072884571137
 30
0.0
 11
478.6337979923477
 21
548.4072884571137
 31
0.0
  0
LINE
  5
109
330
2
100
AcDbEntity
  8
本体
  6
Continuous
100
AcDbLine
 10
451.2957112781522
 20
540.4072884571136
 30
0.0
 11
478.6337979923477
 21
540.4072884571137
 31
0.0
  0
LINE
  5
10A
330
2
100
AcDbEntity
  8
本体
  6
Continuous
100
AcDbLine
 10
451.2623052973737
 20
540.6697640203721
 30
0.0
 11
478.6337979923477
 21
548.4072884571137
 31
0.0
  0
LINE
  5
183
330
2
100
AcDbEntity
  8
本体
  6
Continuous
100
AcDbLine
 10
443.333797992348
 20
942.1989765042486
 30
0.0
 11
1438.333797992348
 21
942.1989765042486
 31
0.0
  0
LINE
  5
184
330
2
100
AcDbEntity
  8
本体
  6
Continuous
100
AcDbLine
 10
443.333797992348
 20
936.1989765042485
 30
0.0
 11
1438.333797992348
 21
936.1989765042485
 31
0.0
  0
LINE
  5
1C1
330
2
100
AcDbEntity
  8
本体
  6
Continuous
100
AcDbLine
 10
1918.644268492681
 20
1631.198976504248
 30
0.0
 11
1918.644268492681
 21
1625.198976504248
 31
0.0
  0
LINE
  5
1C2
330
2
100
AcDbEntity
  8
本体
  6
Continuous
100
AcDbLine
 10
1918.644268492681
 20
1625.198976504248
 30
0.0
 11
1973.644268492681
 21
1625.198976504248
 31
0.0
  0
LINE
  5
1C3
330
2
100
AcDbEntity
  8
本体
  6
Continuous
100
AcDbLine
 10
1962.644268492681
 20
1625.198976504248
 30
0.0
 11
1962.644268492681
 21
1628.198976504248
 31
0.0
  0
LINE
  5
1C4
330
2
100
AcDbEntity
  8
本体
  6
Continuous
100
AcDbLine
 10
1962.644268492681
 20
1628.198976504248
 30
0.0
 11
1918.644268492681
 21
1631.198976504248
 31
0.0
  0
LINE
  5
1C5
330
2
100
AcDbEntity
  8
本体
  6
Continuous
100
AcDbLine
 10
1918.644268492681
 20
942.1989765042486
 30
0.0
 11
1973.644268492681
 21
942.1989765042486
 31
0.0
  0
LINE
  5
1C6
330
2
100
AcDbEntity
  8
本体
  6
Continuous
100
AcDbLine
 10
1962.644268492681
 20
939.1989765042485
 30
0.0
 11
1918.644268492681
 21
936.1989765042485
 31
0.0
  0
LINE
  5
1C7
330
2
100
AcDbEntity
  8
本体
  6
Continuous
100
AcDbLine
 10
1918.644268492681
 20
936.1989765042485
 30
0.0
 11
1918.644268492681
 21
942.1989765042486
 31
0.0
  0
LINE
  5
1C8
330
2
100
AcDbEntity
  8
本体
  6
Continuous
100
AcDbLine
 10
1962.644268492681
 20
942.1989765042486
 30
0.0
 11
1962.644268492681
 21
939.1989765042485
 31
0.0
  0
LINE
  5
1C9
330
2
100
AcDbEntity
  8
本体
  6
Continuous
100
AcDbLine
 10
1918.644268492681
 20
1625.198976504248
 30
0.0
 11
1918.644268492681
 21
942.1989765042486
 31
0.0
  0
LINE
  5
1CA
330
2
100
AcDbEntity
  8
本体
  6
Continuous
100
AcDbLine
 10
1973.644268492681
 20
1625.198976504248
 30
0.0
 11
1973.644268492681
 21
942.1989765042486
 31
0.0
  0
LINE
  5
1CB
330
2
100
AcDbEntity
  8
本体
  6
Continuous
100
AcDbLine
 10
1926.644268492681
 20
1625.198976504248
 30
0.0
 11
1926.644268492681
 21
942.1989765042486
 31
0.0
  0
LINE
  5
1CC
330
2
100
AcDbEntity
  8
本体
  6
Continuous
100
AcDbLine
 10
1965.644268492681
 20
1625.198976504248
 30
0.0
 11
1965.644268492681
 21
942.1989765042486
 31
0.0
  0
INSERT
  5
1CD
330
2
100
AcDbEntity
  8
本体
  6
Continuous
100
AcDbBlockReference
  2
TB8
 10
1918.644268492681
 20
1583.698976504248
 30
0.0
  0
INSERT
  5
1D6
330
2
100
AcDbEntity
  8
本体
  6
Continuous
100
AcDbBlockReference
  2
TB8
 10
1918.644268492681
 20
1483.698976504248
 30
0.0
  0
INSERT
  5
1D7
330
2
100
AcDbEntity
  8
本体
  6
Continuous
100
AcDbBlockReference
  2
TB8
 10
1918.644268492681
 20
983.6989765042485
 30
0.0
  0
DIMENSION
  5
1E3
330
2
100
AcDbEntity
  8
寸法線
  6
Continuous
100
AcDbDimension
  2
*D8
 10
1223.433797992347
 20
628.4072884571137
 30
0.0
 11
1295.438874134479
 21
648.4072884571137
 31
0.0
 70
    32
 71
     5
 42
35.29999999999927
  3
ISO-25
100
AcDbAlignedDimension
 13
1188.133797992348
 23
548.4072884571137
 33
0.0
 14
1223.433797992347
 24
548.4072884571137
 34
0.0
100
AcDbRotatedDimension
  0
DIMENSION
  5
1F3
330
2
100
AcDbEntity
  8
寸法線
  6
Continuous
100
AcDbDimension
  2
*D9
 10
1438.333797992348
 20
708.4072884571137
 30
0.0
 11
940.833797992348
 21
728.4072884571137
 31
0.0
 70
    32
 71
     5
 42
995.0
  3
ISO-25
100
AcDbAlignedDimension
 13
443.333797992348
 23
548.4072884571137
 33
0.0
 14
1438.333797992348
 24
548.4072884571137
 34
0.0
100
AcDbRotatedDimension
  0
DIMENSION
  5
20D
330
2
100
AcDbEntity
  8
寸法線
  6
Continuous
100
AcDbDimension
  2
*D10
 10
1758.644268492681
 20
936.1989765042487
 30
0.0
 11
1738.644268492681
 21
1283.698976504249
 31
0.0
 70
    32
 71
     5
 42
695.0
  3
ISO-25
100
AcDbAlignedDimension
 13
1918.644268492681
 23
1631.198976504248
 33
0.0
 14
1918.644268492681
 24
936.1989765042485
 34
0.0
 50
90.0
100
AcDbRotatedDimension
  0
DIMENSION
  5
21A
330
2
100
AcDbEntity
  8
寸法線
  6
Continuous
100
AcDbDimension
  2
*D11
 10
2138.645187000558
 20
946.1989755042486
 30
0.0
 11
2118.645187000558
 21
1283.698976504249
 31
0.0
 70
    32
 71
     5
 42
675.0000019999999
  3
ISO-25
100
AcDbAlignedDimension
 13
2050.644265492682
 23
1621.198977504248
 33
0.0
 14
2050.644265492682
 24
946.1989755042486
 34
0.0
 50
90.0
100
AcDbRotatedDimension
  0
LEADER
  5
227
330
2
100
AcDbEntity
  8
寸法線
  6
Continuous
100
AcDbLeader
  3
ISO-25
 73
     0
 74
     0
 75
     1
 40
36.39593908629441
 41
132.9441624365482
 76
     3
 10
1437.229042880674
 20
1631.198976504248
 30
0.0
 10
1492.939720999329
 20
1704.409654622903
 30
0.0
 10
1507.939720999329
 20
1704.409654622903
 30
0.0
340
228
1001
ACAD
1000
DSTYLE
1002
{
1070
     5
1000
OPEN30
1070
    77
1070
     1
1070
   147
1040
0.5
1070
   342
1005
1D9
1002
}
  0
MTEXT
  5
228
102
{ACAD_REACTORS
330
227
102
}
330
2
100
AcDbEntity
  8
寸法線
  6
Continuous
100
AcDbMText
 10
1512.939720999329
 20
1709.409654622903
 30
0.0
 40
30.0
 41
0.0
 71
     7
 72
     1
  1
6/3\U+00D744
 73
     1
 44
1.0
1001
ACAD
1000
MTEXTBEGIN
1070
    73
1070
     1
1070
    44
1040
1.0
1070
    74
1070
     0
1000
MTEXTEND
  0
LEADER
  5
229
330
2
100
AcDbEntity
  8
寸法線
  6
Continuous
100
AcDbLeader
  3
ISO-25
 73
     0
 74
     0
 75
     1
 40
35.0253807106599
 41
327.7157360406091
 76
     3
 10
2038.644265492681
 20
1618.898978504249
 30
0.0
 10
2086.854942611337
 20
1704.409654622903
 30
0.0
 10
2101.854942611337
 20
1704.409654622903
 30
0.0
340
22A
1001
ACAD
1000
DSTYLE
1002
{
1070
     5
1000
OPEN30
1070
    77
1070
     1
1070
   147
1040
0.5
1070
   342
1005
1D9
1002
}
  0
MTEXT
  5
22A
102
{ACAD_REACTORS
330
229
102
}
330
2
100
AcDbEntity
  8
寸法線
  6
Continuous
100
AcDbMText
 10
2106.854942611337
 20
1709.409654622903
 30
0.0
 40
30.0
 41
0.0
 71
     7
 72
     1
  1
P2.3\U+00D7(45+40)\U+00D740
 73
     1
 44
1.0
1001
ACAD
1000
MTEXTBEGIN
1070
    73
1070
     1
1070
    44
1040
1.0
1070
    74
1070
     0
1000
MTEXTEND
  0
LINE
  5
22B
330
2
100
AcDbEntity
  8
嵩上断面
  6
Continuous
100
AcDbLine
 10
1428.333797992348
 20
408.4072884571137
 30
0.0
 11
453.333797992348
 21
408.4072884571137
 31
0.0
  0
LINE
  5
22C
330
2
100
AcDbEntity
  8
嵩上断面
  6
Continuous
100
AcDbLine
 10
1428.333797992348
 20
493.4072884571137
 30
0.0
 11
453.333797992348
 21
493.4072884571137
 31
0.0
  0
LINE
  5
22D
330
2
100
AcDbEntity
  8
嵩上断面
  6
HIDDEN
 48
2.0
100
AcDbLine
 10
1428.333797992348
 20
491.1072884571137
 30
0.0
 11
453.333797992348
 21
491.1072884571137
 31
0.0
  0
DIMENSION
  5
22F
330
2
100
AcDbEntity
  8
寸法線
  6
Continuous
100
AcDbDimension
  2
*D12
 10
1548.338421916112
 20
548.4072884571137
 30
0.0
 11
1528.338421916112
 21
520.9072884571139
 31
0.0
 70
    32
 71
     5
 42
55.0
  3
ISO-25
100
AcDbAlignedDimension
 13
1430.833797992348
 23
493.4072884571137
 33
0.0
 14
1435.833797992348
 24
548.4072884571137
 34
0.0
 50
90.0
100
AcDbRotatedDimension
  0
DIMENSION
  5
23C
330
2
100
AcDbEntity
  8
寸法線
  6
Continuous
100
AcDbDimension
  2
*D13
 10
1628.340544681824
 20
548.4072884571137
 30
0.0
 11
1608.340544681824
 21
478.4072884571139
 31
0.0
 70
    32
 71
     5
 42
140.0
  3
ISO-25
100
AcDbAlignedDimension
 13
1430.833797992348
 23
408.4072884571137
 33
0.0
 14
1435.833797992348
 24
548.4072884571137
 34
0.0
 50
90.0
100
AcDbRotatedDimension
  0
INSERT
  5
3B0
330
2
100
AcDbEntity
  8
本体
  6
Continuous
100
AcDbBlockReference
  2
TB8
 10
1918.644268492681
 20
1383.698976504248
 30
0.0
  0
LINE
  5
3B1
330
2
100
AcDbEntity
  8
中心線
  6
Continuous
100
AcDbLine
 10
1188.133797992348
 20
556.4072884571137
 30
0.0
 11
1188.133797992348
 21
485.4072884571137
 31
0.0
  0
LINE
  5
3B2
330
2
100
AcDbEntity
  8
中心線
  6
Continuous
100
AcDbLine
 10
1223.433797992347
 20
556.4072884571137
 30
0.0
 11
1223.433797992347
 21
485.4072884571137
 31
0.0
  0
LINE
  5
401
330
2
100
AcDbEntity
  8
本体
  6
Continuous
100
AcDbLine
 10
1403.433797992347
 20
548.4072884571137
 30
0.0
 11
1431.390066524726
 21
548.4072884571137
 31
0.0
  0
LINE
  5
402
330
2
100
AcDbEntity
  8
本体
  6
Continuous
100
AcDbLine
 10
1403.433797992347
 20
540.4072884571137
 30
0.0
 11
1430.125712313864
 21
540.4072884571137
 31
0.0
  0
LINE
  5
403
330
2
100
AcDbEntity
  8
本体
  6
Continuous
100
AcDbLine
 10
1403.433797992347
 20
540.4072884571137
 30
0.0
 11
1431.377238159389
 21
548.3064941580443
 31
0.0
  0
LINE
  5
454
330
2
100
AcDbEntity
  8
本体
100
AcDbLine
 10
478.6337979923477
 20
548.4072884571137
 30
0.0
 11
485.6337979923478
 21
548.4072884571137
 31
0.0
  0
LINE
  5
455
330
2
100
AcDbEntity
  8
本体
100
AcDbLine
 10
478.6337979923477
 20
548.4072884571137
 30
0.0
 11
478.6337979923477
 21
538.4072884571137
 31
0.0
  0
LINE
  5
456
330
2
100
AcDbEntity
  8
本体
100
AcDbLine
 10
478.6337979923477
 20
538.4072884571137
 30
0.0
 11
480.1337979923478
 21
537.4072884571137
 31
0.0
  0
LINE
  5
457
330
2
100
AcDbEntity
  8
本体
100
AcDbLine
 10
485.6337979923478
 20
548.4072884571137
 30
0.0
 11
485.6337979923478
 21
538.4072884571137
 31
0.0
  0
LINE
  5
458
330
2
100
AcDbEntity
  8
本体
100
AcDbLine
 10
485.6337979923478
 20
538.4072884571137
 30
0.0
 11
484.1337979923478
 21
537.4072884571137
 31
0.0
  0
LINE
  5
459
330
2
100
AcDbEntity
  8
本体
100
AcDbLine
 10
478.6337979923477
 20
493.4072884571137
 30
0.0
 11
485.6337979923478
 21
493.4072884571137
 31
0.0
  0
LINE
  5
45A
330
2
100
AcDbEntity
  8
本体
100
AcDbLine
 10
478.6337979923477
 20
493.4072884571137
 30
0.0
 11
478.6337979923477
 21
503.4072884571137
 31
0.0
  0
LINE
  5
45B
330
2
100
AcDbEntity
  8
本体
100
AcDbLine
 10
478.6337979923477
 20
503.4072884571137
 30
0.0
 11
480.1337979923478
 21
504.4072884571137
 31
0.0
  0
LINE
  5
45C
330
2
100
AcDbEntity
  8
本体
100
AcDbLine
 10
485.6337979923478
 20
493.4072884571137
 30
0.0
 11
485.6337979923478
 21
503.4072884571137
 31
0.0
  0
LINE
  5
45D
330
2
100
AcDbEntity
  8
本体
100
AcDbLine
 10
485.6337979923478
 20
503.4072884571137
 30
0.0
 11
484.1337979923478
 21
504.4072884571137
 31
0.0
  0
LINE
  5
45E
330
2
100
AcDbEntity
  8
本体
100
AcDbLine
 10
480.1337979923478
 20
537.4072884571137
 30
0.0
 11
480.1337979923478
 21
504.4072884571137
 31
0.0
  0
LINE
  5
45F
330
2
100
AcDbEntity
  8
本体
100
AcDbLine
 10
484.1337979923478
 20
537.4072884571137
 30
0.0
 11
484.1337979923478
 21
504.4072884571137
 31
0.0
  0
LINE
  5
568
330
2
100
AcDbEntity
  8
本体
100
AcDbLine
 10
1431.389812610283
 20
548.405293415063
 30
0.0
 11
1438.333797992348
 21
547.5215134573455
 31
0.0
  0
LINE
  5
569
330
2
100
AcDbEntity
  8
本体
100
AcDbLine
 10
1431.389812610283
 20
548.405293415063
 30
0.0
 11
1430.127269813544
 21
538.4853142978268
 31
0.0
  0
LINE
  5
56A
330
2
100
AcDbEntity
  8
本体
100
AcDbLine
 10
1430.127269813544
 20
538.4853142978268
 30
0.0
 11
1431.489012401455
 21
537.3039349665923
 31
0.0
  0
LINE
  5
56B
330
2
100
AcDbEntity
  8
本体
100
AcDbLine
 10
1438.333797992348
 20
547.5215134573455
 30
0.0
 11
1437.071255195609
 21
537.6015343401093
 31
0.0
  0
LINE
  5
56C
330
2
100
AcDbEntity
  8
本体
100
AcDbLine
 10
1437.071255195609
 20
537.6015343401093
 30
0.0
 11
1435.457004048349
 21
536.7989178478967
 31
0.0
  0
LINE
  5
56D
330
2
100
AcDbEntity
  8
本体
100
AcDbLine
 10
1424.445827228217
 20
493.8454082702639
 30
0.0
 11
1431.389812610283
 21
492.9616283125465
 31
0.0
  0
LINE
  5
56E
330
2
100
AcDbEntity
  8
本体
100
AcDbLine
 10
1424.445827228217
 20
493.8454082702639
 30
0.0
 11
1425.708370024957
 21
503.7653873875001
 31
0.0
  0
LINE
  5
56F
330
2
100
AcDbEntity
  8
本体
100
AcDbLine
 10
1425.708370024957
 20
503.7653873875001
 30
0.0
 11
1427.322621172216
 21
504.5680038797129
 31
0.0
  0
LINE
  5
570
330
2
100
AcDbEntity
  8
本体
100
AcDbLine
 10
1431.389812610283
 20
492.9616283125465
 30
0.0
 11
1432.652355407022
 21
502.8816074297828
 31
0.0
  0
LINE
  5
571
330
2
100
AcDbEntity
  8
本体
100
AcDbLine
 10
1432.652355407022
 20
502.8816074297828
 30
0.0
 11
1431.29061281911
 21
504.0629867610172
 31
0.0
  0
LINE
  5
572
330
2
100
AcDbEntity
  8
本体
100
AcDbLine
 10
1431.489012401455
 20
537.3039349665923
 30
0.0
 11
1427.322621172216
 21
504.5680038797129
 31
0.0
  0
LINE
  5
573
330
2
100
AcDbEntity
  8
本体
100
AcDbLine
 10
1435.457004048349
 20
536.7989178478967
 30
0.0
 11
1431.29061281911
 21
504.0629867610172
 31
0.0
  0
INSERT
  5
580
330
2
100
AcDbEntity
  8
本体
  6
Continuous
100
AcDbBlockReference
  2
TB8
 10
1918.644268492681
 20
1283.698976504248
 30
0.0
  0
INSERT
  5
5F9
330
2
100
AcDbEntity
  8
本体
  6
Continuous
100
AcDbBlockReference
  2
TB8
 10
1918.644268492681
 20
1183.698976504248
 30
0.0
  0
INSERT
  5
672
330
2
100
AcDbEntity
  8
本体
  6
Continuous
100
AcDbBlockReference
  2
TB8
 10
1918.644268492681
 20
1083.698976504248
 30
0.0
  0
LINE
  5
6EB
330
2
100
AcDbEntity
  8
本体
  6
Continuous
100
AcDbLine
 10
454.6682114489438
 20
504.4072884571137
 30
0.0
 11
480.1337979923478
 21
504.4072884571137
 31
0.0
  0
LINE
  5
706
330
2
100
AcDbEntity
  8
本体
  6
Continuous
100
AcDbLine
 10
1401.933797992347
 20
504.4072884571137
 30
0.0
 11
1426.999384535752
 21
504.4072884571137
 31
0.0
  0
LINE
  5
708
330
2
100
AcDbEntity
  8
嵩上断面
  6
HIDDEN
 48
2.0
100
AcDbLine
 10
1428.333797992348
 20
410.7072884571137
 30
0.0
 11
453.333797992348
 21
410.7072884571137
 31
0.0
  0
LINE
  5
73A
330
2
100
AcDbEntity
  8
嵩上断面
  6
Continuous
100
AcDbLine
 10
1428.333797992348
 20
493.4072884571137
 30
0.0
 11
1428.333797992348
 21
408.4072884571137
 31
0.0
  0
LINE
  5
73B
330
2
100
AcDbEntity
  8
嵩上断面
  6
Continuous
100
AcDbLine
 10
453.333797992348
 20
493.4072884571137
 30
0.0
 11
453.333797992348
 21
408.4072884571137
 31
0.0
  0
DIMENSION
  5
816
330
2
100
AcDbEntity
  8
寸法線
  6
Continuous
100
AcDbDimension
  2
*D7
 10
453.333797992348
 20
328.4072884571137
 30
0.0
 11
940.833797992348
 21
348.4072884571137
 31
0.0
 70
    32
 71
     5
 42
975.0
  3
ISO-25
100
AcDbAlignedDimension
 13
1428.333797992348
 23
408.4072884571137
 33
0.0
 14
453.333797992348
 24
408.4072884571137
 34
0.0
100
AcDbRotatedDimension
  0
LINE
  5
84A
102
{ACAD_REACTORS
330
191D
102
}
330
2
100
AcDbEntity
  8
嵩上断面
  6
HIDDEN
 48
3.0
370
     9
100
AcDbLine
 10
453.333797992348
 20
1621.198977504248
 30
0.0
 11
1428.333797992348
 21
1621.198977504248
 31
0.0
  0
LINE
  5
850
102
{ACAD_REACTORS
330
191D
102
}
330
2
100
AcDbEntity
  8
嵩上断面
  6
HIDDEN
 48
3.0
370
     9
100
AcDbLine
 10
453.333797992348
 20
1581.198977504248
 30
0.0
 11
453.333797992348
 21
1621.198977504248
 31
0.0
  0
LINE
  5
851
102
{ACAD_REACTORS
330
191D
102
}
330
2
100
AcDbEntity
  8
嵩上断面
  6
HIDDEN
 48
3.0
370
     9
100
AcDbLine
 10
1428.333797992348
 20
1581.198977504248
 30
0.0
 11
1428.333797992348
 21
1621.198977504248
 31
0.0
  0
INSERT
  5
857
330
2
100
AcDbEntity
  8
本体
  6
Continuous
100
AcDbBlockReference
  2
TB8
 10
1918.644268492681
 20
1533.698976504248
 30
0.0
  0
INSERT
  5
858
330
2
100
AcDbEntity
  8
本体
  6
Continuous
100
AcDbBlockReference
  2
TB8
 10
1918.644268492681
 20
1033.698976504248
 30
0.0
  0
INSERT
  5
859
330
2
100
AcDbEntity
  8
本体
  6
Continuous
100
AcDbBlockReference
  2
TB8
 10
1918.644268492681
 20
1133.698976504248
 30
0.0
  0
INSERT
  5
85A
330
2
100
AcDbEntity
  8
本体
  6
Continuous
100
AcDbBlockReference
  2
TB8
 10
1918.644268492681
 20
1233.698976504248
 30
0.0
  0
INSERT
  5
85B
330
2
100
AcDbEntity
  8
本体
  6
Continuous
100
AcDbBlockReference
  2
TB8
 10
1918.644268492681
 20
1333.698976504248
 30
0.0
  0
INSERT
  5
85C
330
2
100
AcDbEntity
  8
本体
  6
Continuous
100
AcDbBlockReference
  2
TB8
 10
1918.644268492681
 20
1433.698976504248
 30
0.0
  0
DIMENSION
  5
85D
330
2
100
AcDbEntity
  8
寸法線
 48
3.0
100
AcDbDimension
  2
*D14
 10
1838.644268492681
 20
1533.698976504248
 30
0.0
 11
1818.644268492681
 21
1558.698976504249
 31
0.0
 70
    32
 71
     5
 42
50.0
  3
ISO-25
100
AcDbAlignedDimension
 13
1918.644268492681
 23
1583.698976504248
 33
0.0
 14
1916.644268492681
 24
1533.698976504248
 34
0.0
 50
90.0
100
AcDbRotatedDimension
  0
LINE
  5
A61
330
2
100
AcDbEntity
  8
本体
  6
Continuous
100
AcDbLine
 10
443.333797992348
 20
1529.698976504248
 30
0.0
 11
1438.333797992348
 21
1529.698976504248
 31
0.0
  0
LINE
  5
A62
330
2
100
AcDbEntity
  8
本体
  6
Continuous
100
AcDbLine
 10
443.333797992348
 20
1537.698976504248
 30
0.0
 11
1438.333797992348
 21
1537.698976504248
 31
0.0
  0
LINE
  5
B6A
330
2
100
AcDbEntity
  8
本体
  6
Continuous
100
AcDbLine
 10
443.333797992348
 20
1479.698976504248
 30
0.0
 11
1438.333797992348
 21
1479.698976504248
 31
0.0
  0
LINE
  5
B6B
330
2
100
AcDbEntity
  8
本体
  6
Continuous
100
AcDbLine
 10
443.333797992348
 20
1487.698976504248
 30
0.0
 11
1438.333797992348
 21
1487.698976504248
 31
0.0
  0
LINE
  5
C73
330
2
100
AcDbEntity
  8
本体
  6
Continuous
100
AcDbLine
 10
443.333797992348
 20
1429.698976504248
 30
0.0
 11
1438.333797992348
 21
1429.698976504248
 31
0.0
  0
LINE
  5
C74
330
2
100
AcDbEntity
  8
本体
  6
Continuous
100
AcDbLine
 10
443.333797992348
 20
1437.698976504248
 30
0.0
 11
1438.333797992348
 21
1437.698976504248
 31
0.0
  0
LINE
  5
D7C
330
2
100
AcDbEntity
  8
本体
  6
Continuous
100
AcDbLine
 10
443.333797992348
 20
1379.698976504248
 30
0.0
 11
1438.333797992348
 21
1379.698976504248
 31
0.0
  0
LINE
  5
D7D
330
2
100
AcDbEntity
  8
本体
  6
Continuous
100
AcDbLine
 10
443.333797992348
 20
1387.698976504248
 30
0.0
 11
1438.333797992348
 21
1387.698976504248
 31
0.0
  0
LINE
  5
E85
330
2
100
AcDbEntity
  8
本体
  6
Continuous
100
AcDbLine
 10
443.333797992348
 20
1329.698976504248
 30
0.0
 11
1438.333797992348
 21
1329.698976504248
 31
0.0
  0
LINE
  5
E86
330
2
100
AcDbEntity
  8
本体
  6
Continuous
100
AcDbLine
 10
443.333797992348
 20
1337.698976504248
 30
0.0
 11
1438.333797992348
 21
1337.698976504248
 31
0.0
  0
LINE
  5
F8E
330
2
100
AcDbEntity
  8
本体
  6
Continuous
100
AcDbLine
 10
443.333797992348
 20
1279.698976504249
 30
0.0
 11
1438.333797992348
 21
1279.698976504249
 31
0.0
  0
LINE
  5
F8F
330
2
100
AcDbEntity
  8
本体
  6
Continuous
100
AcDbLine
 10
443.333797992348
 20
1287.698976504249
 30
0.0
 11
1438.333797992348
 21
1287.698976504249
 31
0.0
  0
LINE
  5
1097
330
2
100
AcDbEntity
  8
本体
  6
Continuous
100
AcDbLine
 10
443.333797992348
 20
1229.698976504248
 30
0.0
 11
1438.333797992348
 21
1229.698976504248
 31
0.0
  0
LINE
  5
1098
330
2
100
AcDbEntity
  8
本体
  6
Continuous
100
AcDbLine
 10
443.333797992348
 20
1237.698976504248
 30
0.0
 11
1438.333797992348
 21
1237.698976504248
 31
0.0
  0
LINE
  5
11A0
330
2
100
AcDbEntity
  8
本体
  6
Continuous
100
AcDbLine
 10
443.333797992348
 20
1179.698976504248
 30
0.0
 11
1438.333797992348
 21
1179.698976504248
 31
0.0
  0
LINE
  5
11A1
330
2
100
AcDbEntity
  8
本体
  6
Continuous
100
AcDbLine
 10
443.333797992348
 20
1187.698976504248
 30
0.0
 11
1438.333797992348
 21
1187.698976504248
 31
0.0
  0
LINE
  5
12A9
330
2
100
AcDbEntity
  8
本体
  6
Continuous
100
AcDbLine
 10
443.333797992348
 20
1129.698976504248
 30
0.0
 11
1438.333797992348
 21
1129.698976504248
 31
0.0
  0
LINE
  5
12AA
330
2
100
AcDbEntity
  8
本体
  6
Continuous
100
AcDbLine
 10
443.333797992348
 20
1137.698976504248
 30
0.0
 11
1438.333797992348
 21
1137.698976504248
 31
0.0
  0
LINE
  5
13B2
330
2
100
AcDbEntity
  8
本体
  6
Continuous
100
AcDbLine
 10
443.333797992348
 20
1079.698976504248
 30
0.0
 11
1438.333797992348
 21
1079.698976504248
 31
0.0
  0
LINE
  5
13B3
330
2
100
AcDbEntity
  8
本体
  6
Continuous
100
AcDbLine
 10
443.333797992348
 20
1087.698976504248
 30
0.0
 11
1438.333797992348
 21
1087.698976504248
 31
0.0
  0
LINE
  5
14BB
330
2
100
AcDbEntity
  8
本体
  6
Continuous
100
AcDbLine
 10
443.333797992348
 20
1029.698976504248
 30
0.0
 11
1438.333797992348
 21
1029.698976504248
 31
0.0
  0
LINE
  5
14BC
330
2
100
AcDbEntity
  8
本体
  6
Continuous
100
AcDbLine
 10
443.333797992348
 20
1037.698976504248
 30
0.0
 11
1438.333797992348
 21
1037.698976504248
 31
0.0
  0
LINE
  5
15C3
330
2
100
AcDbEntity
  8
本体
  6
Continuous
100
AcDbLine
 10
443.333797992348
 20
987.6989765042486
 30
0.0
 11
1438.333797992348
 21
987.6989765042486
 31
0.0
  0
LINE
  5
15C4
330
2
100
AcDbEntity
  8
本体
  6
Continuous
100
AcDbLine
 10
443.333797992348
 20
979.6989765042486
 30
0.0
 11
1438.333797992348
 21
979.6989765042486
 31
0.0
  0
LINE
  5
15E5
102
{ACAD_REACTORS
330
191D
102
}
330
2
100
AcDbEntity
  8
嵩上断面
  6
HIDDEN
 48
3.0
370
     9
100
AcDbLine
 10
453.333797992348
 20
1581.198977504248
 30
0.0
 11
1428.333797992348
 21
1581.198977504248
 31
0.0
  0
DIMENSION
  5
15EB
330
2
100
AcDbEntity
  8
寸法線
 48
3.0
100
AcDbDimension
  2
*D15
 10
1548.338421916112
 20
493.4072884571137
 30
0.0
 11
1528.338421916112
 21
450.9072884571139
 31
0.0
 70
    32
 71
     5
 42
85.0
  3
ISO-25
100
AcDbAlignedDimension
 13
1428.333797992348
 23
408.4072884571137
 33
0.0
 14
1428.333797992348
 24
493.4072884571137
 34
0.0
 50
90.0
100
AcDbRotatedDimension
  0
MTEXT
  5
178B
330
2
100
AcDbEntity
  8
外枠
  6
Continuous
 48
100.0
370
     9
100
AcDbMText
 10
1022.193186254242
 20
77.61017986570414
 30
0.0
 40
18.0
 41
122.0406
 71
     1
 72
     5
  1
【主部材】
 73
     1
 44
1.0
1001
ACAD
1000
MTEXTBEGIN
1070
    73
1070
     1
1070
    44
1040
1.0
1070
    74
1070
     0
1000
MTEXTEND
  0
MTEXT
  5
178C
330
2
100
AcDbEntity
  8
外枠
  6
Continuous
 48
100.0
370
     9
100
AcDbMText
 10
1038.975343934131
 20
43.7816999552947
 30
0.0
 40
25.0
 41
122.0406
 71
     1
 72
     5
  1
SS400
 73
     1
 44
1.0
1001
ACAD
1000
MTEXTBEGIN
1070
    73
1070
     1
1070
    44
1040
1.0
1070
    74
1070
     0
1000
MTEXTEND
  0
MTEXT
  5
178D
330
2
100
AcDbEntity
  8
外枠
  6
Continuous
 48
100.0
370
     9
100
AcDbMText
 10
1202.677957061338
 20
120.1377642323818
 30
0.0
 40
25.0
 41
1015.1375
 71
     1
 72
     5
  1
溶融亜鉛めっき仕上
 73
     1
 44
1.0
1001
ACAD
1000
MTEXTBEGIN
1070
    73
1070
     1
1070
    44
1040
1.0
1070
    74
1070
     0
1000
MTEXTEND
  0
MTEXT
  5
178E
330
2
100
AcDbEntity
  8
外枠
  6
Continuous
 48
100.0
370
     9
100
AcDbMText
 10
1199.761738767627
 20
151.0819879350654
 30
0.0
 40
18.0
 41
301.8661
 71
     1
 72
     5
  1
【グレーチング】JIS　H8641
 73
     1
 44
1.0
1001
ACAD
1000
MTEXTBEGIN
1070
    73
1070
     1
1070
    44
1040
1.0
1070
    74
1070
     0
1000
MTEXTEND
  0
MTEXT
  5
178F
330
2
100
AcDbEntity
  8
外枠
  6
Continuous
 48
100.0
370
     9
100
AcDbMText
 10
1159.385398923399
 20
148.6111115828503
 30
0.0
 40
20.0
 41
1015.1375
 71
     1
 72
     5
  1
表\P面\P処\P理
 73
     1
 44
1.0
1001
ACAD
1000
MTEXTBEGIN
1070
    73
1070
     1
1070
    44
1040
1.0
1070
    74
1070
     0
1000
MTEXTEND
  0
LINE
  5
1790
330
2
100
AcDbEntity
  8
外枠
  6
Continuous
 48
100.0
370
     9
100
AcDbLine
 10
1188.531791166651
 20
155.3992728207999
 30
0.0
 11
1188.531791166651
 21
9.999999999996816
 31
0.0
  0
LINE
  5
1791
330
2
100
AcDbEntity
  8
外枠
  6
Continuous
 48
100.0
370
     9
100
AcDbLine
 10
1153.531306970095
 20
155.3992728207999
 30
0.0
 11
1153.531306970095
 21
9.999999999996816
 31
0.0
  0
LINE
  5
1792
330
2
100
AcDbEntity
  8
外枠
 48
3.0
100
AcDbLine
 10
1188.531791166651
 20
82.6996364103984
 30
0.0
 11
1593.951336296073
 21
82.6996364103984
 31
0.0
  0
MTEXT
  5
1842
330
2
100
AcDbEntity
  8
外枠
  6
Continuous
 48
100.0
370
     9
100
AcDbMText
 10
2509.985545378613
 20
121.2206105686568
 30
0.0
 40
23.47884
 41
274.1381
 71
     1
 72
     5
  1
'14・09・01
 73
     1
 44
1.0
1001
ACAD
1000
MTEXTBEGIN
1070
    73
1070
     1
1070
    44
1040
1.0
1070
    74
1070
     0
1000
MTEXTEND
  0
LINE
  5
1893
330
2
100
AcDbEntity
  8
嵩上断面
  6
HIDDEN
 48
2.0
100
AcDbLine
 10
1428.333797992348
 20
450.7072884571138
 30
0.0
 11
453.333797992348
 21
450.7072884571138
 31
0.0
  0
LINE
  5
1894
330
2
100
AcDbEntity
  8
嵩上断面
  6
Continuous
100
AcDbLine
 10
1428.333797992348
 20
448.4072884571137
 30
0.0
 11
453.333797992348
 21
448.4072884571137
 31
0.0
  0
LINE
  5
1895
330
2
100
AcDbEntity
  8
嵩上断面
  6
HIDDEN
 48
2.0
100
AcDbLine
 10
1428.333797992348
 20
446.1072884571136
 30
0.0
 11
453.333797992348
 21
446.1072884571136
 31
0.0
  0
INSERT
  5
1916
330
2
100
AcDbEntity
  8
寸法線
 48
3.0
100
AcDbBlockReference
  2
P-H85
 10
1973.644268492681
 20
1621.198977504248
 30
0.0
  0
INSERT
  5
1917
330
2
100
AcDbEntity
  8
寸法線
 48
3.0
100
AcDbBlockReference
  2
P-H85
 10
1973.644268492681
 20
946.1989755042484
 30
0.0
 41
-1.0
 50
180.0
  0
LINE
  5
191E
102
{ACAD_REACTORS
330
1922
102
}
330
2
100
AcDbEntity
  8
嵩上断面
  6
HIDDEN
 48
3.0
370
     9
100
AcDbLine
 10
453.333797992348
 20
946.1989755042484
 30
0.0
 11
1428.333797992348
 21
946.1989755042484
 31
0.0
  0
LINE
  5
191F
102
{ACAD_REACTORS
330
1922
102
}
330
2
100
AcDbEntity
  8
嵩上断面
  6
HIDDEN
 48
3.0
370
     9
100
AcDbLine
 10
1428.333797992348
 20
986.1989755042484
 30
0.0
 11
1428.333797992348
 21
946.1989755042484
 31
0.0
  0
LINE
  5
1920
102
{ACAD_REACTORS
330
1922
102
}
330
2
100
AcDbEntity
  8
嵩上断面
  6
HIDDEN
 48
3.0
370
     9
100
AcDbLine
 10
453.333797992348
 20
986.1989755042484
 30
0.0
 11
1428.333797992348
 21
986.1989755042484
 31
0.0
  0
LINE
  5
1921
102
{ACAD_REACTORS
330
1922
102
}
330
2
100
AcDbEntity
  8
嵩上断面
  6
HIDDEN
 48
3.0
370
     9
100
AcDbLine
 10
453.333797992348
 20
986.1989755042484
 30
0.0
 11
453.333797992348
 21
946.1989755042484
 31
0.0
  0
MTEXT
  5
1A17
330
2
100
AcDbEntity
  8
外枠
  6
Continuous
100
AcDbMText
 10
2427.938927859905
 20
67.25039165302224
 30
0.0
 40
28.17460800000001
 41
43.8527
 71
     1
 72
     5
  1
{\fHG正楷書体-PRO|b0|i0|c128|p65;水}
 73
     1
 44
1.0
1001
ACAD
1000
MTEXTBEGIN
1070
    73
1070
     1
1070
    44
1040
1.0
1070
    74
1070
     0
1000
MTEXTEND
  0
MTEXT
  5
1A18
330
2
100
AcDbEntity
  8
外枠
  6
Continuous
100
AcDbMText
 10
2427.938927859905
 20
109.7804165221496
 30
0.0
 40
28.17460800000001
 41
43.8527
 71
     1
 72
     5
  1
{\fHG正楷書体-PRO|b0|i0|c128|p65;清}
 73
     1
 44
1.0
1001
ACAD
1000
MTEXTBEGIN
1070
    73
1070
     1
1070
    44
1040
1.0
1070
    74
1070
     0
1000
MTEXTEND
  0
ELLIPSE
  5
1A19
330
2
100
AcDbEntity
  8
外枠
  6
Continuous
100
AcDbEllipse
 10
2449.066278910865
 20
70.80064248893541
 30
0.0
 11
0.0
 21
-47.8594442149426
 31
0.0
210
0.0
220
0.0
230
1.0
 40
0.7999999999999857
 41
0.0
 42
6.283185307179586
  0
INSERT
  5
1AE5
330
2
100
AcDbEntity
  8
外枠
 48
3.0
100
AcDbBlockReference
  2
鎌下
 10
2271.730765417811
 20
155.3992728207995
 30
0.0
  0
LINE
  5
1B8E
330
2
100
AcDbEntity
  8
本体
100
AcDbLine
 10
450.2777833744132
 20
548.405293415063
 30
0.0
 11
443.333797992348
 21
547.5215134573455
 31
0.0
  0
LINE
  5
1B8F
330
2
100
AcDbEntity
  8
本体
100
AcDbLine
 10
450.2777833744132
 20
548.405293415063
 30
0.0
 11
451.5403261711524
 21
538.4853142978268
 31
0.0
  0
LINE
  5
1B90
330
2
100
AcDbEntity
  8
本体
100
AcDbLine
 10
451.5403261711524
 20
538.4853142978268
 30
0.0
 11
450.1785835832411
 21
537.3039349665923
 31
0.0
  0
LINE
  5
1B91
330
2
100
AcDbEntity
  8
本体
100
AcDbLine
 10
443.333797992348
 20
547.5215134573455
 30
0.0
 11
444.5963407890872
 21
537.6015343401093
 31
0.0
  0
LINE
  5
1B92
330
2
100
AcDbEntity
  8
本体
100
AcDbLine
 10
444.5963407890872
 20
537.6015343401093
 30
0.0
 11
446.2105919363466
 21
536.7989178478967
 31
0.0
  0
LINE
  5
1B93
330
2
100
AcDbEntity
  8
本体
100
AcDbLine
 10
457.2217687564786
 20
493.8454082702639
 30
0.0
 11
450.2777833744135
 21
492.9616283125465
 31
0.0
  0
LINE
  5
1B94
330
2
100
AcDbEntity
  8
本体
100
AcDbLine
 10
457.2217687564786
 20
493.8454082702639
 30
0.0
 11
455.9592259597393
 21
503.7653873875001
 31
0.0
  0
LINE
  5
1B95
330
2
100
AcDbEntity
  8
本体
100
AcDbLine
 10
455.9592259597393
 20
503.7653873875001
 30
0.0
 11
454.3449748124803
 21
504.5680038797129
 31
0.0
  0
LINE
  5
1B96
330
2
100
AcDbEntity
  8
本体
100
AcDbLine
 10
450.2777833744135
 20
492.9616283125465
 30
0.0
 11
449.0152405776741
 21
502.8816074297828
 31
0.0
  0
LINE
  5
1B97
330
2
100
AcDbEntity
  8
本体
100
AcDbLine
 10
449.0152405776741
 20
502.8816074297828
 30
0.0
 11
450.3769831655858
 21
504.0629867610172
 31
0.0
  0
LINE
  5
1B98
330
2
100
AcDbEntity
  8
本体
100
AcDbLine
 10
450.1785835832411
 20
537.3039349665923
 30
0.0
 11
454.3449748124803
 21
504.5680038797129
 31
0.0
  0
LINE
  5
1B99
330
2
100
AcDbEntity
  8
本体
100
AcDbLine
 10
446.2105919363466
 20
536.7989178478967
 30
0.0
 11
450.3769831655858
 21
504.0629867610172
 31
0.0
  0
INSERT
  5
1BA1
102
{ACAD_REACTORS
330
1BBD
102
}
330
2
100
AcDbEntity
  8
本体
100
AcDbBlockReference
  2
*U30
 10
502.5337979923478
 20
520.9072884571137
 30
0.0
  0
LINE
  5
1BDA
330
2
100
AcDbEntity
  8
本体
  6
Continuous
100
AcDbLine
 10
1438.333797992348
 20
1625.198976504248
 30
0.0
 11
1438.333797992348
 21
1587.698976504248
 31
0.0
  0
LINE
  5
1BDB
330
2
100
AcDbEntity
  8
本体
  6
Continuous
100
AcDbLine
 10
1431.333797992348
 20
1625.198976504248
 30
0.0
 11
1431.333797992348
 21
1587.698976504248
 31
0.0
  0
LINE
  5
1BDC
330
2
100
AcDbEntity
  8
本体
  6
Continuous
100
AcDbLine
 10
1396.033797992348
 20
1579.698976504248
 30
0.0
 11
1431.333797992348
 21
1587.698976504248
 31
0.0
  0
LINE
  5
1BDD
330
2
100
AcDbEntity
  8
本体
  6
Continuous
100
AcDbLine
 10
1431.333797992348
 20
942.1989765042486
 30
0.0
 11
1431.333797992348
 21
979.6989765042486
 31
0.0
  0
LINE
  5
1BDE
330
2
100
AcDbEntity
  8
本体
  6
Continuous
100
AcDbLine
 10
1438.333797992348
 20
942.1989765042486
 30
0.0
 11
1438.333797992348
 21
979.6989765042486
 31
0.0
  0
LINE
  5
1BDF
330
2
100
AcDbEntity
  8
本体
  6
Continuous
100
AcDbLine
 10
1438.333797992348
 20
1579.698976504248
 30
0.0
 11
1438.333797992348
 21
1537.698976504248
 31
0.0
  0
LINE
  5
1BE0
330
2
100
AcDbEntity
  8
本体
  6
Continuous
100
AcDbLine
 10
1431.333797992348
 20
1579.698976504248
 30
0.0
 11
1431.333797992348
 21
1537.698976504248
 31
0.0
  0
INSERT
  5
1BE1
330
2
100
AcDbEntity
  8
エンボス
  6
Continuous
100
AcDbBlockReference
  2
7mm部材エンボス4
 10
1431.333797992348
 20
931.1989765042484
 30
0.0
  0
INSERT
  5
1BE2
330
2
100
AcDbEntity
  8
エンボス
  6
Continuous
100
AcDbBlockReference
  2
7mm部材エンボス4
 10
1431.333797992348
 20
1576.698976504248
 30
0.0
  0
LINE
  5
1BE3
330
2
100
AcDbEntity
  8
エンボス
  6
Continuous
100
AcDbLine
 10
1431.333797992348
 20
1549.198976504248
 30
0.0
 11
1438.333797992348
 21
1551.198976504248
 31
0.0
  0
LINE
  5
1BE4
330
2
100
AcDbEntity
  8
エンボス
  6
Continuous
100
AcDbLine
 10
1438.333797992348
 20
1544.198976504248
 30
0.0
 11
1431.333797992348
 21
1546.198976504248
 31
0.0
  0
LINE
  5
1BE5
330
2
100
AcDbEntity
  8
エンボス
  6
Continuous
100
AcDbLine
 10
1438.333797992348
 20
1560.198976504248
 30
0.0
 11
1431.333797992348
 21
1558.198976504248
 31
0.0
  0
LINE
  5
1BE6
330
2
100
AcDbEntity
  8
エンボス
  6
Continuous
100
AcDbLine
 10
1431.333797992348
 20
1565.198976504248
 30
0.0
 11
1438.333797992348
 21
1563.198976504248
 31
0.0
  0
LINE
  5
1BE7
330
2
100
AcDbEntity
  8
エンボス
  6
Continuous
100
AcDbLine
 10
1431.333797992348
 20
1577.198976504248
 30
0.0
 11
1438.333797992348
 21
1579.198976504248
 31
0.0
  0
LINE
  5
1BE8
330
2
100
AcDbEntity
  8
エンボス
  6
Continuous
100
AcDbLine
 10
1438.333797992348
 20
1572.198976504248
 30
0.0
 11
1431.333797992348
 21
1574.198976504249
 31
0.0
  0
LINE
  5
1BE9
330
2
100
AcDbEntity
  8
本体
  6
Continuous
100
AcDbLine
 10
1438.333797992348
 20
1529.698976504248
 30
0.0
 11
1438.333797992348
 21
1487.698976504248
 31
0.0
  0
LINE
  5
1BEA
330
2
100
AcDbEntity
  8
本体
  6
Continuous
100
AcDbLine
 10
1431.333797992348
 20
1529.698976504248
 30
0.0
 11
1431.333797992348
 21
1487.698976504248
 31
0.0
  0
LINE
  5
1BEB
330
2
100
AcDbEntity
  8
エンボス
  6
Continuous
100
AcDbLine
 10
1438.333797992348
 20
1494.198976504248
 30
0.0
 11
1431.333797992348
 21
1496.198976504248
 31
0.0
  0
LINE
  5
1BEC
330
2
100
AcDbEntity
  8
エンボス
  6
Continuous
100
AcDbLine
 10
1431.333797992348
 20
1499.198976504249
 30
0.0
 11
1438.333797992348
 21
1501.198976504248
 31
0.0
  0
LINE
  5
1BED
330
2
100
AcDbEntity
  8
本体
  6
Continuous
100
AcDbLine
 10
1396.033797992348
 20
1529.698976504248
 30
0.0
 11
1431.333797992348
 21
1537.698976504248
 31
0.0
  0
LINE
  5
1BEE
330
2
100
AcDbEntity
  8
エンボス
  6
Continuous
100
AcDbLine
 10
1438.333797992348
 20
1522.198976504248
 30
0.0
 11
1431.333797992348
 21
1524.198976504249
 31
0.0
  0
LINE
  5
1BEF
330
2
100
AcDbEntity
  8
エンボス
  6
Continuous
100
AcDbLine
 10
1431.333797992348
 20
1527.198976504248
 30
0.0
 11
1438.333797992348
 21
1529.198976504248
 31
0.0
  0
LINE
  5
1BF0
330
2
100
AcDbEntity
  8
エンボス
  6
Continuous
100
AcDbLine
 10
1431.333797992348
 20
1515.198976504249
 30
0.0
 11
1438.333797992348
 21
1513.198976504248
 31
0.0
  0
LINE
  5
1BF1
330
2
100
AcDbEntity
  8
エンボス
  6
Continuous
100
AcDbLine
 10
1438.333797992348
 20
1510.198976504248
 30
0.0
 11
1431.333797992348
 21
1508.198976504248
 31
0.0
  0
LINE
  5
1BF2
330
2
100
AcDbEntity
  8
本体
  6
Continuous
100
AcDbLine
 10
1438.333797992348
 20
1479.698976504248
 30
0.0
 11
1438.333797992348
 21
1437.698976504248
 31
0.0
  0
LINE
  5
1BF3
330
2
100
AcDbEntity
  8
本体
  6
Continuous
100
AcDbLine
 10
1431.333797992348
 20
1479.698976504248
 30
0.0
 11
1431.333797992348
 21
1437.698976504248
 31
0.0
  0
LINE
  5
1BF4
330
2
100
AcDbEntity
  8
エンボス
  6
Continuous
100
AcDbLine
 10
1438.333797992348
 20
1444.198976504248
 30
0.0
 11
1431.333797992348
 21
1446.198976504248
 31
0.0
  0
LINE
  5
1BF5
330
2
100
AcDbEntity
  8
エンボス
  6
Continuous
100
AcDbLine
 10
1431.333797992348
 20
1449.198976504249
 30
0.0
 11
1438.333797992348
 21
1451.198976504248
 31
0.0
  0
LINE
  5
1BF6
330
2
100
AcDbEntity
  8
本体
  6
Continuous
100
AcDbLine
 10
1396.033797992348
 20
1479.698976504248
 30
0.0
 11
1431.333797992348
 21
1487.698976504248
 31
0.0
  0
LINE
  5
1BF7
330
2
100
AcDbEntity
  8
エンボス
  6
Continuous
100
AcDbLine
 10
1438.333797992348
 20
1472.198976504248
 30
0.0
 11
1431.333797992348
 21
1474.198976504248
 31
0.0
  0
LINE
  5
1BF8
330
2
100
AcDbEntity
  8
エンボス
  6
Continuous
100
AcDbLine
 10
1431.333797992348
 20
1477.198976504248
 30
0.0
 11
1438.333797992348
 21
1479.198976504248
 31
0.0
  0
LINE
  5
1BF9
330
2
100
AcDbEntity
  8
エンボス
  6
Continuous
100
AcDbLine
 10
1431.333797992348
 20
1465.198976504249
 30
0.0
 11
1438.333797992348
 21
1463.198976504248
 31
0.0
  0
LINE
  5
1BFA
330
2
100
AcDbEntity
  8
エンボス
  6
Continuous
100
AcDbLine
 10
1438.333797992348
 20
1460.198976504248
 30
0.0
 11
1431.333797992348
 21
1458.198976504248
 31
0.0
  0
LINE
  5
1BFB
330
2
100
AcDbEntity
  8
本体
  6
Continuous
100
AcDbLine
 10
1438.333797992348
 20
1429.698976504248
 30
0.0
 11
1438.333797992348
 21
1387.698976504248
 31
0.0
  0
LINE
  5
1BFC
330
2
100
AcDbEntity
  8
本体
  6
Continuous
100
AcDbLine
 10
1431.333797992348
 20
1429.698976504248
 30
0.0
 11
1431.333797992348
 21
1387.698976504248
 31
0.0
  0
LINE
  5
1BFD
330
2
100
AcDbEntity
  8
エンボス
  6
Continuous
100
AcDbLine
 10
1438.333797992348
 20
1394.198976504248
 30
0.0
 11
1431.333797992348
 21
1396.198976504248
 31
0.0
  0
LINE
  5
1BFE
330
2
100
AcDbEntity
  8
エンボス
  6
Continuous
100
AcDbLine
 10
1431.333797992348
 20
1399.198976504248
 30
0.0
 11
1438.333797992348
 21
1401.198976504248
 31
0.0
  0
LINE
  5
1BFF
330
2
100
AcDbEntity
  8
本体
  6
Continuous
100
AcDbLine
 10
1396.033797992348
 20
1429.698976504248
 30
0.0
 11
1431.333797992348
 21
1437.698976504248
 31
0.0
  0
LINE
  5
1C00
330
2
100
AcDbEntity
  8
エンボス
  6
Continuous
100
AcDbLine
 10
1438.333797992348
 20
1422.198976504248
 30
0.0
 11
1431.333797992348
 21
1424.198976504248
 31
0.0
  0
LINE
  5
1C01
330
2
100
AcDbEntity
  8
エンボス
  6
Continuous
100
AcDbLine
 10
1431.333797992348
 20
1427.198976504248
 30
0.0
 11
1438.333797992348
 21
1429.198976504248
 31
0.0
  0
LINE
  5
1C02
330
2
100
AcDbEntity
  8
エンボス
  6
Continuous
100
AcDbLine
 10
1431.333797992348
 20
1415.198976504249
 30
0.0
 11
1438.333797992348
 21
1413.198976504248
 31
0.0
  0
LINE
  5
1C03
330
2
100
AcDbEntity
  8
エンボス
  6
Continuous
100
AcDbLine
 10
1438.333797992348
 20
1410.198976504248
 30
0.0
 11
1431.333797992348
 21
1408.198976504248
 31
0.0
  0
LINE
  5
1C04
330
2
100
AcDbEntity
  8
本体
  6
Continuous
100
AcDbLine
 10
1438.333797992348
 20
1379.698976504248
 30
0.0
 11
1438.333797992348
 21
1337.698976504248
 31
0.0
  0
LINE
  5
1C05
330
2
100
AcDbEntity
  8
本体
  6
Continuous
100
AcDbLine
 10
1431.333797992348
 20
1379.698976504248
 30
0.0
 11
1431.333797992348
 21
1337.698976504248
 31
0.0
  0
LINE
  5
1C06
330
2
100
AcDbEntity
  8
エンボス
  6
Continuous
100
AcDbLine
 10
1438.333797992348
 20
1344.198976504248
 30
0.0
 11
1431.333797992348
 21
1346.198976504248
 31
0.0
  0
LINE
  5
1C07
330
2
100
AcDbEntity
  8
エンボス
  6
Continuous
100
AcDbLine
 10
1431.333797992348
 20
1349.198976504248
 30
0.0
 11
1438.333797992348
 21
1351.198976504248
 31
0.0
  0
LINE
  5
1C08
330
2
100
AcDbEntity
  8
本体
  6
Continuous
100
AcDbLine
 10
1396.033797992348
 20
1379.698976504248
 30
0.0
 11
1431.333797992348
 21
1387.698976504248
 31
0.0
  0
LINE
  5
1C09
330
2
100
AcDbEntity
  8
エンボス
  6
Continuous
100
AcDbLine
 10
1438.333797992348
 20
1372.198976504248
 30
0.0
 11
1431.333797992348
 21
1374.198976504249
 31
0.0
  0
LINE
  5
1C0A
330
2
100
AcDbEntity
  8
エンボス
  6
Continuous
100
AcDbLine
 10
1431.333797992348
 20
1377.198976504248
 30
0.0
 11
1438.333797992348
 21
1379.198976504248
 31
0.0
  0
LINE
  5
1C0B
330
2
100
AcDbEntity
  8
エンボス
  6
Continuous
100
AcDbLine
 10
1431.333797992348
 20
1365.198976504248
 30
0.0
 11
1438.333797992348
 21
1363.198976504248
 31
0.0
  0
LINE
  5
1C0C
330
2
100
AcDbEntity
  8
エンボス
  6
Continuous
100
AcDbLine
 10
1438.333797992348
 20
1360.198976504248
 30
0.0
 11
1431.333797992348
 21
1358.198976504249
 31
0.0
  0
LINE
  5
1C0D
330
2
100
AcDbEntity
  8
本体
  6
Continuous
100
AcDbLine
 10
1438.333797992348
 20
1329.698976504248
 30
0.0
 11
1438.333797992348
 21
1287.698976504249
 31
0.0
  0
LINE
  5
1C0E
330
2
100
AcDbEntity
  8
本体
  6
Continuous
100
AcDbLine
 10
1431.333797992348
 20
1329.698976504248
 30
0.0
 11
1431.333797992348
 21
1287.698976504249
 31
0.0
  0
LINE
  5
1C0F
330
2
100
AcDbEntity
  8
エンボス
  6
Continuous
100
AcDbLine
 10
1438.333797992348
 20
1294.198976504248
 30
0.0
 11
1431.333797992348
 21
1296.198976504248
 31
0.0
  0
LINE
  5
1C10
330
2
100
AcDbEntity
  8
エンボス
  6
Continuous
100
AcDbLine
 10
1431.333797992348
 20
1299.198976504248
 30
0.0
 11
1438.333797992348
 21
1301.198976504248
 31
0.0
  0
LINE
  5
1C11
330
2
100
AcDbEntity
  8
本体
  6
Continuous
100
AcDbLine
 10
1396.033797992348
 20
1329.698976504248
 30
0.0
 11
1431.333797992348
 21
1337.698976504248
 31
0.0
  0
LINE
  5
1C12
330
2
100
AcDbEntity
  8
エンボス
  6
Continuous
100
AcDbLine
 10
1438.333797992348
 20
1322.198976504248
 30
0.0
 11
1431.333797992348
 21
1324.198976504249
 31
0.0
  0
LINE
  5
1C13
330
2
100
AcDbEntity
  8
エンボス
  6
Continuous
100
AcDbLine
 10
1431.333797992348
 20
1327.198976504248
 30
0.0
 11
1438.333797992348
 21
1329.198976504248
 31
0.0
  0
LINE
  5
1C14
330
2
100
AcDbEntity
  8
エンボス
  6
Continuous
100
AcDbLine
 10
1431.333797992348
 20
1315.198976504248
 30
0.0
 11
1438.333797992348
 21
1313.198976504248
 31
0.0
  0
LINE
  5
1C15
330
2
100
AcDbEntity
  8
エンボス
  6
Continuous
100
AcDbLine
 10
1438.333797992348
 20
1310.198976504248
 30
0.0
 11
1431.333797992348
 21
1308.198976504248
 31
0.0
  0
LINE
  5
1C16
330
2
100
AcDbEntity
  8
本体
  6
Continuous
100
AcDbLine
 10
1438.333797992348
 20
1279.698976504249
 30
0.0
 11
1438.333797992348
 21
1237.698976504248
 31
0.0
  0
LINE
  5
1C17
330
2
100
AcDbEntity
  8
本体
  6
Continuous
100
AcDbLine
 10
1431.333797992348
 20
1279.698976504249
 30
0.0
 11
1431.333797992348
 21
1237.698976504248
 31
0.0
  0
LINE
  5
1C18
330
2
100
AcDbEntity
  8
エンボス
  6
Continuous
100
AcDbLine
 10
1438.333797992348
 20
1244.198976504248
 30
0.0
 11
1431.333797992348
 21
1246.198976504248
 31
0.0
  0
LINE
  5
1C19
330
2
100
AcDbEntity
  8
エンボス
  6
Continuous
100
AcDbLine
 10
1431.333797992348
 20
1249.198976504249
 30
0.0
 11
1438.333797992348
 21
1251.198976504248
 31
0.0
  0
LINE
  5
1C1A
330
2
100
AcDbEntity
  8
本体
  6
Continuous
100
AcDbLine
 10
1396.033797992348
 20
1279.698976504249
 30
0.0
 11
1431.333797992348
 21
1287.698976504249
 31
0.0
  0
LINE
  5
1C1B
330
2
100
AcDbEntity
  8
エンボス
  6
Continuous
100
AcDbLine
 10
1438.333797992348
 20
1272.198976504248
 30
0.0
 11
1431.333797992348
 21
1274.198976504248
 31
0.0
  0
LINE
  5
1C1C
330
2
100
AcDbEntity
  8
エンボス
  6
Continuous
100
AcDbLine
 10
1431.333797992348
 20
1277.198976504248
 30
0.0
 11
1438.333797992348
 21
1279.198976504248
 31
0.0
  0
LINE
  5
1C1D
330
2
100
AcDbEntity
  8
エンボス
  6
Continuous
100
AcDbLine
 10
1431.333797992348
 20
1265.198976504249
 30
0.0
 11
1438.333797992348
 21
1263.198976504248
 31
0.0
  0
LINE
  5
1C1E
330
2
100
AcDbEntity
  8
エンボス
  6
Continuous
100
AcDbLine
 10
1438.333797992348
 20
1260.198976504248
 30
0.0
 11
1431.333797992348
 21
1258.198976504248
 31
0.0
  0
LINE
  5
1C1F
330
2
100
AcDbEntity
  8
本体
  6
Continuous
100
AcDbLine
 10
1438.333797992348
 20
1229.698976504248
 30
0.0
 11
1438.333797992348
 21
1187.698976504248
 31
0.0
  0
LINE
  5
1C20
330
2
100
AcDbEntity
  8
本体
  6
Continuous
100
AcDbLine
 10
1431.333797992348
 20
1229.698976504248
 30
0.0
 11
1431.333797992348
 21
1187.698976504248
 31
0.0
  0
LINE
  5
1C21
330
2
100
AcDbEntity
  8
エンボス
  6
Continuous
100
AcDbLine
 10
1438.333797992348
 20
1194.198976504248
 30
0.0
 11
1431.333797992348
 21
1196.198976504248
 31
0.0
  0
LINE
  5
1C22
330
2
100
AcDbEntity
  8
エンボス
  6
Continuous
100
AcDbLine
 10
1431.333797992348
 20
1199.198976504249
 30
0.0
 11
1438.333797992348
 21
1201.198976504249
 31
0.0
  0
LINE
  5
1C23
330
2
100
AcDbEntity
  8
本体
  6
Continuous
100
AcDbLine
 10
1396.033797992348
 20
1229.698976504248
 30
0.0
 11
1431.333797992348
 21
1237.698976504248
 31
0.0
  0
LINE
  5
1C24
330
2
100
AcDbEntity
  8
エンボス
  6
Continuous
100
AcDbLine
 10
1438.333797992348
 20
1222.198976504248
 30
0.0
 11
1431.333797992348
 21
1224.198976504248
 31
0.0
  0
LINE
  5
1C25
330
2
100
AcDbEntity
  8
エンボス
  6
Continuous
100
AcDbLine
 10
1431.333797992348
 20
1227.198976504248
 30
0.0
 11
1438.333797992348
 21
1229.198976504248
 31
0.0
  0
LINE
  5
1C26
330
2
100
AcDbEntity
  8
エンボス
  6
Continuous
100
AcDbLine
 10
1431.333797992348
 20
1215.198976504249
 30
0.0
 11
1438.333797992348
 21
1213.198976504248
 31
0.0
  0
LINE
  5
1C27
330
2
100
AcDbEntity
  8
エンボス
  6
Continuous
100
AcDbLine
 10
1438.333797992348
 20
1210.198976504248
 30
0.0
 11
1431.333797992348
 21
1208.198976504248
 31
0.0
  0
LINE
  5
1C28
330
2
100
AcDbEntity
  8
本体
  6
Continuous
100
AcDbLine
 10
1438.333797992348
 20
1179.698976504248
 30
0.0
 11
1438.333797992348
 21
1137.698976504248
 31
0.0
  0
LINE
  5
1C29
330
2
100
AcDbEntity
  8
本体
  6
Continuous
100
AcDbLine
 10
1431.333797992348
 20
1179.698976504248
 30
0.0
 11
1431.333797992348
 21
1137.698976504248
 31
0.0
  0
LINE
  5
1C2A
330
2
100
AcDbEntity
  8
エンボス
  6
Continuous
100
AcDbLine
 10
1438.333797992348
 20
1144.198976504248
 30
0.0
 11
1431.333797992348
 21
1146.198976504248
 31
0.0
  0
LINE
  5
1C2B
330
2
100
AcDbEntity
  8
エンボス
  6
Continuous
100
AcDbLine
 10
1431.333797992348
 20
1149.198976504248
 30
0.0
 11
1438.333797992348
 21
1151.198976504248
 31
0.0
  0
LINE
  5
1C2C
330
2
100
AcDbEntity
  8
本体
  6
Continuous
100
AcDbLine
 10
1396.033797992348
 20
1179.698976504248
 30
0.0
 11
1431.333797992348
 21
1187.698976504248
 31
0.0
  0
LINE
  5
1C2D
330
2
100
AcDbEntity
  8
エンボス
  6
Continuous
100
AcDbLine
 10
1438.333797992348
 20
1172.198976504248
 30
0.0
 11
1431.333797992348
 21
1174.198976504248
 31
0.0
  0
LINE
  5
1C2E
330
2
100
AcDbEntity
  8
エンボス
  6
Continuous
100
AcDbLine
 10
1431.333797992348
 20
1177.198976504248
 30
0.0
 11
1438.333797992348
 21
1179.198976504248
 31
0.0
  0
LINE
  5
1C2F
330
2
100
AcDbEntity
  8
エンボス
  6
Continuous
100
AcDbLine
 10
1431.333797992348
 20
1165.198976504248
 30
0.0
 11
1438.333797992348
 21
1163.198976504248
 31
0.0
  0
LINE
  5
1C30
330
2
100
AcDbEntity
  8
エンボス
  6
Continuous
100
AcDbLine
 10
1438.333797992348
 20
1160.198976504248
 30
0.0
 11
1431.333797992348
 21
1158.198976504248
 31
0.0
  0
LINE
  5
1C31
330
2
100
AcDbEntity
  8
本体
  6
Continuous
100
AcDbLine
 10
1438.333797992348
 20
1129.698976504248
 30
0.0
 11
1438.333797992348
 21
1087.698976504248
 31
0.0
  0
LINE
  5
1C32
330
2
100
AcDbEntity
  8
本体
  6
Continuous
100
AcDbLine
 10
1431.333797992348
 20
1129.698976504248
 30
0.0
 11
1431.333797992348
 21
1087.698976504248
 31
0.0
  0
LINE
  5
1C33
330
2
100
AcDbEntity
  8
エンボス
  6
Continuous
100
AcDbLine
 10
1438.333797992348
 20
1094.198976504248
 30
0.0
 11
1431.333797992348
 21
1096.198976504248
 31
0.0
  0
LINE
  5
1C34
330
2
100
AcDbEntity
  8
エンボス
  6
Continuous
100
AcDbLine
 10
1431.333797992348
 20
1099.198976504248
 30
0.0
 11
1438.333797992348
 21
1101.198976504248
 31
0.0
  0
LINE
  5
1C35
330
2
100
AcDbEntity
  8
本体
  6
Continuous
100
AcDbLine
 10
1396.033797992348
 20
1129.698976504248
 30
0.0
 11
1431.333797992348
 21
1137.698976504248
 31
0.0
  0
LINE
  5
1C36
330
2
100
AcDbEntity
  8
エンボス
  6
Continuous
100
AcDbLine
 10
1438.333797992348
 20
1122.198976504248
 30
0.0
 11
1431.333797992348
 21
1124.198976504248
 31
0.0
  0
LINE
  5
1C37
330
2
100
AcDbEntity
  8
エンボス
  6
Continuous
100
AcDbLine
 10
1431.333797992348
 20
1127.198976504248
 30
0.0
 11
1438.333797992348
 21
1129.198976504248
 31
0.0
  0
LINE
  5
1C38
330
2
100
AcDbEntity
  8
エンボス
  6
Continuous
100
AcDbLine
 10
1431.333797992348
 20
1115.198976504248
 30
0.0
 11
1438.333797992348
 21
1113.198976504248
 31
0.0
  0
LINE
  5
1C39
330
2
100
AcDbEntity
  8
エンボス
  6
Continuous
100
AcDbLine
 10
1438.333797992348
 20
1110.198976504248
 30
0.0
 11
1431.333797992348
 21
1108.198976504248
 31
0.0
  0
LINE
  5
1C3A
330
2
100
AcDbEntity
  8
本体
  6
Continuous
100
AcDbLine
 10
1438.333797992348
 20
1079.698976504248
 30
0.0
 11
1438.333797992348
 21
1037.698976504248
 31
0.0
  0
LINE
  5
1C3B
330
2
100
AcDbEntity
  8
本体
  6
Continuous
100
AcDbLine
 10
1431.333797992348
 20
1079.698976504248
 30
0.0
 11
1431.333797992348
 21
1037.698976504248
 31
0.0
  0
LINE
  5
1C3C
330
2
100
AcDbEntity
  8
エンボス
  6
Continuous
100
AcDbLine
 10
1438.333797992348
 20
1044.198976504248
 30
0.0
 11
1431.333797992348
 21
1046.198976504248
 31
0.0
  0
LINE
  5
1C3D
330
2
100
AcDbEntity
  8
エンボス
  6
Continuous
100
AcDbLine
 10
1431.333797992348
 20
1049.198976504248
 30
0.0
 11
1438.333797992348
 21
1051.198976504248
 31
0.0
  0
LINE
  5
1C3E
330
2
100
AcDbEntity
  8
本体
  6
Continuous
100
AcDbLine
 10
1396.033797992348
 20
1079.698976504248
 30
0.0
 11
1431.333797992348
 21
1087.698976504248
 31
0.0
  0
LINE
  5
1C3F
330
2
100
AcDbEntity
  8
エンボス
  6
Continuous
100
AcDbLine
 10
1438.333797992348
 20
1072.198976504248
 30
0.0
 11
1431.333797992348
 21
1074.198976504249
 31
0.0
  0
LINE
  5
1C40
330
2
100
AcDbEntity
  8
エンボス
  6
Continuous
100
AcDbLine
 10
1431.333797992348
 20
1077.198976504248
 30
0.0
 11
1438.333797992348
 21
1079.198976504248
 31
0.0
  0
LINE
  5
1C41
330
2
100
AcDbEntity
  8
エンボス
  6
Continuous
100
AcDbLine
 10
1431.333797992348
 20
1065.198976504248
 30
0.0
 11
1438.333797992348
 21
1063.198976504248
 31
0.0
  0
LINE
  5
1C42
330
2
100
AcDbEntity
  8
エンボス
  6
Continuous
100
AcDbLine
 10
1438.333797992348
 20
1060.198976504248
 30
0.0
 11
1431.333797992348
 21
1058.198976504248
 31
0.0
  0
LINE
  5
1C43
330
2
100
AcDbEntity
  8
本体
  6
Continuous
100
AcDbLine
 10
1438.333797992348
 20
1029.698976504248
 30
0.0
 11
1438.333797992348
 21
987.6989765042486
 31
0.0
  0
LINE
  5
1C44
330
2
100
AcDbEntity
  8
本体
  6
Continuous
100
AcDbLine
 10
1431.333797992348
 20
1029.698976504248
 30
0.0
 11
1431.333797992348
 21
987.6989765042486
 31
0.0
  0
LINE
  5
1C45
330
2
100
AcDbEntity
  8
エンボス
  6
Continuous
100
AcDbLine
 10
1438.333797992348
 20
994.1989765042485
 30
0.0
 11
1431.333797992348
 21
996.1989765042485
 31
0.0
  0
LINE
  5
1C46
330
2
100
AcDbEntity
  8
エンボス
  6
Continuous
100
AcDbLine
 10
1431.333797992348
 20
999.1989765042486
 30
0.0
 11
1438.333797992348
 21
1001.198976504248
 31
0.0
  0
LINE
  5
1C47
330
2
100
AcDbEntity
  8
本体
  6
Continuous
100
AcDbLine
 10
1396.033797992348
 20
1029.698976504248
 30
0.0
 11
1431.333797992348
 21
1037.698976504248
 31
0.0
  0
LINE
  5
1C48
330
2
100
AcDbEntity
  8
エンボス
  6
Continuous
100
AcDbLine
 10
1438.333797992348
 20
1022.198976504248
 30
0.0
 11
1431.333797992348
 21
1024.198976504248
 31
0.0
  0
LINE
  5
1C49
330
2
100
AcDbEntity
  8
エンボス
  6
Continuous
100
AcDbLine
 10
1431.333797992348
 20
1027.198976504248
 30
0.0
 11
1438.333797992348
 21
1029.198976504248
 31
0.0
  0
LINE
  5
1C4A
330
2
100
AcDbEntity
  8
エンボス
  6
Continuous
100
AcDbLine
 10
1431.333797992348
 20
1015.198976504248
 30
0.0
 11
1438.333797992348
 21
1013.198976504248
 31
0.0
  0
LINE
  5
1C4B
330
2
100
AcDbEntity
  8
エンボス
  6
Continuous
100
AcDbLine
 10
1438.333797992348
 20
1010.198976504248
 30
0.0
 11
1431.333797992348
 21
1008.198976504248
 31
0.0
  0
LINE
  5
1C4C
330
2
100
AcDbEntity
  8
本体
  6
Continuous
100
AcDbLine
 10
1396.033797992348
 20
979.6989765042486
 30
0.0
 11
1431.333797992348
 21
987.6989765042486
 31
0.0
  0
LINE
  5
1C4D
330
2
100
AcDbEntity
  8
本体
  6
Continuous
100
AcDbLine
 10
450.3337979923481
 20
1625.198976504248
 30
0.0
 11
450.3337979923481
 21
1587.698976504248
 31
0.0
  0
LINE
  5
1C4E
330
2
100
AcDbEntity
  8
本体
  6
Continuous
100
AcDbLine
 10
443.333797992348
 20
1625.198976504248
 30
0.0
 11
443.333797992348
 21
1587.698976504248
 31
0.0
  0
LINE
  5
1C4F
330
2
100
AcDbEntity
  8
本体
  6
Continuous
100
AcDbLine
 10
443.333797992348
 20
942.1989765042486
 30
0.0
 11
443.333797992348
 21
979.6989765042486
 31
0.0
  0
LINE
  5
1C50
330
2
100
AcDbEntity
  8
本体
  6
Continuous
100
AcDbLine
 10
450.3337979923481
 20
942.1989765042486
 30
0.0
 11
450.3337979923481
 21
979.6989765042486
 31
0.0
  0
LINE
  5
1C51
330
2
100
AcDbEntity
  8
本体
  6
Continuous
100
AcDbLine
 10
450.3337979923481
 20
1579.698976504248
 30
0.0
 11
450.3337979923481
 21
1537.698976504248
 31
0.0
  0
LINE
  5
1C52
330
2
100
AcDbEntity
  8
本体
  6
Continuous
100
AcDbLine
 10
443.333797992348
 20
1579.698976504248
 30
0.0
 11
443.333797992348
 21
1537.698976504248
 31
0.0
  0
INSERT
  5
1C53
330
2
100
AcDbEntity
  8
エンボス
  6
Continuous
100
AcDbBlockReference
  2
7mm部材エンボス4
 10
443.333797992348
 20
931.1989765042484
 30
0.0
  0
INSERT
  5
1C54
330
2
100
AcDbEntity
  8
エンボス
  6
Continuous
100
AcDbBlockReference
  2
7mm部材エンボス4
 10
443.333797992348
 20
1576.698976504248
 30
0.0
  0
LINE
  5
1C55
330
2
100
AcDbEntity
  8
エンボス
  6
Continuous
100
AcDbLine
 10
443.333797992348
 20
1549.198976504248
 30
0.0
 11
450.3337979923481
 21
1551.198976504248
 31
0.0
  0
LINE
  5
1C56
330
2
100
AcDbEntity
  8
エンボス
  6
Continuous
100
AcDbLine
 10
450.3337979923481
 20
1544.198976504248
 30
0.0
 11
443.333797992348
 21
1546.198976504248
 31
0.0
  0
LINE
  5
1C57
330
2
100
AcDbEntity
  8
エンボス
  6
Continuous
100
AcDbLine
 10
450.3337979923481
 20
1560.198976504248
 30
0.0
 11
443.333797992348
 21
1558.198976504248
 31
0.0
  0
LINE
  5
1C58
330
2
100
AcDbEntity
  8
エンボス
  6
Continuous
100
AcDbLine
 10
443.333797992348
 20
1565.198976504248
 30
0.0
 11
450.3337979923481
 21
1563.198976504248
 31
0.0
  0
LINE
  5
1C59
330
2
100
AcDbEntity
  8
エンボス
  6
Continuous
100
AcDbLine
 10
443.333797992348
 20
1577.198976504248
 30
0.0
 11
450.3337979923481
 21
1579.198976504248
 31
0.0
  0
LINE
  5
1C5A
330
2
100
AcDbEntity
  8
エンボス
  6
Continuous
100
AcDbLine
 10
450.3337979923481
 20
1572.198976504248
 30
0.0
 11
443.333797992348
 21
1574.198976504249
 31
0.0
  0
LINE
  5
1C5B
330
2
100
AcDbEntity
  8
本体
  6
Continuous
100
AcDbLine
 10
450.3337979923481
 20
1529.698976504248
 30
0.0
 11
450.3337979923481
 21
1487.698976504248
 31
0.0
  0
LINE
  5
1C5C
330
2
100
AcDbEntity
  8
本体
  6
Continuous
100
AcDbLine
 10
443.333797992348
 20
1529.698976504248
 30
0.0
 11
443.333797992348
 21
1487.698976504248
 31
0.0
  0
LINE
  5
1C5D
330
2
100
AcDbEntity
  8
エンボス
  6
Continuous
100
AcDbLine
 10
450.3337979923481
 20
1494.198976504248
 30
0.0
 11
443.333797992348
 21
1496.198976504248
 31
0.0
  0
LINE
  5
1C5E
330
2
100
AcDbEntity
  8
エンボス
  6
Continuous
100
AcDbLine
 10
443.333797992348
 20
1499.198976504249
 30
0.0
 11
450.3337979923481
 21
1501.198976504248
 31
0.0
  0
LINE
  5
1C5F
330
2
100
AcDbEntity
  8
エンボス
  6
Continuous
100
AcDbLine
 10
450.3337979923481
 20
1522.198976504248
 30
0.0
 11
443.333797992348
 21
1524.198976504249
 31
0.0
  0
LINE
  5
1C60
330
2
100
AcDbEntity
  8
エンボス
  6
Continuous
100
AcDbLine
 10
443.333797992348
 20
1527.198976504248
 30
0.0
 11
450.3337979923481
 21
1529.198976504248
 31
0.0
  0
LINE
  5
1C61
330
2
100
AcDbEntity
  8
エンボス
  6
Continuous
100
AcDbLine
 10
443.333797992348
 20
1515.198976504249
 30
0.0
 11
450.3337979923481
 21
1513.198976504248
 31
0.0
  0
LINE
  5
1C62
330
2
100
AcDbEntity
  8
エンボス
  6
Continuous
100
AcDbLine
 10
450.3337979923481
 20
1510.198976504248
 30
0.0
 11
443.333797992348
 21
1508.198976504248
 31
0.0
  0
LINE
  5
1C63
330
2
100
AcDbEntity
  8
本体
  6
Continuous
100
AcDbLine
 10
450.3337979923481
 20
1479.698976504248
 30
0.0
 11
450.3337979923481
 21
1437.698976504248
 31
0.0
  0
LINE
  5
1C64
330
2
100
AcDbEntity
  8
本体
  6
Continuous
100
AcDbLine
 10
443.333797992348
 20
1479.698976504248
 30
0.0
 11
443.333797992348
 21
1437.698976504248
 31
0.0
  0
LINE
  5
1C65
330
2
100
AcDbEntity
  8
エンボス
  6
Continuous
100
AcDbLine
 10
450.3337979923481
 20
1444.198976504248
 30
0.0
 11
443.333797992348
 21
1446.198976504248
 31
0.0
  0
LINE
  5
1C66
330
2
100
AcDbEntity
  8
エンボス
  6
Continuous
100
AcDbLine
 10
443.333797992348
 20
1449.198976504249
 30
0.0
 11
450.3337979923481
 21
1451.198976504248
 31
0.0
  0
LINE
  5
1C67
330
2
100
AcDbEntity
  8
エンボス
  6
Continuous
100
AcDbLine
 10
450.3337979923481
 20
1472.198976504248
 30
0.0
 11
443.333797992348
 21
1474.198976504248
 31
0.0
  0
LINE
  5
1C68
330
2
100
AcDbEntity
  8
エンボス
  6
Continuous
100
AcDbLine
 10
443.333797992348
 20
1477.198976504248
 30
0.0
 11
450.3337979923481
 21
1479.198976504248
 31
0.0
  0
LINE
  5
1C69
330
2
100
AcDbEntity
  8
エンボス
  6
Continuous
100
AcDbLine
 10
443.333797992348
 20
1465.198976504249
 30
0.0
 11
450.3337979923481
 21
1463.198976504248
 31
0.0
  0
LINE
  5
1C6A
330
2
100
AcDbEntity
  8
エンボス
  6
Continuous
100
AcDbLine
 10
450.3337979923481
 20
1460.198976504248
 30
0.0
 11
443.333797992348
 21
1458.198976504248
 31
0.0
  0
LINE
  5
1C6B
330
2
100
AcDbEntity
  8
本体
  6
Continuous
100
AcDbLine
 10
450.3337979923481
 20
1429.698976504248
 30
0.0
 11
450.3337979923481
 21
1387.698976504248
 31
0.0
  0
LINE
  5
1C6C
330
2
100
AcDbEntity
  8
本体
  6
Continuous
100
AcDbLine
 10
443.333797992348
 20
1429.698976504248
 30
0.0
 11
443.333797992348
 21
1387.698976504248
 31
0.0
  0
LINE
  5
1C6D
330
2
100
AcDbEntity
  8
エンボス
  6
Continuous
100
AcDbLine
 10
450.3337979923481
 20
1394.198976504248
 30
0.0
 11
443.333797992348
 21
1396.198976504248
 31
0.0
  0
LINE
  5
1C6E
330
2
100
AcDbEntity
  8
エンボス
  6
Continuous
100
AcDbLine
 10
443.333797992348
 20
1399.198976504248
 30
0.0
 11
450.3337979923481
 21
1401.198976504248
 31
0.0
  0
LINE
  5
1C6F
330
2
100
AcDbEntity
  8
エンボス
  6
Continuous
100
AcDbLine
 10
450.3337979923481
 20
1422.198976504248
 30
0.0
 11
443.333797992348
 21
1424.198976504248
 31
0.0
  0
LINE
  5
1C70
330
2
100
AcDbEntity
  8
エンボス
  6
Continuous
100
AcDbLine
 10
443.333797992348
 20
1427.198976504248
 30
0.0
 11
450.3337979923481
 21
1429.198976504248
 31
0.0
  0
LINE
  5
1C71
330
2
100
AcDbEntity
  8
エンボス
  6
Continuous
100
AcDbLine
 10
443.333797992348
 20
1415.198976504249
 30
0.0
 11
450.3337979923481
 21
1413.198976504248
 31
0.0
  0
LINE
  5
1C72
330
2
100
AcDbEntity
  8
エンボス
  6
Continuous
100
AcDbLine
 10
450.3337979923481
 20
1410.198976504248
 30
0.0
 11
443.333797992348
 21
1408.198976504248
 31
0.0
  0
LINE
  5
1C73
330
2
100
AcDbEntity
  8
本体
  6
Continuous
100
AcDbLine
 10
450.3337979923481
 20
1379.698976504248
 30
0.0
 11
450.3337979923481
 21
1337.698976504248
 31
0.0
  0
LINE
  5
1C74
330
2
100
AcDbEntity
  8
本体
  6
Continuous
100
AcDbLine
 10
443.333797992348
 20
1379.698976504248
 30
0.0
 11
443.333797992348
 21
1337.698976504248
 31
0.0
  0
LINE
  5
1C75
330
2
100
AcDbEntity
  8
エンボス
  6
Continuous
100
AcDbLine
 10
450.3337979923481
 20
1344.198976504248
 30
0.0
 11
443.333797992348
 21
1346.198976504248
 31
0.0
  0
LINE
  5
1C76
330
2
100
AcDbEntity
  8
エンボス
  6
Continuous
100
AcDbLine
 10
443.333797992348
 20
1349.198976504248
 30
0.0
 11
450.3337979923481
 21
1351.198976504248
 31
0.0
  0
LINE
  5
1C77
330
2
100
AcDbEntity
  8
エンボス
  6
Continuous
100
AcDbLine
 10
450.3337979923481
 20
1372.198976504248
 30
0.0
 11
443.333797992348
 21
1374.198976504249
 31
0.0
  0
LINE
  5
1C78
330
2
100
AcDbEntity
  8
エンボス
  6
Continuous
100
AcDbLine
 10
443.333797992348
 20
1377.198976504248
 30
0.0
 11
450.3337979923481
 21
1379.198976504248
 31
0.0
  0
LINE
  5
1C79
330
2
100
AcDbEntity
  8
エンボス
  6
Continuous
100
AcDbLine
 10
443.333797992348
 20
1365.198976504248
 30
0.0
 11
450.3337979923481
 21
1363.198976504248
 31
0.0
  0
LINE
  5
1C7A
330
2
100
AcDbEntity
  8
エンボス
  6
Continuous
100
AcDbLine
 10
450.3337979923481
 20
1360.198976504248
 30
0.0
 11
443.333797992348
 21
1358.198976504249
 31
0.0
  0
LINE
  5
1C7B
330
2
100
AcDbEntity
  8
本体
  6
Continuous
100
AcDbLine
 10
450.3337979923481
 20
1329.698976504248
 30
0.0
 11
450.3337979923481
 21
1287.698976504249
 31
0.0
  0
LINE
  5
1C7C
330
2
100
AcDbEntity
  8
本体
  6
Continuous
100
AcDbLine
 10
443.333797992348
 20
1329.698976504248
 30
0.0
 11
443.333797992348
 21
1287.698976504249
 31
0.0
  0
LINE
  5
1C7D
330
2
100
AcDbEntity
  8
エンボス
  6
Continuous
100
AcDbLine
 10
450.3337979923481
 20
1294.198976504248
 30
0.0
 11
443.333797992348
 21
1296.198976504248
 31
0.0
  0
LINE
  5
1C7E
330
2
100
AcDbEntity
  8
エンボス
  6
Continuous
100
AcDbLine
 10
443.333797992348
 20
1299.198976504248
 30
0.0
 11
450.3337979923481
 21
1301.198976504248
 31
0.0
  0
LINE
  5
1C7F
330
2
100
AcDbEntity
  8
エンボス
  6
Continuous
100
AcDbLine
 10
450.3337979923481
 20
1322.198976504248
 30
0.0
 11
443.333797992348
 21
1324.198976504249
 31
0.0
  0
LINE
  5
1C80
330
2
100
AcDbEntity
  8
エンボス
  6
Continuous
100
AcDbLine
 10
443.333797992348
 20
1327.198976504248
 30
0.0
 11
450.3337979923481
 21
1329.198976504248
 31
0.0
  0
LINE
  5
1C81
330
2
100
AcDbEntity
  8
エンボス
  6
Continuous
100
AcDbLine
 10
443.333797992348
 20
1315.198976504248
 30
0.0
 11
450.3337979923481
 21
1313.198976504248
 31
0.0
  0
LINE
  5
1C82
330
2
100
AcDbEntity
  8
エンボス
  6
Continuous
100
AcDbLine
 10
450.3337979923481
 20
1310.198976504248
 30
0.0
 11
443.333797992348
 21
1308.198976504248
 31
0.0
  0
LINE
  5
1C83
330
2
100
AcDbEntity
  8
本体
  6
Continuous
100
AcDbLine
 10
450.3337979923481
 20
1279.698976504249
 30
0.0
 11
450.3337979923481
 21
1237.698976504248
 31
0.0
  0
LINE
  5
1C84
330
2
100
AcDbEntity
  8
本体
  6
Continuous
100
AcDbLine
 10
443.333797992348
 20
1279.698976504249
 30
0.0
 11
443.333797992348
 21
1237.698976504248
 31
0.0
  0
LINE
  5
1C85
330
2
100
AcDbEntity
  8
エンボス
  6
Continuous
100
AcDbLine
 10
450.3337979923481
 20
1244.198976504248
 30
0.0
 11
443.333797992348
 21
1246.198976504248
 31
0.0
  0
LINE
  5
1C86
330
2
100
AcDbEntity
  8
エンボス
  6
Continuous
100
AcDbLine
 10
443.333797992348
 20
1249.198976504249
 30
0.0
 11
450.3337979923481
 21
1251.198976504248
 31
0.0
  0
LINE
  5
1C87
330
2
100
AcDbEntity
  8
エンボス
  6
Continuous
100
AcDbLine
 10
450.3337979923481
 20
1272.198976504248
 30
0.0
 11
443.333797992348
 21
1274.198976504248
 31
0.0
  0
LINE
  5
1C88
330
2
100
AcDbEntity
  8
エンボス
  6
Continuous
100
AcDbLine
 10
443.333797992348
 20
1277.198976504248
 30
0.0
 11
450.3337979923481
 21
1279.198976504248
 31
0.0
  0
LINE
  5
1C89
330
2
100
AcDbEntity
  8
エンボス
  6
Continuous
100
AcDbLine
 10
443.333797992348
 20
1265.198976504249
 30
0.0
 11
450.3337979923481
 21
1263.198976504248
 31
0.0
  0
LINE
  5
1C8A
330
2
100
AcDbEntity
  8
エンボス
  6
Continuous
100
AcDbLine
 10
450.3337979923481
 20
1260.198976504248
 30
0.0
 11
443.333797992348
 21
1258.198976504248
 31
0.0
  0
LINE
  5
1C8B
330
2
100
AcDbEntity
  8
本体
  6
Continuous
100
AcDbLine
 10
450.3337979923481
 20
1229.698976504248
 30
0.0
 11
450.3337979923481
 21
1187.698976504248
 31
0.0
  0
LINE
  5
1C8C
330
2
100
AcDbEntity
  8
本体
  6
Continuous
100
AcDbLine
 10
443.333797992348
 20
1229.698976504248
 30
0.0
 11
443.333797992348
 21
1187.698976504248
 31
0.0
  0
LINE
  5
1C8D
330
2
100
AcDbEntity
  8
エンボス
  6
Continuous
100
AcDbLine
 10
450.3337979923481
 20
1194.198976504248
 30
0.0
 11
443.333797992348
 21
1196.198976504248
 31
0.0
  0
LINE
  5
1C8E
330
2
100
AcDbEntity
  8
エンボス
  6
Continuous
100
AcDbLine
 10
443.333797992348
 20
1199.198976504249
 30
0.0
 11
450.3337979923481
 21
1201.198976504249
 31
0.0
  0
LINE
  5
1C8F
330
2
100
AcDbEntity
  8
エンボス
  6
Continuous
100
AcDbLine
 10
450.3337979923481
 20
1222.198976504248
 30
0.0
 11
443.333797992348
 21
1224.198976504248
 31
0.0
  0
LINE
  5
1C90
330
2
100
AcDbEntity
  8
エンボス
  6
Continuous
100
AcDbLine
 10
443.333797992348
 20
1227.198976504248
 30
0.0
 11
450.3337979923481
 21
1229.198976504248
 31
0.0
  0
LINE
  5
1C91
330
2
100
AcDbEntity
  8
エンボス
  6
Continuous
100
AcDbLine
 10
443.333797992348
 20
1215.198976504249
 30
0.0
 11
450.3337979923481
 21
1213.198976504248
 31
0.0
  0
LINE
  5
1C92
330
2
100
AcDbEntity
  8
エンボス
  6
Continuous
100
AcDbLine
 10
450.3337979923481
 20
1210.198976504248
 30
0.0
 11
443.333797992348
 21
1208.198976504248
 31
0.0
  0
LINE
  5
1C93
330
2
100
AcDbEntity
  8
本体
  6
Continuous
100
AcDbLine
 10
450.3337979923481
 20
1179.698976504248
 30
0.0
 11
450.3337979923481
 21
1137.698976504248
 31
0.0
  0
LINE
  5
1C94
330
2
100
AcDbEntity
  8
本体
  6
Continuous
100
AcDbLine
 10
443.333797992348
 20
1179.698976504248
 30
0.0
 11
443.333797992348
 21
1137.698976504248
 31
0.0
  0
LINE
  5
1C95
330
2
100
AcDbEntity
  8
エンボス
  6
Continuous
100
AcDbLine
 10
450.3337979923481
 20
1144.198976504248
 30
0.0
 11
443.333797992348
 21
1146.198976504248
 31
0.0
  0
LINE
  5
1C96
330
2
100
AcDbEntity
  8
エンボス
  6
Continuous
100
AcDbLine
 10
443.333797992348
 20
1149.198976504248
 30
0.0
 11
450.3337979923481
 21
1151.198976504248
 31
0.0
  0
LINE
  5
1C97
330
2
100
AcDbEntity
  8
エンボス
  6
Continuous
100
AcDbLine
 10
450.3337979923481
 20
1172.198976504248
 30
0.0
 11
443.333797992348
 21
1174.198976504248
 31
0.0
  0
LINE
  5
1C98
330
2
100
AcDbEntity
  8
エンボス
  6
Continuous
100
AcDbLine
 10
443.333797992348
 20
1177.198976504248
 30
0.0
 11
450.3337979923481
 21
1179.198976504248
 31
0.0
  0
LINE
  5
1C99
330
2
100
AcDbEntity
  8
エンボス
  6
Continuous
100
AcDbLine
 10
443.333797992348
 20
1165.198976504248
 30
0.0
 11
450.3337979923481
 21
1163.198976504248
 31
0.0
  0
LINE
  5
1C9A
330
2
100
AcDbEntity
  8
エンボス
  6
Continuous
100
AcDbLine
 10
450.3337979923481
 20
1160.198976504248
 30
0.0
 11
443.333797992348
 21
1158.198976504248
 31
0.0
  0
LINE
  5
1C9B
330
2
100
AcDbEntity
  8
本体
  6
Continuous
100
AcDbLine
 10
450.3337979923481
 20
1129.698976504248
 30
0.0
 11
450.3337979923481
 21
1087.698976504248
 31
0.0
  0
LINE
  5
1C9C
330
2
100
AcDbEntity
  8
本体
  6
Continuous
100
AcDbLine
 10
443.333797992348
 20
1129.698976504248
 30
0.0
 11
443.333797992348
 21
1087.698976504248
 31
0.0
  0
LINE
  5
1C9D
330
2
100
AcDbEntity
  8
エンボス
  6
Continuous
100
AcDbLine
 10
450.3337979923481
 20
1094.198976504248
 30
0.0
 11
443.333797992348
 21
1096.198976504248
 31
0.0
  0
LINE
  5
1C9E
330
2
100
AcDbEntity
  8
エンボス
  6
Continuous
100
AcDbLine
 10
443.333797992348
 20
1099.198976504248
 30
0.0
 11
450.3337979923481
 21
1101.198976504248
 31
0.0
  0
LINE
  5
1C9F
330
2
100
AcDbEntity
  8
エンボス
  6
Continuous
100
AcDbLine
 10
450.3337979923481
 20
1122.198976504248
 30
0.0
 11
443.333797992348
 21
1124.198976504248
 31
0.0
  0
LINE
  5
1CA0
330
2
100
AcDbEntity
  8
エンボス
  6
Continuous
100
AcDbLine
 10
443.333797992348
 20
1127.198976504248
 30
0.0
 11
450.3337979923481
 21
1129.198976504248
 31
0.0
  0
LINE
  5
1CA1
330
2
100
AcDbEntity
  8
エンボス
  6
Continuous
100
AcDbLine
 10
443.333797992348
 20
1115.198976504248
 30
0.0
 11
450.3337979923481
 21
1113.198976504248
 31
0.0
  0
LINE
  5
1CA2
330
2
100
AcDbEntity
  8
エンボス
  6
Continuous
100
AcDbLine
 10
450.3337979923481
 20
1110.198976504248
 30
0.0
 11
443.333797992348
 21
1108.198976504248
 31
0.0
  0
LINE
  5
1CA3
330
2
100
AcDbEntity
  8
本体
  6
Continuous
100
AcDbLine
 10
450.3337979923481
 20
1079.698976504248
 30
0.0
 11
450.3337979923481
 21
1037.698976504248
 31
0.0
  0
LINE
  5
1CA4
330
2
100
AcDbEntity
  8
本体
  6
Continuous
100
AcDbLine
 10
443.333797992348
 20
1079.698976504248
 30
0.0
 11
443.333797992348
 21
1037.698976504248
 31
0.0
  0
LINE
  5
1CA5
330
2
100
AcDbEntity
  8
エンボス
  6
Continuous
100
AcDbLine
 10
450.3337979923481
 20
1044.198976504248
 30
0.0
 11
443.333797992348
 21
1046.198976504248
 31
0.0
  0
LINE
  5
1CA6
330
2
100
AcDbEntity
  8
エンボス
  6
Continuous
100
AcDbLine
 10
443.333797992348
 20
1049.198976504248
 30
0.0
 11
450.3337979923481
 21
1051.198976504248
 31
0.0
  0
LINE
  5
1CA7
330
2
100
AcDbEntity
  8
エンボス
  6
Continuous
100
AcDbLine
 10
450.3337979923481
 20
1072.198976504248
 30
0.0
 11
443.333797992348
 21
1074.198976504249
 31
0.0
  0
LINE
  5
1CA8
330
2
100
AcDbEntity
  8
エンボス
  6
Continuous
100
AcDbLine
 10
443.333797992348
 20
1077.198976504248
 30
0.0
 11
450.3337979923481
 21
1079.198976504248
 31
0.0
  0
LINE
  5
1CA9
330
2
100
AcDbEntity
  8
エンボス
  6
Continuous
100
AcDbLine
 10
443.333797992348
 20
1065.198976504248
 30
0.0
 11
450.3337979923481
 21
1063.198976504248
 31
0.0
  0
LINE
  5
1CAA
330
2
100
AcDbEntity
  8
エンボス
  6
Continuous
100
AcDbLine
 10
450.3337979923481
 20
1060.198976504248
 30
0.0
 11
443.333797992348
 21
1058.198976504248
 31
0.0
  0
LINE
  5
1CAB
330
2
100
AcDbEntity
  8
本体
  6
Continuous
100
AcDbLine
 10
450.3337979923481
 20
1029.698976504248
 30
0.0
 11
450.3337979923481
 21
987.6989765042486
 31
0.0
  0
LINE
  5
1CAC
330
2
100
AcDbEntity
  8
本体
  6
Continuous
100
AcDbLine
 10
443.333797992348
 20
1029.698976504248
 30
0.0
 11
443.333797992348
 21
987.6989765042486
 31
0.0
  0
LINE
  5
1CAD
330
2
100
AcDbEntity
  8
エンボス
  6
Continuous
100
AcDbLine
 10
450.3337979923481
 20
994.1989765042485
 30
0.0
 11
443.333797992348
 21
996.1989765042485
 31
0.0
  0
LINE
  5
1CAE
330
2
100
AcDbEntity
  8
エンボス
  6
Continuous
100
AcDbLine
 10
443.333797992348
 20
999.1989765042486
 30
0.0
 11
450.3337979923481
 21
1001.198976504248
 31
0.0
  0
LINE
  5
1CAF
330
2
100
AcDbEntity
  8
エンボス
  6
Continuous
100
AcDbLine
 10
450.3337979923481
 20
1022.198976504248
 30
0.0
 11
443.333797992348
 21
1024.198976504248
 31
0.0
  0
LINE
  5
1CB0
330
2
100
AcDbEntity
  8
エンボス
  6
Continuous
100
AcDbLine
 10
443.333797992348
 20
1027.198976504248
 30
0.0
 11
450.3337979923481
 21
1029.198976504248
 31
0.0
  0
LINE
  5
1CB1
330
2
100
AcDbEntity
  8
エンボス
  6
Continuous
100
AcDbLine
 10
443.333797992348
 20
1015.198976504248
 30
0.0
 11
450.3337979923481
 21
1013.198976504248
 31
0.0
  0
LINE
  5
1CB2
330
2
100
AcDbEntity
  8
エンボス
  6
Continuous
100
AcDbLine
 10
450.3337979923481
 20
1010.198976504248
 30
0.0
 11
443.333797992348
 21
1008.198976504248
 31
0.0
  0
LINE
  5
1CB3
330
2
100
AcDbEntity
  8
本体
 48
3.0
100
AcDbLine
 10
443.333797992348
 20
1631.198976504248
 30
0.0
 11
443.333797992348
 21
936.1989765042485
 31
0.0
  0
LINE
  5
1CB4
330
2
100
AcDbEntity
  8
本体
 48
3.0
100
AcDbLine
 10
1438.333797992348
 20
1631.198976504248
 30
0.0
 11
1438.333797992348
 21
936.1989765042485
 31
0.0
  0
INSERT
  5
1CC5
102
{ACAD_REACTORS
330
1D40
102
}
330
2
100
AcDbEntity
  8
本体
100
AcDbBlockReference
  2
*U32
 10
2114.51764090712
 20
1589.231120864604
 30
0.0
  0
LEADER
  5
1D94
330
2
100
AcDbEntity
  8
寸法線
  6
Continuous
100
AcDbLeader
  3
ISO-25
 73
     0
 74
     0
 75
     1
 40
30.0
 41
210.6091370558376
 76
     3
 10
1437.229042880674
 20
1498.89889287631
 30
0.0
 10
1492.939720999329
 20
1572.109570994964
 30
0.0
 10
1507.939720999329
 20
1572.109570994964
 30
0.0
340
1D95
1001
ACAD
1000
DSTYLE
1002
{
1070
     5
1000
OPEN30
1070
    77
1070
     1
1070
   147
1040
0.5
1070
   342
1005
1D9
1002
}
  0
MTEXT
  5
1D95
102
{ACAD_REACTORS
330
1D94
102
}
330
2
100
AcDbEntity
  8
寸法線
  6
Continuous
100
AcDbMText
 10
1512.939720999329
 20
1577.109570994965
 30
0.0
 40
30.0
 41
0.0
 71
     7
 72
     1
  1
GIB7\U+00D74\U+00D755
 73
     1
 44
1.0
1001
ACAD
1000
MTEXTBEGIN
1070
    73
1070
     1
1070
    44
1040
1.0
1070
    74
1070
     0
1000
MTEXTEND
  0
LEADER
  5
1D96
330
2
100
AcDbEntity
  8
寸法線
  6
Continuous
100
AcDbLeader
  3
ISO-25
 73
     0
 74
     0
 75
     1
 40
30.0
 41
35.78680203045685
 76
     3
 10
1437.229042880674
 20
1385.076386257408
 30
0.0
 10
1492.939720999329
 20
1458.287064376063
 30
0.0
 10
1507.939720999329
 20
1458.287064376063
 30
0.0
340
1D97
1001
ACAD
1000
DSTYLE
1002
{
1070
     5
1000
OPEN30
1070
    77
1070
     1
1070
   147
1040
0.5
1070
   342
1005
1D9
1002
}
  0
MTEXT
  5
1D97
102
{ACAD_REACTORS
330
1D96
102
}
330
2
100
AcDbEntity
  8
寸法線
  6
Continuous
100
AcDbMText
 10
1512.939720999329
 20
1463.287064376063
 30
0.0
 40
30.0
 41
0.0
 71
     7
 72
     1
  1
TB
 73
     1
 44
1.0
1001
ACAD
1000
MTEXTBEGIN
1070
    73
1070
     1
1070
    44
1040
1.0
1070
    74
1070
     0
1000
MTEXTEND
  0
ENDSEC
  0
SECTION
  2
OBJECTS
  0
DICTIONARY
  5
7
330
0
100
AcDbDictionary
281
     1
  3
ACAD_ASSOCNETWORK
350
1BB5
  3
ACAD_CIP_PREVIOUS_PRODUCT_INFO
350
1A70
  3
ACAD_COLOR
350
1A4E
  3
ACAD_DETAILVIEWSTYLE
350
1A67
  3
ACAD_GROUP
350
842
  3
ACAD_LAYOUT
350
828
  3
ACAD_MATERIAL
350
1A1C
  3
ACAD_MLEADERSTYLE
350
1A63
  3
ACAD_MLINESTYLE
350
843
  3
ACAD_PLOTSETTINGS
350
844
  3
ACAD_PLOTSTYLENAME
350
6
  3
ACAD_SCALELIST
350
1A51
  3
ACAD_SECTIONVIEWSTYLE
350
1A65
  3
ACAD_TABLESTYLE
350
1A4F
  3
ACAD_VISUALSTYLE
350
1A35
  3
ACDB_RECOMPOSE_DATA
350
1DE6
  3
AcDbVariableDictionary
350
1ACB
  3
DWGPROPS
350
1DE7
  0
DICTIONARY
  5
1A8E
330
83D
100
AcDbDictionary
280
     1
281
     1
  0
DICTIONARY
  5
1B81
330
835
100
AcDbDictionary
280
     1
281
     1
  3
ACAD_LAYERSTATES
360
1B82
  0
DICTIONARY
  5
1A71
330
64
100
AcDbDictionary
280
     1
281
     1
  3
ADSK_XREC_LAYER_RECONCILED
360
1A72
  0
DICTIONARY
  5
1A73
330
6A
100
AcDbDictionary
280
     1
281
     1
  3
ADSK_XREC_LAYER_RECONCILED
360
1A74
  0
DICTIONARY
  5
1A75
330
4
100
AcDbDictionary
280
     1
281
     1
  3
ADSK_XREC_LAYER_RECONCILED
360
1A76
  0
DICTIONARY
  5
1A79
330
67
100
AcDbDictionary
280
     1
281
     1
  3
ADSK_XREC_LAYER_RECONCILED
360
1A7A
  0
DICTIONARY
  5
1A7B
330
11
100
AcDbDictionary
280
     1
281
     1
  3
ADSK_XREC_LAYER_RECONCILED
360
1A7C
  0
DICTIONARY
  5
1A7F
330
18FB
100
AcDbDictionary
280
     1
281
     1
  3
ADSK_XREC_LAYER_RECONCILED
360
1A80
  0
DICTIONARY
  5
1A81
330
1918
100
AcDbDictionary
280
     1
281
     1
  3
ADSK_XREC_LAYER_RECONCILED
360
1A82
  0
DICTIONARY
  5
823
330
2
100
AcDbDictionary
280
     1
281
     1
  3
ACAD_ASSOCNETWORK
360
1BB3
  3
ACAD_LAYOUTSELFREF
360
187B
  0
DICTIONARY
  5
82A
330
829
100
AcDbDictionary
280
     1
281
     1
  3
ACAD_LAYOUTSELFREF
360
1888
  0
DICTIONARY
  5
830
330
82F
100
AcDbDictionary
280
     1
281
     1
  3
ACAD_LAYOUTSELFREF
360
1889
  0
DICTIONARY
  5
1AE2
330
1ADE
100
AcDbDictionary
280
     1
281
     1
  0
DICTIONARY
  5
1E28
330
1B9E
100
AcDbDictionary
280
     1
281
     1
  3
AcDbBlockTableRecordData
360
1E29
  0
DICTIONARY
  5
1E2B
330
1CC2
100
AcDbDictionary
280
     1
281
     1
  3
AcDbBlockTableRecordData
360
1E2C
  0
DICTIONARY
  5
1BB5
102
{ACAD_REACTORS
330
7
102
}
330
7
100
AcDbDictionary
281
     1
  3
ACAD_ASSOCNETWORK
350
1BB6
  0
XRECORD
  5
1A70
102
{ACAD_REACTORS
330
7
102
}
330
7
100
AcDbXrecord
280
     1
300
ACDLT
300
2014
300
ACDLT_F_S
  0
DICTIONARY
  5
1A4E
102
{ACAD_REACTORS
330
7
102
}
330
7
100
AcDbDictionary
281
     1
  0
DICTIONARY
  5
1A67
102
{ACAD_REACTORS
330
7
102
}
330
7
100
AcDbDictionary
281
     1
  3
Metric50
350
1A68
  0
DICTIONARY
  5
842
102
{ACAD_REACTORS
330
7
102
}
330
7
100
AcDbDictionary
281
     1
  3
*A1
350
191D
  3
*A2
350
1922
  0
DICTIONARY
  5
828
102
{ACAD_REACTORS
330
7
102
}
330
7
100
AcDbDictionary
281
     1
  3
Layout1
350
82E
  3
Layout2
350
834
  3
Model
350
827
  0
DICTIONARY
  5
1A1C
102
{ACAD_REACTORS
330
7
102
}
330
7
100
AcDbDictionary
281
     1
  3
ByBlock
350
1A25
  3
ByLayer
350
1A1D
  3
Global
350
1A2D
  0
DICTIONARY
  5
1A63
102
{ACAD_REACTORS
330
7
102
}
330
7
100
AcDbDictionary
281
     1
  3
Standard
350
1A64
  0
DICTIONARY
  5
843
102
{ACAD_REACTORS
330
7
102
}
330
7
100
AcDbDictionary
281
     1
  3
Standard
350
845
  0
DICTIONARY
  5
844
102
{ACAD_REACTORS
330
7
102
}
330
7
100
AcDbDictionary
281
     1
  0
ACDBDICTIONARYWDFLT
  5
6
102
{ACAD_REACTORS
330
7
102
}
330
7
100
AcDbDictionary
281
     1
  3
Normal
350
5
100
AcDbDictionaryWithDefault
340
5
  0
DICTIONARY
  5
1A51
102
{ACAD_REACTORS
330
7
102
}
330
7
100
AcDbDictionary
281
     1
  3
A0
350
1A52
  3
A1
350
1A53
  3
A2
350
1A54
  3
A3
350
1A55
  3
A4
350
1A56
  3
A5
350
1A57
  3
A6
350
1A58
  3
A7
350
1A59
  3
A8
350
1A5A
  3
A9
350
1A5B
  3
B0
350
1A5C
  3
B1
350
1A5D
  3
B2
350
1A5E
  3
B3
350
1A5F
  3
B4
350
1A60
  3
B5
350
1A61
  3
B6
350
1A62
  0
DICTIONARY
  5
1A65
102
{ACAD_REACTORS
330
7
102
}
330
7
100
AcDbDictionary
281
     1
  3
Metric50
350
1A66
  0
DICTIONARY
  5
1A4F
102
{ACAD_REACTORS
330
7
102
}
330
7
100
AcDbDictionary
281
     1
  3
Standard
350
1A50
  0
DICTIONARY
  5
1A35
102
{ACAD_REACTORS
330
7
102
}
330
7
100
AcDbDictionary
281
     1
  3
2dWireframe
350
1A3B
  3
Basic
350
1A3A
  3
Brighten
350
1A41
  3
ColorChange
350
1A45
  3
Conceptual
350
1A3E
  3
Dim
350
1A40
  3
EdgeColorOff
350
1A4D
  3
Facepattern
350
1A44
  3
Flat
350
1A36
  3
FlatWithEdges
350
1A37
  3
Gouraud
350
1A38
  3
GouraudWithEdges
350
1A39
  3
Hidden
350
1A3D
  3
JitterOff
350
1A4B
  3
Linepattern
350
1A43
  3
OverhangOff
350
1A4C
  3
Realistic
350
1A3F
  3
Shaded
350
1A4A
  3
Shaded with edges
350
1A49
  3
Shades of Gray
350
1A46
  3
Sketchy
350
1A47
  3
Thicken
350
1A42
  3
Wireframe
350
1A3C
  3
X-Ray
350
1A48
  0
XRECORD
  5
1DE6
102
{ACAD_REACTORS
330
7
102
}
330
7
100
AcDbXrecord
280
     1
 90
        1
330
1A50
  0
DICTIONARY
  5
1ACB
102
{ACAD_REACTORS
330
7
102
}
330
7
100
AcDbDictionary
281
     1
  3
CANNOSCALE
350
1AD0
  3
CMLEADERSTYLE
350
1ACD
  3
CTABLESTYLE
350
1ACC
  3
CVIEWDETAILSTYLE
350
1ACE
  3
CVIEWSECTIONSTYLE
350
1ACF
  3
DIMASSOC
350
1AD3
  3
INDEXCTL
350
1AD2
  3
SORTENTS
350
1AD1
  3
XCLIPFRAME
350
1DE4
  0
XRECORD
  5
1DE7
102
{ACAD_REACTORS
330
7
102
}
330
7
100
AcDbXrecord
280
     1
  1
DWGPROPS COOKIE
  2

  3

  4

  6

  7

  8
takara
  9

300
=
301
=
302
=
303
=
304
=
305
=
306
=
307
=
308
=
309
=
 40
0.0569615625
 41
2453510.558637211
 42
2457563.730429237
  1

 90
        0
  0
DICTIONARY
  5
1B82
102
{ACAD_REACTORS
330
1B81
102
}
330
1B81
100
AcDbDictionary
281
     1
  3
_LAYISO_STATE
350
1B83
1001
AcLayerTools
1000
827
1000
0
  0
XRECORD
  5
1A72
102
{ACAD_REACTORS
330
1A71
102
}
330
1A71
100
AcDbXrecord
280
     1
290
     1
  0
XRECORD
  5
1A74
102
{ACAD_REACTORS
330
1A73
102
}
330
1A73
100
AcDbXrecord
280
     1
290
     1
  0
XRECORD
  5
1A76
102
{ACAD_REACTORS
330
1A75
102
}
330
1A75
100
AcDbXrecord
280
     1
290
     1
  0
XRECORD
  5
1A7A
102
{ACAD_REACTORS
330
1A79
102
}
330
1A79
100
AcDbXrecord
280
     1
290
     1
  0
XRECORD
  5
1A7C
102
{ACAD_REACTORS
330
1A7B
102
}
330
1A7B
100
AcDbXrecord
280
     1
290
     1
  0
XRECORD
  5
1A80
102
{ACAD_REACTORS
330
1A7F
102
}
330
1A7F
100
AcDbXrecord
280
     1
290
     1
  0
XRECORD
  5
1A82
102
{ACAD_REACTORS
330
1A81
102
}
330
1A81
100
AcDbXrecord
280
     1
290
     1
  0
DICTIONARY
  5
1BB3
102
{ACAD_REACTORS
330
823
102
}
330
823
100
AcDbDictionary
281
     1
  3
ACAD_ASSOCNETWORK
350
1BB4
  0
XRECORD
  5
187B
102
{ACAD_REACTORS
330
823
102
}
330
823
100
AcDbXrecord
280
     1
340
2
  0
XRECORD
  5
1888
102
{ACAD_REACTORS
330
82A
102
}
330
82A
100
AcDbXrecord
280
     1
340
829
  0
XRECORD
  5
1889
102
{ACAD_REACTORS
330
830
102
}
330
830
100
AcDbXrecord
280
     1
340
82F
  0
DICTIONARY
  5
1E29
102
{ACAD_REACTORS
330
1E28
102
}
330
1E28
100
AcDbDictionary
280
     1
281
     1
  3
Edit
360
1E2A
  0
DICTIONARY
  5
1E2C
102
{ACAD_REACTORS
330
1E2B
102
}
330
1E2B
100
AcDbDictionary
280
     1
281
     1
  3
Edit
360
1E2D
  0
ACDBASSOCNETWORK
  5
1BB6
102
{ACAD_REACTORS
330
1BB5
102
}
330
1BB5
100
AcDbAssocAction
 90
        1
 90
        1
330
0
360
0
 90
        0
 90
        0
 90
        0
100
AcDbAssocNetwork
 90
        0
 90
        1
 90
        1
330
1BB4
 90
        1
330
1BB4
  0
ACDBDETAILVIEWSTYLE
  5
1A68
102
{ACAD_XDICTIONARY
360
1E26
102
}
102
{ACAD_REACTORS
330
1A67
102
}
330
1A67
100
AcDbModelDocViewStyle
 70
     0
  3
Metric50
290
     0
100
AcDbDetailViewStyle
 70
     0
 71
     0
 90
        3
 71
     1
340
9
 40
5.0
340
0
 40
5.0
300

 40
0.0
280
     1
 71
     2
340
8
 90
       25
 71
     3
340
9
 40
5.0
 90
        0
 40
15.0
 90
        1
300
%<\AcVar ViewDetailId>% (%<\AcVar ViewScale \f "%sn">%)
 71
     4
340
8
 90
       25
340
8
 90
       25
280
     0
  0
GROUP
  5
191D
102
{ACAD_REACTORS
330
842
102
}
330
842
100
AcDbGroup
300

 70
     1
 71
     1
340
84A
340
851
340
15E5
340
850
  0
GROUP
  5
1922
102
{ACAD_REACTORS
330
842
102
}
330
842
100
AcDbGroup
300

 70
     1
 71
     1
340
191E
340
191F
340
1920
340
1921
  0
LAYOUT
  5
82E
102
{ACAD_XDICTIONARY
360
1DEA
102
}
102
{ACAD_REACTORS
330
828
102
}
330
828
100
AcDbPlotSettings
  1

  2
None
  4

  6

 40
0.0
 41
0.0
 42
0.0
 43
0.0
 44
0.0
 45
0.0
 46
0.0
 47
0.0
 48
0.0
 49
0.0
140
0.0
141
0.0
142
1.0
143
1.0
 70
   688
 72
     0
 73
     0
 74
     5
  7
monochrome.ctb
 75
    16
147
1.0
148
0.0
149
0.0
100
AcDbLayout
  1
Layout1
 70
     1
 71
     1
 10
0.0
 20
0.0
 11
12.0
 21
9.0
 12
0.0
 22
0.0
 32
0.0
 14
0.0
 24
0.0
 34
0.0
 15
0.0
 25
0.0
 35
0.0
146
0.0
 13
0.0
 23
0.0
 33
0.0
 16
1.0
 26
0.0
 36
0.0
 17
0.0
 27
1.0
 37
0.0
 76
     0
330
829
  0
LAYOUT
  5
834
102
{ACAD_XDICTIONARY
360
1DEC
102
}
102
{ACAD_REACTORS
330
828
102
}
330
828
100
AcDbPlotSettings
  1

  2
None
  4

  6

 40
0.0
 41
0.0
 42
0.0
 43
0.0
 44
0.0
 45
0.0
 46
0.0
 47
0.0
 48
0.0
 49
0.0
140
0.0
141
0.0
142
1.0
143
1.0
 70
   688
 72
     0
 73
     0
 74
     5
  7
monochrome.ctb
 75
    16
147
1.0
148
0.0
149
0.0
100
AcDbLayout
  1
Layout2
 70
     1
 71
     2
 10
0.0
 20
0.0
 11
12.0
 21
9.0
 12
0.0
 22
0.0
 32
0.0
 14
0.0
 24
0.0
 34
0.0
 15
0.0
 25
0.0
 35
0.0
146
0.0
 13
0.0
 23
0.0
 33
0.0
 16
1.0
 26
0.0
 36
0.0
 17
0.0
 27
1.0
 37
0.0
 76
     0
330
82F
  0
LAYOUT
  5
827
102
{ACAD_XDICTIONARY
360
1DE8
102
}
102
{ACAD_REACTORS
330
828
102
}
330
828
100
AcDbPlotSettings
  1

  2
EPSON LP-9400
  4
A4
  6

 40
5.873749732971191
 41
5.873747825622558
 42
5.873748779296875
 43
5.873748779296875
 44
209.9733276367187
 45
297.0106506347656
 46
2.339999999999999
 47
0.0
 48
0.0
 49
0.0
140
0.0
141
0.0
142
1.0
143
9.816891609963194
 70
 11956
 72
     1
 73
     1
 74
     1
  7
monochrome.ctb
 75
     0
147
0.1018652379725877
148
1264.94917075748
149
959.6633564695521
100
AcDbLayout
  1
Model
 70
     1
 71
     0
 10
0.0
 20
0.0
 11
12.0
 21
9.0
 12
0.0
 22
0.0
 32
0.0
 14
0.0
 24
0.0
 34
0.0
 15
0.0
 25
0.0
 35
0.0
146
0.0
 13
0.0
 23
0.0
 33
0.0
 16
1.0
 26
0.0
 36
0.0
 17
0.0
 27
1.0
 37
0.0
 76
     0
330
2
331
1A1A
  0
MATERIAL
  5
1A25
102
{ACAD_XDICTIONARY
360
1A26
102
}
102
{ACAD_REACTORS
330
1A1C
102
}
330
1A1C
100
AcDbMaterial
  1
ByBlock
 72
     0
 43
0.0008202099737533
 43
0.0
 43
0.0
 43
0.0
 43
0.0
 43
0.0008202099737533
 43
0.0
 43
0.0
 43
0.0
 43
0.0
 43
1.0
 43
0.0
 43
0.0
 43
0.0
 43
0.0
 43
1.0
 77
     0
 47
0.0008202099737533
 47
0.0
 47
0.0
 47
0.0
 47
0.0
 47
0.0008202099737533
 47
0.0
 47
0.0
 47
0.0
 47
0.0
 47
1.0
 47
0.0
 47
0.0
 47
0.0
 47
0.0
 47
1.0
171
     0
 49
0.0008202099737533
 49
0.0
 49
0.0
 49
0.0
 49
0.0
 49
0.0008202099737533
 49
0.0
 49
0.0
 49
0.0
 49
0.0
 49
1.0
 49
0.0
 49
0.0
 49
0.0
 49
0.0
 49
1.0
175
     0
142
0.0008202099737533
142
0.0
142
0.0
142
0.0
142
0.0
142
0.0008202099737533
142
0.0
142
0.0
142
0.0
142
0.0
142
1.0
142
0.0
142
0.0
142
0.0
142
0.0
142
1.0
179
     0
144
0.0008202099737533
144
0.0
144
0.0
144
0.0
144
0.0
144
0.0008202099737533
144
0.0
144
0.0
144
0.0
144
0.0
144
1.0
144
0.0
144
0.0
144
0.0
144
0.0
144
1.0
147
0.0008202099737533
147
0.0
147
0.0
147
0.0
147
0.0
147
0.0008202099737533
147
0.0
147
0.0
147
0.0
147
0.0
147
1.0
147
0.0
147
0.0
147
0.0
147
0.0
147
1.0
  0
MATERIAL
  5
1A1D
102
{ACAD_XDICTIONARY
360
1A1E
102
}
102
{ACAD_REACTORS
330
1A1C
102
}
330
1A1C
100
AcDbMaterial
  1
ByLayer
 72
     0
 43
0.0008202099737533
 43
0.0
 43
0.0
 43
0.0
 43
0.0
 43
0.0008202099737533
 43
0.0
 43
0.0
 43
0.0
 43
0.0
 43
1.0
 43
0.0
 43
0.0
 43
0.0
 43
0.0
 43
1.0
 77
     0
 47
0.0008202099737533
 47
0.0
 47
0.0
 47
0.0
 47
0.0
 47
0.0008202099737533
 47
0.0
 47
0.0
 47
0.0
 47
0.0
 47
1.0
 47
0.0
 47
0.0
 47
0.0
 47
0.0
 47
1.0
171
     0
 49
0.0008202099737533
 49
0.0
 49
0.0
 49
0.0
 49
0.0
 49
0.0008202099737533
 49
0.0
 49
0.0
 49
0.0
 49
0.0
 49
1.0
 49
0.0
 49
0.0
 49
0.0
 49
0.0
 49
1.0
175
     0
142
0.0008202099737533
142
0.0
142
0.0
142
0.0
142
0.0
142
0.0008202099737533
142
0.0
142
0.0
142
0.0
142
0.0
142
1.0
142
0.0
142
0.0
142
0.0
142
0.0
142
1.0
179
     0
144
0.0008202099737533
144
0.0
144
0.0
144
0.0
144
0.0
144
0.0008202099737533
144
0.0
144
0.0
144
0.0
144
0.0
144
1.0
144
0.0
144
0.0
144
0.0
144
0.0
144
1.0
147
0.0008202099737533
147
0.0
147
0.0
147
0.0
147
0.0
147
0.0008202099737533
147
0.0
147
0.0
147
0.0
147
0.0
147
1.0
147
0.0
147
0.0
147
0.0
147
0.0
147
1.0
  0
MATERIAL
  5
1A2D
102
{ACAD_XDICTIONARY
360
1A2E
102
}
102
{ACAD_REACTORS
330
1A1C
102
}
330
1A1C
100
AcDbMaterial
  1
Global
 72
     0
 43
0.0008202099737533
 43
0.0
 43
0.0
 43
0.0
 43
0.0
 43
0.0008202099737533
 43
0.0
 43
0.0
 43
0.0
 43
0.0
 43
1.0
 43
0.0
 43
0.0
 43
0.0
 43
0.0
 43
1.0
 77
     0
 47
0.0008202099737533
 47
0.0
 47
0.0
 47
0.0
 47
0.0
 47
0.0008202099737533
 47
0.0
 47
0.0
 47
0.0
 47
0.0
 47
1.0
 47
0.0
 47
0.0
 47
0.0
 47
0.0
 47
1.0
171
     0
 49
0.0008202099737533
 49
0.0
 49
0.0
 49
0.0
 49
0.0
 49
0.0008202099737533
 49
0.0
 49
0.0
 49
0.0
 49
0.0
 49
1.0
 49
0.0
 49
0.0
 49
0.0
 49
0.0
 49
1.0
175
     0
142
0.0008202099737533
142
0.0
142
0.0
142
0.0
142
0.0
142
0.0008202099737533
142
0.0
142
0.0
142
0.0
142
0.0
142
1.0
142
0.0
142
0.0
142
0.0
142
0.0
142
1.0
179
     0
144
0.0008202099737533
144
0.0
144
0.0
144
0.0
144
0.0
144
0.0008202099737533
144
0.0
144
0.0
144
0.0
144
0.0
144
1.0
144
0.0
144
0.0
144
0.0
144
0.0
144
1.0
147
0.0008202099737533
147
0.0
147
0.0
147
0.0
147
0.0
147
0.0008202099737533
147
0.0
147
0.0
147
0.0
147
0.0
147
1.0
147
0.0
147
0.0
147
0.0
147
0.0
147
1.0
  0
MLEADERSTYLE
  5
1A64
102
{ACAD_XDICTIONARY
360
1E22
102
}
102
{ACAD_REACTORS
330
1A63
102
}
330
1A63
100
AcDbMLeaderStyle
170
     2
171
     1
172
     0
 90
        2
 40
0.0
 41
0.0
173
     1
 91
-1056964608
340
839
 92
       -2
290
     1
 42
2.0
291
     1
 43
0.36
  3
Standard
 44
4.0
300

342
9
174
     1
178
     6
175
     1
176
     0
 93
-1056964608
 45
4.0
292
     0
297
     0
 46
4.0
 94
-1056964608
 47
1.0
 49
1.0
140
1.0
293
     1
141
0.0
294
     1
177
     0
142
1.0
295
     0
296
     0
143
0.125
1001
ACAD_MLEADERVER
1070
     2
  0
MLINESTYLE
  5
845
102
{ACAD_REACTORS
330
843
102
}
330
843
100
AcDbMlineStyle
  2
STANDARD
 70
     0
  3

 62
   256
 51
90.0
 52
90.0
 71
     2
 49
0.5
 62
   256
  6
BYLAYER
 49
-0.5
 62
   256
  6
BYLAYER
  0
ACDBPLACEHOLDER
  5
5
102
{ACAD_REACTORS
330
6
102
}
330
6
  0
SCALE
  5
1A52
102
{ACAD_REACTORS
330
1A51
102
}
330
1A51
100
AcDbScale
 70
     0
300
1:1
140
1.0
141
1.0
290
     1
  0
SCALE
  5
1A53
102
{ACAD_REACTORS
330
1A51
102
}
330
1A51
100
AcDbScale
 70
     0
300
1:2
140
1.0
141
2.0
290
     0
  0
SCALE
  5
1A54
102
{ACAD_REACTORS
330
1A51
102
}
330
1A51
100
AcDbScale
 70
     0
300
1:4
140
1.0
141
4.0
290
     0
  0
SCALE
  5
1A55
102
{ACAD_REACTORS
330
1A51
102
}
330
1A51
100
AcDbScale
 70
     0
300
1:5
140
1.0
141
5.0
290
     0
  0
SCALE
  5
1A56
102
{ACAD_REACTORS
330
1A51
102
}
330
1A51
100
AcDbScale
 70
     0
300
1:8
140
1.0
141
8.0
290
     0
  0
SCALE
  5
1A57
102
{ACAD_REACTORS
330
1A51
102
}
330
1A51
100
AcDbScale
 70
     0
300
1:10
140
1.0
141
10.0
290
     0
  0
SCALE
  5
1A58
102
{ACAD_REACTORS
330
1A51
102
}
330
1A51
100
AcDbScale
 70
     0
300
1:16
140
1.0
141
16.0
290
     0
  0
SCALE
  5
1A59
102
{ACAD_REACTORS
330
1A51
102
}
330
1A51
100
AcDbScale
 70
     0
300
1:20
140
1.0
141
20.0
290
     0
  0
SCALE
  5
1A5A
102
{ACAD_REACTORS
330
1A51
102
}
330
1A51
100
AcDbScale
 70
     0
300
1:30
140
1.0
141
30.0
290
     0
  0
SCALE
  5
1A5B
102
{ACAD_REACTORS
330
1A51
102
}
330
1A51
100
AcDbScale
 70
     0
300
1:40
140
1.0
141
40.0
290
     0
  0
SCALE
  5
1A5C
102
{ACAD_REACTORS
330
1A51
102
}
330
1A51
100
AcDbScale
 70
     0
300
1:50
140
1.0
141
50.0
290
     0
  0
SCALE
  5
1A5D
102
{ACAD_REACTORS
330
1A51
102
}
330
1A51
100
AcDbScale
 70
     0
300
1:100
140
1.0
141
100.0
290
     0
  0
SCALE
  5
1A5E
102
{ACAD_REACTORS
330
1A51
102
}
330
1A51
100
AcDbScale
 70
     0
300
2:1
140
2.0
141
1.0
290
     0
  0
SCALE
  5
1A5F
102
{ACAD_REACTORS
330
1A51
102
}
330
1A51
100
AcDbScale
 70
     0
300
4:1
140
4.0
141
1.0
290
     0
  0
SCALE
  5
1A60
102
{ACAD_REACTORS
330
1A51
102
}
330
1A51
100
AcDbScale
 70
     0
300
8:1
140
8.0
141
1.0
290
     0
  0
SCALE
  5
1A61
102
{ACAD_REACTORS
330
1A51
102
}
330
1A51
100
AcDbScale
 70
     0
300
10:1
140
10.0
141
1.0
290
     0
  0
SCALE
  5
1A62
102
{ACAD_REACTORS
330
1A51
102
}
330
1A51
100
AcDbScale
 70
     0
300
100:1
140
100.0
141
1.0
290
     0
  0
ACDBSECTIONVIEWSTYLE
  5
1A66
102
{ACAD_XDICTIONARY
360
1E24
102
}
102
{ACAD_REACTORS
330
1A65
102
}
330
1A65
100
AcDbModelDocViewStyle
 70
     0
  3
Metric50
290
     0
100
AcDbSectionViewStyle
 70
     0
 71
     0
 90
      102
 71
     1
340
9
 40
5.0
340
0
340
0
 40
5.0
300
I, O, Q, S, X, Z
 40
10.0
 90
        0
 40
2.5
 90
        0
 71
     2
340
8
 90
       25
340
8
 90
       50
 40
5.0
 40
2.5
 40
5.0
 71
     3
340
9
 40
5.0
 90
        0
 40
15.0
 90
        1
300
%<\AcVar ViewSectionStartId>%-%<\AcVar ViewSectionEndId>% (%<\AcVar ViewScale \f "%sn">%)
 71
     4
300
ANSI31
 40
1.0
 90
        0
290
     0
290
     0
 90
        6
 40
0.0
 40
1.570796326794896
 40
0.2617993877991494
 40
1.308996938995747
 40
-0.2617993877991494
 40
1.832595714594046
  0
TABLESTYLE
  5
1A50
102
{ACAD_XDICTIONARY
360
1A84
102
}
102
{ACAD_REACTORS
330
1A4F
102
}
330
1A4F
100
AcDbTableStyle
  3
Standard
 70
     0
 71
     0
 40
1.5
 41
1.5
280
     0
281
     0
  7
Standard
140
4.5
170
     2
 62
     0
 63
     7
283
     0
274
    -2
284
     1
 64
     0
275
    -2
285
     1
 65
     0
276
    -2
286
     1
 66
     0
277
    -2
287
     1
 67
     0
278
    -2
288
     1
 68
     0
279
    -2
289
     1
 69
     0
  7
Standard
140
6.0
170
     5
 62
     0
 63
     7
283
     0
274
    -2
284
     1
 64
     0
275
    -2
285
     1
 65
     0
276
    -2
286
     1
 66
     0
277
    -2
287
     1
 67
     0
278
    -2
288
     1
 68
     0
279
    -2
289
     1
 69
     0
  7
Standard
140
4.5
170
     5
 62
     0
 63
     7
283
     0
274
    -2
284
     1
 64
     0
275
    -2
285
     1
 65
     0
276
    -2
286
     1
 66
     0
277
    -2
287
     1
 67
     0
278
    -2
288
     1
 68
     0
279
    -2
289
     1
 69
     0
  0
VISUALSTYLE
  5
1A3B
102
{ACAD_XDICTIONARY
360
1DFB
102
}
102
{ACAD_REACTORS
330
1A35
102
}
330
1A35
100
AcDbVisualStyle
  2
2dWireframe
 70
     4
 71
     0
 72
     2
 73
     0
 90
        0
 40
-0.6
 41
-30.0
 62
     5
 63
     7
 74
     1
 91
        4
 64
     7
 65
   257
 75
     1
175
     1
 42
1.0
 92
        0
 66
   257
 43
1.0
 76
     1
 77
     6
 78
     2
 67
     7
 79
     5
170
     0
171
     0
290
     0
174
     0
 93
        1
 44
0.0
173
     0
291
     0
 45
0.0
1001
ACAD
1000
AcDbSavedByObjectVersion
1070
     0
  0
VISUALSTYLE
  5
1A3A
102
{ACAD_XDICTIONARY
360
1DF9
102
}
102
{ACAD_REACTORS
330
1A35
102
}
330
1A35
100
AcDbVisualStyle
  2
Basic
 70
     7
 71
     1
 72
     0
 73
     1
 90
        0
 40
-0.6
 41
-30.0
 62
     5
 63
     7
 74
     0
 91
        4
 64
     7
 65
   257
 75
     1
175
     1
 42
1.0
 92
        8
 66
     7
 43
1.0
 76
     1
 77
     6
 78
     2
 67
     7
 79
     5
170
     0
171
     0
290
     0
174
     0
 93
        1
 44
0.0
173
     0
291
     1
 45
0.0
1001
ACAD
1000
AcDbSavedByObjectVersion
1070
     0
  0
VISUALSTYLE
  5
1A41
102
{ACAD_XDICTIONARY
360
1E07
102
}
102
{ACAD_REACTORS
330
1A35
102
}
330
1A35
100
AcDbVisualStyle
  2
Brighten
 70
    12
 71
     2
 72
     2
 73
     0
 90
        0
 40
-0.6
 41
-30.0
 62
     5
 63
     7
 74
     1
 91
        4
 64
     7
 65
   257
 75
     1
175
     1
 42
1.0
 92
        8
 66
     7
 43
1.0
 76
     1
 77
     6
 78
     2
 67
     7
 79
     5
170
     0
171
     0
290
     0
174
     0
 93
        1
 44
50.0
173
     0
291
     1
 45
0.0
1001
ACAD
1000
AcDbSavedByObjectVersion
1070
     0
  0
VISUALSTYLE
  5
1A45
102
{ACAD_XDICTIONARY
360
1E0F
102
}
102
{ACAD_REACTORS
330
1A35
102
}
330
1A35
100
AcDbVisualStyle
  2
ColorChange
 70
    16
 71
     2
 72
     2
 73
     3
 90
        0
 40
-0.6
 41
-30.0
 62
     5
 63
     8
 74
     1
 91
        4
 64
     7
 65
   257
 75
     1
175
     1
 42
1.0
 92
        8
 66
     8
 43
1.0
 76
     1
 77
     6
 78
     2
 67
     7
 79
     5
170
     0
171
     0
290
     0
174
     0
 93
        1
 44
0.0
173
     0
291
     1
 45
0.0
1001
ACAD
1000
AcDbSavedByObjectVersion
1070
     0
  0
VISUALSTYLE
  5
1A3E
102
{ACAD_XDICTIONARY
360
1E01
102
}
102
{ACAD_REACTORS
330
1A35
102
}
330
1A35
100
AcDbVisualStyle
  2
Conceptual
 70
     9
 71
     3
 72
     2
 73
     0
 90
        0
 40
-0.6
 41
-30.0
 62
     5
 63
     7
 74
     2
 91
        2
 64
     7
 65
   257
 75
     1
175
     1
 42
179.0
 92
        8
 66
     7
 43
1.0
 76
     1
 77
     6
 78
     2
 67
     7
 79
     3
170
     0
171
     0
290
     0
174
     0
 93
        1
 44
0.0
173
     0
291
     0
 45
0.0
1001
ACAD
1000
AcDbSavedByObjectVersion
1070
     0
  0
VISUALSTYLE
  5
1A40
102
{ACAD_XDICTIONARY
360
1E05
102
}
102
{ACAD_REACTORS
330
1A35
102
}
330
1A35
100
AcDbVisualStyle
  2
Dim
 70
    11
 71
     2
 72
     2
 73
     0
 90
        0
 40
-0.6
 41
-30.0
 62
     5
 63
     7
 74
     1
 91
        4
 64
     7
 65
   257
 75
     1
175
     1
 42
1.0
 92
        8
 66
     7
 43
1.0
 76
     1
 77
     6
 78
     2
 67
     7
 79
     5
170
     0
171
     0
290
     0
174
     0
 93
        1
 44
-50.0
173
     0
291
     1
 45
0.0
1001
ACAD
1000
AcDbSavedByObjectVersion
1070
     0
  0
VISUALSTYLE
  5
1A4D
102
{ACAD_XDICTIONARY
360
1E1F
102
}
102
{ACAD_REACTORS
330
1A35
102
}
330
1A35
100
AcDbVisualStyle
  2
EdgeColorOff
 70
    22
 71
     2
 72
     2
 73
     0
 90
        0
 40
-0.6
 41
-30.0
 62
     5
 63
     7
 74
     1
 91
        4
 64
     7
 65
   257
 75
     1
175
     1
 42
1.0
 92
        8
 66
     7
 43
1.0
 76
     1
 77
     6
 78
     2
 67
     7
 79
     5
170
     0
171
     0
290
     0
174
     0
 93
        1
 44
0.0
173
     0
291
     1
 45
0.0
1001
ACAD
1000
AcDbSavedByObjectVersion
1070
     0
  0
VISUALSTYLE
  5
1A44
102
{ACAD_XDICTIONARY
360
1E0D
102
}
102
{ACAD_REACTORS
330
1A35
102
}
330
1A35
100
AcDbVisualStyle
  2
Facepattern
 70
    15
 71
     2
 72
     2
 73
     0
 90
        0
 40
-0.6
 41
-30.0
 62
     5
 63
     7
 74
     1
 91
        4
 64
     7
 65
   257
 75
     1
175
     1
 42
1.0
 92
        8
 66
     7
 43
1.0
 76
     1
 77
     6
 78
     2
 67
     7
 79
     5
170
     0
171
     0
290
     0
174
     0
 93
        1
 44
0.0
173
     0
291
     1
 45
0.0
1001
ACAD
1000
AcDbSavedByObjectVersion
1070
     0
  0
VISUALSTYLE
  5
1A36
102
{ACAD_XDICTIONARY
360
1DF1
102
}
102
{ACAD_REACTORS
330
1A35
102
}
330
1A35
100
AcDbVisualStyle
  2
Flat
 70
     0
 71
     2
 72
     1
 73
     1
 90
        2
 40
-0.6
 41
30.0
 62
     5
 63
     7
 74
     0
 91
        0
 64
     7
 65
   257
 75
     1
175
     1
 42
1.0
 92
        8
 66
     7
 43
1.0
 76
     1
 77
     6
 78
     2
 67
     7
 79
     5
170
     0
171
     0
290
     0
174
     0
 93
       13
 44
0.0
173
     0
291
     1
 45
0.0
1001
ACAD
1000
AcDbSavedByObjectVersion
1070
     0
  0
VISUALSTYLE
  5
1A37
102
{ACAD_XDICTIONARY
360
1DF3
102
}
102
{ACAD_REACTORS
330
1A35
102
}
330
1A35
100
AcDbVisualStyle
  2
FlatWithEdges
 70
     1
 71
     2
 72
     1
 73
     1
 90
        2
 40
-0.6
 41
30.0
 62
     5
 63
     7
 74
     1
 91
        0
 64
     7
 65
   257
 75
     1
175
     1
 42
1.0
 92
        0
 66
   257
 43
1.0
 76
     1
 77
     6
 78
     2
 67
     7
 79
     5
170
     0
171
     0
290
     0
174
     0
 93
       13
 44
0.0
173
     0
291
     1
 45
0.0
1001
ACAD
1000
AcDbSavedByObjectVersion
1070
     0
  0
VISUALSTYLE
  5
1A38
102
{ACAD_XDICTIONARY
360
1DF5
102
}
102
{ACAD_REACTORS
330
1A35
102
}
330
1A35
100
AcDbVisualStyle
  2
Gouraud
 70
     2
 71
     2
 72
     2
 73
     1
 90
        2
 40
-0.6
 41
30.0
 62
     5
 63
     7
 74
     0
 91
        0
 64
     7
 65
   257
 75
     1
175
     1
 42
1.0
 92
        0
 66
     7
 43
1.0
 76
     1
 77
     6
 78
     2
 67
     7
 79
     5
170
     0
171
     0
290
     0
174
     0
 93
       13
 44
0.0
173
     0
291
     1
 45
0.0
1001
ACAD
1000
AcDbSavedByObjectVersion
1070
     0
  0
VISUALSTYLE
  5
1A39
102
{ACAD_XDICTIONARY
360
1DF7
102
}
102
{ACAD_REACTORS
330
1A35
102
}
330
1A35
100
AcDbVisualStyle
  2
GouraudWithEdges
 70
     3
 71
     2
 72
     2
 73
     1
 90
        2
 40
-0.6
 41
30.0
 62
     5
 63
     7
 74
     1
 91
        0
 64
     7
 65
   257
 75
     1
175
     1
 42
1.0
 92
        0
 66
   257
 43
1.0
 76
     1
 77
     6
 78
     2
 67
     7
 79
     5
170
     0
171
     0
290
     0
174
     0
 93
       13
 44
0.0
173
     0
291
     1
 45
0.0
1001
ACAD
1000
AcDbSavedByObjectVersion
1070
     0
  0
VISUALSTYLE
  5
1A3D
102
{ACAD_XDICTIONARY
360
1DFF
102
}
102
{ACAD_REACTORS
330
1A35
102
}
330
1A35
100
AcDbVisualStyle
  2
Hidden
 70
     6
 71
     1
 72
     2
 73
     2
 90
        0
 40
-0.6
 41
-30.0
 62
     5
 63
     7
 74
     2
 91
        2
 64
     7
 65
   257
 75
     2
175
     1
 42
40.0
 92
        0
 66
   257
 43
1.0
 76
     1
 77
     6
 78
     2
 67
     7
 79
     3
170
     0
171
     0
290
     0
174
     0
 93
        1
 44
0.0
173
     0
291
     0
 45
0.0
1001
ACAD
1000
AcDbSavedByObjectVersion
1070
     0
  0
VISUALSTYLE
  5
1A4B
102
{ACAD_XDICTIONARY
360
1E1B
102
}
102
{ACAD_REACTORS
330
1A35
102
}
330
1A35
100
AcDbVisualStyle
  2
JitterOff
 70
    20
 71
     2
 72
     2
 73
     0
 90
        0
 40
-0.6
 41
-30.0
 62
     5
 63
     7
 74
     1
 91
        4
 64
     7
 65
   257
 75
     1
175
     1
 42
1.0
 92
       10
 66
     7
 43
1.0
 76
     1
 77
     6
 78
     2
 67
     7
 79
     5
170
     0
171
     0
290
     0
174
     0
 93
        1
 44
0.0
173
     0
291
     1
 45
0.0
1001
ACAD
1000
AcDbSavedByObjectVersion
1070
     0
  0
VISUALSTYLE
  5
1A43
102
{ACAD_XDICTIONARY
360
1E0B
102
}
102
{ACAD_REACTORS
330
1A35
102
}
330
1A35
100
AcDbVisualStyle
  2
Linepattern
 70
    14
 71
     2
 72
     2
 73
     0
 90
        0
 40
-0.6
 41
-30.0
 62
     5
 63
     7
 74
     1
 91
        4
 64
     7
 65
   257
 75
     7
175
     7
 42
1.0
 92
        8
 66
     7
 43
1.0
 76
     1
 77
     6
 78
     2
 67
     7
 79
     5
170
     0
171
     0
290
     0
174
     0
 93
        1
 44
0.0
173
     0
291
     1
 45
0.0
1001
ACAD
1000
AcDbSavedByObjectVersion
1070
     0
  0
VISUALSTYLE
  5
1A4C
102
{ACAD_XDICTIONARY
360
1E1D
102
}
102
{ACAD_REACTORS
330
1A35
102
}
330
1A35
100
AcDbVisualStyle
  2
OverhangOff
 70
    21
 71
     2
 72
     2
 73
     0
 90
        0
 40
-0.6
 41
-30.0
 62
     5
 63
     7
 74
     1
 91
        4
 64
     7
 65
   257
 75
     1
175
     1
 42
1.0
 92
        9
 66
     7
 43
1.0
 76
     1
 77
     6
 78
     2
 67
     7
 79
     5
170
     0
171
     0
290
     0
174
     0
 93
        1
 44
0.0
173
     0
291
     1
 45
0.0
1001
ACAD
1000
AcDbSavedByObjectVersion
1070
     0
  0
VISUALSTYLE
  5
1A3F
102
{ACAD_XDICTIONARY
360
1E03
102
}
102
{ACAD_REACTORS
330
1A35
102
}
330
1A35
100
AcDbVisualStyle
  2
Realistic
 70
     8
 71
     2
 72
     2
 73
     0
 90
        2
 40
-0.6
 41
30.0
 62
     5
 63
     7
 74
     0
 91
        0
 64
     7
 65
   257
 75
     1
175
     1
 42
1.0
 92
        8
 66
   257
 43
1.0
 76
     1
 77
     6
 78
     2
 67
     7
 79
     3
170
     0
171
     0
290
     0
174
     0
 93
       13
 44
0.0
173
     0
291
     0
 45
0.0
1001
ACAD
1000
AcDbSavedByObjectVersion
1070
     0
  0
VISUALSTYLE
  5
1A4A
102
{ACAD_XDICTIONARY
360
1E19
102
}
102
{ACAD_REACTORS
330
1A35
102
}
330
1A35
100
AcDbVisualStyle
  2
Shaded
 70
    27
 71
     2
 72
     2
 73
     1
 90
        2
 40
-0.6
 41
30.0
 62
     5
 63
     7
 74
     0
 91
        4
 64
     7
 65
   257
 75
     1
175
     1
 42
1.0
 92
        8
 66
   257
 43
1.0
 76
     1
 77
     6
 78
     2
 67
     8
 79
     3
170
     0
171
     0
290
     0
174
     0
 93
        5
 44
0.0
173
     0
291
     0
 45
0.0
1001
ACAD
1000
AcDbSavedByObjectVersion
1070
     0
  0
VISUALSTYLE
  5
1A49
102
{ACAD_XDICTIONARY
360
1E17
102
}
102
{ACAD_REACTORS
330
1A35
102
}
330
1A35
100
AcDbVisualStyle
  2
Shaded with edges
 70
    26
 71
     2
 72
     2
 73
     1
 90
        2
 40
-0.6
 41
30.0
 62
     5
 63
     7
 74
     1
 91
       10
 64
     7
 65
   257
 75
     2
175
     1
 42
1.0
 92
        8
 66
   257
 43
1.0
 76
     1
 77
     6
 78
     2
 67
     7
 79
     3
170
     0
171
     0
290
     0
174
     0
 93
        5
 44
0.0
173
     0
291
     0
 45
0.0
1001
ACAD
1000
AcDbSavedByObjectVersion
1070
     0
  0
VISUALSTYLE
  5
1A46
102
{ACAD_XDICTIONARY
360
1E11
102
}
102
{ACAD_REACTORS
330
1A35
102
}
330
1A35
100
AcDbVisualStyle
  2
Shades of Gray
 70
    23
 71
     2
 72
     2
 73
     3
 90
        0
 40
-0.6
 41
-30.0
 62
     5
 63
     7
 74
     2
 91
        2
 64
     7
 65
     7
 75
     1
175
     1
 42
40.0
 92
        8
 66
     7
 43
1.0
 76
     1
 77
     6
 78
     2
 67
     7
 79
     3
170
     0
171
     0
290
     0
174
     0
 93
        1
 44
0.0
173
     0
291
     0
 45
0.0
1001
ACAD
1000
AcDbSavedByObjectVersion
1070
     0
  0
VISUALSTYLE
  5
1A47
102
{ACAD_XDICTIONARY
360
1E13
102
}
102
{ACAD_REACTORS
330
1A35
102
}
330
1A35
100
AcDbVisualStyle
  2
Sketchy
 70
    24
 71
     1
 72
     2
 73
     2
 90
        0
 40
-0.6
 41
-30.0
 62
     5
 63
     7
 74
     2
 91
        2
 64
     7
 65
     7
 75
     1
175
     1
 42
40.0
 92
       11
 66
     7
 43
1.0
 76
     1
 77
     6
 78
     2
 67
     7
 79
     6
170
     0
171
     0
290
     0
174
     0
 93
        1
 44
0.0
173
     0
291
     0
 45
0.0
1001
ACAD
1000
AcDbSavedByObjectVersion
1070
     0
  0
VISUALSTYLE
  5
1A42
102
{ACAD_XDICTIONARY
360
1E09
102
}
102
{ACAD_REACTORS
330
1A35
102
}
330
1A35
100
AcDbVisualStyle
  2
Thicken
 70
    13
 71
     2
 72
     2
 73
     0
 90
        0
 40
-0.6
 41
-30.0
 62
     5
 63
     7
 74
     1
 91
        4
 64
     7
 65
   257
 75
     1
175
     1
 42
1.0
 92
       12
 66
     7
 43
1.0
 76
     1
 77
     6
 78
     2
 67
     7
 79
     5
170
     0
171
     0
290
     0
174
     0
 93
        1
 44
0.0
173
     0
291
     1
 45
0.0
1001
ACAD
1000
AcDbSavedByObjectVersion
1070
     0
  0
VISUALSTYLE
  5
1A3C
102
{ACAD_XDICTIONARY
360
1DFD
102
}
102
{ACAD_REACTORS
330
1A35
102
}
330
1A35
100
AcDbVisualStyle
  2
Wireframe
 70
     5
 71
     0
 72
     2
 73
     0
 90
        0
 40
-0.6
 41
-30.0
 62
     5
 63
     7
 74
     1
 91
        4
 64
     7
 65
   257
 75
     1
175
     1
 42
1.0
 92
        0
 66
   257
 43
1.0
 76
     1
 77
     6
 78
     2
 67
     7
 79
     3
170
     0
171
     0
290
     0
174
     0
 93
        1
 44
0.0
173
     0
291
     0
 45
0.0
1001
ACAD
1000
AcDbSavedByObjectVersion
1070
     0
  0
VISUALSTYLE
  5
1A48
102
{ACAD_XDICTIONARY
360
1E15
102
}
102
{ACAD_REACTORS
330
1A35
102
}
330
1A35
100
AcDbVisualStyle
  2
X-Ray
 70
    25
 71
     2
 72
     2
 73
     1
 90
        1
 40
0.5
 41
-30.0
 62
     5
 63
     7
 74
     1
 91
        0
 64
     7
 65
   257
 75
     1
175
     1
 42
1.0
 92
        8
 66
     7
 43
1.0
 76
     1
 77
     6
 78
     2
 67
     7
 79
     3
170
     0
171
     0
290
     0
174
     0
 93
       13
 44
0.0
173
     0
291
     0
 45
0.0
1001
ACAD
1000
AcDbSavedByObjectVersion
1070
     0
  0
DICTIONARYVAR
  5
1AD0
102
{ACAD_REACTORS
330
1ACB
102
}
330
1ACB
100
DictionaryVariables
280
     0
  1
1:1
  0
DICTIONARYVAR
  5
1ACD
102
{ACAD_REACTORS
330
1ACB
102
}
330
1ACB
100
DictionaryVariables
280
     0
  1
STANDARD
  0
DICTIONARYVAR
  5
1ACC
102
{ACAD_REACTORS
330
1ACB
102
}
330
1ACB
100
DictionaryVariables
280
     0
  1
STANDARD
  0
DICTIONARYVAR
  5
1ACE
102
{ACAD_REACTORS
330
1ACB
102
}
330
1ACB
100
DictionaryVariables
280
     0
  1
Metric50
  0
DICTIONARYVAR
  5
1ACF
102
{ACAD_REACTORS
330
1ACB
102
}
330
1ACB
100
DictionaryVariables
280
     0
  1
Metric50
  0
DICTIONARYVAR
  5
1AD3
102
{ACAD_REACTORS
330
1ACB
102
}
330
1ACB
100
DictionaryVariables
280
     0
  1
1
  0
DICTIONARYVAR
  5
1AD2
102
{ACAD_REACTORS
330
1ACB
102
}
330
1ACB
100
DictionaryVariables
280
     0
  1
0
  0
DICTIONARYVAR
  5
1AD1
102
{ACAD_REACTORS
330
1ACB
102
}
330
1ACB
100
DictionaryVariables
280
     0
  1
127
  0
DICTIONARYVAR
  5
1DE4
102
{ACAD_REACTORS
330
1ACB
102
}
330
1ACB
100
DictionaryVariables
280
     0
  1
2
  0
XRECORD
  5
1B83
102
{ACAD_XDICTIONARY
360
1B84
102
}
102
{ACAD_REACTORS
330
1B82
102
}
330
1B82
100
AcDbXrecord
280
     1
 91
      535
301

290
     0
302
寸法線
330
1918
 90
        8
 62
     1
370
     5
331
1D1
  1
色_1
440
        0
330
18FB
 90
        8
 62
   112
370
    13
331
8
  1
色_112
440
        0
330
16D5
 90
        8
 62
     3
370
     9
331
8
  1
色_3
440
        0
330
1EE
 90
        0
 62
     7
370
    -3
331
8
  1
色_7
440
        0
330
11
 90
        8
 62
     7
370
    -3
331
8
  1
色_7
440
        0
330
67
 90
        8
 62
     4
370
     5
331
8
  1
色_4
440
        0
330
2E
 90
        8
 62
    31
370
     9
331
8
  1
色_31
440
        0
330
4
 90
        8
 62
     2
370
     9
331
8
  1
色_2
440
        0
330
6A
 90
        8
 62
     7
370
    13
331
8
  1
色_7
440
        0
330
64
 90
        8
 62
     7
370
    -3
331
8
  1
色_7
440
        0
  0
ACDBASSOCNETWORK
  5
1BB4
102
{ACAD_REACTORS
330
1BB3
102
}
330
1BB3
100
AcDbAssocAction
 90
        1
 90
        1
330
1BB6
360
0
 90
        1
 90
        0
 90
        0
100
AcDbAssocNetwork
 90
        0
 90
        2
 90
        2
360
1BB7
360
1D3A
 90
        2
330
1BB7
330
1D3A
  0
XRECORD
  5
1E2A
102
{ACAD_REACTORS
330
1E29
102
}
330
1E29
100
AcDbXrecord
280
     1
1070
     0
1070
     1
1070
     1
  0
XRECORD
  5
1E2D
102
{ACAD_REACTORS
330
1E2C
102
}
330
1E2C
100
AcDbXrecord
280
     1
1070
     0
1070
     1
1070
     1
  0
DICTIONARY
  5
1E26
330
1A68
100
AcDbDictionary
280
     1
281
     1
  3
ACAD_XREC_ROUNDTRIP
360
1E27
  0
DICTIONARY
  5
1DEA
330
82E
100
AcDbDictionary
280
     1
281
     1
  3
ACAD_XREC_ROUNDTRIP
360
1DEB
  0
DICTIONARY
  5
1DEC
330
834
100
AcDbDictionary
280
     1
281
     1
  3
ACAD_XREC_ROUNDTRIP
360
1DED
  0
DICTIONARY
  5
1DE8
330
827
100
AcDbDictionary
280
     1
281
     1
  3
ACAD_XREC_ROUNDTRIP
360
1DE9
  0
DICTIONARY
  5
1A26
330
1A25
100
AcDbDictionary
280
     1
281
     1
  3
ACAD_XREC_ROUNDTRIP
360
1DEF
  3
BUMPTILE
360
1A28
  3
DIFFUSETILE
360
1A27
  3
OPACITYTILE
360
1A2B
  3
REFLECTIONTILE
360
1A2A
  3
REFRACTIONTILE
360
1A2C
  3
SPECULARTILE
360
1A29
  0
DICTIONARY
  5
1A1E
330
1A1D
100
AcDbDictionary
280
     1
281
     1
  3
ACAD_XREC_ROUNDTRIP
360
1DEE
  3
BUMPTILE
360
1A20
  3
DIFFUSETILE
360
1A1F
  3
OPACITYTILE
360
1A23
  3
REFLECTIONTILE
360
1A22
  3
REFRACTIONTILE
360
1A24
  3
SPECULARTILE
360
1A21
  0
DICTIONARY
  5
1A2E
330
1A2D
100
AcDbDictionary
280
     1
281
     1
  3
ACAD_XREC_ROUNDTRIP
360
1DF0
  3
BUMPTILE
360
1A30
  3
DIFFUSETILE
360
1A2F
  3
OPACITYTILE
360
1A33
  3
REFLECTIONTILE
360
1A32
  3
REFRACTIONTILE
360
1A34
  3
SPECULARTILE
360
1A31
  0
DICTIONARY
  5
1E22
330
1A64
100
AcDbDictionary
280
     1
281
     1
  3
ACAD_XREC_ROUNDTRIP
360
1E23
  0
DICTIONARY
  5
1E24
330
1A66
100
AcDbDictionary
280
     1
281
     1
  3
ACAD_XREC_ROUNDTRIP
360
1E25
  0
DICTIONARY
  5
1A84
330
1A50
100
AcDbDictionary
280
     1
281
     1
  3
ACAD_ROUNDTRIP_2008_TABLESTYLE_CELLSTYLEMAP
360
1DE5
  3
ACAD_XREC_ROUNDTRIP
360
1E21
  0
DICTIONARY
  5
1DFB
330
1A3B
100
AcDbDictionary
280
     1
281
     1
  3
ACAD_XREC_ROUNDTRIP
360
1DFC
  0
DICTIONARY
  5
1DF9
330
1A3A
100
AcDbDictionary
280
     1
281
     1
  3
ACAD_XREC_ROUNDTRIP
360
1DFA
  0
DICTIONARY
  5
1E07
330
1A41
100
AcDbDictionary
280
     1
281
     1
  3
ACAD_XREC_ROUNDTRIP
360
1E08
  0
DICTIONARY
  5
1E0F
330
1A45
100
AcDbDictionary
280
     1
281
     1
  3
ACAD_XREC_ROUNDTRIP
360
1E10
  0
DICTIONARY
  5
1E01
330
1A3E
100
AcDbDictionary
280
     1
281
     1
  3
ACAD_XREC_ROUNDTRIP
360
1E02
  0
DICTIONARY
  5
1E05
330
1A40
100
AcDbDictionary
280
     1
281
     1
  3
ACAD_XREC_ROUNDTRIP
360
1E06
  0
DICTIONARY
  5
1E1F
330
1A4D
100
AcDbDictionary
280
     1
281
     1
  3
ACAD_XREC_ROUNDTRIP
360
1E20
  0
DICTIONARY
  5
1E0D
330
1A44
100
AcDbDictionary
280
     1
281
     1
  3
ACAD_XREC_ROUNDTRIP
360
1E0E
  0
DICTIONARY
  5
1DF1
330
1A36
100
AcDbDictionary
280
     1
281
     1
  3
ACAD_XREC_ROUNDTRIP
360
1DF2
  0
DICTIONARY
  5
1DF3
330
1A37
100
AcDbDictionary
280
     1
281
     1
  3
ACAD_XREC_ROUNDTRIP
360
1DF4
  0
DICTIONARY
  5
1DF5
330
1A38
100
AcDbDictionary
280
     1
281
     1
  3
ACAD_XREC_ROUNDTRIP
360
1DF6
  0
DICTIONARY
  5
1DF7
330
1A39
100
AcDbDictionary
280
     1
281
     1
  3
ACAD_XREC_ROUNDTRIP
360
1DF8
  0
DICTIONARY
  5
1DFF
330
1A3D
100
AcDbDictionary
280
     1
281
     1
  3
ACAD_XREC_ROUNDTRIP
360
1E00
  0
DICTIONARY
  5
1E1B
330
1A4B
100
AcDbDictionary
280
     1
281
     1
  3
ACAD_XREC_ROUNDTRIP
360
1E1C
  0
DICTIONARY
  5
1E0B
330
1A43
100
AcDbDictionary
280
     1
281
     1
  3
ACAD_XREC_ROUNDTRIP
360
1E0C
  0
DICTIONARY
  5
1E1D
330
1A4C
100
AcDbDictionary
280
     1
281
     1
  3
ACAD_XREC_ROUNDTRIP
360
1E1E
  0
DICTIONARY
  5
1E03
330
1A3F
100
AcDbDictionary
280
     1
281
     1
  3
ACAD_XREC_ROUNDTRIP
360
1E04
  0
DICTIONARY
  5
1E19
330
1A4A
100
AcDbDictionary
280
     1
281
     1
  3
ACAD_XREC_ROUNDTRIP
360
1E1A
  0
DICTIONARY
  5
1E17
330
1A49
100
AcDbDictionary
280
     1
281
     1
  3
ACAD_XREC_ROUNDTRIP
360
1E18
  0
DICTIONARY
  5
1E11
330
1A46
100
AcDbDictionary
280
     1
281
     1
  3
ACAD_XREC_ROUNDTRIP
360
1E12
  0
DICTIONARY
  5
1E13
330
1A47
100
AcDbDictionary
280
     1
281
     1
  3
ACAD_XREC_ROUNDTRIP
360
1E14
  0
DICTIONARY
  5
1E09
330
1A42
100
AcDbDictionary
280
     1
281
     1
  3
ACAD_XREC_ROUNDTRIP
360
1E0A
  0
DICTIONARY
  5
1DFD
330
1A3C
100
AcDbDictionary
280
     1
281
     1
  3
ACAD_XREC_ROUNDTRIP
360
1DFE
  0
DICTIONARY
  5
1E15
330
1A48
100
AcDbDictionary
280
     1
281
     1
  3
ACAD_XREC_ROUNDTRIP
360
1E16
  0
DICTIONARY
  5
1B84
330
1B83
100
AcDbDictionary
280
     1
281
     1
  3
AcadLayerStateAnnoScale
360
1B85
  0
ACDBASSOCACTION
  5
1BB7
330
1BB4
100
AcDbAssocAction
 90
        1
 90
        1
330
1BB4
360
1BB8
 90
        1
 90
        3
 90
        3
360
1BBB
360
1BBC
360
1BBD
  0
ACDBASSOCACTION
  5
1D3A
330
1BB4
100
AcDbAssocAction
 90
        1
 90
        1
330
1BB4
360
1D3B
 90
        2
 90
        3
 90
        3
360
1D3E
360
1D3F
360
1D40
  0
XRECORD
  5
1E27
102
{ACAD_REACTORS
330
1E26
102
}
330
1E26
100
AcDbXrecord
280
     1
102
DISPLAYNAME
  1
Metric50
102
FLAGS
 90
        0
  0
XRECORD
  5
1DEB
102
{ACAD_REACTORS
330
1DEA
102
}
330
1DEA
100
AcDbXrecord
280
     1
102
SHADEPLOT
 70
     0
102
SHADEPLOTRESLEVEL
 70
     2
102
SHADEPLOTCUSTOMDPI
 70
   300
  0
XRECORD
  5
1DED
102
{ACAD_REACTORS
330
1DEC
102
}
330
1DEC
100
AcDbXrecord
280
     1
102
SHADEPLOT
 70
     0
102
SHADEPLOTRESLEVEL
 70
     2
102
SHADEPLOTCUSTOMDPI
 70
   300
  0
XRECORD
  5
1DE9
102
{ACAD_REACTORS
330
1DE8
102
}
330
1DE8
100
AcDbXrecord
280
     1
102
SHADEPLOT
 70
     0
102
SHADEPLOTRESLEVEL
 70
     2
102
SHADEPLOTCUSTOMDPI
 70
   300
  0
XRECORD
  5
1DEF
102
{ACAD_REACTORS
330
1A26
102
}
330
1A26
100
AcDbXrecord
280
     1
102
MATERIAL
148
0.0
149
0.0
149
0.0
 93
        0
 94
      127
282
     0
 72
     0
 77
     0
171
     0
175
     0
179
     0
273
     0
  0
XRECORD
  5
1A28
102
{ACAD_REACTORS
330
1A26
102
}
330
1A26
100
AcDbXrecord
280
     1
270
     1
271
     1
  0
XRECORD
  5
1A27
102
{ACAD_REACTORS
330
1A26
102
}
330
1A26
100
AcDbXrecord
280
     1
270
     1
271
     1
  0
XRECORD
  5
1A2B
102
{ACAD_REACTORS
330
1A26
102
}
330
1A26
100
AcDbXrecord
280
     1
270
     1
271
     1
  0
XRECORD
  5
1A2A
102
{ACAD_REACTORS
330
1A26
102
}
330
1A26
100
AcDbXrecord
280
     1
270
     1
271
     1
  0
XRECORD
  5
1A2C
102
{ACAD_REACTORS
330
1A26
102
}
330
1A26
100
AcDbXrecord
280
     1
270
     1
271
     1
  0
XRECORD
  5
1A29
102
{ACAD_REACTORS
330
1A26
102
}
330
1A26
100
AcDbXrecord
280
     1
270
     1
271
     1
  0
XRECORD
  5
1DEE
102
{ACAD_REACTORS
330
1A1E
102
}
330
1A1E
100
AcDbXrecord
280
     1
102
MATERIAL
148
0.0
149
0.0
149
0.0
 93
        0
 94
      127
282
     0
 72
     0
 77
     0
171
     0
175
     0
179
     0
273
     0
  0
XRECORD
  5
1A20
102
{ACAD_REACTORS
330
1A1E
102
}
330
1A1E
100
AcDbXrecord
280
     1
270
     1
271
     1
  0
XRECORD
  5
1A1F
102
{ACAD_REACTORS
330
1A1E
102
}
330
1A1E
100
AcDbXrecord
280
     1
270
     1
271
     1
  0
XRECORD
  5
1A23
102
{ACAD_REACTORS
330
1A1E
102
}
330
1A1E
100
AcDbXrecord
280
     1
270
     1
271
     1
  0
XRECORD
  5
1A22
102
{ACAD_REACTORS
330
1A1E
102
}
330
1A1E
100
AcDbXrecord
280
     1
270
     1
271
     1
  0
XRECORD
  5
1A24
102
{ACAD_REACTORS
330
1A1E
102
}
330
1A1E
100
AcDbXrecord
280
     1
270
     1
271
     1
  0
XRECORD
  5
1A21
102
{ACAD_REACTORS
330
1A1E
102
}
330
1A1E
100
AcDbXrecord
280
     1
270
     1
271
     1
  0
XRECORD
  5
1DF0
102
{ACAD_REACTORS
330
1A2E
102
}
330
1A2E
100
AcDbXrecord
280
     1
102
MATERIAL
148
0.0
149
0.0
149
0.0
 93
        0
 94
      127
282
     0
 72
     0
 77
     0
171
     0
175
     0
179
     0
273
     0
  0
XRECORD
  5
1A30
102
{ACAD_REACTORS
330
1A2E
102
}
330
1A2E
100
AcDbXrecord
280
     1
270
     1
271
     1
  0
XRECORD
  5
1A2F
102
{ACAD_REACTORS
330
1A2E
102
}
330
1A2E
100
AcDbXrecord
280
     1
270
     1
271
     1
  0
XRECORD
  5
1A33
102
{ACAD_REACTORS
330
1A2E
102
}
330
1A2E
100
AcDbXrecord
280
     1
270
     1
271
     1
  0
XRECORD
  5
1A32
102
{ACAD_REACTORS
330
1A2E
102
}
330
1A2E
100
AcDbXrecord
280
     1
270
     1
271
     1
  0
XRECORD
  5
1A34
102
{ACAD_REACTORS
330
1A2E
102
}
330
1A2E
100
AcDbXrecord
280
     1
270
     1
271
     1
  0
XRECORD
  5
1A31
102
{ACAD_REACTORS
330
1A2E
102
}
330
1A2E
100
AcDbXrecord
280
     1
270
     1
271
     1
  0
XRECORD
  5
1E23
102
{ACAD_REACTORS
330
1E22
102
}
330
1E22
100
AcDbXrecord
280
     1
102
ACAD_ROUNDTRIP_2012_MLEADER_STYLE
298
     1
  0
XRECORD
  5
1E25
102
{ACAD_REACTORS
330
1E24
102
}
330
1E24
100
AcDbXrecord
280
     1
102
DISPLAYNAME
  1
Metric50
102
FLAGS
 90
        0
  0
CELLSTYLEMAP
  5
1DE5
102
{ACAD_REACTORS
330
1A84
102
}
330
1A84
100
AcDbCellStyleMap
 90
        3
300
CELLSTYLE
  1
TABLEFORMAT_BEGIN
 90
        5
170
     1
 91
        0
 92
    32768
 62
   257
 93
        1
300
CONTENTFORMAT
  1
CONTENTFORMAT_BEGIN
 90
        0
 91
        0
 92
      512
 93
        0
300

 40
0.0
140
1.0
 94
        5
 62
     0
340
9
144
6.0
309
CONTENTFORMAT_END
171
     1
301
MARGIN
  1
CELLMARGIN_BEGIN
 40
1.5
 40
1.5
 40
1.5
 40
1.5
 40
4.5
 40
4.5
309
CELLMARGIN_END
 94
        6
 95
        1
302
GRIDFORMAT
  1
GRIDFORMAT_BEGIN
 90
        0
 91
        1
 62
     0
 92
       -2
340
0
 93
        0
 40
1.125
309
GRIDFORMAT_END
 95
        2
302
GRIDFORMAT
  1
GRIDFORMAT_BEGIN
 90
        0
 91
        1
 62
     0
 92
       -2
340
0
 93
        0
 40
1.125
309
GRIDFORMAT_END
 95
        4
302
GRIDFORMAT
  1
GRIDFORMAT_BEGIN
 90
        0
 91
        1
 62
     0
 92
       -2
340
0
 93
        0
 40
1.125
309
GRIDFORMAT_END
 95
        8
302
GRIDFORMAT
  1
GRIDFORMAT_BEGIN
 90
        0
 91
        1
 62
     0
 92
       -2
340
0
 93
        0
 40
1.125
309
GRIDFORMAT_END
 95
       16
302
GRIDFORMAT
  1
GRIDFORMAT_BEGIN
 90
        0
 91
        1
 62
     0
 92
       -2
340
0
 93
        0
 40
1.125
309
GRIDFORMAT_END
 95
       32
302
GRIDFORMAT
  1
GRIDFORMAT_BEGIN
 90
        0
 91
        1
 62
     0
 92
       -2
340
0
 93
        0
 40
1.125
309
GRIDFORMAT_END
309
TABLEFORMAT_END
  1
CELLSTYLE_BEGIN
 90
        1
 91
        1
300
_TITLE
309
CELLSTYLE_END
300
CELLSTYLE
  1
TABLEFORMAT_BEGIN
 90
        5
170
     1
 91
        0
 92
        0
 62
   257
 93
        1
300
CONTENTFORMAT
  1
CONTENTFORMAT_BEGIN
 90
        0
 91
        0
 92
      512
 93
        0
300

 40
0.0
140
1.0
 94
        5
 62
     0
340
9
144
4.5
309
CONTENTFORMAT_END
171
     1
301
MARGIN
  1
CELLMARGIN_BEGIN
 40
1.5
 40
1.5
 40
1.5
 40
1.5
 40
4.5
 40
4.5
309
CELLMARGIN_END
 94
        6
 95
        1
302
GRIDFORMAT
  1
GRIDFORMAT_BEGIN
 90
        0
 91
        1
 62
     0
 92
       -2
340
0
 93
        0
 40
1.125
309
GRIDFORMAT_END
 95
        2
302
GRIDFORMAT
  1
GRIDFORMAT_BEGIN
 90
        0
 91
        1
 62
     0
 92
       -2
340
0
 93
        0
 40
1.125
309
GRIDFORMAT_END
 95
        4
302
GRIDFORMAT
  1
GRIDFORMAT_BEGIN
 90
        0
 91
        1
 62
     0
 92
       -2
340
0
 93
        0
 40
1.125
309
GRIDFORMAT_END
 95
        8
302
GRIDFORMAT
  1
GRIDFORMAT_BEGIN
 90
        0
 91
        1
 62
     0
 92
       -2
340
0
 93
        0
 40
1.125
309
GRIDFORMAT_END
 95
       16
302
GRIDFORMAT
  1
GRIDFORMAT_BEGIN
 90
        0
 91
        1
 62
     0
 92
       -2
340
0
 93
        0
 40
1.125
309
GRIDFORMAT_END
 95
       32
302
GRIDFORMAT
  1
GRIDFORMAT_BEGIN
 90
        0
 91
        1
 62
     0
 92
       -2
340
0
 93
        0
 40
1.125
309
GRIDFORMAT_END
309
TABLEFORMAT_END
  1
CELLSTYLE_BEGIN
 90
        2
 91
        1
300
_HEADER
309
CELLSTYLE_END
300
CELLSTYLE
  1
TABLEFORMAT_BEGIN
 90
        5
170
     1
 91
        0
 92
        0
 62
   257
 93
        1
300
CONTENTFORMAT
  1
CONTENTFORMAT_BEGIN
 90
        0
 91
        0
 92
      512
 93
        0
300

 40
0.0
140
1.0
 94
        2
 62
     0
340
9
144
4.5
309
CONTENTFORMAT_END
171
     1
301
MARGIN
  1
CELLMARGIN_BEGIN
 40
1.5
 40
1.5
 40
1.5
 40
1.5
 40
4.5
 40
4.5
309
CELLMARGIN_END
 94
        6
 95
        1
302
GRIDFORMAT
  1
GRIDFORMAT_BEGIN
 90
        0
 91
        1
 62
     0
 92
       -2
340
0
 93
        0
 40
1.125
309
GRIDFORMAT_END
 95
        2
302
GRIDFORMAT
  1
GRIDFORMAT_BEGIN
 90
        0
 91
        1
 62
     0
 92
       -2
340
0
 93
        0
 40
1.125
309
GRIDFORMAT_END
 95
        4
302
GRIDFORMAT
  1
GRIDFORMAT_BEGIN
 90
        0
 91
        1
 62
     0
 92
       -2
340
0
 93
        0
 40
1.125
309
GRIDFORMAT_END
 95
        8
302
GRIDFORMAT
  1
GRIDFORMAT_BEGIN
 90
        0
 91
        1
 62
     0
 92
       -2
340
0
 93
        0
 40
1.125
309
GRIDFORMAT_END
 95
       16
302
GRIDFORMAT
  1
GRIDFORMAT_BEGIN
 90
        0
 91
        1
 62
     0
 92
       -2
340
0
 93
        0
 40
1.125
309
GRIDFORMAT_END
 95
       32
302
GRIDFORMAT
  1
GRIDFORMAT_BEGIN
 90
        0
 91
        1
 62
     0
 92
       -2
340
0
 93
        0
 40
1.125
309
GRIDFORMAT_END
309
TABLEFORMAT_END
  1
CELLSTYLE_BEGIN
 90
        3
 91
        2
300
_DATA
309
CELLSTYLE_END
  0
XRECORD
  5
1E21
102
{ACAD_REACTORS
330
1A84
102
}
330
1A84
100
AcDbXrecord
280
     1
102
ACAD_ROUNDTRIP_PRE2007_TABLESTYLE
 90
      512
 91
        0
  1

 92
      512
 93
        0
  2

 94
      512
 95
        0
  3

  0
XRECORD
  5
1DFC
102
{ACAD_REACTORS
330
1DFB
102
}
330
1DFB
100
AcDbXrecord
280
     1
102
RTVSPost2010Prop28
280
     1
102
RTVSPost2010PropOp28
 70
     1
102
RTVSPost2010Prop29
280
     1
102
RTVSPost2010PropOp29
 70
     1
102
RTVSPost2010Prop30
280
     0
102
RTVSPost2010PropOp30
 70
     1
102
RTVSPost2010Prop31
280
     0
102
RTVSPost2010PropOp31
 70
     1
102
RTVSPost2010Prop32
280
     0
102
RTVSPost2010PropOp32
 70
     1
102
RTVSPost2010Prop33
280
     0
102
RTVSPost2010PropOp33
 70
     1
102
RTVSPost2010Prop34
280
     0
102
RTVSPost2010PropOp34
 70
     1
102
RTVSPost2010Prop35
280
     0
102
RTVSPost2010PropOp35
 70
     1
102
RTVSPost2010Prop36
280
     0
102
RTVSPost2010PropOp36
 70
     1
102
RTVSPost2010Prop37
 90
       50
102
RTVSPost2010PropOp37
 70
     1
102
RTVSPost2010Prop38
140
0.0
102
RTVSPost2010PropOp38
 70
     1
102
RTVSPost2010Prop39
140
1.0
102
RTVSPost2010PropOp39
 70
     1
102
RTVSPost2010Prop40
 90
        0
102
RTVSPost2010PropOp40
 70
     1
102
RTVSPost2010Prop41ColorIndex
 90
       18
102
RTVSPost2010Prop41ColorRGB
 90
        0
102
RTVSPost2010PropOp41
 70
     1
102
RTVSPost2010Prop42
 90
       50
102
RTVSPost2010PropOp42
 70
     1
102
RTVSPost2010Prop43
 90
        3
102
RTVSPost2010PropOp43
 70
     1
102
RTVSPost2010Prop44ColorIndex
 90
        5
102
RTVSPost2010Prop44ColorRGB
 90
      255
102
RTVSPost2010PropOp44
 70
     1
102
RTVSPost2010Prop45
280
     0
102
RTVSPost2010PropOp45
 70
     1
102
RTVSPost2010Prop46
 90
       50
102
RTVSPost2010PropOp46
 70
     1
102
RTVSPost2010Prop47
 90
       50
102
RTVSPost2010PropOp47
 70
     1
102
RTVSPost2010Prop48
 90
       50
102
RTVSPost2010PropOp48
 70
     1
102
RTVSPost2010Prop49
280
     0
102
RTVSPost2010PropOp49
 70
     1
102
RTVSPost2010Prop50
 90
       50
102
RTVSPost2010PropOp50
 70
     1
102
RTVSPost2010Prop51ColorIndex
 90
      256
102
RTVSPost2010Prop51ColorRGB
 90
-16777216
102
RTVSPost2010PropOp51
 70
     0
102
RTVSPost2010Prop52
140
1.0
102
RTVSPost2010PropOp52
 70
     0
102
RTVSPost2010Prop53
 90
        2
102
RTVSPost2010PropOp53
 70
     1
102
RTVSPost2010Prop54
  1
strokes_ogs.tif
102
RTVSPost2010PropOp54
 70
     1
102
RTVSPost2010Prop55
280
     0
102
RTVSPost2010PropOp55
 70
     1
102
RTVSPost2010Prop56
140
1.0
102
RTVSPost2010PropOp56
 70
     1
102
RTVSPost2010Prop57
140
1.0
102
RTVSPost2010PropOp57
 70
     1
102
RTVSPropertyOp0
 70
     1
102
RTVSPropertyOp1
 70
     1
102
RTVSPropertyOp2
 70
     1
102
RTVSPropertyOp3
 70
     1
102
RTVSPropertyOp4
 70
     1
102
RTVSPropertyOp5
 70
     1
102
RTVSPropertyOp6
 70
     1
102
RTVSPropertyOp7
 70
     1
102
RTVSPropertyOp8
 70
     1
102
RTVSPropertyOp9
 70
     1
102
RTVSPropertyOp10
 70
     1
102
RTVSPropertyOp11
 70
     1
102
RTVSPropertyOp12
 70
     1
102
RTVSPropertyOp13
 70
     1
102
RTVSPropertyOp14
 70
     1
102
RTVSPropertyOp15
 70
     1
102
RTVSPropertyOp16
 70
     1
102
RTVSPropertyOp17
 70
     1
102
RTVSPropertyOp18
 70
     1
102
RTVSPropertyOp19
 70
     1
102
RTVSPropertyOp20
 70
     1
102
RTVSPropertyOp21
 70
     1
102
RTVSPropertyOp22
 70
     1
102
RTVSPropertyOp23
 70
     1
102
RTVSPropertyOp24
 70
     1
102
RTVSPropertyOp25
 70
     1
102
RTVSPropertyOp26
 70
     1
102
RTVSPropertyOp27
 70
     1
102
RTVSPropertyOp28
 70
     1
102
RTVSPropertyOp29
 70
     1
102
RTVSPropertyOp30
 70
     1
102
RTVSPropertyOp31
 70
     1
102
RTVSPropertyOp32
 70
     1
102
RTVSPropertyOp33
 70
     1
102
RTVSPropertyOp34
 70
     1
102
RTVSPropertyOp35
 70
     1
102
RTVSPropertyOp36
 70
     1
102
RTVSPropertyOp37
 70
     1
102
RTVSPropertyOp38
 70
     1
102
RTVSPropertyOp39
 70
     1
102
RTVSPropertyOp40
 70
     1
102
RTVSPropertyOp41
 70
     1
102
RTVSPropertyOp42
 70
     1
102
RTVSPropertyOp43
 70
     1
102
RTVSPropertyOp44
 70
     1
102
RTVSPropertyOp45
 70
     1
102
RTVSPropertyOp46
 70
     1
102
RTVSPropertyOp47
 70
     1
102
RTVSPropertyOp48
 70
     1
102
RTVSPropertyOp49
 70
     1
102
RTVSPropertyOp50
 70
     1
102
RTVSPropertyOp51
 70
     0
102
RTVSPropertyOp52
 70
     0
102
RTVSPropertyOp53
 70
     1
102
RTVSPropertyOp54
 70
     1
102
RTVSPropertyOp55
 70
     1
102
RTVSPropertyOp56
 70
     1
102
RTVSPropertyOp57
 70
     1
102
RTVSPropertyOp58
 70
     1
102
RTVSPropertyOp59
 70
     1
102
RTVSPropertyOp60
 70
     1
102
RTVSPropertyOp61
 70
     1
102
RTVSPropertyOp62
 70
     1
  0
XRECORD
  5
1DFA
102
{ACAD_REACTORS
330
1DF9
102
}
330
1DF9
100
AcDbXrecord
280
     1
102
RTVSPost2010Prop28
280
     0
102
RTVSPost2010PropOp28
 70
     1
102
RTVSPost2010Prop29
280
     1
102
RTVSPost2010PropOp29
 70
     1
102
RTVSPost2010Prop30
280
     1
102
RTVSPost2010PropOp30
 70
     1
102
RTVSPost2010Prop31
280
     0
102
RTVSPost2010PropOp31
 70
     1
102
RTVSPost2010Prop32
280
     0
102
RTVSPost2010PropOp32
 70
     1
102
RTVSPost2010Prop33
280
     0
102
RTVSPost2010PropOp33
 70
     1
102
RTVSPost2010Prop34
280
     0
102
RTVSPost2010PropOp34
 70
     1
102
RTVSPost2010Prop35
280
     0
102
RTVSPost2010PropOp35
 70
     1
102
RTVSPost2010Prop36
280
     0
102
RTVSPost2010PropOp36
 70
     1
102
RTVSPost2010Prop37
 90
       50
102
RTVSPost2010PropOp37
 70
     1
102
RTVSPost2010Prop38
140
0.0
102
RTVSPost2010PropOp38
 70
     1
102
RTVSPost2010Prop39
140
1.0
102
RTVSPost2010PropOp39
 70
     1
102
RTVSPost2010Prop40
 90
        0
102
RTVSPost2010PropOp40
 70
     1
102
RTVSPost2010Prop41ColorIndex
 90
       18
102
RTVSPost2010Prop41ColorRGB
 90
        0
102
RTVSPost2010PropOp41
 70
     1
102
RTVSPost2010Prop42
 90
       50
102
RTVSPost2010PropOp42
 70
     1
102
RTVSPost2010Prop43
 90
        3
102
RTVSPost2010PropOp43
 70
     1
102
RTVSPost2010Prop44ColorIndex
 90
        5
102
RTVSPost2010Prop44ColorRGB
 90
      255
102
RTVSPost2010PropOp44
 70
     1
102
RTVSPost2010Prop45
280
     0
102
RTVSPost2010PropOp45
 70
     1
102
RTVSPost2010Prop46
 90
       50
102
RTVSPost2010PropOp46
 70
     1
102
RTVSPost2010Prop47
 90
       50
102
RTVSPost2010PropOp47
 70
     1
102
RTVSPost2010Prop48
 90
       50
102
RTVSPost2010PropOp48
 70
     1
102
RTVSPost2010Prop49
280
     0
102
RTVSPost2010PropOp49
 70
     1
102
RTVSPost2010Prop50
 90
       50
102
RTVSPost2010PropOp50
 70
     1
102
RTVSPost2010Prop51ColorIndex
 90
      256
102
RTVSPost2010Prop51ColorRGB
 90
-16777216
102
RTVSPost2010PropOp51
 70
     0
102
RTVSPost2010Prop52
140
1.0
102
RTVSPost2010PropOp52
 70
     0
102
RTVSPost2010Prop53
 90
        2
102
RTVSPost2010PropOp53
 70
     1
102
RTVSPost2010Prop54
  1
strokes_ogs.tif
102
RTVSPost2010PropOp54
 70
     1
102
RTVSPost2010Prop55
280
     0
102
RTVSPost2010PropOp55
 70
     1
102
RTVSPost2010Prop56
140
1.0
102
RTVSPost2010PropOp56
 70
     1
102
RTVSPost2010Prop57
140
1.0
102
RTVSPost2010PropOp57
 70
     1
102
RTVSPropertyOp0
 70
     1
102
RTVSPropertyOp1
 70
     1
102
RTVSPropertyOp2
 70
     1
102
RTVSPropertyOp3
 70
     1
102
RTVSPropertyOp4
 70
     1
102
RTVSPropertyOp5
 70
     1
102
RTVSPropertyOp6
 70
     1
102
RTVSPropertyOp7
 70
     1
102
RTVSPropertyOp8
 70
     1
102
RTVSPropertyOp9
 70
     1
102
RTVSPropertyOp10
 70
     1
102
RTVSPropertyOp11
 70
     1
102
RTVSPropertyOp12
 70
     1
102
RTVSPropertyOp13
 70
     1
102
RTVSPropertyOp14
 70
     1
102
RTVSPropertyOp15
 70
     1
102
RTVSPropertyOp16
 70
     1
102
RTVSPropertyOp17
 70
     1
102
RTVSPropertyOp18
 70
     1
102
RTVSPropertyOp19
 70
     1
102
RTVSPropertyOp20
 70
     1
102
RTVSPropertyOp21
 70
     1
102
RTVSPropertyOp22
 70
     1
102
RTVSPropertyOp23
 70
     1
102
RTVSPropertyOp24
 70
     1
102
RTVSPropertyOp25
 70
     1
102
RTVSPropertyOp26
 70
     1
102
RTVSPropertyOp27
 70
     1
102
RTVSPropertyOp28
 70
     1
102
RTVSPropertyOp29
 70
     1
102
RTVSPropertyOp30
 70
     1
102
RTVSPropertyOp31
 70
     1
102
RTVSPropertyOp32
 70
     1
102
RTVSPropertyOp33
 70
     1
102
RTVSPropertyOp34
 70
     1
102
RTVSPropertyOp35
 70
     1
102
RTVSPropertyOp36
 70
     1
102
RTVSPropertyOp37
 70
     1
102
RTVSPropertyOp38
 70
     1
102
RTVSPropertyOp39
 70
     1
102
RTVSPropertyOp40
 70
     1
102
RTVSPropertyOp41
 70
     1
102
RTVSPropertyOp42
 70
     1
102
RTVSPropertyOp43
 70
     1
102
RTVSPropertyOp44
 70
     1
102
RTVSPropertyOp45
 70
     1
102
RTVSPropertyOp46
 70
     1
102
RTVSPropertyOp47
 70
     1
102
RTVSPropertyOp48
 70
     1
102
RTVSPropertyOp49
 70
     1
102
RTVSPropertyOp50
 70
     1
102
RTVSPropertyOp51
 70
     0
102
RTVSPropertyOp52
 70
     0
102
RTVSPropertyOp53
 70
     1
102
RTVSPropertyOp54
 70
     1
102
RTVSPropertyOp55
 70
     1
102
RTVSPropertyOp56
 70
     1
102
RTVSPropertyOp57
 70
     1
102
RTVSPropertyOp58
 70
     1
102
RTVSPropertyOp59
 70
     1
102
RTVSPropertyOp60
 70
     1
102
RTVSPropertyOp61
 70
     1
102
RTVSPropertyOp62
 70
     1
  0
XRECORD
  5
1E08
102
{ACAD_REACTORS
330
1E07
102
}
330
1E07
100
AcDbXrecord
280
     1
102
RTVSPost2010Prop28
280
     0
102
RTVSPost2010PropOp28
 70
     1
102
RTVSPost2010Prop29
280
     1
102
RTVSPost2010PropOp29
 70
     1
102
RTVSPost2010Prop30
280
     1
102
RTVSPost2010PropOp30
 70
     1
102
RTVSPost2010Prop31
280
     0
102
RTVSPost2010PropOp31
 70
     1
102
RTVSPost2010Prop32
280
     0
102
RTVSPost2010PropOp32
 70
     1
102
RTVSPost2010Prop33
280
     0
102
RTVSPost2010PropOp33
 70
     1
102
RTVSPost2010Prop34
280
     0
102
RTVSPost2010PropOp34
 70
     1
102
RTVSPost2010Prop35
280
     0
102
RTVSPost2010PropOp35
 70
     1
102
RTVSPost2010Prop36
280
     0
102
RTVSPost2010PropOp36
 70
     1
102
RTVSPost2010Prop37
 90
       50
102
RTVSPost2010PropOp37
 70
     1
102
RTVSPost2010Prop38
140
0.0
102
RTVSPost2010PropOp38
 70
     1
102
RTVSPost2010Prop39
140
1.0
102
RTVSPost2010PropOp39
 70
     1
102
RTVSPost2010Prop40
 90
        0
102
RTVSPost2010PropOp40
 70
     1
102
RTVSPost2010Prop41ColorIndex
 90
       18
102
RTVSPost2010Prop41ColorRGB
 90
        0
102
RTVSPost2010PropOp41
 70
     1
102
RTVSPost2010Prop42
 90
       50
102
RTVSPost2010PropOp42
 70
     1
102
RTVSPost2010Prop43
 90
        3
102
RTVSPost2010PropOp43
 70
     1
102
RTVSPost2010Prop44ColorIndex
 90
        5
102
RTVSPost2010Prop44ColorRGB
 90
      255
102
RTVSPost2010PropOp44
 70
     1
102
RTVSPost2010Prop45
280
     0
102
RTVSPost2010PropOp45
 70
     1
102
RTVSPost2010Prop46
 90
       50
102
RTVSPost2010PropOp46
 70
     1
102
RTVSPost2010Prop47
 90
       50
102
RTVSPost2010PropOp47
 70
     1
102
RTVSPost2010Prop48
 90
       50
102
RTVSPost2010PropOp48
 70
     1
102
RTVSPost2010Prop49
280
     0
102
RTVSPost2010PropOp49
 70
     1
102
RTVSPost2010Prop50
 90
       50
102
RTVSPost2010PropOp50
 70
     1
102
RTVSPost2010Prop51ColorIndex
 90
      256
102
RTVSPost2010Prop51ColorRGB
 90
-16777216
102
RTVSPost2010PropOp51
 70
     0
102
RTVSPost2010Prop52
140
1.0
102
RTVSPost2010PropOp52
 70
     0
102
RTVSPost2010Prop53
 90
        2
102
RTVSPost2010PropOp53
 70
     1
102
RTVSPost2010Prop54
  1
strokes_ogs.tif
102
RTVSPost2010PropOp54
 70
     1
102
RTVSPost2010Prop55
280
     0
102
RTVSPost2010PropOp55
 70
     1
102
RTVSPost2010Prop56
140
1.0
102
RTVSPost2010PropOp56
 70
     1
102
RTVSPost2010Prop57
140
1.0
102
RTVSPost2010PropOp57
 70
     1
102
RTVSPropertyOp0
 70
     1
102
RTVSPropertyOp1
 70
     1
102
RTVSPropertyOp2
 70
     1
102
RTVSPropertyOp3
 70
     1
102
RTVSPropertyOp4
 70
     1
102
RTVSPropertyOp5
 70
     1
102
RTVSPropertyOp6
 70
     1
102
RTVSPropertyOp7
 70
     1
102
RTVSPropertyOp8
 70
     1
102
RTVSPropertyOp9
 70
     1
102
RTVSPropertyOp10
 70
     1
102
RTVSPropertyOp11
 70
     1
102
RTVSPropertyOp12
 70
     1
102
RTVSPropertyOp13
 70
     1
102
RTVSPropertyOp14
 70
     1
102
RTVSPropertyOp15
 70
     1
102
RTVSPropertyOp16
 70
     1
102
RTVSPropertyOp17
 70
     1
102
RTVSPropertyOp18
 70
     1
102
RTVSPropertyOp19
 70
     1
102
RTVSPropertyOp20
 70
     1
102
RTVSPropertyOp21
 70
     1
102
RTVSPropertyOp22
 70
     1
102
RTVSPropertyOp23
 70
     1
102
RTVSPropertyOp24
 70
     1
102
RTVSPropertyOp25
 70
     1
102
RTVSPropertyOp26
 70
     1
102
RTVSPropertyOp27
 70
     1
102
RTVSPropertyOp28
 70
     1
102
RTVSPropertyOp29
 70
     1
102
RTVSPropertyOp30
 70
     1
102
RTVSPropertyOp31
 70
     1
102
RTVSPropertyOp32
 70
     1
102
RTVSPropertyOp33
 70
     1
102
RTVSPropertyOp34
 70
     1
102
RTVSPropertyOp35
 70
     1
102
RTVSPropertyOp36
 70
     1
102
RTVSPropertyOp37
 70
     1
102
RTVSPropertyOp38
 70
     1
102
RTVSPropertyOp39
 70
     1
102
RTVSPropertyOp40
 70
     1
102
RTVSPropertyOp41
 70
     1
102
RTVSPropertyOp42
 70
     1
102
RTVSPropertyOp43
 70
     1
102
RTVSPropertyOp44
 70
     1
102
RTVSPropertyOp45
 70
     1
102
RTVSPropertyOp46
 70
     1
102
RTVSPropertyOp47
 70
     1
102
RTVSPropertyOp48
 70
     1
102
RTVSPropertyOp49
 70
     1
102
RTVSPropertyOp50
 70
     1
102
RTVSPropertyOp51
 70
     0
102
RTVSPropertyOp52
 70
     0
102
RTVSPropertyOp53
 70
     1
102
RTVSPropertyOp54
 70
     1
102
RTVSPropertyOp55
 70
     1
102
RTVSPropertyOp56
 70
     1
102
RTVSPropertyOp57
 70
     1
102
RTVSPropertyOp58
 70
     1
102
RTVSPropertyOp59
 70
     1
102
RTVSPropertyOp60
 70
     1
102
RTVSPropertyOp61
 70
     1
102
RTVSPropertyOp62
 70
     1
  0
XRECORD
  5
1E10
102
{ACAD_REACTORS
330
1E0F
102
}
330
1E0F
100
AcDbXrecord
280
     1
102
RTVSPost2010Prop28
280
     0
102
RTVSPost2010PropOp28
 70
     1
102
RTVSPost2010Prop29
280
     1
102
RTVSPost2010PropOp29
 70
     1
102
RTVSPost2010Prop30
280
     1
102
RTVSPost2010PropOp30
 70
     1
102
RTVSPost2010Prop31
280
     0
102
RTVSPost2010PropOp31
 70
     1
102
RTVSPost2010Prop32
280
     0
102
RTVSPost2010PropOp32
 70
     1
102
RTVSPost2010Prop33
280
     0
102
RTVSPost2010PropOp33
 70
     1
102
RTVSPost2010Prop34
280
     0
102
RTVSPost2010PropOp34
 70
     1
102
RTVSPost2010Prop35
280
     0
102
RTVSPost2010PropOp35
 70
     1
102
RTVSPost2010Prop36
280
     0
102
RTVSPost2010PropOp36
 70
     1
102
RTVSPost2010Prop37
 90
       50
102
RTVSPost2010PropOp37
 70
     1
102
RTVSPost2010Prop38
140
0.0
102
RTVSPost2010PropOp38
 70
     1
102
RTVSPost2010Prop39
140
1.0
102
RTVSPost2010PropOp39
 70
     1
102
RTVSPost2010Prop40
 90
        0
102
RTVSPost2010PropOp40
 70
     1
102
RTVSPost2010Prop41ColorIndex
 90
       18
102
RTVSPost2010Prop41ColorRGB
 90
        0
102
RTVSPost2010PropOp41
 70
     1
102
RTVSPost2010Prop42
 90
       50
102
RTVSPost2010PropOp42
 70
     1
102
RTVSPost2010Prop43
 90
        3
102
RTVSPost2010PropOp43
 70
     1
102
RTVSPost2010Prop44ColorIndex
 90
        5
102
RTVSPost2010Prop44ColorRGB
 90
      255
102
RTVSPost2010PropOp44
 70
     1
102
RTVSPost2010Prop45
280
     0
102
RTVSPost2010PropOp45
 70
     1
102
RTVSPost2010Prop46
 90
       50
102
RTVSPost2010PropOp46
 70
     1
102
RTVSPost2010Prop47
 90
       50
102
RTVSPost2010PropOp47
 70
     1
102
RTVSPost2010Prop48
 90
       50
102
RTVSPost2010PropOp48
 70
     1
102
RTVSPost2010Prop49
280
     0
102
RTVSPost2010PropOp49
 70
     1
102
RTVSPost2010Prop50
 90
       50
102
RTVSPost2010PropOp50
 70
     1
102
RTVSPost2010Prop51ColorIndex
 90
      256
102
RTVSPost2010Prop51ColorRGB
 90
-16777216
102
RTVSPost2010PropOp51
 70
     0
102
RTVSPost2010Prop52
140
1.0
102
RTVSPost2010PropOp52
 70
     0
102
RTVSPost2010Prop53
 90
        2
102
RTVSPost2010PropOp53
 70
     1
102
RTVSPost2010Prop54
  1
strokes_ogs.tif
102
RTVSPost2010PropOp54
 70
     1
102
RTVSPost2010Prop55
280
     0
102
RTVSPost2010PropOp55
 70
     1
102
RTVSPost2010Prop56
140
1.0
102
RTVSPost2010PropOp56
 70
     1
102
RTVSPost2010Prop57
140
1.0
102
RTVSPost2010PropOp57
 70
     1
102
RTVSPropertyOp0
 70
     1
102
RTVSPropertyOp1
 70
     1
102
RTVSPropertyOp2
 70
     1
102
RTVSPropertyOp3
 70
     1
102
RTVSPropertyOp4
 70
     1
102
RTVSPropertyOp5
 70
     1
102
RTVSPropertyOp6
 70
     1
102
RTVSPropertyOp7
 70
     1
102
RTVSPropertyOp8
 70
     1
102
RTVSPropertyOp9
 70
     1
102
RTVSPropertyOp10
 70
     1
102
RTVSPropertyOp11
 70
     1
102
RTVSPropertyOp12
 70
     1
102
RTVSPropertyOp13
 70
     1
102
RTVSPropertyOp14
 70
     1
102
RTVSPropertyOp15
 70
     1
102
RTVSPropertyOp16
 70
     1
102
RTVSPropertyOp17
 70
     1
102
RTVSPropertyOp18
 70
     1
102
RTVSPropertyOp19
 70
     1
102
RTVSPropertyOp20
 70
     1
102
RTVSPropertyOp21
 70
     1
102
RTVSPropertyOp22
 70
     1
102
RTVSPropertyOp23
 70
     1
102
RTVSPropertyOp24
 70
     1
102
RTVSPropertyOp25
 70
     1
102
RTVSPropertyOp26
 70
     1
102
RTVSPropertyOp27
 70
     1
102
RTVSPropertyOp28
 70
     1
102
RTVSPropertyOp29
 70
     1
102
RTVSPropertyOp30
 70
     1
102
RTVSPropertyOp31
 70
     1
102
RTVSPropertyOp32
 70
     1
102
RTVSPropertyOp33
 70
     1
102
RTVSPropertyOp34
 70
     1
102
RTVSPropertyOp35
 70
     1
102
RTVSPropertyOp36
 70
     1
102
RTVSPropertyOp37
 70
     1
102
RTVSPropertyOp38
 70
     1
102
RTVSPropertyOp39
 70
     1
102
RTVSPropertyOp40
 70
     1
102
RTVSPropertyOp41
 70
     1
102
RTVSPropertyOp42
 70
     1
102
RTVSPropertyOp43
 70
     1
102
RTVSPropertyOp44
 70
     1
102
RTVSPropertyOp45
 70
     1
102
RTVSPropertyOp46
 70
     1
102
RTVSPropertyOp47
 70
     1
102
RTVSPropertyOp48
 70
     1
102
RTVSPropertyOp49
 70
     1
102
RTVSPropertyOp50
 70
     1
102
RTVSPropertyOp51
 70
     0
102
RTVSPropertyOp52
 70
     0
102
RTVSPropertyOp53
 70
     1
102
RTVSPropertyOp54
 70
     1
102
RTVSPropertyOp55
 70
     1
102
RTVSPropertyOp56
 70
     1
102
RTVSPropertyOp57
 70
     1
102
RTVSPropertyOp58
 70
     1
102
RTVSPropertyOp59
 70
     1
102
RTVSPropertyOp60
 70
     1
102
RTVSPropertyOp61
 70
     1
102
RTVSPropertyOp62
 70
     1
  0
XRECORD
  5
1E02
102
{ACAD_REACTORS
330
1E01
102
}
330
1E01
100
AcDbXrecord
280
     1
102
RTVSPost2010Prop28
280
     0
102
RTVSPost2010PropOp28
 70
     1
102
RTVSPost2010Prop29
280
     1
102
RTVSPost2010PropOp29
 70
     1
102
RTVSPost2010Prop30
280
     1
102
RTVSPost2010PropOp30
 70
     1
102
RTVSPost2010Prop31
280
     0
102
RTVSPost2010PropOp31
 70
     1
102
RTVSPost2010Prop32
280
     0
102
RTVSPost2010PropOp32
 70
     1
102
RTVSPost2010Prop33
280
     0
102
RTVSPost2010PropOp33
 70
     1
102
RTVSPost2010Prop34
280
     0
102
RTVSPost2010PropOp34
 70
     1
102
RTVSPost2010Prop35
280
     0
102
RTVSPost2010PropOp35
 70
     1
102
RTVSPost2010Prop36
280
     0
102
RTVSPost2010PropOp36
 70
     1
102
RTVSPost2010Prop37
 90
       50
102
RTVSPost2010PropOp37
 70
     1
102
RTVSPost2010Prop38
140
0.0
102
RTVSPost2010PropOp38
 70
     1
102
RTVSPost2010Prop39
140
1.0
102
RTVSPost2010PropOp39
 70
     1
102
RTVSPost2010Prop40
 90
        0
102
RTVSPost2010PropOp40
 70
     1
102
RTVSPost2010Prop41ColorIndex
 90
       18
102
RTVSPost2010Prop41ColorRGB
 90
        0
102
RTVSPost2010PropOp41
 70
     1
102
RTVSPost2010Prop42
 90
       50
102
RTVSPost2010PropOp42
 70
     1
102
RTVSPost2010Prop43
 90
        3
102
RTVSPost2010PropOp43
 70
     1
102
RTVSPost2010Prop44ColorIndex
 90
        5
102
RTVSPost2010Prop44ColorRGB
 90
      255
102
RTVSPost2010PropOp44
 70
     1
102
RTVSPost2010Prop45
280
     0
102
RTVSPost2010PropOp45
 70
     1
102
RTVSPost2010Prop46
 90
       50
102
RTVSPost2010PropOp46
 70
     1
102
RTVSPost2010Prop47
 90
       50
102
RTVSPost2010PropOp47
 70
     1
102
RTVSPost2010Prop48
 90
       50
102
RTVSPost2010PropOp48
 70
     1
102
RTVSPost2010Prop49
280
     0
102
RTVSPost2010PropOp49
 70
     1
102
RTVSPost2010Prop50
 90
       50
102
RTVSPost2010PropOp50
 70
     1
102
RTVSPost2010Prop51ColorIndex
 90
      256
102
RTVSPost2010Prop51ColorRGB
 90
-16777216
102
RTVSPost2010PropOp51
 70
     0
102
RTVSPost2010Prop52
140
1.0
102
RTVSPost2010PropOp52
 70
     0
102
RTVSPost2010Prop53
 90
        2
102
RTVSPost2010PropOp53
 70
     1
102
RTVSPost2010Prop54
  1
strokes_ogs.tif
102
RTVSPost2010PropOp54
 70
     1
102
RTVSPost2010Prop55
280
     0
102
RTVSPost2010PropOp55
 70
     1
102
RTVSPost2010Prop56
140
1.0
102
RTVSPost2010PropOp56
 70
     1
102
RTVSPost2010Prop57
140
1.0
102
RTVSPost2010PropOp57
 70
     1
102
RTVSPropertyOp0
 70
     1
102
RTVSPropertyOp1
 70
     1
102
RTVSPropertyOp2
 70
     1
102
RTVSPropertyOp3
 70
     1
102
RTVSPropertyOp4
 70
     1
102
RTVSPropertyOp5
 70
     1
102
RTVSPropertyOp6
 70
     1
102
RTVSPropertyOp7
 70
     1
102
RTVSPropertyOp8
 70
     1
102
RTVSPropertyOp9
 70
     1
102
RTVSPropertyOp10
 70
     1
102
RTVSPropertyOp11
 70
     1
102
RTVSPropertyOp12
 70
     1
102
RTVSPropertyOp13
 70
     1
102
RTVSPropertyOp14
 70
     1
102
RTVSPropertyOp15
 70
     1
102
RTVSPropertyOp16
 70
     1
102
RTVSPropertyOp17
 70
     1
102
RTVSPropertyOp18
 70
     1
102
RTVSPropertyOp19
 70
     1
102
RTVSPropertyOp20
 70
     1
102
RTVSPropertyOp21
 70
     1
102
RTVSPropertyOp22
 70
     1
102
RTVSPropertyOp23
 70
     1
102
RTVSPropertyOp24
 70
     1
102
RTVSPropertyOp25
 70
     1
102
RTVSPropertyOp26
 70
     1
102
RTVSPropertyOp27
 70
     1
102
RTVSPropertyOp28
 70
     1
102
RTVSPropertyOp29
 70
     1
102
RTVSPropertyOp30
 70
     1
102
RTVSPropertyOp31
 70
     1
102
RTVSPropertyOp32
 70
     1
102
RTVSPropertyOp33
 70
     1
102
RTVSPropertyOp34
 70
     1
102
RTVSPropertyOp35
 70
     1
102
RTVSPropertyOp36
 70
     1
102
RTVSPropertyOp37
 70
     1
102
RTVSPropertyOp38
 70
     1
102
RTVSPropertyOp39
 70
     1
102
RTVSPropertyOp40
 70
     1
102
RTVSPropertyOp41
 70
     1
102
RTVSPropertyOp42
 70
     1
102
RTVSPropertyOp43
 70
     1
102
RTVSPropertyOp44
 70
     1
102
RTVSPropertyOp45
 70
     1
102
RTVSPropertyOp46
 70
     1
102
RTVSPropertyOp47
 70
     1
102
RTVSPropertyOp48
 70
     1
102
RTVSPropertyOp49
 70
     1
102
RTVSPropertyOp50
 70
     1
102
RTVSPropertyOp51
 70
     0
102
RTVSPropertyOp52
 70
     0
102
RTVSPropertyOp53
 70
     1
102
RTVSPropertyOp54
 70
     1
102
RTVSPropertyOp55
 70
     1
102
RTVSPropertyOp56
 70
     1
102
RTVSPropertyOp57
 70
     1
102
RTVSPropertyOp58
 70
     1
102
RTVSPropertyOp59
 70
     1
102
RTVSPropertyOp60
 70
     1
102
RTVSPropertyOp61
 70
     1
102
RTVSPropertyOp62
 70
     1
  0
XRECORD
  5
1E06
102
{ACAD_REACTORS
330
1E05
102
}
330
1E05
100
AcDbXrecord
280
     1
102
RTVSPost2010Prop28
280
     0
102
RTVSPost2010PropOp28
 70
     1
102
RTVSPost2010Prop29
280
     1
102
RTVSPost2010PropOp29
 70
     1
102
RTVSPost2010Prop30
280
     1
102
RTVSPost2010PropOp30
 70
     1
102
RTVSPost2010Prop31
280
     0
102
RTVSPost2010PropOp31
 70
     1
102
RTVSPost2010Prop32
280
     0
102
RTVSPost2010PropOp32
 70
     1
102
RTVSPost2010Prop33
280
     0
102
RTVSPost2010PropOp33
 70
     1
102
RTVSPost2010Prop34
280
     0
102
RTVSPost2010PropOp34
 70
     1
102
RTVSPost2010Prop35
280
     0
102
RTVSPost2010PropOp35
 70
     1
102
RTVSPost2010Prop36
280
     0
102
RTVSPost2010PropOp36
 70
     1
102
RTVSPost2010Prop37
 90
       50
102
RTVSPost2010PropOp37
 70
     1
102
RTVSPost2010Prop38
140
0.0
102
RTVSPost2010PropOp38
 70
     1
102
RTVSPost2010Prop39
140
1.0
102
RTVSPost2010PropOp39
 70
     1
102
RTVSPost2010Prop40
 90
        0
102
RTVSPost2010PropOp40
 70
     1
102
RTVSPost2010Prop41ColorIndex
 90
       18
102
RTVSPost2010Prop41ColorRGB
 90
        0
102
RTVSPost2010PropOp41
 70
     1
102
RTVSPost2010Prop42
 90
       50
102
RTVSPost2010PropOp42
 70
     1
102
RTVSPost2010Prop43
 90
        3
102
RTVSPost2010PropOp43
 70
     1
102
RTVSPost2010Prop44ColorIndex
 90
        5
102
RTVSPost2010Prop44ColorRGB
 90
      255
102
RTVSPost2010PropOp44
 70
     1
102
RTVSPost2010Prop45
280
     0
102
RTVSPost2010PropOp45
 70
     1
102
RTVSPost2010Prop46
 90
       50
102
RTVSPost2010PropOp46
 70
     1
102
RTVSPost2010Prop47
 90
       50
102
RTVSPost2010PropOp47
 70
     1
102
RTVSPost2010Prop48
 90
       50
102
RTVSPost2010PropOp48
 70
     1
102
RTVSPost2010Prop49
280
     0
102
RTVSPost2010PropOp49
 70
     1
102
RTVSPost2010Prop50
 90
       50
102
RTVSPost2010PropOp50
 70
     1
102
RTVSPost2010Prop51ColorIndex
 90
      256
102
RTVSPost2010Prop51ColorRGB
 90
-16777216
102
RTVSPost2010PropOp51
 70
     0
102
RTVSPost2010Prop52
140
1.0
102
RTVSPost2010PropOp52
 70
     0
102
RTVSPost2010Prop53
 90
        2
102
RTVSPost2010PropOp53
 70
     1
102
RTVSPost2010Prop54
  1
strokes_ogs.tif
102
RTVSPost2010PropOp54
 70
     1
102
RTVSPost2010Prop55
280
     0
102
RTVSPost2010PropOp55
 70
     1
102
RTVSPost2010Prop56
140
1.0
102
RTVSPost2010PropOp56
 70
     1
102
RTVSPost2010Prop57
140
1.0
102
RTVSPost2010PropOp57
 70
     1
102
RTVSPropertyOp0
 70
     1
102
RTVSPropertyOp1
 70
     1
102
RTVSPropertyOp2
 70
     1
102
RTVSPropertyOp3
 70
     1
102
RTVSPropertyOp4
 70
     1
102
RTVSPropertyOp5
 70
     1
102
RTVSPropertyOp6
 70
     1
102
RTVSPropertyOp7
 70
     1
102
RTVSPropertyOp8
 70
     1
102
RTVSPropertyOp9
 70
     1
102
RTVSPropertyOp10
 70
     1
102
RTVSPropertyOp11
 70
     1
102
RTVSPropertyOp12
 70
     1
102
RTVSPropertyOp13
 70
     1
102
RTVSPropertyOp14
 70
     1
102
RTVSPropertyOp15
 70
     1
102
RTVSPropertyOp16
 70
     1
102
RTVSPropertyOp17
 70
     1
102
RTVSPropertyOp18
 70
     1
102
RTVSPropertyOp19
 70
     1
102
RTVSPropertyOp20
 70
     1
102
RTVSPropertyOp21
 70
     1
102
RTVSPropertyOp22
 70
     1
102
RTVSPropertyOp23
 70
     1
102
RTVSPropertyOp24
 70
     1
102
RTVSPropertyOp25
 70
     1
102
RTVSPropertyOp26
 70
     1
102
RTVSPropertyOp27
 70
     1
102
RTVSPropertyOp28
 70
     1
102
RTVSPropertyOp29
 70
     1
102
RTVSPropertyOp30
 70
     1
102
RTVSPropertyOp31
 70
     1
102
RTVSPropertyOp32
 70
     1
102
RTVSPropertyOp33
 70
     1
102
RTVSPropertyOp34
 70
     1
102
RTVSPropertyOp35
 70
     1
102
RTVSPropertyOp36
 70
     1
102
RTVSPropertyOp37
 70
     1
102
RTVSPropertyOp38
 70
     1
102
RTVSPropertyOp39
 70
     1
102
RTVSPropertyOp40
 70
     1
102
RTVSPropertyOp41
 70
     1
102
RTVSPropertyOp42
 70
     1
102
RTVSPropertyOp43
 70
     1
102
RTVSPropertyOp44
 70
     1
102
RTVSPropertyOp45
 70
     1
102
RTVSPropertyOp46
 70
     1
102
RTVSPropertyOp47
 70
     1
102
RTVSPropertyOp48
 70
     1
102
RTVSPropertyOp49
 70
     1
102
RTVSPropertyOp50
 70
     1
102
RTVSPropertyOp51
 70
     0
102
RTVSPropertyOp52
 70
     0
102
RTVSPropertyOp53
 70
     1
102
RTVSPropertyOp54
 70
     1
102
RTVSPropertyOp55
 70
     1
102
RTVSPropertyOp56
 70
     1
102
RTVSPropertyOp57
 70
     1
102
RTVSPropertyOp58
 70
     1
102
RTVSPropertyOp59
 70
     1
102
RTVSPropertyOp60
 70
     1
102
RTVSPropertyOp61
 70
     1
102
RTVSPropertyOp62
 70
     1
  0
XRECORD
  5
1E20
102
{ACAD_REACTORS
330
1E1F
102
}
330
1E1F
100
AcDbXrecord
280
     1
102
RTVSPost2010Prop28
280
     0
102
RTVSPost2010PropOp28
 70
     0
102
RTVSPost2010Prop29
280
     1
102
RTVSPost2010PropOp29
 70
     0
102
RTVSPost2010Prop30
280
     1
102
RTVSPost2010PropOp30
 70
     0
102
RTVSPost2010Prop31
280
     0
102
RTVSPost2010PropOp31
 70
     0
102
RTVSPost2010Prop32
280
     0
102
RTVSPost2010PropOp32
 70
     0
102
RTVSPost2010Prop33
280
     0
102
RTVSPost2010PropOp33
 70
     0
102
RTVSPost2010Prop34
280
     0
102
RTVSPost2010PropOp34
 70
     0
102
RTVSPost2010Prop35
280
     0
102
RTVSPost2010PropOp35
 70
     0
102
RTVSPost2010Prop36
280
     0
102
RTVSPost2010PropOp36
 70
     0
102
RTVSPost2010Prop37
 90
       50
102
RTVSPost2010PropOp37
 70
     0
102
RTVSPost2010Prop38
140
0.0
102
RTVSPost2010PropOp38
 70
     0
102
RTVSPost2010Prop39
140
1.0
102
RTVSPost2010PropOp39
 70
     0
102
RTVSPost2010Prop40
 90
        0
102
RTVSPost2010PropOp40
 70
     0
102
RTVSPost2010Prop41ColorIndex
 90
       18
102
RTVSPost2010Prop41ColorRGB
 90
        0
102
RTVSPost2010PropOp41
 70
     0
102
RTVSPost2010Prop42
 90
       50
102
RTVSPost2010PropOp42
 70
     0
102
RTVSPost2010Prop43
 90
        3
102
RTVSPost2010PropOp43
 70
     0
102
RTVSPost2010Prop44ColorIndex
 90
        5
102
RTVSPost2010Prop44ColorRGB
 90
      255
102
RTVSPost2010PropOp44
 70
     0
102
RTVSPost2010Prop45
280
     0
102
RTVSPost2010PropOp45
 70
     0
102
RTVSPost2010Prop46
 90
       50
102
RTVSPost2010PropOp46
 70
     0
102
RTVSPost2010Prop47
 90
       50
102
RTVSPost2010PropOp47
 70
     0
102
RTVSPost2010Prop48
 90
       50
102
RTVSPost2010PropOp48
 70
     0
102
RTVSPost2010Prop49
280
     0
102
RTVSPost2010PropOp49
 70
     0
102
RTVSPost2010Prop50
 90
       50
102
RTVSPost2010PropOp50
 70
     0
102
RTVSPost2010Prop51ColorIndex
 90
      256
102
RTVSPost2010Prop51ColorRGB
 90
-16777216
102
RTVSPost2010PropOp51
 70
     0
102
RTVSPost2010Prop52
140
1.0
102
RTVSPost2010PropOp52
 70
     0
102
RTVSPost2010Prop53
 90
        2
102
RTVSPost2010PropOp53
 70
     0
102
RTVSPost2010Prop54
  1
strokes_ogs.tif
102
RTVSPost2010PropOp54
 70
     0
102
RTVSPost2010Prop55
280
     0
102
RTVSPost2010PropOp55
 70
     0
102
RTVSPost2010Prop56
140
1.0
102
RTVSPost2010PropOp56
 70
     0
102
RTVSPost2010Prop57
140
1.0
102
RTVSPost2010PropOp57
 70
     0
102
RTVSPropertyOp0
 70
     0
102
RTVSPropertyOp1
 70
     0
102
RTVSPropertyOp2
 70
     0
102
RTVSPropertyOp3
 70
     0
102
RTVSPropertyOp4
 70
     0
102
RTVSPropertyOp5
 70
     0
102
RTVSPropertyOp6
 70
     0
102
RTVSPropertyOp7
 70
     0
102
RTVSPropertyOp8
 70
     0
102
RTVSPropertyOp9
 70
     0
102
RTVSPropertyOp10
 70
     0
102
RTVSPropertyOp11
 70
     0
102
RTVSPropertyOp12
 70
     0
102
RTVSPropertyOp13
 70
     0
102
RTVSPropertyOp14
 70
     2
102
RTVSPropertyOp15
 70
     0
102
RTVSPropertyOp16
 70
     0
102
RTVSPropertyOp17
 70
     0
102
RTVSPropertyOp18
 70
     0
102
RTVSPropertyOp19
 70
     0
102
RTVSPropertyOp20
 70
     0
102
RTVSPropertyOp21
 70
     0
102
RTVSPropertyOp22
 70
     0
102
RTVSPropertyOp23
 70
     0
102
RTVSPropertyOp24
 70
     0
102
RTVSPropertyOp25
 70
     0
102
RTVSPropertyOp26
 70
     0
102
RTVSPropertyOp27
 70
     0
102
RTVSPropertyOp28
 70
     0
102
RTVSPropertyOp29
 70
     0
102
RTVSPropertyOp30
 70
     0
102
RTVSPropertyOp31
 70
     0
102
RTVSPropertyOp32
 70
     0
102
RTVSPropertyOp33
 70
     0
102
RTVSPropertyOp34
 70
     0
102
RTVSPropertyOp35
 70
     0
102
RTVSPropertyOp36
 70
     0
102
RTVSPropertyOp37
 70
     0
102
RTVSPropertyOp38
 70
     0
102
RTVSPropertyOp39
 70
     0
102
RTVSPropertyOp40
 70
     0
102
RTVSPropertyOp41
 70
     0
102
RTVSPropertyOp42
 70
     0
102
RTVSPropertyOp43
 70
     0
102
RTVSPropertyOp44
 70
     0
102
RTVSPropertyOp45
 70
     0
102
RTVSPropertyOp46
 70
     0
102
RTVSPropertyOp47
 70
     0
102
RTVSPropertyOp48
 70
     0
102
RTVSPropertyOp49
 70
     0
102
RTVSPropertyOp50
 70
     0
102
RTVSPropertyOp51
 70
     0
102
RTVSPropertyOp52
 70
     0
102
RTVSPropertyOp53
 70
     0
102
RTVSPropertyOp54
 70
     0
102
RTVSPropertyOp55
 70
     0
102
RTVSPropertyOp56
 70
     0
102
RTVSPropertyOp57
 70
     0
102
RTVSPropertyOp58
 70
     0
102
RTVSPropertyOp59
 70
     0
102
RTVSPropertyOp60
 70
     0
102
RTVSPropertyOp61
 70
     0
102
RTVSPropertyOp62
 70
     0
  0
XRECORD
  5
1E0E
102
{ACAD_REACTORS
330
1E0D
102
}
330
1E0D
100
AcDbXrecord
280
     1
102
RTVSPost2010Prop28
280
     0
102
RTVSPost2010PropOp28
 70
     1
102
RTVSPost2010Prop29
280
     1
102
RTVSPost2010PropOp29
 70
     1
102
RTVSPost2010Prop30
280
     1
102
RTVSPost2010PropOp30
 70
     1
102
RTVSPost2010Prop31
280
     0
102
RTVSPost2010PropOp31
 70
     1
102
RTVSPost2010Prop32
280
     0
102
RTVSPost2010PropOp32
 70
     1
102
RTVSPost2010Prop33
280
     0
102
RTVSPost2010PropOp33
 70
     1
102
RTVSPost2010Prop34
280
     0
102
RTVSPost2010PropOp34
 70
     1
102
RTVSPost2010Prop35
280
     0
102
RTVSPost2010PropOp35
 70
     1
102
RTVSPost2010Prop36
280
     0
102
RTVSPost2010PropOp36
 70
     1
102
RTVSPost2010Prop37
 90
       50
102
RTVSPost2010PropOp37
 70
     1
102
RTVSPost2010Prop38
140
0.0
102
RTVSPost2010PropOp38
 70
     1
102
RTVSPost2010Prop39
140
1.0
102
RTVSPost2010PropOp39
 70
     1
102
RTVSPost2010Prop40
 90
        0
102
RTVSPost2010PropOp40
 70
     1
102
RTVSPost2010Prop41ColorIndex
 90
       18
102
RTVSPost2010Prop41ColorRGB
 90
        0
102
RTVSPost2010PropOp41
 70
     1
102
RTVSPost2010Prop42
 90
       50
102
RTVSPost2010PropOp42
 70
     1
102
RTVSPost2010Prop43
 90
        3
102
RTVSPost2010PropOp43
 70
     1
102
RTVSPost2010Prop44ColorIndex
 90
        5
102
RTVSPost2010Prop44ColorRGB
 90
      255
102
RTVSPost2010PropOp44
 70
     1
102
RTVSPost2010Prop45
280
     0
102
RTVSPost2010PropOp45
 70
     1
102
RTVSPost2010Prop46
 90
       50
102
RTVSPost2010PropOp46
 70
     1
102
RTVSPost2010Prop47
 90
       50
102
RTVSPost2010PropOp47
 70
     1
102
RTVSPost2010Prop48
 90
       50
102
RTVSPost2010PropOp48
 70
     1
102
RTVSPost2010Prop49
280
     0
102
RTVSPost2010PropOp49
 70
     1
102
RTVSPost2010Prop50
 90
       50
102
RTVSPost2010PropOp50
 70
     1
102
RTVSPost2010Prop51ColorIndex
 90
      256
102
RTVSPost2010Prop51ColorRGB
 90
-16777216
102
RTVSPost2010PropOp51
 70
     0
102
RTVSPost2010Prop52
140
1.0
102
RTVSPost2010PropOp52
 70
     0
102
RTVSPost2010Prop53
 90
        2
102
RTVSPost2010PropOp53
 70
     1
102
RTVSPost2010Prop54
  1
strokes_ogs.tif
102
RTVSPost2010PropOp54
 70
     1
102
RTVSPost2010Prop55
280
     0
102
RTVSPost2010PropOp55
 70
     1
102
RTVSPost2010Prop56
140
1.0
102
RTVSPost2010PropOp56
 70
     1
102
RTVSPost2010Prop57
140
1.0
102
RTVSPost2010PropOp57
 70
     1
102
RTVSPropertyOp0
 70
     1
102
RTVSPropertyOp1
 70
     1
102
RTVSPropertyOp2
 70
     1
102
RTVSPropertyOp3
 70
     1
102
RTVSPropertyOp4
 70
     1
102
RTVSPropertyOp5
 70
     1
102
RTVSPropertyOp6
 70
     1
102
RTVSPropertyOp7
 70
     1
102
RTVSPropertyOp8
 70
     1
102
RTVSPropertyOp9
 70
     1
102
RTVSPropertyOp10
 70
     1
102
RTVSPropertyOp11
 70
     1
102
RTVSPropertyOp12
 70
     1
102
RTVSPropertyOp13
 70
     1
102
RTVSPropertyOp14
 70
     1
102
RTVSPropertyOp15
 70
     1
102
RTVSPropertyOp16
 70
     1
102
RTVSPropertyOp17
 70
     1
102
RTVSPropertyOp18
 70
     1
102
RTVSPropertyOp19
 70
     1
102
RTVSPropertyOp20
 70
     1
102
RTVSPropertyOp21
 70
     1
102
RTVSPropertyOp22
 70
     1
102
RTVSPropertyOp23
 70
     1
102
RTVSPropertyOp24
 70
     1
102
RTVSPropertyOp25
 70
     1
102
RTVSPropertyOp26
 70
     1
102
RTVSPropertyOp27
 70
     1
102
RTVSPropertyOp28
 70
     1
102
RTVSPropertyOp29
 70
     1
102
RTVSPropertyOp30
 70
     1
102
RTVSPropertyOp31
 70
     1
102
RTVSPropertyOp32
 70
     1
102
RTVSPropertyOp33
 70
     1
102
RTVSPropertyOp34
 70
     1
102
RTVSPropertyOp35
 70
     1
102
RTVSPropertyOp36
 70
     1
102
RTVSPropertyOp37
 70
     1
102
RTVSPropertyOp38
 70
     1
102
RTVSPropertyOp39
 70
     1
102
RTVSPropertyOp40
 70
     1
102
RTVSPropertyOp41
 70
     1
102
RTVSPropertyOp42
 70
     1
102
RTVSPropertyOp43
 70
     1
102
RTVSPropertyOp44
 70
     1
102
RTVSPropertyOp45
 70
     1
102
RTVSPropertyOp46
 70
     1
102
RTVSPropertyOp47
 70
     1
102
RTVSPropertyOp48
 70
     1
102
RTVSPropertyOp49
 70
     1
102
RTVSPropertyOp50
 70
     1
102
RTVSPropertyOp51
 70
     0
102
RTVSPropertyOp52
 70
     0
102
RTVSPropertyOp53
 70
     1
102
RTVSPropertyOp54
 70
     1
102
RTVSPropertyOp55
 70
     1
102
RTVSPropertyOp56
 70
     1
102
RTVSPropertyOp57
 70
     1
102
RTVSPropertyOp58
 70
     1
102
RTVSPropertyOp59
 70
     1
102
RTVSPropertyOp60
 70
     1
102
RTVSPropertyOp61
 70
     1
102
RTVSPropertyOp62
 70
     1
  0
XRECORD
  5
1DF2
102
{ACAD_REACTORS
330
1DF1
102
}
330
1DF1
100
AcDbXrecord
280
     1
102
RTVSPost2010Prop28
280
     0
102
RTVSPost2010PropOp28
 70
     1
102
RTVSPost2010Prop29
280
     1
102
RTVSPost2010PropOp29
 70
     1
102
RTVSPost2010Prop30
280
     1
102
RTVSPost2010PropOp30
 70
     1
102
RTVSPost2010Prop31
280
     0
102
RTVSPost2010PropOp31
 70
     1
102
RTVSPost2010Prop32
280
     0
102
RTVSPost2010PropOp32
 70
     1
102
RTVSPost2010Prop33
280
     0
102
RTVSPost2010PropOp33
 70
     1
102
RTVSPost2010Prop34
280
     0
102
RTVSPost2010PropOp34
 70
     1
102
RTVSPost2010Prop35
280
     0
102
RTVSPost2010PropOp35
 70
     1
102
RTVSPost2010Prop36
280
     0
102
RTVSPost2010PropOp36
 70
     1
102
RTVSPost2010Prop37
 90
       50
102
RTVSPost2010PropOp37
 70
     1
102
RTVSPost2010Prop38
140
0.0
102
RTVSPost2010PropOp38
 70
     1
102
RTVSPost2010Prop39
140
1.0
102
RTVSPost2010PropOp39
 70
     1
102
RTVSPost2010Prop40
 90
        0
102
RTVSPost2010PropOp40
 70
     1
102
RTVSPost2010Prop41ColorIndex
 90
       18
102
RTVSPost2010Prop41ColorRGB
 90
        0
102
RTVSPost2010PropOp41
 70
     1
102
RTVSPost2010Prop42
 90
       50
102
RTVSPost2010PropOp42
 70
     1
102
RTVSPost2010Prop43
 90
        3
102
RTVSPost2010PropOp43
 70
     1
102
RTVSPost2010Prop44ColorIndex
 90
        5
102
RTVSPost2010Prop44ColorRGB
 90
      255
102
RTVSPost2010PropOp44
 70
     1
102
RTVSPost2010Prop45
280
     0
102
RTVSPost2010PropOp45
 70
     1
102
RTVSPost2010Prop46
 90
       50
102
RTVSPost2010PropOp46
 70
     1
102
RTVSPost2010Prop47
 90
       50
102
RTVSPost2010PropOp47
 70
     1
102
RTVSPost2010Prop48
 90
       50
102
RTVSPost2010PropOp48
 70
     1
102
RTVSPost2010Prop49
280
     0
102
RTVSPost2010PropOp49
 70
     1
102
RTVSPost2010Prop50
 90
       50
102
RTVSPost2010PropOp50
 70
     1
102
RTVSPost2010Prop51ColorIndex
 90
      256
102
RTVSPost2010Prop51ColorRGB
 90
-16777216
102
RTVSPost2010PropOp51
 70
     0
102
RTVSPost2010Prop52
140
1.0
102
RTVSPost2010PropOp52
 70
     0
102
RTVSPost2010Prop53
 90
        2
102
RTVSPost2010PropOp53
 70
     1
102
RTVSPost2010Prop54
  1
strokes_ogs.tif
102
RTVSPost2010PropOp54
 70
     1
102
RTVSPost2010Prop55
280
     0
102
RTVSPost2010PropOp55
 70
     1
102
RTVSPost2010Prop56
140
1.0
102
RTVSPost2010PropOp56
 70
     1
102
RTVSPost2010Prop57
140
1.0
102
RTVSPost2010PropOp57
 70
     1
102
RTVSPropertyOp0
 70
     1
102
RTVSPropertyOp1
 70
     1
102
RTVSPropertyOp2
 70
     1
102
RTVSPropertyOp3
 70
     1
102
RTVSPropertyOp4
 70
     1
102
RTVSPropertyOp5
 70
     1
102
RTVSPropertyOp6
 70
     1
102
RTVSPropertyOp7
 70
     1
102
RTVSPropertyOp8
 70
     1
102
RTVSPropertyOp9
 70
     1
102
RTVSPropertyOp10
 70
     1
102
RTVSPropertyOp11
 70
     1
102
RTVSPropertyOp12
 70
     1
102
RTVSPropertyOp13
 70
     1
102
RTVSPropertyOp14
 70
     1
102
RTVSPropertyOp15
 70
     1
102
RTVSPropertyOp16
 70
     1
102
RTVSPropertyOp17
 70
     1
102
RTVSPropertyOp18
 70
     1
102
RTVSPropertyOp19
 70
     1
102
RTVSPropertyOp20
 70
     1
102
RTVSPropertyOp21
 70
     1
102
RTVSPropertyOp22
 70
     1
102
RTVSPropertyOp23
 70
     1
102
RTVSPropertyOp24
 70
     1
102
RTVSPropertyOp25
 70
     1
102
RTVSPropertyOp26
 70
     1
102
RTVSPropertyOp27
 70
     1
102
RTVSPropertyOp28
 70
     1
102
RTVSPropertyOp29
 70
     1
102
RTVSPropertyOp30
 70
     1
102
RTVSPropertyOp31
 70
     1
102
RTVSPropertyOp32
 70
     1
102
RTVSPropertyOp33
 70
     1
102
RTVSPropertyOp34
 70
     1
102
RTVSPropertyOp35
 70
     1
102
RTVSPropertyOp36
 70
     1
102
RTVSPropertyOp37
 70
     1
102
RTVSPropertyOp38
 70
     1
102
RTVSPropertyOp39
 70
     1
102
RTVSPropertyOp40
 70
     1
102
RTVSPropertyOp41
 70
     1
102
RTVSPropertyOp42
 70
     1
102
RTVSPropertyOp43
 70
     1
102
RTVSPropertyOp44
 70
     1
102
RTVSPropertyOp45
 70
     1
102
RTVSPropertyOp46
 70
     1
102
RTVSPropertyOp47
 70
     1
102
RTVSPropertyOp48
 70
     1
102
RTVSPropertyOp49
 70
     1
102
RTVSPropertyOp50
 70
     1
102
RTVSPropertyOp51
 70
     0
102
RTVSPropertyOp52
 70
     0
102
RTVSPropertyOp53
 70
     1
102
RTVSPropertyOp54
 70
     1
102
RTVSPropertyOp55
 70
     1
102
RTVSPropertyOp56
 70
     1
102
RTVSPropertyOp57
 70
     1
102
RTVSPropertyOp58
 70
     1
102
RTVSPropertyOp59
 70
     1
102
RTVSPropertyOp60
 70
     1
102
RTVSPropertyOp61
 70
     1
102
RTVSPropertyOp62
 70
     1
  0
XRECORD
  5
1DF4
102
{ACAD_REACTORS
330
1DF3
102
}
330
1DF3
100
AcDbXrecord
280
     1
102
RTVSPost2010Prop28
280
     0
102
RTVSPost2010PropOp28
 70
     1
102
RTVSPost2010Prop29
280
     1
102
RTVSPost2010PropOp29
 70
     1
102
RTVSPost2010Prop30
280
     1
102
RTVSPost2010PropOp30
 70
     1
102
RTVSPost2010Prop31
280
     0
102
RTVSPost2010PropOp31
 70
     1
102
RTVSPost2010Prop32
280
     0
102
RTVSPost2010PropOp32
 70
     1
102
RTVSPost2010Prop33
280
     0
102
RTVSPost2010PropOp33
 70
     1
102
RTVSPost2010Prop34
280
     0
102
RTVSPost2010PropOp34
 70
     1
102
RTVSPost2010Prop35
280
     0
102
RTVSPost2010PropOp35
 70
     1
102
RTVSPost2010Prop36
280
     0
102
RTVSPost2010PropOp36
 70
     1
102
RTVSPost2010Prop37
 90
       50
102
RTVSPost2010PropOp37
 70
     1
102
RTVSPost2010Prop38
140
0.0
102
RTVSPost2010PropOp38
 70
     1
102
RTVSPost2010Prop39
140
1.0
102
RTVSPost2010PropOp39
 70
     1
102
RTVSPost2010Prop40
 90
        0
102
RTVSPost2010PropOp40
 70
     1
102
RTVSPost2010Prop41ColorIndex
 90
       18
102
RTVSPost2010Prop41ColorRGB
 90
        0
102
RTVSPost2010PropOp41
 70
     1
102
RTVSPost2010Prop42
 90
       50
102
RTVSPost2010PropOp42
 70
     1
102
RTVSPost2010Prop43
 90
        3
102
RTVSPost2010PropOp43
 70
     1
102
RTVSPost2010Prop44ColorIndex
 90
        5
102
RTVSPost2010Prop44ColorRGB
 90
      255
102
RTVSPost2010PropOp44
 70
     1
102
RTVSPost2010Prop45
280
     0
102
RTVSPost2010PropOp45
 70
     1
102
RTVSPost2010Prop46
 90
       50
102
RTVSPost2010PropOp46
 70
     1
102
RTVSPost2010Prop47
 90
       50
102
RTVSPost2010PropOp47
 70
     1
102
RTVSPost2010Prop48
 90
       50
102
RTVSPost2010PropOp48
 70
     1
102
RTVSPost2010Prop49
280
     0
102
RTVSPost2010PropOp49
 70
     1
102
RTVSPost2010Prop50
 90
       50
102
RTVSPost2010PropOp50
 70
     1
102
RTVSPost2010Prop51ColorIndex
 90
      256
102
RTVSPost2010Prop51ColorRGB
 90
-16777216
102
RTVSPost2010PropOp51
 70
     0
102
RTVSPost2010Prop52
140
1.0
102
RTVSPost2010PropOp52
 70
     0
102
RTVSPost2010Prop53
 90
        2
102
RTVSPost2010PropOp53
 70
     1
102
RTVSPost2010Prop54
  1
strokes_ogs.tif
102
RTVSPost2010PropOp54
 70
     1
102
RTVSPost2010Prop55
280
     0
102
RTVSPost2010PropOp55
 70
     1
102
RTVSPost2010Prop56
140
1.0
102
RTVSPost2010PropOp56
 70
     1
102
RTVSPost2010Prop57
140
1.0
102
RTVSPost2010PropOp57
 70
     1
102
RTVSPropertyOp0
 70
     1
102
RTVSPropertyOp1
 70
     1
102
RTVSPropertyOp2
 70
     1
102
RTVSPropertyOp3
 70
     1
102
RTVSPropertyOp4
 70
     1
102
RTVSPropertyOp5
 70
     1
102
RTVSPropertyOp6
 70
     1
102
RTVSPropertyOp7
 70
     1
102
RTVSPropertyOp8
 70
     1
102
RTVSPropertyOp9
 70
     1
102
RTVSPropertyOp10
 70
     1
102
RTVSPropertyOp11
 70
     1
102
RTVSPropertyOp12
 70
     1
102
RTVSPropertyOp13
 70
     1
102
RTVSPropertyOp14
 70
     1
102
RTVSPropertyOp15
 70
     1
102
RTVSPropertyOp16
 70
     1
102
RTVSPropertyOp17
 70
     1
102
RTVSPropertyOp18
 70
     1
102
RTVSPropertyOp19
 70
     1
102
RTVSPropertyOp20
 70
     1
102
RTVSPropertyOp21
 70
     1
102
RTVSPropertyOp22
 70
     1
102
RTVSPropertyOp23
 70
     1
102
RTVSPropertyOp24
 70
     1
102
RTVSPropertyOp25
 70
     1
102
RTVSPropertyOp26
 70
     1
102
RTVSPropertyOp27
 70
     1
102
RTVSPropertyOp28
 70
     1
102
RTVSPropertyOp29
 70
     1
102
RTVSPropertyOp30
 70
     1
102
RTVSPropertyOp31
 70
     1
102
RTVSPropertyOp32
 70
     1
102
RTVSPropertyOp33
 70
     1
102
RTVSPropertyOp34
 70
     1
102
RTVSPropertyOp35
 70
     1
102
RTVSPropertyOp36
 70
     1
102
RTVSPropertyOp37
 70
     1
102
RTVSPropertyOp38
 70
     1
102
RTVSPropertyOp39
 70
     1
102
RTVSPropertyOp40
 70
     1
102
RTVSPropertyOp41
 70
     1
102
RTVSPropertyOp42
 70
     1
102
RTVSPropertyOp43
 70
     1
102
RTVSPropertyOp44
 70
     1
102
RTVSPropertyOp45
 70
     1
102
RTVSPropertyOp46
 70
     1
102
RTVSPropertyOp47
 70
     1
102
RTVSPropertyOp48
 70
     1
102
RTVSPropertyOp49
 70
     1
102
RTVSPropertyOp50
 70
     1
102
RTVSPropertyOp51
 70
     0
102
RTVSPropertyOp52
 70
     0
102
RTVSPropertyOp53
 70
     1
102
RTVSPropertyOp54
 70
     1
102
RTVSPropertyOp55
 70
     1
102
RTVSPropertyOp56
 70
     1
102
RTVSPropertyOp57
 70
     1
102
RTVSPropertyOp58
 70
     1
102
RTVSPropertyOp59
 70
     1
102
RTVSPropertyOp60
 70
     1
102
RTVSPropertyOp61
 70
     1
102
RTVSPropertyOp62
 70
     1
  0
XRECORD
  5
1DF6
102
{ACAD_REACTORS
330
1DF5
102
}
330
1DF5
100
AcDbXrecord
280
     1
102
RTVSPost2010Prop28
280
     0
102
RTVSPost2010PropOp28
 70
     1
102
RTVSPost2010Prop29
280
     1
102
RTVSPost2010PropOp29
 70
     1
102
RTVSPost2010Prop30
280
     1
102
RTVSPost2010PropOp30
 70
     1
102
RTVSPost2010Prop31
280
     0
102
RTVSPost2010PropOp31
 70
     1
102
RTVSPost2010Prop32
280
     0
102
RTVSPost2010PropOp32
 70
     1
102
RTVSPost2010Prop33
280
     0
102
RTVSPost2010PropOp33
 70
     1
102
RTVSPost2010Prop34
280
     0
102
RTVSPost2010PropOp34
 70
     1
102
RTVSPost2010Prop35
280
     0
102
RTVSPost2010PropOp35
 70
     1
102
RTVSPost2010Prop36
280
     0
102
RTVSPost2010PropOp36
 70
     1
102
RTVSPost2010Prop37
 90
       50
102
RTVSPost2010PropOp37
 70
     1
102
RTVSPost2010Prop38
140
0.0
102
RTVSPost2010PropOp38
 70
     1
102
RTVSPost2010Prop39
140
1.0
102
RTVSPost2010PropOp39
 70
     1
102
RTVSPost2010Prop40
 90
        0
102
RTVSPost2010PropOp40
 70
     1
102
RTVSPost2010Prop41ColorIndex
 90
       18
102
RTVSPost2010Prop41ColorRGB
 90
        0
102
RTVSPost2010PropOp41
 70
     1
102
RTVSPost2010Prop42
 90
       50
102
RTVSPost2010PropOp42
 70
     1
102
RTVSPost2010Prop43
 90
        3
102
RTVSPost2010PropOp43
 70
     1
102
RTVSPost2010Prop44ColorIndex
 90
        5
102
RTVSPost2010Prop44ColorRGB
 90
      255
102
RTVSPost2010PropOp44
 70
     1
102
RTVSPost2010Prop45
280
     0
102
RTVSPost2010PropOp45
 70
     1
102
RTVSPost2010Prop46
 90
       50
102
RTVSPost2010PropOp46
 70
     1
102
RTVSPost2010Prop47
 90
       50
102
RTVSPost2010PropOp47
 70
     1
102
RTVSPost2010Prop48
 90
       50
102
RTVSPost2010PropOp48
 70
     1
102
RTVSPost2010Prop49
280
     0
102
RTVSPost2010PropOp49
 70
     1
102
RTVSPost2010Prop50
 90
       50
102
RTVSPost2010PropOp50
 70
     1
102
RTVSPost2010Prop51ColorIndex
 90
      256
102
RTVSPost2010Prop51ColorRGB
 90
-16777216
102
RTVSPost2010PropOp51
 70
     0
102
RTVSPost2010Prop52
140
1.0
102
RTVSPost2010PropOp52
 70
     0
102
RTVSPost2010Prop53
 90
        2
102
RTVSPost2010PropOp53
 70
     1
102
RTVSPost2010Prop54
  1
strokes_ogs.tif
102
RTVSPost2010PropOp54
 70
     1
102
RTVSPost2010Prop55
280
     0
102
RTVSPost2010PropOp55
 70
     1
102
RTVSPost2010Prop56
140
1.0
102
RTVSPost2010PropOp56
 70
     1
102
RTVSPost2010Prop57
140
1.0
102
RTVSPost2010PropOp57
 70
     1
102
RTVSPropertyOp0
 70
     1
102
RTVSPropertyOp1
 70
     1
102
RTVSPropertyOp2
 70
     1
102
RTVSPropertyOp3
 70
     1
102
RTVSPropertyOp4
 70
     1
102
RTVSPropertyOp5
 70
     1
102
RTVSPropertyOp6
 70
     1
102
RTVSPropertyOp7
 70
     1
102
RTVSPropertyOp8
 70
     1
102
RTVSPropertyOp9
 70
     1
102
RTVSPropertyOp10
 70
     1
102
RTVSPropertyOp11
 70
     1
102
RTVSPropertyOp12
 70
     1
102
RTVSPropertyOp13
 70
     1
102
RTVSPropertyOp14
 70
     1
102
RTVSPropertyOp15
 70
     1
102
RTVSPropertyOp16
 70
     1
102
RTVSPropertyOp17
 70
     1
102
RTVSPropertyOp18
 70
     1
102
RTVSPropertyOp19
 70
     1
102
RTVSPropertyOp20
 70
     1
102
RTVSPropertyOp21
 70
     1
102
RTVSPropertyOp22
 70
     1
102
RTVSPropertyOp23
 70
     1
102
RTVSPropertyOp24
 70
     1
102
RTVSPropertyOp25
 70
     1
102
RTVSPropertyOp26
 70
     1
102
RTVSPropertyOp27
 70
     1
102
RTVSPropertyOp28
 70
     1
102
RTVSPropertyOp29
 70
     1
102
RTVSPropertyOp30
 70
     1
102
RTVSPropertyOp31
 70
     1
102
RTVSPropertyOp32
 70
     1
102
RTVSPropertyOp33
 70
     1
102
RTVSPropertyOp34
 70
     1
102
RTVSPropertyOp35
 70
     1
102
RTVSPropertyOp36
 70
     1
102
RTVSPropertyOp37
 70
     1
102
RTVSPropertyOp38
 70
     1
102
RTVSPropertyOp39
 70
     1
102
RTVSPropertyOp40
 70
     1
102
RTVSPropertyOp41
 70
     1
102
RTVSPropertyOp42
 70
     1
102
RTVSPropertyOp43
 70
     1
102
RTVSPropertyOp44
 70
     1
102
RTVSPropertyOp45
 70
     1
102
RTVSPropertyOp46
 70
     1
102
RTVSPropertyOp47
 70
     1
102
RTVSPropertyOp48
 70
     1
102
RTVSPropertyOp49
 70
     1
102
RTVSPropertyOp50
 70
     1
102
RTVSPropertyOp51
 70
     0
102
RTVSPropertyOp52
 70
     0
102
RTVSPropertyOp53
 70
     1
102
RTVSPropertyOp54
 70
     1
102
RTVSPropertyOp55
 70
     1
102
RTVSPropertyOp56
 70
     1
102
RTVSPropertyOp57
 70
     1
102
RTVSPropertyOp58
 70
     1
102
RTVSPropertyOp59
 70
     1
102
RTVSPropertyOp60
 70
     1
102
RTVSPropertyOp61
 70
     1
102
RTVSPropertyOp62
 70
     1
  0
XRECORD
  5
1DF8
102
{ACAD_REACTORS
330
1DF7
102
}
330
1DF7
100
AcDbXrecord
280
     1
102
RTVSPost2010Prop28
280
     0
102
RTVSPost2010PropOp28
 70
     1
102
RTVSPost2010Prop29
280
     1
102
RTVSPost2010PropOp29
 70
     1
102
RTVSPost2010Prop30
280
     1
102
RTVSPost2010PropOp30
 70
     1
102
RTVSPost2010Prop31
280
     0
102
RTVSPost2010PropOp31
 70
     1
102
RTVSPost2010Prop32
280
     0
102
RTVSPost2010PropOp32
 70
     1
102
RTVSPost2010Prop33
280
     0
102
RTVSPost2010PropOp33
 70
     1
102
RTVSPost2010Prop34
280
     0
102
RTVSPost2010PropOp34
 70
     1
102
RTVSPost2010Prop35
280
     0
102
RTVSPost2010PropOp35
 70
     1
102
RTVSPost2010Prop36
280
     0
102
RTVSPost2010PropOp36
 70
     1
102
RTVSPost2010Prop37
 90
       50
102
RTVSPost2010PropOp37
 70
     1
102
RTVSPost2010Prop38
140
0.0
102
RTVSPost2010PropOp38
 70
     1
102
RTVSPost2010Prop39
140
1.0
102
RTVSPost2010PropOp39
 70
     1
102
RTVSPost2010Prop40
 90
        0
102
RTVSPost2010PropOp40
 70
     1
102
RTVSPost2010Prop41ColorIndex
 90
       18
102
RTVSPost2010Prop41ColorRGB
 90
        0
102
RTVSPost2010PropOp41
 70
     1
102
RTVSPost2010Prop42
 90
       50
102
RTVSPost2010PropOp42
 70
     1
102
RTVSPost2010Prop43
 90
        3
102
RTVSPost2010PropOp43
 70
     1
102
RTVSPost2010Prop44ColorIndex
 90
        5
102
RTVSPost2010Prop44ColorRGB
 90
      255
102
RTVSPost2010PropOp44
 70
     1
102
RTVSPost2010Prop45
280
     0
102
RTVSPost2010PropOp45
 70
     1
102
RTVSPost2010Prop46
 90
       50
102
RTVSPost2010PropOp46
 70
     1
102
RTVSPost2010Prop47
 90
       50
102
RTVSPost2010PropOp47
 70
     1
102
RTVSPost2010Prop48
 90
       50
102
RTVSPost2010PropOp48
 70
     1
102
RTVSPost2010Prop49
280
     0
102
RTVSPost2010PropOp49
 70
     1
102
RTVSPost2010Prop50
 90
       50
102
RTVSPost2010PropOp50
 70
     1
102
RTVSPost2010Prop51ColorIndex
 90
      256
102
RTVSPost2010Prop51ColorRGB
 90
-16777216
102
RTVSPost2010PropOp51
 70
     0
102
RTVSPost2010Prop52
140
1.0
102
RTVSPost2010PropOp52
 70
     0
102
RTVSPost2010Prop53
 90
        2
102
RTVSPost2010PropOp53
 70
     1
102
RTVSPost2010Prop54
  1
strokes_ogs.tif
102
RTVSPost2010PropOp54
 70
     1
102
RTVSPost2010Prop55
280
     0
102
RTVSPost2010PropOp55
 70
     1
102
RTVSPost2010Prop56
140
1.0
102
RTVSPost2010PropOp56
 70
     1
102
RTVSPost2010Prop57
140
1.0
102
RTVSPost2010PropOp57
 70
     1
102
RTVSPropertyOp0
 70
     1
102
RTVSPropertyOp1
 70
     1
102
RTVSPropertyOp2
 70
     1
102
RTVSPropertyOp3
 70
     1
102
RTVSPropertyOp4
 70
     1
102
RTVSPropertyOp5
 70
     1
102
RTVSPropertyOp6
 70
     1
102
RTVSPropertyOp7
 70
     1
102
RTVSPropertyOp8
 70
     1
102
RTVSPropertyOp9
 70
     1
102
RTVSPropertyOp10
 70
     1
102
RTVSPropertyOp11
 70
     1
102
RTVSPropertyOp12
 70
     1
102
RTVSPropertyOp13
 70
     1
102
RTVSPropertyOp14
 70
     1
102
RTVSPropertyOp15
 70
     1
102
RTVSPropertyOp16
 70
     1
102
RTVSPropertyOp17
 70
     1
102
RTVSPropertyOp18
 70
     1
102
RTVSPropertyOp19
 70
     1
102
RTVSPropertyOp20
 70
     1
102
RTVSPropertyOp21
 70
     1
102
RTVSPropertyOp22
 70
     1
102
RTVSPropertyOp23
 70
     1
102
RTVSPropertyOp24
 70
     1
102
RTVSPropertyOp25
 70
     1
102
RTVSPropertyOp26
 70
     1
102
RTVSPropertyOp27
 70
     1
102
RTVSPropertyOp28
 70
     1
102
RTVSPropertyOp29
 70
     1
102
RTVSPropertyOp30
 70
     1
102
RTVSPropertyOp31
 70
     1
102
RTVSPropertyOp32
 70
     1
102
RTVSPropertyOp33
 70
     1
102
RTVSPropertyOp34
 70
     1
102
RTVSPropertyOp35
 70
     1
102
RTVSPropertyOp36
 70
     1
102
RTVSPropertyOp37
 70
     1
102
RTVSPropertyOp38
 70
     1
102
RTVSPropertyOp39
 70
     1
102
RTVSPropertyOp40
 70
     1
102
RTVSPropertyOp41
 70
     1
102
RTVSPropertyOp42
 70
     1
102
RTVSPropertyOp43
 70
     1
102
RTVSPropertyOp44
 70
     1
102
RTVSPropertyOp45
 70
     1
102
RTVSPropertyOp46
 70
     1
102
RTVSPropertyOp47
 70
     1
102
RTVSPropertyOp48
 70
     1
102
RTVSPropertyOp49
 70
     1
102
RTVSPropertyOp50
 70
     1
102
RTVSPropertyOp51
 70
     0
102
RTVSPropertyOp52
 70
     0
102
RTVSPropertyOp53
 70
     1
102
RTVSPropertyOp54
 70
     1
102
RTVSPropertyOp55
 70
     1
102
RTVSPropertyOp56
 70
     1
102
RTVSPropertyOp57
 70
     1
102
RTVSPropertyOp58
 70
     1
102
RTVSPropertyOp59
 70
     1
102
RTVSPropertyOp60
 70
     1
102
RTVSPropertyOp61
 70
     1
102
RTVSPropertyOp62
 70
     1
  0
XRECORD
  5
1E00
102
{ACAD_REACTORS
330
1DFF
102
}
330
1DFF
100
AcDbXrecord
280
     1
102
RTVSPost2010Prop28
280
     0
102
RTVSPost2010PropOp28
 70
     1
102
RTVSPost2010Prop29
280
     1
102
RTVSPost2010PropOp29
 70
     1
102
RTVSPost2010Prop30
280
     1
102
RTVSPost2010PropOp30
 70
     1
102
RTVSPost2010Prop31
280
     0
102
RTVSPost2010PropOp31
 70
     1
102
RTVSPost2010Prop32
280
     0
102
RTVSPost2010PropOp32
 70
     1
102
RTVSPost2010Prop33
280
     0
102
RTVSPost2010PropOp33
 70
     1
102
RTVSPost2010Prop34
280
     0
102
RTVSPost2010PropOp34
 70
     1
102
RTVSPost2010Prop35
280
     0
102
RTVSPost2010PropOp35
 70
     1
102
RTVSPost2010Prop36
280
     0
102
RTVSPost2010PropOp36
 70
     1
102
RTVSPost2010Prop37
 90
       50
102
RTVSPost2010PropOp37
 70
     1
102
RTVSPost2010Prop38
140
0.0
102
RTVSPost2010PropOp38
 70
     1
102
RTVSPost2010Prop39
140
1.0
102
RTVSPost2010PropOp39
 70
     1
102
RTVSPost2010Prop40
 90
        0
102
RTVSPost2010PropOp40
 70
     1
102
RTVSPost2010Prop41ColorIndex
 90
       18
102
RTVSPost2010Prop41ColorRGB
 90
        0
102
RTVSPost2010PropOp41
 70
     1
102
RTVSPost2010Prop42
 90
       50
102
RTVSPost2010PropOp42
 70
     1
102
RTVSPost2010Prop43
 90
        3
102
RTVSPost2010PropOp43
 70
     1
102
RTVSPost2010Prop44ColorIndex
 90
        5
102
RTVSPost2010Prop44ColorRGB
 90
      255
102
RTVSPost2010PropOp44
 70
     1
102
RTVSPost2010Prop45
280
     0
102
RTVSPost2010PropOp45
 70
     1
102
RTVSPost2010Prop46
 90
       50
102
RTVSPost2010PropOp46
 70
     1
102
RTVSPost2010Prop47
 90
       50
102
RTVSPost2010PropOp47
 70
     1
102
RTVSPost2010Prop48
 90
       50
102
RTVSPost2010PropOp48
 70
     1
102
RTVSPost2010Prop49
280
     0
102
RTVSPost2010PropOp49
 70
     1
102
RTVSPost2010Prop50
 90
       50
102
RTVSPost2010PropOp50
 70
     1
102
RTVSPost2010Prop51ColorIndex
 90
      256
102
RTVSPost2010Prop51ColorRGB
 90
-16777216
102
RTVSPost2010PropOp51
 70
     0
102
RTVSPost2010Prop52
140
1.0
102
RTVSPost2010PropOp52
 70
     0
102
RTVSPost2010Prop53
 90
        2
102
RTVSPost2010PropOp53
 70
     1
102
RTVSPost2010Prop54
  1
strokes_ogs.tif
102
RTVSPost2010PropOp54
 70
     1
102
RTVSPost2010Prop55
280
     0
102
RTVSPost2010PropOp55
 70
     1
102
RTVSPost2010Prop56
140
1.0
102
RTVSPost2010PropOp56
 70
     1
102
RTVSPost2010Prop57
140
1.0
102
RTVSPost2010PropOp57
 70
     1
102
RTVSPropertyOp0
 70
     1
102
RTVSPropertyOp1
 70
     1
102
RTVSPropertyOp2
 70
     1
102
RTVSPropertyOp3
 70
     1
102
RTVSPropertyOp4
 70
     1
102
RTVSPropertyOp5
 70
     1
102
RTVSPropertyOp6
 70
     1
102
RTVSPropertyOp7
 70
     1
102
RTVSPropertyOp8
 70
     1
102
RTVSPropertyOp9
 70
     1
102
RTVSPropertyOp10
 70
     1
102
RTVSPropertyOp11
 70
     1
102
RTVSPropertyOp12
 70
     1
102
RTVSPropertyOp13
 70
     1
102
RTVSPropertyOp14
 70
     1
102
RTVSPropertyOp15
 70
     1
102
RTVSPropertyOp16
 70
     1
102
RTVSPropertyOp17
 70
     1
102
RTVSPropertyOp18
 70
     1
102
RTVSPropertyOp19
 70
     1
102
RTVSPropertyOp20
 70
     1
102
RTVSPropertyOp21
 70
     1
102
RTVSPropertyOp22
 70
     1
102
RTVSPropertyOp23
 70
     1
102
RTVSPropertyOp24
 70
     1
102
RTVSPropertyOp25
 70
     1
102
RTVSPropertyOp26
 70
     1
102
RTVSPropertyOp27
 70
     1
102
RTVSPropertyOp28
 70
     1
102
RTVSPropertyOp29
 70
     1
102
RTVSPropertyOp30
 70
     1
102
RTVSPropertyOp31
 70
     1
102
RTVSPropertyOp32
 70
     1
102
RTVSPropertyOp33
 70
     1
102
RTVSPropertyOp34
 70
     1
102
RTVSPropertyOp35
 70
     1
102
RTVSPropertyOp36
 70
     1
102
RTVSPropertyOp37
 70
     1
102
RTVSPropertyOp38
 70
     1
102
RTVSPropertyOp39
 70
     1
102
RTVSPropertyOp40
 70
     1
102
RTVSPropertyOp41
 70
     1
102
RTVSPropertyOp42
 70
     1
102
RTVSPropertyOp43
 70
     1
102
RTVSPropertyOp44
 70
     1
102
RTVSPropertyOp45
 70
     1
102
RTVSPropertyOp46
 70
     1
102
RTVSPropertyOp47
 70
     1
102
RTVSPropertyOp48
 70
     1
102
RTVSPropertyOp49
 70
     1
102
RTVSPropertyOp50
 70
     1
102
RTVSPropertyOp51
 70
     0
102
RTVSPropertyOp52
 70
     0
102
RTVSPropertyOp53
 70
     1
102
RTVSPropertyOp54
 70
     1
102
RTVSPropertyOp55
 70
     1
102
RTVSPropertyOp56
 70
     1
102
RTVSPropertyOp57
 70
     1
102
RTVSPropertyOp58
 70
     1
102
RTVSPropertyOp59
 70
     1
102
RTVSPropertyOp60
 70
     1
102
RTVSPropertyOp61
 70
     1
102
RTVSPropertyOp62
 70
     1
  0
XRECORD
  5
1E1C
102
{ACAD_REACTORS
330
1E1B
102
}
330
1E1B
100
AcDbXrecord
280
     1
102
RTVSPost2010Prop28
280
     0
102
RTVSPost2010PropOp28
 70
     0
102
RTVSPost2010Prop29
280
     1
102
RTVSPost2010PropOp29
 70
     0
102
RTVSPost2010Prop30
280
     1
102
RTVSPost2010PropOp30
 70
     0
102
RTVSPost2010Prop31
280
     0
102
RTVSPost2010PropOp31
 70
     0
102
RTVSPost2010Prop32
280
     0
102
RTVSPost2010PropOp32
 70
     0
102
RTVSPost2010Prop33
280
     0
102
RTVSPost2010PropOp33
 70
     0
102
RTVSPost2010Prop34
280
     0
102
RTVSPost2010PropOp34
 70
     0
102
RTVSPost2010Prop35
280
     0
102
RTVSPost2010PropOp35
 70
     0
102
RTVSPost2010Prop36
280
     0
102
RTVSPost2010PropOp36
 70
     0
102
RTVSPost2010Prop37
 90
       50
102
RTVSPost2010PropOp37
 70
     0
102
RTVSPost2010Prop38
140
0.0
102
RTVSPost2010PropOp38
 70
     0
102
RTVSPost2010Prop39
140
1.0
102
RTVSPost2010PropOp39
 70
     0
102
RTVSPost2010Prop40
 90
        0
102
RTVSPost2010PropOp40
 70
     0
102
RTVSPost2010Prop41ColorIndex
 90
       18
102
RTVSPost2010Prop41ColorRGB
 90
        0
102
RTVSPost2010PropOp41
 70
     0
102
RTVSPost2010Prop42
 90
       50
102
RTVSPost2010PropOp42
 70
     0
102
RTVSPost2010Prop43
 90
        3
102
RTVSPost2010PropOp43
 70
     0
102
RTVSPost2010Prop44ColorIndex
 90
        5
102
RTVSPost2010Prop44ColorRGB
 90
      255
102
RTVSPost2010PropOp44
 70
     0
102
RTVSPost2010Prop45
280
     0
102
RTVSPost2010PropOp45
 70
     0
102
RTVSPost2010Prop46
 90
       50
102
RTVSPost2010PropOp46
 70
     0
102
RTVSPost2010Prop47
 90
       50
102
RTVSPost2010PropOp47
 70
     0
102
RTVSPost2010Prop48
 90
       50
102
RTVSPost2010PropOp48
 70
     0
102
RTVSPost2010Prop49
280
     0
102
RTVSPost2010PropOp49
 70
     0
102
RTVSPost2010Prop50
 90
       50
102
RTVSPost2010PropOp50
 70
     0
102
RTVSPost2010Prop51ColorIndex
 90
      256
102
RTVSPost2010Prop51ColorRGB
 90
-16777216
102
RTVSPost2010PropOp51
 70
     0
102
RTVSPost2010Prop52
140
1.0
102
RTVSPost2010PropOp52
 70
     0
102
RTVSPost2010Prop53
 90
        2
102
RTVSPost2010PropOp53
 70
     0
102
RTVSPost2010Prop54
  1
strokes_ogs.tif
102
RTVSPost2010PropOp54
 70
     0
102
RTVSPost2010Prop55
280
     0
102
RTVSPost2010PropOp55
 70
     0
102
RTVSPost2010Prop56
140
1.0
102
RTVSPost2010PropOp56
 70
     0
102
RTVSPost2010Prop57
140
1.0
102
RTVSPost2010PropOp57
 70
     0
102
RTVSPropertyOp0
 70
     0
102
RTVSPropertyOp1
 70
     0
102
RTVSPropertyOp2
 70
     0
102
RTVSPropertyOp3
 70
     0
102
RTVSPropertyOp4
 70
     0
102
RTVSPropertyOp5
 70
     0
102
RTVSPropertyOp6
 70
     0
102
RTVSPropertyOp7
 70
     0
102
RTVSPropertyOp8
 70
     0
102
RTVSPropertyOp9
 70
     0
102
RTVSPropertyOp10
 70
     0
102
RTVSPropertyOp11
 70
     0
102
RTVSPropertyOp12
 70
     0
102
RTVSPropertyOp13
 70
     0
102
RTVSPropertyOp14
 70
     2
102
RTVSPropertyOp15
 70
     0
102
RTVSPropertyOp16
 70
     0
102
RTVSPropertyOp17
 70
     0
102
RTVSPropertyOp18
 70
     0
102
RTVSPropertyOp19
 70
     0
102
RTVSPropertyOp20
 70
     0
102
RTVSPropertyOp21
 70
     0
102
RTVSPropertyOp22
 70
     0
102
RTVSPropertyOp23
 70
     0
102
RTVSPropertyOp24
 70
     0
102
RTVSPropertyOp25
 70
     0
102
RTVSPropertyOp26
 70
     0
102
RTVSPropertyOp27
 70
     0
102
RTVSPropertyOp28
 70
     0
102
RTVSPropertyOp29
 70
     0
102
RTVSPropertyOp30
 70
     0
102
RTVSPropertyOp31
 70
     0
102
RTVSPropertyOp32
 70
     0
102
RTVSPropertyOp33
 70
     0
102
RTVSPropertyOp34
 70
     0
102
RTVSPropertyOp35
 70
     0
102
RTVSPropertyOp36
 70
     0
102
RTVSPropertyOp37
 70
     0
102
RTVSPropertyOp38
 70
     0
102
RTVSPropertyOp39
 70
     0
102
RTVSPropertyOp40
 70
     0
102
RTVSPropertyOp41
 70
     0
102
RTVSPropertyOp42
 70
     0
102
RTVSPropertyOp43
 70
     0
102
RTVSPropertyOp44
 70
     0
102
RTVSPropertyOp45
 70
     0
102
RTVSPropertyOp46
 70
     0
102
RTVSPropertyOp47
 70
     0
102
RTVSPropertyOp48
 70
     0
102
RTVSPropertyOp49
 70
     0
102
RTVSPropertyOp50
 70
     0
102
RTVSPropertyOp51
 70
     0
102
RTVSPropertyOp52
 70
     0
102
RTVSPropertyOp53
 70
     0
102
RTVSPropertyOp54
 70
     0
102
RTVSPropertyOp55
 70
     0
102
RTVSPropertyOp56
 70
     0
102
RTVSPropertyOp57
 70
     0
102
RTVSPropertyOp58
 70
     0
102
RTVSPropertyOp59
 70
     0
102
RTVSPropertyOp60
 70
     0
102
RTVSPropertyOp61
 70
     0
102
RTVSPropertyOp62
 70
     0
  0
XRECORD
  5
1E0C
102
{ACAD_REACTORS
330
1E0B
102
}
330
1E0B
100
AcDbXrecord
280
     1
102
RTVSPost2010Prop28
280
     0
102
RTVSPost2010PropOp28
 70
     1
102
RTVSPost2010Prop29
280
     1
102
RTVSPost2010PropOp29
 70
     1
102
RTVSPost2010Prop30
280
     1
102
RTVSPost2010PropOp30
 70
     1
102
RTVSPost2010Prop31
280
     0
102
RTVSPost2010PropOp31
 70
     1
102
RTVSPost2010Prop32
280
     0
102
RTVSPost2010PropOp32
 70
     1
102
RTVSPost2010Prop33
280
     0
102
RTVSPost2010PropOp33
 70
     1
102
RTVSPost2010Prop34
280
     0
102
RTVSPost2010PropOp34
 70
     1
102
RTVSPost2010Prop35
280
     0
102
RTVSPost2010PropOp35
 70
     1
102
RTVSPost2010Prop36
280
     0
102
RTVSPost2010PropOp36
 70
     1
102
RTVSPost2010Prop37
 90
       50
102
RTVSPost2010PropOp37
 70
     1
102
RTVSPost2010Prop38
140
0.0
102
RTVSPost2010PropOp38
 70
     1
102
RTVSPost2010Prop39
140
1.0
102
RTVSPost2010PropOp39
 70
     1
102
RTVSPost2010Prop40
 90
        0
102
RTVSPost2010PropOp40
 70
     1
102
RTVSPost2010Prop41ColorIndex
 90
       18
102
RTVSPost2010Prop41ColorRGB
 90
        0
102
RTVSPost2010PropOp41
 70
     1
102
RTVSPost2010Prop42
 90
       50
102
RTVSPost2010PropOp42
 70
     1
102
RTVSPost2010Prop43
 90
        3
102
RTVSPost2010PropOp43
 70
     1
102
RTVSPost2010Prop44ColorIndex
 90
        5
102
RTVSPost2010Prop44ColorRGB
 90
      255
102
RTVSPost2010PropOp44
 70
     1
102
RTVSPost2010Prop45
280
     0
102
RTVSPost2010PropOp45
 70
     1
102
RTVSPost2010Prop46
 90
       50
102
RTVSPost2010PropOp46
 70
     1
102
RTVSPost2010Prop47
 90
       50
102
RTVSPost2010PropOp47
 70
     1
102
RTVSPost2010Prop48
 90
       50
102
RTVSPost2010PropOp48
 70
     1
102
RTVSPost2010Prop49
280
     0
102
RTVSPost2010PropOp49
 70
     1
102
RTVSPost2010Prop50
 90
       50
102
RTVSPost2010PropOp50
 70
     1
102
RTVSPost2010Prop51ColorIndex
 90
      256
102
RTVSPost2010Prop51ColorRGB
 90
-16777216
102
RTVSPost2010PropOp51
 70
     0
102
RTVSPost2010Prop52
140
1.0
102
RTVSPost2010PropOp52
 70
     0
102
RTVSPost2010Prop53
 90
        2
102
RTVSPost2010PropOp53
 70
     1
102
RTVSPost2010Prop54
  1
strokes_ogs.tif
102
RTVSPost2010PropOp54
 70
     1
102
RTVSPost2010Prop55
280
     0
102
RTVSPost2010PropOp55
 70
     1
102
RTVSPost2010Prop56
140
1.0
102
RTVSPost2010PropOp56
 70
     1
102
RTVSPost2010Prop57
140
1.0
102
RTVSPost2010PropOp57
 70
     1
102
RTVSPropertyOp0
 70
     1
102
RTVSPropertyOp1
 70
     1
102
RTVSPropertyOp2
 70
     1
102
RTVSPropertyOp3
 70
     1
102
RTVSPropertyOp4
 70
     1
102
RTVSPropertyOp5
 70
     1
102
RTVSPropertyOp6
 70
     1
102
RTVSPropertyOp7
 70
     1
102
RTVSPropertyOp8
 70
     1
102
RTVSPropertyOp9
 70
     1
102
RTVSPropertyOp10
 70
     1
102
RTVSPropertyOp11
 70
     1
102
RTVSPropertyOp12
 70
     1
102
RTVSPropertyOp13
 70
     1
102
RTVSPropertyOp14
 70
     1
102
RTVSPropertyOp15
 70
     1
102
RTVSPropertyOp16
 70
     1
102
RTVSPropertyOp17
 70
     1
102
RTVSPropertyOp18
 70
     1
102
RTVSPropertyOp19
 70
     1
102
RTVSPropertyOp20
 70
     1
102
RTVSPropertyOp21
 70
     1
102
RTVSPropertyOp22
 70
     1
102
RTVSPropertyOp23
 70
     1
102
RTVSPropertyOp24
 70
     1
102
RTVSPropertyOp25
 70
     1
102
RTVSPropertyOp26
 70
     1
102
RTVSPropertyOp27
 70
     1
102
RTVSPropertyOp28
 70
     1
102
RTVSPropertyOp29
 70
     1
102
RTVSPropertyOp30
 70
     1
102
RTVSPropertyOp31
 70
     1
102
RTVSPropertyOp32
 70
     1
102
RTVSPropertyOp33
 70
     1
102
RTVSPropertyOp34
 70
     1
102
RTVSPropertyOp35
 70
     1
102
RTVSPropertyOp36
 70
     1
102
RTVSPropertyOp37
 70
     1
102
RTVSPropertyOp38
 70
     1
102
RTVSPropertyOp39
 70
     1
102
RTVSPropertyOp40
 70
     1
102
RTVSPropertyOp41
 70
     1
102
RTVSPropertyOp42
 70
     1
102
RTVSPropertyOp43
 70
     1
102
RTVSPropertyOp44
 70
     1
102
RTVSPropertyOp45
 70
     1
102
RTVSPropertyOp46
 70
     1
102
RTVSPropertyOp47
 70
     1
102
RTVSPropertyOp48
 70
     1
102
RTVSPropertyOp49
 70
     1
102
RTVSPropertyOp50
 70
     1
102
RTVSPropertyOp51
 70
     0
102
RTVSPropertyOp52
 70
     0
102
RTVSPropertyOp53
 70
     1
102
RTVSPropertyOp54
 70
     1
102
RTVSPropertyOp55
 70
     1
102
RTVSPropertyOp56
 70
     1
102
RTVSPropertyOp57
 70
     1
102
RTVSPropertyOp58
 70
     1
102
RTVSPropertyOp59
 70
     1
102
RTVSPropertyOp60
 70
     1
102
RTVSPropertyOp61
 70
     1
102
RTVSPropertyOp62
 70
     1
  0
XRECORD
  5
1E1E
102
{ACAD_REACTORS
330
1E1D
102
}
330
1E1D
100
AcDbXrecord
280
     1
102
RTVSPost2010Prop28
280
     0
102
RTVSPost2010PropOp28
 70
     0
102
RTVSPost2010Prop29
280
     1
102
RTVSPost2010PropOp29
 70
     0
102
RTVSPost2010Prop30
280
     1
102
RTVSPost2010PropOp30
 70
     0
102
RTVSPost2010Prop31
280
     0
102
RTVSPost2010PropOp31
 70
     0
102
RTVSPost2010Prop32
280
     0
102
RTVSPost2010PropOp32
 70
     0
102
RTVSPost2010Prop33
280
     0
102
RTVSPost2010PropOp33
 70
     0
102
RTVSPost2010Prop34
280
     0
102
RTVSPost2010PropOp34
 70
     0
102
RTVSPost2010Prop35
280
     0
102
RTVSPost2010PropOp35
 70
     0
102
RTVSPost2010Prop36
280
     0
102
RTVSPost2010PropOp36
 70
     0
102
RTVSPost2010Prop37
 90
       50
102
RTVSPost2010PropOp37
 70
     0
102
RTVSPost2010Prop38
140
0.0
102
RTVSPost2010PropOp38
 70
     0
102
RTVSPost2010Prop39
140
1.0
102
RTVSPost2010PropOp39
 70
     0
102
RTVSPost2010Prop40
 90
        0
102
RTVSPost2010PropOp40
 70
     0
102
RTVSPost2010Prop41ColorIndex
 90
       18
102
RTVSPost2010Prop41ColorRGB
 90
        0
102
RTVSPost2010PropOp41
 70
     0
102
RTVSPost2010Prop42
 90
       50
102
RTVSPost2010PropOp42
 70
     0
102
RTVSPost2010Prop43
 90
        3
102
RTVSPost2010PropOp43
 70
     0
102
RTVSPost2010Prop44ColorIndex
 90
        5
102
RTVSPost2010Prop44ColorRGB
 90
      255
102
RTVSPost2010PropOp44
 70
     0
102
RTVSPost2010Prop45
280
     0
102
RTVSPost2010PropOp45
 70
     0
102
RTVSPost2010Prop46
 90
       50
102
RTVSPost2010PropOp46
 70
     0
102
RTVSPost2010Prop47
 90
       50
102
RTVSPost2010PropOp47
 70
     0
102
RTVSPost2010Prop48
 90
       50
102
RTVSPost2010PropOp48
 70
     0
102
RTVSPost2010Prop49
280
     0
102
RTVSPost2010PropOp49
 70
     0
102
RTVSPost2010Prop50
 90
       50
102
RTVSPost2010PropOp50
 70
     0
102
RTVSPost2010Prop51ColorIndex
 90
      256
102
RTVSPost2010Prop51ColorRGB
 90
-16777216
102
RTVSPost2010PropOp51
 70
     0
102
RTVSPost2010Prop52
140
1.0
102
RTVSPost2010PropOp52
 70
     0
102
RTVSPost2010Prop53
 90
        2
102
RTVSPost2010PropOp53
 70
     0
102
RTVSPost2010Prop54
  1
strokes_ogs.tif
102
RTVSPost2010PropOp54
 70
     0
102
RTVSPost2010Prop55
280
     0
102
RTVSPost2010PropOp55
 70
     0
102
RTVSPost2010Prop56
140
1.0
102
RTVSPost2010PropOp56
 70
     0
102
RTVSPost2010Prop57
140
1.0
102
RTVSPost2010PropOp57
 70
     0
102
RTVSPropertyOp0
 70
     0
102
RTVSPropertyOp1
 70
     0
102
RTVSPropertyOp2
 70
     0
102
RTVSPropertyOp3
 70
     0
102
RTVSPropertyOp4
 70
     0
102
RTVSPropertyOp5
 70
     0
102
RTVSPropertyOp6
 70
     0
102
RTVSPropertyOp7
 70
     0
102
RTVSPropertyOp8
 70
     0
102
RTVSPropertyOp9
 70
     0
102
RTVSPropertyOp10
 70
     0
102
RTVSPropertyOp11
 70
     0
102
RTVSPropertyOp12
 70
     0
102
RTVSPropertyOp13
 70
     0
102
RTVSPropertyOp14
 70
     2
102
RTVSPropertyOp15
 70
     0
102
RTVSPropertyOp16
 70
     0
102
RTVSPropertyOp17
 70
     0
102
RTVSPropertyOp18
 70
     0
102
RTVSPropertyOp19
 70
     0
102
RTVSPropertyOp20
 70
     0
102
RTVSPropertyOp21
 70
     0
102
RTVSPropertyOp22
 70
     0
102
RTVSPropertyOp23
 70
     0
102
RTVSPropertyOp24
 70
     0
102
RTVSPropertyOp25
 70
     0
102
RTVSPropertyOp26
 70
     0
102
RTVSPropertyOp27
 70
     0
102
RTVSPropertyOp28
 70
     0
102
RTVSPropertyOp29
 70
     0
102
RTVSPropertyOp30
 70
     0
102
RTVSPropertyOp31
 70
     0
102
RTVSPropertyOp32
 70
     0
102
RTVSPropertyOp33
 70
     0
102
RTVSPropertyOp34
 70
     0
102
RTVSPropertyOp35
 70
     0
102
RTVSPropertyOp36
 70
     0
102
RTVSPropertyOp37
 70
     0
102
RTVSPropertyOp38
 70
     0
102
RTVSPropertyOp39
 70
     0
102
RTVSPropertyOp40
 70
     0
102
RTVSPropertyOp41
 70
     0
102
RTVSPropertyOp42
 70
     0
102
RTVSPropertyOp43
 70
     0
102
RTVSPropertyOp44
 70
     0
102
RTVSPropertyOp45
 70
     0
102
RTVSPropertyOp46
 70
     0
102
RTVSPropertyOp47
 70
     0
102
RTVSPropertyOp48
 70
     0
102
RTVSPropertyOp49
 70
     0
102
RTVSPropertyOp50
 70
     0
102
RTVSPropertyOp51
 70
     0
102
RTVSPropertyOp52
 70
     0
102
RTVSPropertyOp53
 70
     0
102
RTVSPropertyOp54
 70
     0
102
RTVSPropertyOp55
 70
     0
102
RTVSPropertyOp56
 70
     0
102
RTVSPropertyOp57
 70
     0
102
RTVSPropertyOp58
 70
     0
102
RTVSPropertyOp59
 70
     0
102
RTVSPropertyOp60
 70
     0
102
RTVSPropertyOp61
 70
     0
102
RTVSPropertyOp62
 70
     0
  0
XRECORD
  5
1E04
102
{ACAD_REACTORS
330
1E03
102
}
330
1E03
100
AcDbXrecord
280
     1
102
RTVSPost2010Prop28
280
     0
102
RTVSPost2010PropOp28
 70
     1
102
RTVSPost2010Prop29
280
     1
102
RTVSPost2010PropOp29
 70
     1
102
RTVSPost2010Prop30
280
     1
102
RTVSPost2010PropOp30
 70
     1
102
RTVSPost2010Prop31
280
     0
102
RTVSPost2010PropOp31
 70
     1
102
RTVSPost2010Prop32
280
     0
102
RTVSPost2010PropOp32
 70
     1
102
RTVSPost2010Prop33
280
     0
102
RTVSPost2010PropOp33
 70
     1
102
RTVSPost2010Prop34
280
     0
102
RTVSPost2010PropOp34
 70
     1
102
RTVSPost2010Prop35
280
     0
102
RTVSPost2010PropOp35
 70
     1
102
RTVSPost2010Prop36
280
     0
102
RTVSPost2010PropOp36
 70
     1
102
RTVSPost2010Prop37
 90
       50
102
RTVSPost2010PropOp37
 70
     1
102
RTVSPost2010Prop38
140
0.0
102
RTVSPost2010PropOp38
 70
     1
102
RTVSPost2010Prop39
140
1.0
102
RTVSPost2010PropOp39
 70
     1
102
RTVSPost2010Prop40
 90
        0
102
RTVSPost2010PropOp40
 70
     1
102
RTVSPost2010Prop41ColorIndex
 90
       18
102
RTVSPost2010Prop41ColorRGB
 90
        0
102
RTVSPost2010PropOp41
 70
     1
102
RTVSPost2010Prop42
 90
       50
102
RTVSPost2010PropOp42
 70
     1
102
RTVSPost2010Prop43
 90
        3
102
RTVSPost2010PropOp43
 70
     1
102
RTVSPost2010Prop44ColorIndex
 90
        5
102
RTVSPost2010Prop44ColorRGB
 90
      255
102
RTVSPost2010PropOp44
 70
     1
102
RTVSPost2010Prop45
280
     0
102
RTVSPost2010PropOp45
 70
     1
102
RTVSPost2010Prop46
 90
       50
102
RTVSPost2010PropOp46
 70
     1
102
RTVSPost2010Prop47
 90
       50
102
RTVSPost2010PropOp47
 70
     1
102
RTVSPost2010Prop48
 90
       50
102
RTVSPost2010PropOp48
 70
     1
102
RTVSPost2010Prop49
280
     0
102
RTVSPost2010PropOp49
 70
     1
102
RTVSPost2010Prop50
 90
       50
102
RTVSPost2010PropOp50
 70
     1
102
RTVSPost2010Prop51ColorIndex
 90
      256
102
RTVSPost2010Prop51ColorRGB
 90
-16777216
102
RTVSPost2010PropOp51
 70
     0
102
RTVSPost2010Prop52
140
1.0
102
RTVSPost2010PropOp52
 70
     0
102
RTVSPost2010Prop53
 90
        2
102
RTVSPost2010PropOp53
 70
     1
102
RTVSPost2010Prop54
  1
strokes_ogs.tif
102
RTVSPost2010PropOp54
 70
     1
102
RTVSPost2010Prop55
280
     0
102
RTVSPost2010PropOp55
 70
     1
102
RTVSPost2010Prop56
140
1.0
102
RTVSPost2010PropOp56
 70
     1
102
RTVSPost2010Prop57
140
1.0
102
RTVSPost2010PropOp57
 70
     1
102
RTVSPropertyOp0
 70
     1
102
RTVSPropertyOp1
 70
     1
102
RTVSPropertyOp2
 70
     1
102
RTVSPropertyOp3
 70
     1
102
RTVSPropertyOp4
 70
     1
102
RTVSPropertyOp5
 70
     1
102
RTVSPropertyOp6
 70
     1
102
RTVSPropertyOp7
 70
     1
102
RTVSPropertyOp8
 70
     1
102
RTVSPropertyOp9
 70
     1
102
RTVSPropertyOp10
 70
     1
102
RTVSPropertyOp11
 70
     1
102
RTVSPropertyOp12
 70
     1
102
RTVSPropertyOp13
 70
     1
102
RTVSPropertyOp14
 70
     1
102
RTVSPropertyOp15
 70
     1
102
RTVSPropertyOp16
 70
     1
102
RTVSPropertyOp17
 70
     1
102
RTVSPropertyOp18
 70
     1
102
RTVSPropertyOp19
 70
     1
102
RTVSPropertyOp20
 70
     1
102
RTVSPropertyOp21
 70
     1
102
RTVSPropertyOp22
 70
     1
102
RTVSPropertyOp23
 70
     1
102
RTVSPropertyOp24
 70
     1
102
RTVSPropertyOp25
 70
     1
102
RTVSPropertyOp26
 70
     1
102
RTVSPropertyOp27
 70
     1
102
RTVSPropertyOp28
 70
     1
102
RTVSPropertyOp29
 70
     1
102
RTVSPropertyOp30
 70
     1
102
RTVSPropertyOp31
 70
     1
102
RTVSPropertyOp32
 70
     1
102
RTVSPropertyOp33
 70
     1
102
RTVSPropertyOp34
 70
     1
102
RTVSPropertyOp35
 70
     1
102
RTVSPropertyOp36
 70
     1
102
RTVSPropertyOp37
 70
     1
102
RTVSPropertyOp38
 70
     1
102
RTVSPropertyOp39
 70
     1
102
RTVSPropertyOp40
 70
     1
102
RTVSPropertyOp41
 70
     1
102
RTVSPropertyOp42
 70
     1
102
RTVSPropertyOp43
 70
     1
102
RTVSPropertyOp44
 70
     1
102
RTVSPropertyOp45
 70
     1
102
RTVSPropertyOp46
 70
     1
102
RTVSPropertyOp47
 70
     1
102
RTVSPropertyOp48
 70
     1
102
RTVSPropertyOp49
 70
     1
102
RTVSPropertyOp50
 70
     1
102
RTVSPropertyOp51
 70
     0
102
RTVSPropertyOp52
 70
     0
102
RTVSPropertyOp53
 70
     1
102
RTVSPropertyOp54
 70
     1
102
RTVSPropertyOp55
 70
     1
102
RTVSPropertyOp56
 70
     1
102
RTVSPropertyOp57
 70
     1
102
RTVSPropertyOp58
 70
     1
102
RTVSPropertyOp59
 70
     1
102
RTVSPropertyOp60
 70
     1
102
RTVSPropertyOp61
 70
     1
102
RTVSPropertyOp62
 70
     1
  0
XRECORD
  5
1E1A
102
{ACAD_REACTORS
330
1E19
102
}
330
1E19
100
AcDbXrecord
280
     1
102
RTVSPost2010Prop28
280
     0
102
RTVSPost2010PropOp28
 70
     1
102
RTVSPost2010Prop29
280
     1
102
RTVSPost2010PropOp29
 70
     1
102
RTVSPost2010Prop30
280
     1
102
RTVSPost2010PropOp30
 70
     1
102
RTVSPost2010Prop31
280
     0
102
RTVSPost2010PropOp31
 70
     1
102
RTVSPost2010Prop32
280
     0
102
RTVSPost2010PropOp32
 70
     1
102
RTVSPost2010Prop33
280
     0
102
RTVSPost2010PropOp33
 70
     1
102
RTVSPost2010Prop34
280
     0
102
RTVSPost2010PropOp34
 70
     1
102
RTVSPost2010Prop35
280
     0
102
RTVSPost2010PropOp35
 70
     1
102
RTVSPost2010Prop36
280
     0
102
RTVSPost2010PropOp36
 70
     1
102
RTVSPost2010Prop37
 90
       50
102
RTVSPost2010PropOp37
 70
     1
102
RTVSPost2010Prop38
140
0.0
102
RTVSPost2010PropOp38
 70
     1
102
RTVSPost2010Prop39
140
1.0
102
RTVSPost2010PropOp39
 70
     1
102
RTVSPost2010Prop40
 90
        0
102
RTVSPost2010PropOp40
 70
     1
102
RTVSPost2010Prop41ColorIndex
 90
       18
102
RTVSPost2010Prop41ColorRGB
 90
        0
102
RTVSPost2010PropOp41
 70
     1
102
RTVSPost2010Prop42
 90
       50
102
RTVSPost2010PropOp42
 70
     1
102
RTVSPost2010Prop43
 90
        3
102
RTVSPost2010PropOp43
 70
     1
102
RTVSPost2010Prop44ColorIndex
 90
        5
102
RTVSPost2010Prop44ColorRGB
 90
      255
102
RTVSPost2010PropOp44
 70
     1
102
RTVSPost2010Prop45
280
     0
102
RTVSPost2010PropOp45
 70
     1
102
RTVSPost2010Prop46
 90
       50
102
RTVSPost2010PropOp46
 70
     1
102
RTVSPost2010Prop47
 90
       50
102
RTVSPost2010PropOp47
 70
     1
102
RTVSPost2010Prop48
 90
       50
102
RTVSPost2010PropOp48
 70
     1
102
RTVSPost2010Prop49
280
     0
102
RTVSPost2010PropOp49
 70
     1
102
RTVSPost2010Prop50
 90
       50
102
RTVSPost2010PropOp50
 70
     1
102
RTVSPost2010Prop51ColorIndex
 90
      256
102
RTVSPost2010Prop51ColorRGB
 90
-16777216
102
RTVSPost2010PropOp51
 70
     0
102
RTVSPost2010Prop52
140
1.0
102
RTVSPost2010PropOp52
 70
     0
102
RTVSPost2010Prop53
 90
        2
102
RTVSPost2010PropOp53
 70
     1
102
RTVSPost2010Prop54
  1
strokes_ogs.tif
102
RTVSPost2010PropOp54
 70
     1
102
RTVSPost2010Prop55
280
     0
102
RTVSPost2010PropOp55
 70
     1
102
RTVSPost2010Prop56
140
1.0
102
RTVSPost2010PropOp56
 70
     1
102
RTVSPost2010Prop57
140
1.0
102
RTVSPost2010PropOp57
 70
     1
102
RTVSPropertyOp0
 70
     1
102
RTVSPropertyOp1
 70
     1
102
RTVSPropertyOp2
 70
     1
102
RTVSPropertyOp3
 70
     1
102
RTVSPropertyOp4
 70
     1
102
RTVSPropertyOp5
 70
     1
102
RTVSPropertyOp6
 70
     1
102
RTVSPropertyOp7
 70
     1
102
RTVSPropertyOp8
 70
     1
102
RTVSPropertyOp9
 70
     1
102
RTVSPropertyOp10
 70
     1
102
RTVSPropertyOp11
 70
     1
102
RTVSPropertyOp12
 70
     1
102
RTVSPropertyOp13
 70
     1
102
RTVSPropertyOp14
 70
     1
102
RTVSPropertyOp15
 70
     1
102
RTVSPropertyOp16
 70
     1
102
RTVSPropertyOp17
 70
     1
102
RTVSPropertyOp18
 70
     1
102
RTVSPropertyOp19
 70
     1
102
RTVSPropertyOp20
 70
     1
102
RTVSPropertyOp21
 70
     1
102
RTVSPropertyOp22
 70
     1
102
RTVSPropertyOp23
 70
     1
102
RTVSPropertyOp24
 70
     1
102
RTVSPropertyOp25
 70
     1
102
RTVSPropertyOp26
 70
     1
102
RTVSPropertyOp27
 70
     1
102
RTVSPropertyOp28
 70
     1
102
RTVSPropertyOp29
 70
     1
102
RTVSPropertyOp30
 70
     1
102
RTVSPropertyOp31
 70
     1
102
RTVSPropertyOp32
 70
     1
102
RTVSPropertyOp33
 70
     1
102
RTVSPropertyOp34
 70
     1
102
RTVSPropertyOp35
 70
     1
102
RTVSPropertyOp36
 70
     1
102
RTVSPropertyOp37
 70
     1
102
RTVSPropertyOp38
 70
     1
102
RTVSPropertyOp39
 70
     1
102
RTVSPropertyOp40
 70
     1
102
RTVSPropertyOp41
 70
     1
102
RTVSPropertyOp42
 70
     1
102
RTVSPropertyOp43
 70
     1
102
RTVSPropertyOp44
 70
     1
102
RTVSPropertyOp45
 70
     1
102
RTVSPropertyOp46
 70
     1
102
RTVSPropertyOp47
 70
     1
102
RTVSPropertyOp48
 70
     1
102
RTVSPropertyOp49
 70
     1
102
RTVSPropertyOp50
 70
     1
102
RTVSPropertyOp51
 70
     0
102
RTVSPropertyOp52
 70
     0
102
RTVSPropertyOp53
 70
     1
102
RTVSPropertyOp54
 70
     1
102
RTVSPropertyOp55
 70
     1
102
RTVSPropertyOp56
 70
     1
102
RTVSPropertyOp57
 70
     1
102
RTVSPropertyOp58
 70
     1
102
RTVSPropertyOp59
 70
     1
102
RTVSPropertyOp60
 70
     1
102
RTVSPropertyOp61
 70
     1
102
RTVSPropertyOp62
 70
     1
  0
XRECORD
  5
1E18
102
{ACAD_REACTORS
330
1E17
102
}
330
1E17
100
AcDbXrecord
280
     1
102
RTVSPost2010Prop28
280
     0
102
RTVSPost2010PropOp28
 70
     1
102
RTVSPost2010Prop29
280
     1
102
RTVSPost2010PropOp29
 70
     1
102
RTVSPost2010Prop30
280
     1
102
RTVSPost2010PropOp30
 70
     1
102
RTVSPost2010Prop31
280
     0
102
RTVSPost2010PropOp31
 70
     1
102
RTVSPost2010Prop32
280
     0
102
RTVSPost2010PropOp32
 70
     1
102
RTVSPost2010Prop33
280
     0
102
RTVSPost2010PropOp33
 70
     1
102
RTVSPost2010Prop34
280
     0
102
RTVSPost2010PropOp34
 70
     1
102
RTVSPost2010Prop35
280
     0
102
RTVSPost2010PropOp35
 70
     1
102
RTVSPost2010Prop36
280
     0
102
RTVSPost2010PropOp36
 70
     1
102
RTVSPost2010Prop37
 90
       50
102
RTVSPost2010PropOp37
 70
     1
102
RTVSPost2010Prop38
140
0.0
102
RTVSPost2010PropOp38
 70
     1
102
RTVSPost2010Prop39
140
1.0
102
RTVSPost2010PropOp39
 70
     1
102
RTVSPost2010Prop40
 90
        0
102
RTVSPost2010PropOp40
 70
     1
102
RTVSPost2010Prop41ColorIndex
 90
       18
102
RTVSPost2010Prop41ColorRGB
 90
        0
102
RTVSPost2010PropOp41
 70
     1
102
RTVSPost2010Prop42
 90
       50
102
RTVSPost2010PropOp42
 70
     1
102
RTVSPost2010Prop43
 90
        3
102
RTVSPost2010PropOp43
 70
     1
102
RTVSPost2010Prop44ColorIndex
 90
        5
102
RTVSPost2010Prop44ColorRGB
 90
      255
102
RTVSPost2010PropOp44
 70
     1
102
RTVSPost2010Prop45
280
     0
102
RTVSPost2010PropOp45
 70
     1
102
RTVSPost2010Prop46
 90
       50
102
RTVSPost2010PropOp46
 70
     1
102
RTVSPost2010Prop47
 90
       50
102
RTVSPost2010PropOp47
 70
     1
102
RTVSPost2010Prop48
 90
       50
102
RTVSPost2010PropOp48
 70
     1
102
RTVSPost2010Prop49
280
     0
102
RTVSPost2010PropOp49
 70
     1
102
RTVSPost2010Prop50
 90
       50
102
RTVSPost2010PropOp50
 70
     1
102
RTVSPost2010Prop51ColorIndex
 90
      256
102
RTVSPost2010Prop51ColorRGB
 90
-16777216
102
RTVSPost2010PropOp51
 70
     0
102
RTVSPost2010Prop52
140
1.0
102
RTVSPost2010PropOp52
 70
     0
102
RTVSPost2010Prop53
 90
        2
102
RTVSPost2010PropOp53
 70
     1
102
RTVSPost2010Prop54
  1
strokes_ogs.tif
102
RTVSPost2010PropOp54
 70
     1
102
RTVSPost2010Prop55
280
     0
102
RTVSPost2010PropOp55
 70
     1
102
RTVSPost2010Prop56
140
1.0
102
RTVSPost2010PropOp56
 70
     1
102
RTVSPost2010Prop57
140
1.0
102
RTVSPost2010PropOp57
 70
     1
102
RTVSPropertyOp0
 70
     1
102
RTVSPropertyOp1
 70
     1
102
RTVSPropertyOp2
 70
     1
102
RTVSPropertyOp3
 70
     1
102
RTVSPropertyOp4
 70
     1
102
RTVSPropertyOp5
 70
     1
102
RTVSPropertyOp6
 70
     1
102
RTVSPropertyOp7
 70
     1
102
RTVSPropertyOp8
 70
     1
102
RTVSPropertyOp9
 70
     1
102
RTVSPropertyOp10
 70
     1
102
RTVSPropertyOp11
 70
     1
102
RTVSPropertyOp12
 70
     1
102
RTVSPropertyOp13
 70
     1
102
RTVSPropertyOp14
 70
     1
102
RTVSPropertyOp15
 70
     1
102
RTVSPropertyOp16
 70
     1
102
RTVSPropertyOp17
 70
     1
102
RTVSPropertyOp18
 70
     1
102
RTVSPropertyOp19
 70
     1
102
RTVSPropertyOp20
 70
     1
102
RTVSPropertyOp21
 70
     1
102
RTVSPropertyOp22
 70
     1
102
RTVSPropertyOp23
 70
     1
102
RTVSPropertyOp24
 70
     1
102
RTVSPropertyOp25
 70
     1
102
RTVSPropertyOp26
 70
     1
102
RTVSPropertyOp27
 70
     1
102
RTVSPropertyOp28
 70
     1
102
RTVSPropertyOp29
 70
     1
102
RTVSPropertyOp30
 70
     1
102
RTVSPropertyOp31
 70
     1
102
RTVSPropertyOp32
 70
     1
102
RTVSPropertyOp33
 70
     1
102
RTVSPropertyOp34
 70
     1
102
RTVSPropertyOp35
 70
     1
102
RTVSPropertyOp36
 70
     1
102
RTVSPropertyOp37
 70
     1
102
RTVSPropertyOp38
 70
     1
102
RTVSPropertyOp39
 70
     1
102
RTVSPropertyOp40
 70
     1
102
RTVSPropertyOp41
 70
     1
102
RTVSPropertyOp42
 70
     1
102
RTVSPropertyOp43
 70
     1
102
RTVSPropertyOp44
 70
     1
102
RTVSPropertyOp45
 70
     1
102
RTVSPropertyOp46
 70
     1
102
RTVSPropertyOp47
 70
     1
102
RTVSPropertyOp48
 70
     1
102
RTVSPropertyOp49
 70
     1
102
RTVSPropertyOp50
 70
     1
102
RTVSPropertyOp51
 70
     0
102
RTVSPropertyOp52
 70
     0
102
RTVSPropertyOp53
 70
     1
102
RTVSPropertyOp54
 70
     1
102
RTVSPropertyOp55
 70
     1
102
RTVSPropertyOp56
 70
     1
102
RTVSPropertyOp57
 70
     1
102
RTVSPropertyOp58
 70
     1
102
RTVSPropertyOp59
 70
     1
102
RTVSPropertyOp60
 70
     1
102
RTVSPropertyOp61
 70
     1
102
RTVSPropertyOp62
 70
     1
  0
XRECORD
  5
1E12
102
{ACAD_REACTORS
330
1E11
102
}
330
1E11
100
AcDbXrecord
280
     1
102
RTVSPost2010Prop28
280
     0
102
RTVSPost2010PropOp28
 70
     1
102
RTVSPost2010Prop29
280
     1
102
RTVSPost2010PropOp29
 70
     1
102
RTVSPost2010Prop30
280
     1
102
RTVSPost2010PropOp30
 70
     1
102
RTVSPost2010Prop31
280
     0
102
RTVSPost2010PropOp31
 70
     1
102
RTVSPost2010Prop32
280
     0
102
RTVSPost2010PropOp32
 70
     1
102
RTVSPost2010Prop33
280
     0
102
RTVSPost2010PropOp33
 70
     1
102
RTVSPost2010Prop34
280
     0
102
RTVSPost2010PropOp34
 70
     1
102
RTVSPost2010Prop35
280
     0
102
RTVSPost2010PropOp35
 70
     1
102
RTVSPost2010Prop36
280
     0
102
RTVSPost2010PropOp36
 70
     1
102
RTVSPost2010Prop37
 90
       50
102
RTVSPost2010PropOp37
 70
     1
102
RTVSPost2010Prop38
140
0.0
102
RTVSPost2010PropOp38
 70
     1
102
RTVSPost2010Prop39
140
1.0
102
RTVSPost2010PropOp39
 70
     1
102
RTVSPost2010Prop40
 90
        0
102
RTVSPost2010PropOp40
 70
     1
102
RTVSPost2010Prop41ColorIndex
 90
       18
102
RTVSPost2010Prop41ColorRGB
 90
        0
102
RTVSPost2010PropOp41
 70
     1
102
RTVSPost2010Prop42
 90
       50
102
RTVSPost2010PropOp42
 70
     1
102
RTVSPost2010Prop43
 90
        3
102
RTVSPost2010PropOp43
 70
     1
102
RTVSPost2010Prop44ColorIndex
 90
        5
102
RTVSPost2010Prop44ColorRGB
 90
      255
102
RTVSPost2010PropOp44
 70
     1
102
RTVSPost2010Prop45
280
     0
102
RTVSPost2010PropOp45
 70
     1
102
RTVSPost2010Prop46
 90
       50
102
RTVSPost2010PropOp46
 70
     1
102
RTVSPost2010Prop47
 90
       50
102
RTVSPost2010PropOp47
 70
     1
102
RTVSPost2010Prop48
 90
       50
102
RTVSPost2010PropOp48
 70
     1
102
RTVSPost2010Prop49
280
     0
102
RTVSPost2010PropOp49
 70
     1
102
RTVSPost2010Prop50
 90
       50
102
RTVSPost2010PropOp50
 70
     1
102
RTVSPost2010Prop51ColorIndex
 90
      256
102
RTVSPost2010Prop51ColorRGB
 90
-16777216
102
RTVSPost2010PropOp51
 70
     0
102
RTVSPost2010Prop52
140
1.0
102
RTVSPost2010PropOp52
 70
     0
102
RTVSPost2010Prop53
 90
        2
102
RTVSPost2010PropOp53
 70
     1
102
RTVSPost2010Prop54
  1
strokes_ogs.tif
102
RTVSPost2010PropOp54
 70
     1
102
RTVSPost2010Prop55
280
     0
102
RTVSPost2010PropOp55
 70
     1
102
RTVSPost2010Prop56
140
1.0
102
RTVSPost2010PropOp56
 70
     1
102
RTVSPost2010Prop57
140
1.0
102
RTVSPost2010PropOp57
 70
     1
102
RTVSPropertyOp0
 70
     1
102
RTVSPropertyOp1
 70
     1
102
RTVSPropertyOp2
 70
     1
102
RTVSPropertyOp3
 70
     1
102
RTVSPropertyOp4
 70
     1
102
RTVSPropertyOp5
 70
     1
102
RTVSPropertyOp6
 70
     1
102
RTVSPropertyOp7
 70
     1
102
RTVSPropertyOp8
 70
     1
102
RTVSPropertyOp9
 70
     1
102
RTVSPropertyOp10
 70
     1
102
RTVSPropertyOp11
 70
     1
102
RTVSPropertyOp12
 70
     1
102
RTVSPropertyOp13
 70
     1
102
RTVSPropertyOp14
 70
     1
102
RTVSPropertyOp15
 70
     1
102
RTVSPropertyOp16
 70
     1
102
RTVSPropertyOp17
 70
     1
102
RTVSPropertyOp18
 70
     1
102
RTVSPropertyOp19
 70
     1
102
RTVSPropertyOp20
 70
     1
102
RTVSPropertyOp21
 70
     1
102
RTVSPropertyOp22
 70
     1
102
RTVSPropertyOp23
 70
     1
102
RTVSPropertyOp24
 70
     1
102
RTVSPropertyOp25
 70
     1
102
RTVSPropertyOp26
 70
     1
102
RTVSPropertyOp27
 70
     1
102
RTVSPropertyOp28
 70
     1
102
RTVSPropertyOp29
 70
     1
102
RTVSPropertyOp30
 70
     1
102
RTVSPropertyOp31
 70
     1
102
RTVSPropertyOp32
 70
     1
102
RTVSPropertyOp33
 70
     1
102
RTVSPropertyOp34
 70
     1
102
RTVSPropertyOp35
 70
     1
102
RTVSPropertyOp36
 70
     1
102
RTVSPropertyOp37
 70
     1
102
RTVSPropertyOp38
 70
     1
102
RTVSPropertyOp39
 70
     1
102
RTVSPropertyOp40
 70
     1
102
RTVSPropertyOp41
 70
     1
102
RTVSPropertyOp42
 70
     1
102
RTVSPropertyOp43
 70
     1
102
RTVSPropertyOp44
 70
     1
102
RTVSPropertyOp45
 70
     1
102
RTVSPropertyOp46
 70
     1
102
RTVSPropertyOp47
 70
     1
102
RTVSPropertyOp48
 70
     1
102
RTVSPropertyOp49
 70
     1
102
RTVSPropertyOp50
 70
     1
102
RTVSPropertyOp51
 70
     0
102
RTVSPropertyOp52
 70
     0
102
RTVSPropertyOp53
 70
     1
102
RTVSPropertyOp54
 70
     1
102
RTVSPropertyOp55
 70
     1
102
RTVSPropertyOp56
 70
     1
102
RTVSPropertyOp57
 70
     1
102
RTVSPropertyOp58
 70
     1
102
RTVSPropertyOp59
 70
     1
102
RTVSPropertyOp60
 70
     1
102
RTVSPropertyOp61
 70
     1
102
RTVSPropertyOp62
 70
     1
  0
XRECORD
  5
1E14
102
{ACAD_REACTORS
330
1E13
102
}
330
1E13
100
AcDbXrecord
280
     1
102
RTVSPost2010Prop28
280
     0
102
RTVSPost2010PropOp28
 70
     1
102
RTVSPost2010Prop29
280
     1
102
RTVSPost2010PropOp29
 70
     1
102
RTVSPost2010Prop30
280
     1
102
RTVSPost2010PropOp30
 70
     1
102
RTVSPost2010Prop31
280
     0
102
RTVSPost2010PropOp31
 70
     1
102
RTVSPost2010Prop32
280
     0
102
RTVSPost2010PropOp32
 70
     1
102
RTVSPost2010Prop33
280
     0
102
RTVSPost2010PropOp33
 70
     1
102
RTVSPost2010Prop34
280
     0
102
RTVSPost2010PropOp34
 70
     1
102
RTVSPost2010Prop35
280
     0
102
RTVSPost2010PropOp35
 70
     1
102
RTVSPost2010Prop36
280
     0
102
RTVSPost2010PropOp36
 70
     1
102
RTVSPost2010Prop37
 90
       50
102
RTVSPost2010PropOp37
 70
     1
102
RTVSPost2010Prop38
140
0.0
102
RTVSPost2010PropOp38
 70
     1
102
RTVSPost2010Prop39
140
1.0
102
RTVSPost2010PropOp39
 70
     1
102
RTVSPost2010Prop40
 90
        0
102
RTVSPost2010PropOp40
 70
     1
102
RTVSPost2010Prop41ColorIndex
 90
       18
102
RTVSPost2010Prop41ColorRGB
 90
        0
102
RTVSPost2010PropOp41
 70
     1
102
RTVSPost2010Prop42
 90
       50
102
RTVSPost2010PropOp42
 70
     1
102
RTVSPost2010Prop43
 90
        3
102
RTVSPost2010PropOp43
 70
     1
102
RTVSPost2010Prop44ColorIndex
 90
        5
102
RTVSPost2010Prop44ColorRGB
 90
      255
102
RTVSPost2010PropOp44
 70
     1
102
RTVSPost2010Prop45
280
     0
102
RTVSPost2010PropOp45
 70
     1
102
RTVSPost2010Prop46
 90
       50
102
RTVSPost2010PropOp46
 70
     1
102
RTVSPost2010Prop47
 90
       50
102
RTVSPost2010PropOp47
 70
     1
102
RTVSPost2010Prop48
 90
       50
102
RTVSPost2010PropOp48
 70
     1
102
RTVSPost2010Prop49
280
     0
102
RTVSPost2010PropOp49
 70
     1
102
RTVSPost2010Prop50
 90
       50
102
RTVSPost2010PropOp50
 70
     1
102
RTVSPost2010Prop51ColorIndex
 90
      256
102
RTVSPost2010Prop51ColorRGB
 90
-16777216
102
RTVSPost2010PropOp51
 70
     0
102
RTVSPost2010Prop52
140
1.0
102
RTVSPost2010PropOp52
 70
     0
102
RTVSPost2010Prop53
 90
        2
102
RTVSPost2010PropOp53
 70
     1
102
RTVSPost2010Prop54
  1
strokes_ogs.tif
102
RTVSPost2010PropOp54
 70
     1
102
RTVSPost2010Prop55
280
     0
102
RTVSPost2010PropOp55
 70
     1
102
RTVSPost2010Prop56
140
1.0
102
RTVSPost2010PropOp56
 70
     1
102
RTVSPost2010Prop57
140
1.0
102
RTVSPost2010PropOp57
 70
     1
102
RTVSPropertyOp0
 70
     1
102
RTVSPropertyOp1
 70
     1
102
RTVSPropertyOp2
 70
     1
102
RTVSPropertyOp3
 70
     1
102
RTVSPropertyOp4
 70
     1
102
RTVSPropertyOp5
 70
     1
102
RTVSPropertyOp6
 70
     1
102
RTVSPropertyOp7
 70
     1
102
RTVSPropertyOp8
 70
     1
102
RTVSPropertyOp9
 70
     1
102
RTVSPropertyOp10
 70
     1
102
RTVSPropertyOp11
 70
     1
102
RTVSPropertyOp12
 70
     1
102
RTVSPropertyOp13
 70
     1
102
RTVSPropertyOp14
 70
     1
102
RTVSPropertyOp15
 70
     1
102
RTVSPropertyOp16
 70
     1
102
RTVSPropertyOp17
 70
     1
102
RTVSPropertyOp18
 70
     1
102
RTVSPropertyOp19
 70
     1
102
RTVSPropertyOp20
 70
     1
102
RTVSPropertyOp21
 70
     1
102
RTVSPropertyOp22
 70
     1
102
RTVSPropertyOp23
 70
     1
102
RTVSPropertyOp24
 70
     1
102
RTVSPropertyOp25
 70
     1
102
RTVSPropertyOp26
 70
     1
102
RTVSPropertyOp27
 70
     1
102
RTVSPropertyOp28
 70
     1
102
RTVSPropertyOp29
 70
     1
102
RTVSPropertyOp30
 70
     1
102
RTVSPropertyOp31
 70
     1
102
RTVSPropertyOp32
 70
     1
102
RTVSPropertyOp33
 70
     1
102
RTVSPropertyOp34
 70
     1
102
RTVSPropertyOp35
 70
     1
102
RTVSPropertyOp36
 70
     1
102
RTVSPropertyOp37
 70
     1
102
RTVSPropertyOp38
 70
     1
102
RTVSPropertyOp39
 70
     1
102
RTVSPropertyOp40
 70
     1
102
RTVSPropertyOp41
 70
     1
102
RTVSPropertyOp42
 70
     1
102
RTVSPropertyOp43
 70
     1
102
RTVSPropertyOp44
 70
     1
102
RTVSPropertyOp45
 70
     1
102
RTVSPropertyOp46
 70
     1
102
RTVSPropertyOp47
 70
     1
102
RTVSPropertyOp48
 70
     1
102
RTVSPropertyOp49
 70
     1
102
RTVSPropertyOp50
 70
     1
102
RTVSPropertyOp51
 70
     0
102
RTVSPropertyOp52
 70
     0
102
RTVSPropertyOp53
 70
     1
102
RTVSPropertyOp54
 70
     1
102
RTVSPropertyOp55
 70
     1
102
RTVSPropertyOp56
 70
     1
102
RTVSPropertyOp57
 70
     1
102
RTVSPropertyOp58
 70
     1
102
RTVSPropertyOp59
 70
     1
102
RTVSPropertyOp60
 70
     1
102
RTVSPropertyOp61
 70
     1
102
RTVSPropertyOp62
 70
     1
  0
XRECORD
  5
1E0A
102
{ACAD_REACTORS
330
1E09
102
}
330
1E09
100
AcDbXrecord
280
     1
102
RTVSPost2010Prop28
280
     0
102
RTVSPost2010PropOp28
 70
     1
102
RTVSPost2010Prop29
280
     1
102
RTVSPost2010PropOp29
 70
     1
102
RTVSPost2010Prop30
280
     1
102
RTVSPost2010PropOp30
 70
     1
102
RTVSPost2010Prop31
280
     0
102
RTVSPost2010PropOp31
 70
     1
102
RTVSPost2010Prop32
280
     0
102
RTVSPost2010PropOp32
 70
     1
102
RTVSPost2010Prop33
280
     0
102
RTVSPost2010PropOp33
 70
     1
102
RTVSPost2010Prop34
280
     0
102
RTVSPost2010PropOp34
 70
     1
102
RTVSPost2010Prop35
280
     0
102
RTVSPost2010PropOp35
 70
     1
102
RTVSPost2010Prop36
280
     0
102
RTVSPost2010PropOp36
 70
     1
102
RTVSPost2010Prop37
 90
       50
102
RTVSPost2010PropOp37
 70
     1
102
RTVSPost2010Prop38
140
0.0
102
RTVSPost2010PropOp38
 70
     1
102
RTVSPost2010Prop39
140
1.0
102
RTVSPost2010PropOp39
 70
     1
102
RTVSPost2010Prop40
 90
        0
102
RTVSPost2010PropOp40
 70
     1
102
RTVSPost2010Prop41ColorIndex
 90
       18
102
RTVSPost2010Prop41ColorRGB
 90
        0
102
RTVSPost2010PropOp41
 70
     1
102
RTVSPost2010Prop42
 90
       50
102
RTVSPost2010PropOp42
 70
     1
102
RTVSPost2010Prop43
 90
        3
102
RTVSPost2010PropOp43
 70
     1
102
RTVSPost2010Prop44ColorIndex
 90
        5
102
RTVSPost2010Prop44ColorRGB
 90
      255
102
RTVSPost2010PropOp44
 70
     1
102
RTVSPost2010Prop45
280
     0
102
RTVSPost2010PropOp45
 70
     1
102
RTVSPost2010Prop46
 90
       50
102
RTVSPost2010PropOp46
 70
     1
102
RTVSPost2010Prop47
 90
       50
102
RTVSPost2010PropOp47
 70
     1
102
RTVSPost2010Prop48
 90
       50
102
RTVSPost2010PropOp48
 70
     1
102
RTVSPost2010Prop49
280
     0
102
RTVSPost2010PropOp49
 70
     1
102
RTVSPost2010Prop50
 90
       50
102
RTVSPost2010PropOp50
 70
     1
102
RTVSPost2010Prop51ColorIndex
 90
      256
102
RTVSPost2010Prop51ColorRGB
 90
-16777216
102
RTVSPost2010PropOp51
 70
     0
102
RTVSPost2010Prop52
140
1.0
102
RTVSPost2010PropOp52
 70
     0
102
RTVSPost2010Prop53
 90
        2
102
RTVSPost2010PropOp53
 70
     1
102
RTVSPost2010Prop54
  1
strokes_ogs.tif
102
RTVSPost2010PropOp54
 70
     1
102
RTVSPost2010Prop55
280
     0
102
RTVSPost2010PropOp55
 70
     1
102
RTVSPost2010Prop56
140
1.0
102
RTVSPost2010PropOp56
 70
     1
102
RTVSPost2010Prop57
140
1.0
102
RTVSPost2010PropOp57
 70
     1
102
RTVSPropertyOp0
 70
     1
102
RTVSPropertyOp1
 70
     1
102
RTVSPropertyOp2
 70
     1
102
RTVSPropertyOp3
 70
     1
102
RTVSPropertyOp4
 70
     1
102
RTVSPropertyOp5
 70
     1
102
RTVSPropertyOp6
 70
     1
102
RTVSPropertyOp7
 70
     1
102
RTVSPropertyOp8
 70
     1
102
RTVSPropertyOp9
 70
     1
102
RTVSPropertyOp10
 70
     1
102
RTVSPropertyOp11
 70
     1
102
RTVSPropertyOp12
 70
     1
102
RTVSPropertyOp13
 70
     1
102
RTVSPropertyOp14
 70
     1
102
RTVSPropertyOp15
 70
     1
102
RTVSPropertyOp16
 70
     1
102
RTVSPropertyOp17
 70
     1
102
RTVSPropertyOp18
 70
     1
102
RTVSPropertyOp19
 70
     1
102
RTVSPropertyOp20
 70
     1
102
RTVSPropertyOp21
 70
     1
102
RTVSPropertyOp22
 70
     1
102
RTVSPropertyOp23
 70
     1
102
RTVSPropertyOp24
 70
     1
102
RTVSPropertyOp25
 70
     1
102
RTVSPropertyOp26
 70
     1
102
RTVSPropertyOp27
 70
     1
102
RTVSPropertyOp28
 70
     1
102
RTVSPropertyOp29
 70
     1
102
RTVSPropertyOp30
 70
     1
102
RTVSPropertyOp31
 70
     1
102
RTVSPropertyOp32
 70
     1
102
RTVSPropertyOp33
 70
     1
102
RTVSPropertyOp34
 70
     1
102
RTVSPropertyOp35
 70
     1
102
RTVSPropertyOp36
 70
     1
102
RTVSPropertyOp37
 70
     1
102
RTVSPropertyOp38
 70
     1
102
RTVSPropertyOp39
 70
     1
102
RTVSPropertyOp40
 70
     1
102
RTVSPropertyOp41
 70
     1
102
RTVSPropertyOp42
 70
     1
102
RTVSPropertyOp43
 70
     1
102
RTVSPropertyOp44
 70
     1
102
RTVSPropertyOp45
 70
     1
102
RTVSPropertyOp46
 70
     1
102
RTVSPropertyOp47
 70
     1
102
RTVSPropertyOp48
 70
     1
102
RTVSPropertyOp49
 70
     1
102
RTVSPropertyOp50
 70
     1
102
RTVSPropertyOp51
 70
     0
102
RTVSPropertyOp52
 70
     0
102
RTVSPropertyOp53
 70
     1
102
RTVSPropertyOp54
 70
     1
102
RTVSPropertyOp55
 70
     1
102
RTVSPropertyOp56
 70
     1
102
RTVSPropertyOp57
 70
     1
102
RTVSPropertyOp58
 70
     1
102
RTVSPropertyOp59
 70
     1
102
RTVSPropertyOp60
 70
     1
102
RTVSPropertyOp61
 70
     1
102
RTVSPropertyOp62
 70
     1
  0
XRECORD
  5
1DFE
102
{ACAD_REACTORS
330
1DFD
102
}
330
1DFD
100
AcDbXrecord
280
     1
102
RTVSPost2010Prop28
280
     0
102
RTVSPost2010PropOp28
 70
     1
102
RTVSPost2010Prop29
280
     1
102
RTVSPost2010PropOp29
 70
     1
102
RTVSPost2010Prop30
280
     1
102
RTVSPost2010PropOp30
 70
     1
102
RTVSPost2010Prop31
280
     0
102
RTVSPost2010PropOp31
 70
     1
102
RTVSPost2010Prop32
280
     0
102
RTVSPost2010PropOp32
 70
     1
102
RTVSPost2010Prop33
280
     0
102
RTVSPost2010PropOp33
 70
     1
102
RTVSPost2010Prop34
280
     0
102
RTVSPost2010PropOp34
 70
     1
102
RTVSPost2010Prop35
280
     0
102
RTVSPost2010PropOp35
 70
     1
102
RTVSPost2010Prop36
280
     0
102
RTVSPost2010PropOp36
 70
     1
102
RTVSPost2010Prop37
 90
       50
102
RTVSPost2010PropOp37
 70
     1
102
RTVSPost2010Prop38
140
0.0
102
RTVSPost2010PropOp38
 70
     1
102
RTVSPost2010Prop39
140
1.0
102
RTVSPost2010PropOp39
 70
     1
102
RTVSPost2010Prop40
 90
        0
102
RTVSPost2010PropOp40
 70
     1
102
RTVSPost2010Prop41ColorIndex
 90
       18
102
RTVSPost2010Prop41ColorRGB
 90
        0
102
RTVSPost2010PropOp41
 70
     1
102
RTVSPost2010Prop42
 90
       50
102
RTVSPost2010PropOp42
 70
     1
102
RTVSPost2010Prop43
 90
        3
102
RTVSPost2010PropOp43
 70
     1
102
RTVSPost2010Prop44ColorIndex
 90
        5
102
RTVSPost2010Prop44ColorRGB
 90
      255
102
RTVSPost2010PropOp44
 70
     1
102
RTVSPost2010Prop45
280
     0
102
RTVSPost2010PropOp45
 70
     1
102
RTVSPost2010Prop46
 90
       50
102
RTVSPost2010PropOp46
 70
     1
102
RTVSPost2010Prop47
 90
       50
102
RTVSPost2010PropOp47
 70
     1
102
RTVSPost2010Prop48
 90
       50
102
RTVSPost2010PropOp48
 70
     1
102
RTVSPost2010Prop49
280
     0
102
RTVSPost2010PropOp49
 70
     1
102
RTVSPost2010Prop50
 90
       50
102
RTVSPost2010PropOp50
 70
     1
102
RTVSPost2010Prop51ColorIndex
 90
      256
102
RTVSPost2010Prop51ColorRGB
 90
-16777216
102
RTVSPost2010PropOp51
 70
     0
102
RTVSPost2010Prop52
140
1.0
102
RTVSPost2010PropOp52
 70
     0
102
RTVSPost2010Prop53
 90
        2
102
RTVSPost2010PropOp53
 70
     1
102
RTVSPost2010Prop54
  1
strokes_ogs.tif
102
RTVSPost2010PropOp54
 70
     1
102
RTVSPost2010Prop55
280
     0
102
RTVSPost2010PropOp55
 70
     1
102
RTVSPost2010Prop56
140
1.0
102
RTVSPost2010PropOp56
 70
     1
102
RTVSPost2010Prop57
140
1.0
102
RTVSPost2010PropOp57
 70
     1
102
RTVSPropertyOp0
 70
     1
102
RTVSPropertyOp1
 70
     1
102
RTVSPropertyOp2
 70
     1
102
RTVSPropertyOp3
 70
     1
102
RTVSPropertyOp4
 70
     1
102
RTVSPropertyOp5
 70
     1
102
RTVSPropertyOp6
 70
     1
102
RTVSPropertyOp7
 70
     1
102
RTVSPropertyOp8
 70
     1
102
RTVSPropertyOp9
 70
     1
102
RTVSPropertyOp10
 70
     1
102
RTVSPropertyOp11
 70
     1
102
RTVSPropertyOp12
 70
     1
102
RTVSPropertyOp13
 70
     1
102
RTVSPropertyOp14
 70
     1
102
RTVSPropertyOp15
 70
     1
102
RTVSPropertyOp16
 70
     1
102
RTVSPropertyOp17
 70
     1
102
RTVSPropertyOp18
 70
     1
102
RTVSPropertyOp19
 70
     1
102
RTVSPropertyOp20
 70
     1
102
RTVSPropertyOp21
 70
     1
102
RTVSPropertyOp22
 70
     1
102
RTVSPropertyOp23
 70
     1
102
RTVSPropertyOp24
 70
     1
102
RTVSPropertyOp25
 70
     1
102
RTVSPropertyOp26
 70
     1
102
RTVSPropertyOp27
 70
     1
102
RTVSPropertyOp28
 70
     1
102
RTVSPropertyOp29
 70
     1
102
RTVSPropertyOp30
 70
     1
102
RTVSPropertyOp31
 70
     1
102
RTVSPropertyOp32
 70
     1
102
RTVSPropertyOp33
 70
     1
102
RTVSPropertyOp34
 70
     1
102
RTVSPropertyOp35
 70
     1
102
RTVSPropertyOp36
 70
     1
102
RTVSPropertyOp37
 70
     1
102
RTVSPropertyOp38
 70
     1
102
RTVSPropertyOp39
 70
     1
102
RTVSPropertyOp40
 70
     1
102
RTVSPropertyOp41
 70
     1
102
RTVSPropertyOp42
 70
     1
102
RTVSPropertyOp43
 70
     1
102
RTVSPropertyOp44
 70
     1
102
RTVSPropertyOp45
 70
     1
102
RTVSPropertyOp46
 70
     1
102
RTVSPropertyOp47
 70
     1
102
RTVSPropertyOp48
 70
     1
102
RTVSPropertyOp49
 70
     1
102
RTVSPropertyOp50
 70
     1
102
RTVSPropertyOp51
 70
     0
102
RTVSPropertyOp52
 70
     0
102
RTVSPropertyOp53
 70
     1
102
RTVSPropertyOp54
 70
     1
102
RTVSPropertyOp55
 70
     1
102
RTVSPropertyOp56
 70
     1
102
RTVSPropertyOp57
 70
     1
102
RTVSPropertyOp58
 70
     1
102
RTVSPropertyOp59
 70
     1
102
RTVSPropertyOp60
 70
     1
102
RTVSPropertyOp61
 70
     1
102
RTVSPropertyOp62
 70
     1
  0
XRECORD
  5
1E16
102
{ACAD_REACTORS
330
1E15
102
}
330
1E15
100
AcDbXrecord
280
     1
102
RTVSPost2010Prop28
280
     0
102
RTVSPost2010PropOp28
 70
     1
102
RTVSPost2010Prop29
280
     1
102
RTVSPost2010PropOp29
 70
     1
102
RTVSPost2010Prop30
280
     1
102
RTVSPost2010PropOp30
 70
     1
102
RTVSPost2010Prop31
280
     0
102
RTVSPost2010PropOp31
 70
     1
102
RTVSPost2010Prop32
280
     0
102
RTVSPost2010PropOp32
 70
     1
102
RTVSPost2010Prop33
280
     0
102
RTVSPost2010PropOp33
 70
     1
102
RTVSPost2010Prop34
280
     0
102
RTVSPost2010PropOp34
 70
     1
102
RTVSPost2010Prop35
280
     0
102
RTVSPost2010PropOp35
 70
     1
102
RTVSPost2010Prop36
280
     0
102
RTVSPost2010PropOp36
 70
     1
102
RTVSPost2010Prop37
 90
       50
102
RTVSPost2010PropOp37
 70
     1
102
RTVSPost2010Prop38
140
0.0
102
RTVSPost2010PropOp38
 70
     1
102
RTVSPost2010Prop39
140
1.0
102
RTVSPost2010PropOp39
 70
     1
102
RTVSPost2010Prop40
 90
        0
102
RTVSPost2010PropOp40
 70
     1
102
RTVSPost2010Prop41ColorIndex
 90
       18
102
RTVSPost2010Prop41ColorRGB
 90
        0
102
RTVSPost2010PropOp41
 70
     1
102
RTVSPost2010Prop42
 90
       50
102
RTVSPost2010PropOp42
 70
     1
102
RTVSPost2010Prop43
 90
        3
102
RTVSPost2010PropOp43
 70
     1
102
RTVSPost2010Prop44ColorIndex
 90
        5
102
RTVSPost2010Prop44ColorRGB
 90
      255
102
RTVSPost2010PropOp44
 70
     1
102
RTVSPost2010Prop45
280
     0
102
RTVSPost2010PropOp45
 70
     1
102
RTVSPost2010Prop46
 90
       50
102
RTVSPost2010PropOp46
 70
     1
102
RTVSPost2010Prop47
 90
       50
102
RTVSPost2010PropOp47
 70
     1
102
RTVSPost2010Prop48
 90
       50
102
RTVSPost2010PropOp48
 70
     1
102
RTVSPost2010Prop49
280
     0
102
RTVSPost2010PropOp49
 70
     1
102
RTVSPost2010Prop50
 90
       50
102
RTVSPost2010PropOp50
 70
     1
102
RTVSPost2010Prop51ColorIndex
 90
      256
102
RTVSPost2010Prop51ColorRGB
 90
-16777216
102
RTVSPost2010PropOp51
 70
     0
102
RTVSPost2010Prop52
140
1.0
102
RTVSPost2010PropOp52
 70
     0
102
RTVSPost2010Prop53
 90
        2
102
RTVSPost2010PropOp53
 70
     1
102
RTVSPost2010Prop54
  1
strokes_ogs.tif
102
RTVSPost2010PropOp54
 70
     1
102
RTVSPost2010Prop55
280
     0
102
RTVSPost2010PropOp55
 70
     1
102
RTVSPost2010Prop56
140
1.0
102
RTVSPost2010PropOp56
 70
     1
102
RTVSPost2010Prop57
140
1.0
102
RTVSPost2010PropOp57
 70
     1
102
RTVSPropertyOp0
 70
     1
102
RTVSPropertyOp1
 70
     1
102
RTVSPropertyOp2
 70
     1
102
RTVSPropertyOp3
 70
     1
102
RTVSPropertyOp4
 70
     1
102
RTVSPropertyOp5
 70
     1
102
RTVSPropertyOp6
 70
     1
102
RTVSPropertyOp7
 70
     1
102
RTVSPropertyOp8
 70
     1
102
RTVSPropertyOp9
 70
     1
102
RTVSPropertyOp10
 70
     1
102
RTVSPropertyOp11
 70
     1
102
RTVSPropertyOp12
 70
     1
102
RTVSPropertyOp13
 70
     1
102
RTVSPropertyOp14
 70
     1
102
RTVSPropertyOp15
 70
     1
102
RTVSPropertyOp16
 70
     1
102
RTVSPropertyOp17
 70
     1
102
RTVSPropertyOp18
 70
     1
102
RTVSPropertyOp19
 70
     1
102
RTVSPropertyOp20
 70
     1
102
RTVSPropertyOp21
 70
     1
102
RTVSPropertyOp22
 70
     1
102
RTVSPropertyOp23
 70
     1
102
RTVSPropertyOp24
 70
     1
102
RTVSPropertyOp25
 70
     1
102
RTVSPropertyOp26
 70
     1
102
RTVSPropertyOp27
 70
     1
102
RTVSPropertyOp28
 70
     1
102
RTVSPropertyOp29
 70
     1
102
RTVSPropertyOp30
 70
     1
102
RTVSPropertyOp31
 70
     1
102
RTVSPropertyOp32
 70
     1
102
RTVSPropertyOp33
 70
     1
102
RTVSPropertyOp34
 70
     1
102
RTVSPropertyOp35
 70
     1
102
RTVSPropertyOp36
 70
     1
102
RTVSPropertyOp37
 70
     1
102
RTVSPropertyOp38
 70
     1
102
RTVSPropertyOp39
 70
     1
102
RTVSPropertyOp40
 70
     1
102
RTVSPropertyOp41
 70
     1
102
RTVSPropertyOp42
 70
     1
102
RTVSPropertyOp43
 70
     1
102
RTVSPropertyOp44
 70
     1
102
RTVSPropertyOp45
 70
     1
102
RTVSPropertyOp46
 70
     1
102
RTVSPropertyOp47
 70
     1
102
RTVSPropertyOp48
 70
     1
102
RTVSPropertyOp49
 70
     1
102
RTVSPropertyOp50
 70
     1
102
RTVSPropertyOp51
 70
     0
102
RTVSPropertyOp52
 70
     0
102
RTVSPropertyOp53
 70
     1
102
RTVSPropertyOp54
 70
     1
102
RTVSPropertyOp55
 70
     1
102
RTVSPropertyOp56
 70
     1
102
RTVSPropertyOp57
 70
     1
102
RTVSPropertyOp58
 70
     1
102
RTVSPropertyOp59
 70
     1
102
RTVSPropertyOp60
 70
     1
102
RTVSPropertyOp61
 70
     1
102
RTVSPropertyOp62
 70
     1
  0
XRECORD
  5
1B85
102
{ACAD_REACTORS
330
1B84
102
}
330
1B84
100
AcDbXrecord
280
     1
330
1A52
  0
ACDBASSOCARRAYACTIONBODY
  5
1BB8
330
1BB7
100
AcDbAssocActionBody
 90
        1
100
AcDbAssocParamBasedActionBody
 90
        0
 90
        0
 90
        3
360
1BB9
360
1BBA
360
1BBE
 90
        0
 90
        9
 90
        0
  1
AlignItems
 90
        0
 90
        1
 90
        0
330
0
330
0
 90
        0
  1
AxesAngle
 90
        2
 90
        1
 40
1.570796326794896
330
0
330
0
 90
        0
  1
ItemSpacing
 90
        1
 90
        1
 40
35.3
330
0
330
0
 90
        0
  1
Items
 90
        0
 90
        1
 90
       26
330
0
330
0
 90
        0
  1
LevelSpacing
 90
        1
 90
        1
 40
1.0
330
0
330
0
 90
        0
  1
Levels
 90
        0
 90
        1
 90
        1
330
0
330
0
 90
        0
  1
RowElevation
 90
        1
 90
        1
 40
0.0
330
0
330
0
 90
        0
  1
RowSpacing
 90
        1
 90
        1
 40
82.5
330
0
330
0
 90
        0
  1
Rows
 90
        0
 90
        1
 90
        1
330
0
330
0
100
AcDbAssocArrayActionBody
 90
        1
  1
AcDbAssocArrayRectangularParameters
 90
        0
 90
       26
  1
AcDbAssocArrayItem
100
AcDbAssocArrayItem
 90
        0
 90
        0
 90
        0
 90
        0
 90
        8
 11
0.0
 21
0.0
 31
0.0
330
1BC0
100
AcDbAssocArrayItem
 90
        0
 90
        1
 90
        0
 90
        0
 90
        8
 11
35.3
 21
0.0
 31
0.0
330
1BC1
100
AcDbAssocArrayItem
 90
        0
 90
        2
 90
        0
 90
        0
 90
        8
 11
70.59999999999999
 21
0.0
 31
0.0
330
1BC2
100
AcDbAssocArrayItem
 90
        0
 90
        3
 90
        0
 90
        0
 90
        8
 11
105.9
 21
0.0
 31
0.0
330
1BC3
100
AcDbAssocArrayItem
 90
        0
 90
        4
 90
        0
 90
        0
 90
        8
 11
141.2
 21
0.0
 31
0.0
330
1BC4
100
AcDbAssocArrayItem
 90
        0
 90
        5
 90
        0
 90
        0
 90
        8
 11
176.5
 21
0.0
 31
0.0
330
1BC5
100
AcDbAssocArrayItem
 90
        0
 90
        6
 90
        0
 90
        0
 90
        8
 11
211.8
 21
0.0
 31
0.0
330
1BC6
100
AcDbAssocArrayItem
 90
        0
 90
        7
 90
        0
 90
        0
 90
        8
 11
247.1
 21
0.0
 31
0.0
330
1BC7
100
AcDbAssocArrayItem
 90
        0
 90
        8
 90
        0
 90
        0
 90
        8
 11
282.4
 21
0.0
 31
0.0
330
1BC8
100
AcDbAssocArrayItem
 90
        0
 90
        9
 90
        0
 90
        0
 90
        8
 11
317.7
 21
0.0
 31
0.0
330
1BC9
100
AcDbAssocArrayItem
 90
        0
 90
       10
 90
        0
 90
        0
 90
        8
 11
353.0
 21
0.0
 31
0.0
330
1BCA
100
AcDbAssocArrayItem
 90
        0
 90
       11
 90
        0
 90
        0
 90
        8
 11
388.3
 21
0.0
 31
0.0
330
1BCB
100
AcDbAssocArrayItem
 90
        0
 90
       12
 90
        0
 90
        0
 90
        8
 11
423.5999999999999
 21
0.0
 31
0.0
330
1BCC
100
AcDbAssocArrayItem
 90
        0
 90
       13
 90
        0
 90
        0
 90
        8
 11
458.8999999999999
 21
0.0
 31
0.0
330
1BCD
100
AcDbAssocArrayItem
 90
        0
 90
       14
 90
        0
 90
        0
 90
        8
 11
494.1999999999999
 21
0.0
 31
0.0
330
1BCE
100
AcDbAssocArrayItem
 90
        0
 90
       15
 90
        0
 90
        0
 90
        8
 11
529.4999999999999
 21
0.0
 31
0.0
330
1BCF
100
AcDbAssocArrayItem
 90
        0
 90
       16
 90
        0
 90
        0
 90
        8
 11
564.7999999999999
 21
0.0
 31
0.0
330
1BD0
100
AcDbAssocArrayItem
 90
        0
 90
       17
 90
        0
 90
        0
 90
        8
 11
600.0999999999999
 21
0.0
 31
0.0
330
1BD1
100
AcDbAssocArrayItem
 90
        0
 90
       18
 90
        0
 90
        0
 90
        8
 11
635.4
 21
0.0
 31
0.0
330
1BD2
100
AcDbAssocArrayItem
 90
        0
 90
       19
 90
        0
 90
        0
 90
        8
 11
670.6999999999999
 21
0.0
 31
0.0
330
1BD3
100
AcDbAssocArrayItem
 90
        0
 90
       20
 90
        0
 90
        0
 90
        8
 11
706.0
 21
0.0
 31
0.0
330
1BD4
100
AcDbAssocArrayItem
 90
        0
 90
       21
 90
        0
 90
        0
 90
        8
 11
741.2999999999999
 21
0.0
 31
0.0
330
1BD5
100
AcDbAssocArrayItem
 90
        0
 90
       22
 90
        0
 90
        0
 90
        8
 11
776.5999999999999
 21
0.0
 31
0.0
330
1BD6
100
AcDbAssocArrayItem
 90
        0
 90
       23
 90
        0
 90
        0
 90
        8
 11
811.8999999999999
 21
0.0
 31
0.0
330
1BD7
100
AcDbAssocArrayItem
 90
        0
 90
       24
 90
        0
 90
        0
 90
        8
 11
847.1999999999999
 21
0.0
 31
0.0
330
1BD8
100
AcDbAssocArrayItem
 90
        0
 90
       25
 90
        0
 90
        0
 90
        8
 11
882.4999999999999
 21
0.0
 31
0.0
330
1BD9
 40
1.0
 40
0.0
 40
0.0
 40
502.5337979923478
 40
0.0
 40
1.0
 40
0.0
 40
520.9072884571137
 40
0.0
 40
0.0
 40
1.0
 40
0.0
 40
0.0
 40
0.0
 40
0.0
 40
1.0
  0
ACDBASSOCDEPENDENCY
  5
1BBB
330
1BB7
100
AcDbAssocDependency
 90
        2
 90
        1
290
     0
290
     1
290
     1
290
     1
 90
        0
330
1B9E
290
     0
330
0
330
0
360
0
 90
        1
  0
ACDBASSOCDEPENDENCY
  5
1BBC
330
1BB7
100
AcDbAssocDependency
 90
        2
 90
        1
290
     1
290
     0
290
     1
290
     1
 90
        0
330
1B9B
290
     0
330
0
330
0
360
0
 90
        2
  0
ACDBASSOCDEPENDENCY
  5
1BBD
330
1BB7
100
AcDbAssocDependency
 90
        2
 90
        0
290
     1
290
     1
290
     1
290
     1
 90
-2147483648
330
1BA1
290
     0
330
0
330
0
360
0
 90
        3
  0
ACDBASSOCARRAYACTIONBODY
  5
1D3B
330
1D3A
100
AcDbAssocActionBody
 90
        1
100
AcDbAssocParamBasedActionBody
 90
        0
 90
        0
 90
        3
360
1D3C
360
1D3D
360
1D41
 90
        0
 90
        9
 90
        0
  1
AlignItems
 90
        0
 90
        1
 90
        0
330
0
330
0
 90
        0
  1
AxesAngle
 90
        2
 90
        1
 40
1.570796326794896
330
0
330
0
 90
        0
  1
ItemSpacing
 90
        1
 90
        1
 40
35.3
330
0
330
0
 90
        0
  1
Items
 90
        0
 90
        1
 90
       27
330
0
330
0
 90
        0
  1
LevelSpacing
 90
        1
 90
        1
 40
1.0
330
0
330
0
 90
        0
  1
Levels
 90
        0
 90
        1
 90
        1
330
0
330
0
 90
        0
  1
RowElevation
 90
        1
 90
        1
 40
0.0
330
0
330
0
 90
        0
  1
RowSpacing
 90
        1
 90
        1
 40
1941.096433081066
330
0
330
0
 90
        0
  1
Rows
 90
        0
 90
        1
 90
        1
330
0
330
0
100
AcDbAssocArrayActionBody
 90
        1
  1
AcDbAssocArrayRectangularParameters
 90
        0
 90
       27
  1
AcDbAssocArrayItem
100
AcDbAssocArrayItem
 90
        0
 90
        0
 90
        0
 90
        0
 90
        8
 11
0.0
 21
0.0
 31
0.0
330
1D43
100
AcDbAssocArrayItem
 90
        0
 90
        1
 90
        0
 90
        0
 90
        8
 11
35.3
 21
0.0
 31
0.0
330
1D46
100
AcDbAssocArrayItem
 90
        0
 90
        2
 90
        0
 90
        0
 90
        8
 11
70.59999999999999
 21
0.0
 31
0.0
330
1D49
100
AcDbAssocArrayItem
 90
        0
 90
        3
 90
        0
 90
        0
 90
        8
 11
105.9
 21
0.0
 31
0.0
330
1D4C
100
AcDbAssocArrayItem
 90
        0
 90
        4
 90
        0
 90
        0
 90
        8
 11
141.2
 21
0.0
 31
0.0
330
1D4F
100
AcDbAssocArrayItem
 90
        0
 90
        5
 90
        0
 90
        0
 90
        8
 11
176.5
 21
0.0
 31
0.0
330
1D52
100
AcDbAssocArrayItem
 90
        0
 90
        6
 90
        0
 90
        0
 90
        8
 11
211.8
 21
0.0
 31
0.0
330
1D55
100
AcDbAssocArrayItem
 90
        0
 90
        7
 90
        0
 90
        0
 90
        8
 11
247.1
 21
0.0
 31
0.0
330
1D58
100
AcDbAssocArrayItem
 90
        0
 90
        8
 90
        0
 90
        0
 90
        8
 11
282.4
 21
0.0
 31
0.0
330
1D5B
100
AcDbAssocArrayItem
 90
        0
 90
        9
 90
        0
 90
        0
 90
        8
 11
317.7
 21
0.0
 31
0.0
330
1D5E
100
AcDbAssocArrayItem
 90
        0
 90
       10
 90
        0
 90
        0
 90
        8
 11
353.0
 21
0.0
 31
0.0
330
1D61
100
AcDbAssocArrayItem
 90
        0
 90
       11
 90
        0
 90
        0
 90
        8
 11
388.3
 21
0.0
 31
0.0
330
1D64
100
AcDbAssocArrayItem
 90
        0
 90
       12
 90
        0
 90
        0
 90
        8
 11
423.5999999999999
 21
0.0
 31
0.0
330
1D67
100
AcDbAssocArrayItem
 90
        0
 90
       13
 90
        0
 90
        0
 90
        8
 11
458.8999999999999
 21
0.0
 31
0.0
330
1D6A
100
AcDbAssocArrayItem
 90
        0
 90
       14
 90
        0
 90
        0
 90
        8
 11
494.1999999999999
 21
0.0
 31
0.0
330
1D6D
100
AcDbAssocArrayItem
 90
        0
 90
       15
 90
        0
 90
        0
 90
        8
 11
529.4999999999999
 21
0.0
 31
0.0
330
1D70
100
AcDbAssocArrayItem
 90
        0
 90
       16
 90
        0
 90
        0
 90
        8
 11
564.7999999999999
 21
0.0
 31
0.0
330
1D73
100
AcDbAssocArrayItem
 90
        0
 90
       17
 90
        0
 90
        0
 90
        8
 11
600.0999999999999
 21
0.0
 31
0.0
330
1D76
100
AcDbAssocArrayItem
 90
        0
 90
       18
 90
        0
 90
        0
 90
        8
 11
635.4
 21
0.0
 31
0.0
330
1D79
100
AcDbAssocArrayItem
 90
        0
 90
       19
 90
        0
 90
        0
 90
        8
 11
670.6999999999999
 21
0.0
 31
0.0
330
1D7C
100
AcDbAssocArrayItem
 90
        0
 90
       20
 90
        0
 90
        0
 90
        8
 11
706.0
 21
0.0
 31
0.0
330
1D7F
100
AcDbAssocArrayItem
 90
        0
 90
       21
 90
        0
 90
        0
 90
        8
 11
741.2999999999999
 21
0.0
 31
0.0
330
1D82
100
AcDbAssocArrayItem
 90
        0
 90
       22
 90
        0
 90
        0
 90
        8
 11
776.5999999999999
 21
0.0
 31
0.0
330
1D85
100
AcDbAssocArrayItem
 90
        0
 90
       23
 90
        0
 90
        0
 90
        8
 11
811.8999999999999
 21
0.0
 31
0.0
330
1D88
100
AcDbAssocArrayItem
 90
        0
 90
       24
 90
        0
 90
        0
 90
        8
 11
847.1999999999999
 21
0.0
 31
0.0
330
1D8B
100
AcDbAssocArrayItem
 90
        0
 90
       25
 90
        0
 90
        0
 90
        8
 11
882.4999999999999
 21
0.0
 31
0.0
330
1D8E
100
AcDbAssocArrayItem
 90
        0
 90
       26
 90
        0
 90
        0
 90
        8
 11
917.7999999999999
 21
0.0
 31
0.0
330
1D91
 40
1.0
 40
0.0
 40
0.0
 40
2114.51764090712
 40
0.0
 40
1.0
 40
0.0
 40
1589.231120864604
 40
0.0
 40
0.0
 40
1.0
 40
0.0
 40
0.0
 40
0.0
 40
0.0
 40
1.0
  0
ACDBASSOCDEPENDENCY
  5
1D3E
330
1D3A
100
AcDbAssocDependency
 90
        2
 90
        1
290
     0
290
     1
290
     1
290
     1
 90
        0
330
1CC2
290
     0
330
0
330
0
360
0
 90
        1
  0
ACDBASSOCDEPENDENCY
  5
1D3F
330
1D3A
100
AcDbAssocDependency
 90
        2
 90
        1
290
     1
290
     0
290
     1
290
     1
 90
        0
330
1CBF
290
     0
330
0
330
0
360
0
 90
        2
  0
ACDBASSOCDEPENDENCY
  5
1D40
330
1D3A
100
AcDbAssocDependency
 90
        2
 90
        0
290
     1
290
     1
290
     1
290
     1
 90
-2147483648
330
1CC5
290
     0
330
0
330
0
360
0
 90
        3
  0
ACDBASSOCVERTEXACTIONPARAM
  5
1BB9
330
1BB8
100
AcDbAssocActionParam
 90
        0
  1
BaseNormal
100
AcDbAssocSingleDependencyActionParam
 90
        0
330
0
100
AcDbAssocVertexActionParam
 90
        0
 10
0.0
 20
0.0
 30
1.0
  0
ACDBASSOCVERTEXACTIONPARAM
  5
1BBA
330
1BB8
100
AcDbAssocActionParam
 90
        0
  1
Origin
100
AcDbAssocSingleDependencyActionParam
 90
        0
330
0
100
AcDbAssocVertexActionParam
 90
        0
 10
0.0
 20
0.0
 30
0.0
  0
ACDBASSOCVERTEXACTIONPARAM
  5
1BBE
330
1BB8
100
AcDbAssocActionParam
 90
        0
  1
basePoint
100
AcDbAssocSingleDependencyActionParam
 90
        0
330
0
100
AcDbAssocVertexActionParam
 90
        0
 10
0.0
 20
0.0
 30
0.0
  0
ACDBASSOCVERTEXACTIONPARAM
  5
1D3C
330
1D3B
100
AcDbAssocActionParam
 90
        0
  1
BaseNormal
100
AcDbAssocSingleDependencyActionParam
 90
        0
330
0
100
AcDbAssocVertexActionParam
 90
        0
 10
0.0
 20
0.0
 30
1.0
  0
ACDBASSOCVERTEXACTIONPARAM
  5
1D3D
330
1D3B
100
AcDbAssocActionParam
 90
        0
  1
Origin
100
AcDbAssocSingleDependencyActionParam
 90
        0
330
0
100
AcDbAssocVertexActionParam
 90
        0
 10
0.0
 20
0.0
 30
0.0
  0
ACDBASSOCVERTEXACTIONPARAM
  5
1D41
330
1D3B
100
AcDbAssocActionParam
 90
        0
  1
basePoint
100
AcDbAssocSingleDependencyActionParam
 90
        0
330
0
100
AcDbAssocVertexActionParam
 90
        0
 10
0.0
 20
0.0
 30
0.0
  0
ENDSEC
  0
EOF
