  0
SECTION
  2
HEADER
  9
$ACADVER
  1
AC1009
  9
$INSBASE
 10
0.0
 20
0.0
 30
0.0
  9
$EXTMIN
 10
-0.0851226300492272
 20
-0.0602147999970839
 30
-0.0015258207003583
  9
$EXTMAX
 10
2789.5962966427942
 20
1973.329336484388
 30
0.0000000349246037
  9
$LIMMIN
 10
0.0
 20
0.0
  9
$LIMMAX
 10
297.0
 20
209.0
  9
$ORTHOMODE
 70
     1
  9
$REGENMODE
 70
     1
  9
$FILLMODE
 70
     1
  9
$QTEXTMODE
 70
     0
  9
$MIRRTEXT
 70
     1
  9
$DRAGMODE
 70
     2
  9
$LTSCALE
 40
1.0
  9
$OSMODE
 70
   295
  9
$ATTMODE
 70
     1
  9
$TEXTSIZE
 40
2.5
  9
$TRACEWID
 40
1.0
  9
$TEXTSTYLE
  7
STANDARD
  9
$CLAYER
  8
本体
  9
$CELTYPE
  6
BYLAYER
  9
$CECOLOR
 62
   256
  9
$DIMSCALE
 40
10.0
  9
$DIMASZ
 40
1.5
  9
$DIMEXO
 40
2.0
  9
$DIMDLI
 40
3.75
  9
$DIMRND
 40
0.0
  9
$DIMDLE
 40
0.0
  9
$DIMEXE
 40
1.5
  9
$DIMTP
 40
0.0
  9
$DIMTM
 40
0.0
  9
$DIMTXT
 40
3.0
  9
$DIMCEN
 40
2.5
  9
$DIMTSZ
 40
0.0
  9
$DIMTOL
 70
     0
  9
$DIMLIM
 70
     0
  9
$DIMTIH
 70
     0
  9
$DIMTOH
 70
     0
  9
$DIMSE1
 70
     0
  9
$DIMSE2
 70
     0
  9
$DIMTAD
 70
     1
  9
$DIMZIN
 70
     8
  9
$DIMBLK
  1
OPEN30
  9
$DIMASO
 70
     1
  9
$DIMSHO
 70
     1
  9
$DIMPOST
  1

  9
$DIMAPOST
  1

  9
$DIMALT
 70
     0
  9
$DIMALTD
 70
     3
  9
$DIMALTF
 40
0.03937007874016
  9
$DIMLFAC
 40
1.0
  9
$DIMTOFL
 70
     1
  9
$DIMTVP
 40
0.0
  9
$DIMTIX
 70
     0
  9
$DIMSOXD
 70
     0
  9
$DIMSAH
 70
     0
  9
$DIMBLK1
  1

  9
$DIMBLK2
  1

  9
$DIMSTYLE
  2
ISO-25
  9
$DIMCLRD
 70
     0
  9
$DIMCLRE
 70
     0
  9
$DIMCLRT
 70
     0
  9
$DIMTFAC
 40
1.0
  9
$DIMGAP
 40
0.5
  9
$LUNITS
 70
     2
  9
$LUPREC
 70
     4
  9
$SKETCHINC
 40
1.0
  9
$FILLETRAD
 40
9.9000000000000004
  9
$AUNITS
 70
     0
  9
$AUPREC
 70
     0
  9
$MENU
  1
.
  9
$ELEVATION
 40
0.0
  9
$PELEVATION
 40
0.0
  9
$THICKNESS
 40
0.0
  9
$LIMCHECK
 70
     0
  9
$BLIPMODE
 70
     0
  9
$CHAMFERA
 40
10.0
  9
$CHAMFERB
 40
10.0
  9
$SKPOLY
 70
     0
  9
$TDCREATE
 40
2453510.5586372111
  9
$TDUPDATE
 40
2457700.6529411459
  9
$TDINDWG
 40
0.0768519907
  9
$TDUSRTIMER
 40
0.0768519907
  9
$USRTIMER
 70
     1
  9
$ANGBASE
 50
0.0
  9
$ANGDIR
 70
     0
  9
$PDMODE
 70
     0
  9
$PDSIZE
 40
0.0
  9
$PLINEWID
 40
0.0
  9
$COORDS
 70
     2
  9
$SPLFRAME
 70
     0
  9
$SPLINETYPE
 70
     6
  9
$SPLINESEGS
 70
     8
  9
$ATTDIA
 70
     1
  9
$ATTREQ
 70
     1
  9
$HANDLING
 70
     1
  9
$HANDSEED
  5
1D9B
  9
$SURFTAB1
 70
     6
  9
$SURFTAB2
 70
     6
  9
$SURFTYPE
 70
     6
  9
$SURFU
 70
     6
  9
$SURFV
 70
     6
  9
$UCSNAME
  2

  9
$UCSORG
 10
0.0
 20
0.0
 30
0.0
  9
$UCSXDIR
 10
1.0
 20
0.0
 30
0.0
  9
$UCSYDIR
 10
0.0
 20
1.0
 30
0.0
  9
$PUCSNAME
  2

  9
$PUCSORG
 10
0.0
 20
0.0
 30
0.0
  9
$PUCSXDIR
 10
1.0
 20
0.0
 30
0.0
  9
$PUCSYDIR
 10
0.0
 20
1.0
 30
0.0
  9
$USERI1
 70
     0
  9
$USERI2
 70
     0
  9
$USERI3
 70
     0
  9
$USERI4
 70
     0
  9
$USERI5
 70
     0
  9
$USERR1
 40
0.0
  9
$USERR2
 40
0.0
  9
$USERR3
 40
0.0
  9
$USERR4
 40
0.0
  9
$USERR5
 40
0.0
  9
$WORLDVIEW
 70
     1
  9
$SHADEDGE
 70
     3
  9
$SHADEDIF
 70
    70
  9
$TILEMODE
 70
     1
  9
$MAXACTVP
 70
    48
  9
$PLIMCHECK
 70
     0
  9
$PEXTMIN
 10
0.0
 20
0.0
 30
0.0
  9
$PEXTMAX
 10
0.0
 20
0.0
 30
0.0
  9
$PLIMMIN
 10
0.0
 20
0.0
  9
$PLIMMAX
 10
12.0
 20
9.0
  9
$UNITMODE
 70
     0
  9
$VISRETAIN
 70
     1
  9
$PLINEGEN
 70
     0
  9
$PSLTSCALE
 70
     1
  0
ENDSEC
  0
SECTION
  2
TABLES
  0
TABLE
  2
VPORT
 70
     1
  0
VPORT
  2
*ACTIVE
 70
     0
 10
0.0
 20
0.0
 11
1.0
 21
1.0
 12
382.44543320302358
 22
-256.33576277411947
 13
0.0
 23
0.0
 14
10.0
 24
10.0
 15
10.0
 25
10.0
 16
0.0
 26
0.0
 36
68.035978165163357
 17
1012.310153803349
 27
1242.9703236163141
 37
0.0
 40
1993.4579196025311
 41
3.1494057724957552
 42
50.0
 43
0.0
 44
0.0
 50
0.0
 51
0.0
 71
     0
 72
   100
 73
     1
 74
     3
 75
     0
 76
     0
 77
     0
 78
     0
  0
ENDTAB
  0
TABLE
  2
LTYPE
 70
     4
  0
LTYPE
  2
CONTINUOUS
 70
     0
  3
Solid line
 72
    65
 73
     0
 40
0.0
  0
LTYPE
  2
HIDDEN
 70
     0
  3
Hidden __ __ __ __ __ __ __ __ __ __ __ __ __ _
 72
    65
 73
     2
 40
9.5249999999999986
 49
6.3499999999999988
 49
-3.1749999999999989
  0
LTYPE
  2
CENTER
 70
     0
  3
------ - ------ - ----
 72
    65
 73
     4
 40
10.0
 49
6.25
 49
-1.25
 49
1.25
 49
-1.25
  0
ENDTAB
  0
TABLE
  2
LAYER
 70
    11
  0
LAYER
  2
0
 70
     0
 62
     7
  6
CONTINUOUS
  0
LAYER
  2
本体
 70
     0
 62
     7
  6
CONTINUOUS
  0
LAYER
  2
寸法線
 70
     0
 62
     2
  6
CONTINUOUS
  0
LAYER
  2
エンボス
 70
     0
 62
     4
  6
CONTINUOUS
  0
LAYER
  2
外枠
 70
     0
 62
     7
  6
CONTINUOUS
  0
LAYER
  2
DEFPOINTS
 70
     0
 62
     7
  6
CONTINUOUS
  0
LAYER
  2
嵩上断面
 70
     0
 62
   112
  6
CONTINUOUS
  0
LAYER
  2
嵩上平面
 70
     0
 62
   112
  6
HIDDEN
  0
LAYER
  2
ゴム
 70
     0
 62
    51
  6
CONTINUOUS
  0
LAYER
  2
中心線
 70
     0
 62
     1
  6
CENTER
  0
LAYER
  2
ADSK_ASSOC_ENTITY_BACKUPS
 70
     5
 62
    -7
  6
CONTINUOUS
  0
ENDTAB
  0
TABLE
  2
STYLE
 70
     1
  0
STYLE
  2
STANDARD
 70
     0
 40
0.0
 41
1.0
 50
0.0
 71
     0
 42
2.5
  3
txt
  4

  0
ENDTAB
  0
TABLE
  2
VIEW
 70
     0
  0
ENDTAB
  0
TABLE
  2
UCS
 70
     0
  0
ENDTAB
  0
TABLE
  2
APPID
 70
     6
  0
APPID
  2
ACAD
 70
     0
  0
APPID
  2
ACAD_NAV_VCDISPLAY
 70
     0
  0
APPID
  2
ACAD_MLEADERVER
 70
     0
  0
APPID
  2
ACAD_EXEMPT_FROM_CAD_STANDARDS
 70
     0
  0
APPID
  2
ACLAYERTOOLS
 70
     0
  0
APPID
  2
ACDBDYNAMICBLOCKTRUENAME2
 70
     0
  0
ENDTAB
  0
TABLE
  2
DIMSTYLE
 70
     3
  0
DIMSTYLE
  2
ISO-25
 70
     0
  3

  4

  5
OPEN30
  6

  7

 40
10.0
 41
1.5
 42
2.0
 43
3.75
 44
1.5
 45
0.0
 46
0.0
 47
0.0
 48
0.0
140
3.0
141
2.5
142
0.0
143
0.03937007874016
144
1.0
145
0.0
146
1.0
147
0.5
 71
     0
 72
     0
 73
     0
 74
     0
 75
     0
 76
     0
 77
     1
 78
     8
170
     0
171
     3
172
     1
173
     0
174
     0
175
     0
176
     0
177
     0
178
     0
  0
DIMSTYLE
  2
STANDARD
 70
     0
  3

  4

  5

  6

  7

 40
1.0
 41
0.18
 42
0.0625
 43
0.38
 44
0.18
 45
0.0
 46
0.0
 47
0.0
 48
0.0
140
0.18
141
0.09
142
0.0
143
25.399999999999999
144
1.0
145
0.0
146
1.0
147
0.09
 71
     0
 72
     0
 73
     1
 74
     1
 75
     0
 76
     0
 77
     0
 78
     0
170
     0
171
     2
172
     0
173
     0
174
     0
175
     0
176
     0
177
     0
178
     0
  0
ENDTAB
  0
ENDSEC
  0
SECTION
  2
BLOCKS
  0
BLOCK
  8
0
  2
$MODEL_SPACE
 70
     0
 10
0.0
 20
0.0
 30
0.0
  3
$MODEL_SPACE
  1

  0
ENDBLK
  5
F3F
  8
0
  0
BLOCK
 67
     1
  8
0
  2
$PAPER_SPACE
 70
     0
 10
0.0
 20
0.0
 30
0.0
  3
$PAPER_SPACE
  1

  0
ENDBLK
  5
F46
 67
     1
  8
0
  0
BLOCK
  8
0
  2
_OPEN30
 70
     0
 10
0.0
 20
0.0
 30
0.0
  3
_OPEN30
  1

  0
LINE
  5
97
  8
0
  6
BYBLOCK
 62
     0
 10
-1.0
 20
0.26794919
 30
0.0
 11
0.0
 21
0.0
 31
0.0
  0
LINE
  5
98
  8
0
  6
BYBLOCK
 62
     0
 10
0.0
 20
0.0
 30
0.0
 11
-1.0
 21
-0.26794919
 31
0.0
  0
LINE
  5
99
  8
0
  6
BYBLOCK
 62
     0
 10
0.0
 20
0.0
 30
0.0
 11
-1.0
 21
0.0
 31
0.0
  0
ENDBLK
  5
9B
  8
0
  0
BLOCK
  8
0
  2
TB6
 70
     0
 10
0.0
 20
0.0
 30
0.0
  3
TB6
  1

  0
LINE
  5
FC
  8
本体
  6
CENTER
 62
     1
 10
9.0
 20
0.0
 30
0.0
 11
-3.0
 21
0.0
 31
0.0
  0
LINE
  5
FE
  8
本体
  6
CENTER
 62
     1
 10
3.0
 20
6.0
 30
0.0
 11
3.0
 21
-6.0
 31
0.0
  0
CIRCLE
  5
FF
  8
本体
  6
CONTINUOUS
 62
     0
 10
3.0
 20
0.0
 30
0.0
 40
3.0
  0
ENDBLK
  5
101
  8
0
  0
BLOCK
  8
0
  2
*D3
 70
     1
 10
0.0
 20
0.0
 30
0.0
  3
*D3
  1

  0
LINE
  5
A2
  8
寸法線
  6
CONTINUOUS
 62
     0
 10
1978.9105852146481
 20
1509.8444796039321
 30
0.0
 11
1883.9669151660139
 21
1509.8444796039321
 31
0.0
  0
LINE
  5
A3
  8
寸法線
  6
CONTINUOUS
 62
     0
 10
1978.9105852146481
 20
1409.8444796039321
 30
0.0
 11
1883.9669151660139
 21
1409.8444796039321
 31
0.0
  0
LINE
  5
A4
  8
寸法線
  6
CONTINUOUS
 62
     0
 10
1898.9669151660139
 20
1494.8444796039321
 30
0.0
 11
1898.9669151660139
 21
1424.8444796039321
 31
0.0
  0
INSERT
  5
A5
  8
寸法線
  6
CONTINUOUS
 62
     0
  2
_OPEN30
 10
1898.9669151660139
 20
1509.8444796039321
 30
0.0
 41
15.0
 42
15.0
 43
15.0
 50
90.0
  0
INSERT
  5
A6
  8
寸法線
  6
CONTINUOUS
 62
     0
  2
_OPEN30
 10
1898.9669151660139
 20
1409.8444796039321
 30
0.0
 41
15.0
 42
15.0
 43
15.0
 50
270.0
  0
INSERT
  5
A7
  8
本体
  2
*U46
 10
0.0
 20
0.0
 30
0.0
  0
POINT
  5
A8
  8
DEFPOINTS
  6
CONTINUOUS
 62
     0
 10
1998.910585214647
 20
1509.8444796039321
 30
0.0
  0
POINT
  5
AA
  8
DEFPOINTS
  6
CONTINUOUS
 62
     0
 10
1998.910585214647
 20
1409.8444796039321
 30
0.0
  0
POINT
  5
AB
  8
DEFPOINTS
  6
CONTINUOUS
 62
     0
 10
1898.9669151660139
 20
1409.8444796039321
 30
0.0
  0
ENDBLK
  5
AD
  8
0
  0
BLOCK
  8
0
  2
*D4
 70
     1
 10
0.0
 20
0.0
 30
0.0
  3
*D4
  1

  0
LINE
  5
B0
  8
寸法線
  6
CONTINUOUS
 62
     0
 10
1978.9105852146481
 20
1582.3444796039309
 30
0.0
 11
1783.9231632826679
 21
1582.3444796039309
 31
0.0
  0
LINE
  5
B1
  8
寸法線
  6
CONTINUOUS
 62
     0
 10
1978.9105852146481
 20
1237.3444796039321
 30
0.0
 11
1783.9231632826679
 21
1237.3444796039321
 31
0.0
  0
LINE
  5
B2
  8
寸法線
  6
CONTINUOUS
 62
     0
 10
1798.9231632826679
 20
1567.3444796039309
 30
0.0
 11
1798.923163282667
 21
1252.3444796039309
 31
0.0
  0
INSERT
  5
B3
  8
寸法線
  6
CONTINUOUS
 62
     0
  2
_OPEN30
 10
1798.9231632826679
 20
1582.3444796039309
 30
0.0
 41
15.0
 42
15.0
 43
15.0
 50
90.0
  0
INSERT
  5
B4
  8
寸法線
  6
CONTINUOUS
 62
     0
  2
_OPEN30
 10
1798.923163282667
 20
1237.3444796039321
 30
0.0
 41
15.0
 42
15.0
 43
15.0
 50
270.0
  0
INSERT
  5
B5
  8
本体
  2
*U47
 10
0.0
 20
0.0
 30
0.0
  0
POINT
  5
B6
  8
DEFPOINTS
  6
CONTINUOUS
 62
     0
 10
1998.910585214647
 20
1582.3444796039309
 30
0.0
  0
POINT
  5
B7
  8
DEFPOINTS
  6
CONTINUOUS
 62
     0
 10
1998.910585214647
 20
1237.3444796039321
 30
0.0
  0
POINT
  5
B8
  8
DEFPOINTS
  6
CONTINUOUS
 62
     0
 10
1798.923163282667
 20
1237.3444796039321
 30
0.0
  0
ENDBLK
  5
BA
  8
0
  0
BLOCK
  8
0
  2
*D5
 70
     1
 10
0.0
 20
0.0
 30
0.0
  3
*D5
  1

  0
LINE
  5
FCC
  8
寸法線
  6
CONTINUOUS
 62
     0
 10
2100.910582214648
 20
1572.344480603932
 30
0.0
 11
2195.7915037225248
 21
1572.344480603932
 31
0.0
  0
LINE
  5
FCD
  8
寸法線
  6
CONTINUOUS
 62
     0
 10
2100.910582214648
 20
1247.344478603932
 30
0.0
 11
2195.7915037225248
 21
1247.344478603932
 31
0.0
  0
LINE
  5
FCE
  8
寸法線
  6
CONTINUOUS
 62
     0
 10
2180.7915037225248
 20
1557.344480603932
 30
0.0
 11
2180.7915037225248
 21
1262.344478603932
 31
0.0
  0
INSERT
  5
FCF
  8
寸法線
  6
CONTINUOUS
 62
     0
  2
_OPEN30
 10
2180.7915037225248
 20
1572.344480603932
 30
0.0
 41
15.0
 42
15.0
 43
15.0
 50
90.0
  0
INSERT
  5
FD0
  8
寸法線
  6
CONTINUOUS
 62
     0
  2
_OPEN30
 10
2180.7915037225248
 20
1247.344478603932
 30
0.0
 41
15.0
 42
15.0
 43
15.0
 50
270.0
  0
INSERT
  5
FD1
  8
本体
  2
*U55
 10
0.0
 20
0.0
 30
0.0
  0
POINT
  5
FD2
  8
DEFPOINTS
  6
CONTINUOUS
 62
     0
 10
2080.9105822146471
 20
1572.344480603932
 30
0.0
  0
POINT
  5
FD3
  8
DEFPOINTS
  6
CONTINUOUS
 62
     0
 10
2080.9105822146471
 20
1247.344478603932
 30
0.0
  0
POINT
  5
FD4
  8
DEFPOINTS
  6
CONTINUOUS
 62
     0
 10
2180.7915037225248
 20
1247.344478603932
 30
0.0
  0
ENDBLK
  5
C7
  8
0
  0
BLOCK
  8
0
  2
*D6
 70
     1
 10
0.0
 20
0.0
 30
0.0
  3
*D6
  1

  0
LINE
  5
1335
  8
ゴム
  6
CONTINUOUS
 62
     0
 10
683.10011471431415
 20
553.45394084689576
 30
0.0
 11
683.10011471431415
 21
408.57401983913633
 31
0.0
  0
LINE
  5
1336
  8
ゴム
  6
CONTINUOUS
 62
     0
 10
1158.100114714314
 20
553.45394084689576
 30
0.0
 11
1158.100114714314
 21
408.57401983913633
 31
0.0
  0
LINE
  5
1337
  8
ゴム
  6
CONTINUOUS
 62
     0
 10
698.10011471431426
 20
423.57401983913633
 30
0.0
 11
1143.100114714314
 21
423.57401983913633
 31
0.0
  0
INSERT
  5
1338
  8
ゴム
  6
CONTINUOUS
 62
     0
  2
_OPEN30
 10
683.10011471431415
 20
423.57401983913633
 30
0.0
 41
15.0
 42
15.0
 43
15.0
 50
180.0
  0
INSERT
  5
1339
  8
ゴム
  6
CONTINUOUS
 62
     0
  2
_OPEN30
 10
1158.100114714314
 20
423.57401983913633
 30
0.0
 41
15.0
 42
15.0
 43
15.0
  0
INSERT
  5
133A
  8
本体
  2
*U62
 10
0.0
 20
0.0
 30
0.0
  0
POINT
  5
133B
  8
DEFPOINTS
  6
CONTINUOUS
 62
     0
 10
683.10011471431415
 20
573.45394084689576
 30
0.0
  0
POINT
  5
133C
  8
DEFPOINTS
  6
CONTINUOUS
 62
     0
 10
1158.100114714314
 20
573.45394084689576
 30
0.0
  0
POINT
  5
133D
  8
DEFPOINTS
  6
CONTINUOUS
 62
     0
 10
1158.100114714314
 20
423.57401983913633
 30
0.0
  0
ENDBLK
  5
DD
  8
0
  0
BLOCK
  8
0
  2
*D7
 70
     1
 10
0.0
 20
0.0
 30
0.0
  3
*D7
  1

  0
LINE
  5
1488
  8
寸法線
  6
CONTINUOUS
 62
     0
 10
1178.100114714314
 20
638.45394084689588
 30
0.0
 11
1285.3647386380781
 21
638.45394084689565
 31
0.0
  0
LINE
  5
1489
  8
寸法線
  6
CONTINUOUS
 62
     0
 10
1178.100114714314
 20
578.45394084689576
 30
0.0
 11
1285.3647386380781
 21
578.45394084689565
 31
0.0
  0
LINE
  5
148A
  8
寸法線
  6
CONTINUOUS
 62
     0
 10
1270.3647386380781
 20
623.45394084689576
 30
0.0
 11
1270.3647386380781
 21
593.45394084689588
 31
0.0
  0
INSERT
  5
148B
  8
寸法線
  6
CONTINUOUS
 62
     0
  2
_OPEN30
 10
1270.3647386380781
 20
638.45394084689588
 30
0.0
 41
15.0
 42
15.0
 43
15.0
 50
90.0
  0
INSERT
  5
148C
  8
寸法線
  6
CONTINUOUS
 62
     0
  2
_OPEN30
 10
1270.3647386380781
 20
578.45394084689576
 30
0.0
 41
15.0
 42
15.0
 43
15.0
 50
270.0
  0
INSERT
  5
148D
  8
本体
  2
*U68
 10
0.0
 20
0.0
 30
0.0
  0
POINT
  5
148E
  8
DEFPOINTS
  6
CONTINUOUS
 62
     0
 10
1158.100114714314
 20
638.45394084689588
 30
0.0
  0
POINT
  5
148F
  8
DEFPOINTS
  6
CONTINUOUS
 62
     0
 10
1158.100114714314
 20
578.45394084689576
 30
0.0
  0
POINT
  5
1490
  8
DEFPOINTS
  6
CONTINUOUS
 62
     0
 10
1270.3647386380781
 20
578.45394084689576
 30
0.0
  0
ENDBLK
  5
EA
  8
0
  0
BLOCK
  8
0
  2
*D8
 70
     1
 10
0.0
 20
0.0
 30
0.0
  3
*D8
  1

  0
LINE
  5
173E
  8
寸法線
  6
CONTINUOUS
 62
     0
 10
673.60011471431415
 20
683.45394084689576
 30
0.0
 11
673.60011471431415
 21
815.02248334181957
 31
0.0
  0
LINE
  5
173F
  8
寸法線
  6
CONTINUOUS
 62
     0
 10
1167.600114714314
 20
683.45394084689576
 30
0.0
 11
1167.600114714314
 21
815.02248334181957
 31
0.0
  0
LINE
  5
1740
  8
寸法線
  6
CONTINUOUS
 62
     0
 10
688.60011471431415
 20
800.02248334181968
 30
0.0
 11
1152.600114714314
 21
800.02248334181968
 31
0.0
  0
INSERT
  5
1741
  8
寸法線
  6
CONTINUOUS
 62
     0
  2
_OPEN30
 10
673.60011471431415
 20
800.02248334181968
 30
0.0
 41
15.0
 42
15.0
 43
15.0
 50
180.0
  0
INSERT
  5
1742
  8
寸法線
  6
CONTINUOUS
 62
     0
  2
_OPEN30
 10
1167.600114714314
 20
800.02248334181968
 30
0.0
 41
15.0
 42
15.0
 43
15.0
  0
INSERT
  5
1743
  8
本体
  2
*U76
 10
0.0
 20
0.0
 30
0.0
  0
POINT
  5
1744
  8
DEFPOINTS
  6
CONTINUOUS
 62
     0
 10
673.60011471431415
 20
663.45394084689588
 30
0.0
  0
POINT
  5
1745
  8
DEFPOINTS
  6
CONTINUOUS
 62
     0
 10
1167.600114714314
 20
663.45394084689588
 30
0.0
  0
POINT
  5
1746
  8
DEFPOINTS
  6
CONTINUOUS
 62
     0
 10
1167.600114714314
 20
800.02248334181968
 30
0.0
  0
ENDBLK
  5
130
  8
0
  0
BLOCK
  8
0
  2
*D9
 70
     1
 10
0.0
 20
0.0
 30
0.0
  3
*D9
  1

  0
LINE
  5
147D
  8
寸法線
  6
CONTINUOUS
 62
     0
 10
1178.100114714314
 20
638.45394084689588
 30
0.0
 11
1285.3647386380781
 21
638.45394084689565
 31
0.0
  0
LINE
  5
147E
  8
寸法線
  6
CONTINUOUS
 62
     0
 10
1185.100114714314
 20
663.45394084689588
 30
0.0
 11
1285.3647386380781
 21
663.45394084689565
 31
0.0
  0
LINE
  5
147F
  8
寸法線
  6
CONTINUOUS
 62
     0
 10
1270.3647386380781
 20
623.45394084689576
 30
0.0
 11
1270.3647386380781
 21
608.45394084689576
 31
0.0
  0
LINE
  5
1480
  8
寸法線
  6
CONTINUOUS
 62
     0
 10
1270.3647386380781
 20
678.45394084689576
 30
0.0
 11
1270.3647386380781
 21
738.32703729359639
 31
0.0
  0
LINE
  5
1481
  8
寸法線
  6
CONTINUOUS
 62
     0
 10
1270.3647386380781
 20
638.45394084689588
 30
0.0
 11
1270.3647386380781
 21
663.45394084689588
 31
0.0
  0
INSERT
  5
1482
  8
寸法線
  6
CONTINUOUS
 62
     0
  2
_OPEN30
 10
1270.3647386380781
 20
638.45394084689588
 30
0.0
 41
15.0
 42
15.0
 43
15.0
 50
90.0
  0
INSERT
  5
1483
  8
寸法線
  6
CONTINUOUS
 62
     0
  2
_OPEN30
 10
1270.3647386380781
 20
663.45394084689588
 30
0.0
 41
15.0
 42
15.0
 43
15.0
 50
270.0
  0
INSERT
  5
1484
  8
本体
  2
*U67
 10
0.0
 20
0.0
 30
0.0
  0
POINT
  5
1485
  8
DEFPOINTS
  6
CONTINUOUS
 62
     0
 10
1158.100114714314
 20
638.45394084689588
 30
0.0
  0
POINT
  5
1486
  8
DEFPOINTS
  6
CONTINUOUS
 62
     0
 10
1165.100114714314
 20
663.45394084689588
 30
0.0
  0
POINT
  5
1487
  8
DEFPOINTS
  6
CONTINUOUS
 62
     0
 10
1270.3647386380781
 20
663.45394084689588
 30
0.0
  0
ENDBLK
  5
13F
  8
0
  0
BLOCK
  8
0
  2
*D10
 70
     1
 10
0.0
 20
0.0
 30
0.0
  3
*D10
  1

  0
LINE
  5
142
  8
寸法線
  6
CONTINUOUS
 62
     0
 10
1185.100114714314
 20
663.45394084689588
 30
0.0
 11
1384.3269755415779
 21
663.45394084689565
 31
0.0
  0
LINE
  5
143
  8
寸法線
  6
CONTINUOUS
 62
     0
 10
1178.100114714314
 20
573.45394084689576
 30
0.0
 11
1384.3269755415779
 21
573.45394084689576
 31
0.0
  0
LINE
  5
144
  8
寸法線
  6
CONTINUOUS
 62
     0
 10
1369.3269755415779
 20
648.45394084689576
 30
0.0
 11
1369.3269755415779
 21
588.45394084689565
 31
0.0
  0
INSERT
  5
145
  8
寸法線
  6
CONTINUOUS
 62
     0
  2
_OPEN30
 10
1369.3269755415779
 20
663.45394084689565
 30
0.0
 41
15.0
 42
15.0
 43
15.0
 50
90.0
  0
INSERT
  5
146
  8
寸法線
  6
CONTINUOUS
 62
     0
  2
_OPEN30
 10
1369.3269755415779
 20
573.45394084689576
 30
0.0
 41
15.0
 42
15.0
 43
15.0
 50
270.0
  0
INSERT
  5
147
  8
本体
  2
*U52
 10
0.0
 20
0.0
 30
0.0
  0
POINT
  5
148
  8
DEFPOINTS
  6
CONTINUOUS
 62
     0
 10
1165.100114714314
 20
663.45394084689588
 30
0.0
  0
POINT
  5
149
  8
DEFPOINTS
  6
CONTINUOUS
 62
     0
 10
1158.100114714314
 20
573.45394084689576
 30
0.0
  0
POINT
  5
14A
  8
DEFPOINTS
  6
CONTINUOUS
 62
     0
 10
1369.3269755415779
 20
573.45394084689576
 30
0.0
  0
ENDBLK
  5
14C
  8
0
  0
BLOCK
  8
0
  2
*D11
 70
     1
 10
0.0
 20
0.0
 30
0.0
  3
*D11
  1

  0
LINE
  5
1733
  8
寸法線
  6
CONTINUOUS
 62
     0
 10
1027.6129355143139
 20
683.45394084689576
 30
0.0
 11
1027.6129355143139
 21
735.02248334181957
 31
0.0
  0
LINE
  5
1734
  8
寸法線
  6
CONTINUOUS
 62
     0
 10
1040.2026791143139
 20
683.45394084689576
 30
0.0
 11
1040.2026791143139
 21
735.02248334181957
 31
0.0
  0
LINE
  5
1735
  8
寸法線
  6
CONTINUOUS
 62
     0
 10
1012.612935514314
 20
720.02248334181968
 30
0.0
 11
997.61293551431402
 21
720.02248334181968
 31
0.0
  0
LINE
  5
1736
  8
寸法線
  6
CONTINUOUS
 62
     0
 10
1055.2026791143139
 20
720.02248334181968
 30
0.0
 11
1152.0808517031469
 21
720.02248334181968
 31
0.0
  0
LINE
  5
1737
  8
寸法線
  6
CONTINUOUS
 62
     0
 10
1027.6129355143139
 20
720.02248334181968
 30
0.0
 11
1040.2026791143139
 21
720.02248334181968
 31
0.0
  0
INSERT
  5
1738
  8
寸法線
  6
CONTINUOUS
 62
     0
  2
_OPEN30
 10
1027.6129355143139
 20
720.02248334181968
 30
0.0
 41
15.0
 42
15.0
 43
15.0
  0
INSERT
  5
1739
  8
寸法線
  6
CONTINUOUS
 62
     0
  2
_OPEN30
 10
1040.2026791143139
 20
720.02248334181968
 30
0.0
 41
15.0
 42
15.0
 43
15.0
 50
180.0
  0
INSERT
  5
173A
  8
本体
  2
*U75
 10
0.0
 20
0.0
 30
0.0
  0
POINT
  5
173B
  8
DEFPOINTS
  6
CONTINUOUS
 62
     0
 10
1027.6129355143139
 20
663.45394084689588
 30
0.0
  0
POINT
  5
173C
  8
DEFPOINTS
  6
CONTINUOUS
 62
     0
 10
1040.2026791143139
 20
663.45394084689588
 30
0.0
  0
POINT
  5
173D
  8
DEFPOINTS
  6
CONTINUOUS
 62
     0
 10
1040.2026791143139
 20
720.02248334181968
 30
0.0
  0
ENDBLK
  5
30B
  8
0
  0
BLOCK
  8
0
  2
*D12
 70
     1
 10
0.0
 20
0.0
 30
0.0
  3
*D12
  1

  0
LINE
  5
31A
  8
寸法線
  6
CONTINUOUS
 62
     0
 10
1178.100114714314
 20
578.45394084689576
 30
0.0
 11
1285.3647386380781
 21
578.45394084689565
 31
0.0
  0
LINE
  5
31B
  8
寸法線
  6
CONTINUOUS
 62
     0
 10
1178.100114714314
 20
573.45394084689576
 30
0.0
 11
1285.3647386380781
 21
573.45394084689576
 31
0.0
  0
LINE
  5
31C
  8
寸法線
  6
CONTINUOUS
 62
     0
 10
1270.3647386380781
 20
593.45394084689588
 30
0.0
 11
1270.3647386380781
 21
608.45394084689576
 31
0.0
  0
LINE
  5
31D
  8
寸法線
  6
CONTINUOUS
 62
     0
 10
1270.3647386380781
 20
558.45394084689576
 30
0.0
 11
1270.3647386380781
 21
517.92094592303806
 31
0.0
  0
LINE
  5
31E
  8
寸法線
  6
CONTINUOUS
 62
     0
 10
1270.3647386380781
 20
578.45394084689576
 30
0.0
 11
1270.3647386380781
 21
573.45394084689576
 31
0.0
  0
INSERT
  5
31F
  8
寸法線
  6
CONTINUOUS
 62
     0
  2
_OPEN30
 10
1270.3647386380781
 20
578.45394084689576
 30
0.0
 41
15.0
 42
15.0
 43
15.0
 50
270.0
  0
INSERT
  5
320
  8
寸法線
  6
CONTINUOUS
 62
     0
  2
_OPEN30
 10
1270.3647386380781
 20
573.45394084689576
 30
0.0
 41
15.0
 42
15.0
 43
15.0
 50
90.0
  0
INSERT
  5
321
  8
本体
  2
*U54
 10
0.0
 20
0.0
 30
0.0
  0
POINT
  5
322
  8
DEFPOINTS
  6
CONTINUOUS
 62
     0
 10
1158.100114714314
 20
578.45394084689576
 30
0.0
  0
POINT
  5
323
  8
DEFPOINTS
  6
CONTINUOUS
 62
     0
 10
1158.100114714314
 20
573.45394084689576
 30
0.0
  0
POINT
  5
324
  8
DEFPOINTS
  6
CONTINUOUS
 62
     0
 10
1270.3647386380781
 20
573.45394084689576
 30
0.0
  0
ENDBLK
  5
326
  8
0
  0
BLOCK
  8
0
  2
平ゴムパッキン
 70
     0
 10
0.0
 20
0.0
 30
0.0
  3
平ゴムパッキン
  1

  0
LINE
  5
F65
  8
0
 10
3.0000050000000011
 20
-0.0000109999999998
 30
0.0
 11
3.0000050000000011
 21
-40.000011000000001
 31
0.0
  0
LINE
  5
F66
  8
0
 10
3.0000050000000011
 20
-0.0000109999999998
 30
0.0
 11
8.0000050000000016
 21
-0.0000109999999998
 31
0.0
  0
LINE
  5
F67
  8
0
 10
3.0000050000000011
 20
-40.000011000000001
 30
0.0
 11
8.0000050000000016
 21
-40.000011000000001
 31
0.0
  0
LINE
  5
F68
  8
0
 10
8.0000050000000016
 20
-0.0000109999999998
 30
0.0
 11
8.0000050000000016
 21
-10.000011000000001
 31
0.0
  0
LINE
  5
F69
  8
0
 10
8.0000050000000016
 20
-30.000011000000001
 30
0.0
 11
8.0000050000000016
 21
-40.000011000000001
 31
0.0
  0
LINE
  5
F6A
  8
0
 10
8.0000050000000016
 20
-10.000011000000001
 30
0.0
 11
8.0000050000000016
 21
-30.000011000000001
 31
0.0
  0
LINE
  5
F6B
  8
0
 62
     1
 10
5.8745460000000023
 20
-40.000011000000001
 30
0.0
 11
8.0000050000000016
 21
-36.318607999999998
 31
0.0
  0
LINE
  5
F6C
  8
0
 62
     1
 10
3.0000050000000011
 20
-38.978861999999999
 30
0.0
 11
8.0000050000000016
 21
-30.318608000000001
 31
0.0
  0
LINE
  5
F6D
  8
0
 62
     1
 10
3.0000050000000011
 20
-32.978861999999999
 30
0.0
 11
8.0000050000000016
 21
-24.318608666666659
 31
0.0
  0
LINE
  5
F6E
  8
0
 62
     1
 10
3.0000050000000011
 20
-26.978861999999999
 30
0.0
 11
8.0000050000000016
 21
-18.31860866666667
 31
0.0
  0
LINE
  5
F6F
  8
0
 62
     1
 10
3.0000050000000011
 20
-20.978861999999999
 30
0.0
 11
8.0000050000000016
 21
-12.318608666666661
 31
0.0
  0
LINE
  5
F70
  8
0
 62
     1
 10
3.0000050000000011
 20
-14.978861999999999
 30
0.0
 11
8.0000050000000016
 21
-6.3186080000000011
 31
0.0
  0
LINE
  5
F71
  8
0
 62
     1
 10
3.0000050000000011
 20
-8.9788619999999995
 30
0.0
 11
8.0000050000000016
 21
-0.3186080000000002
 31
0.0
  0
LINE
  5
F72
  8
0
 62
     1
 10
3.0000050000000011
 20
-2.978861999999999
 30
0.0
 11
4.7198449999999994
 21
-0.0000109999999998
 31
0.0
  0
ENDBLK
  5
F74
  8
0
  0
BLOCK
  8
0
  2
P-H60
 70
     0
 10
0.0
 20
0.0
 30
0.0
  3
P-H60
  1

  0
LINE
  5
1308
  8
0
 10
2.999997
 20
0.000001
 30
0.0
 11
56.999997
 21
0.000001
 31
0.0
  0
LINE
  5
1309
  8
0
 10
-0.000003
 20
-2.9999989999999999
 30
0.0
 11
-0.000003
 21
-36.999999000000003
 31
0.0
  0
LINE
  5
130A
  8
0
 10
2.999997
 20
-39.999999000000003
 30
0.0
 11
56.999997
 21
-39.999999000000003
 31
0.0
  0
ARC
  5
130B
  8
0
 10
2.999997
 20
-36.999999000000003
 30
0.0
 40
3.0
 50
180.0
 51
270.0
  0
ARC
  5
130C
  8
0
 10
2.999997
 20
-2.9999989999999999
 30
0.0
 40
3.0
 50
90.0
 51
180.0
  0
LINE
  5
130D
  8
0
 10
59.999997
 20
-36.999999000000003
 30
0.0
 11
59.999997
 21
-2.9999989999999999
 31
0.0
  0
ARC
  5
130E
  8
0
 10
56.999997
 20
-2.9999989999999999
 30
0.0
 40
3.0
 50
0.0
 51
90.0
  0
ARC
  5
130F
  8
0
 10
56.999997
 20
-36.999999000000003
 30
0.0
 40
3.0
 50
270.0
 51
0.0
  0
POLYLINE
  5
1310
  8
0
  6
CONTINUOUS
 66
     1
 10
0.0
 20
0.0
 30
0.0
 70
     1
  0
VERTEX
  5
1BD0
  8
0
  6
CONTINUOUS
 10
2.299996999999999
 20
-37.699999000000012
 30
0.0
  0
VERTEX
  5
1BD1
  8
0
  6
CONTINUOUS
 10
57.699997000000003
 20
-37.699999000000012
 30
0.0
  0
VERTEX
  5
1BD2
  8
0
  6
CONTINUOUS
 10
57.699997000000003
 20
-2.2999989999999988
 30
0.0
  0
VERTEX
  5
1BD3
  8
0
  6
CONTINUOUS
 10
2.299996999999999
 20
-2.2999989999999988
 30
0.0
  0
SEQEND
  5
1BD4
  8
0
  6
CONTINUOUS
  0
ENDBLK
  5
1312
  8
0
  0
BLOCK
  8
0
  2
鎌下
 70
     0
 10
0.0
 20
0.0
 30
0.0
  3
鎌下
  1

  0
INSERT
  5
141B
  8
本体
  2
*U65
 10
0.0
 20
0.0
 30
0.0
  0
INSERT
  5
141C
  8
本体
  2
*U66
 10
0.0
 20
0.0
 30
0.0
  0
POLYLINE
  5
141D
  8
外枠
  6
CONTINUOUS
 10
61.680686863550363
 20
-132.4580745468067
 30
0.0
 66
     1
 70
     8
  0
VERTEX
  8
外枠
  5
1C97
 10
61.6807
 20
-132.458
 30
0.000000
  70
    32
  0
VERTEX
  8
外枠
  5
1C98
 10
63.5594
 20
-132.400
 30
0.000000
  70
    32
  0
VERTEX
  8
外枠
  5
1C99
 10
65.4335
 20
-132.228
 30
0.000000
  70
    32
  0
VERTEX
  8
外枠
  5
1C9A
 10
67.2986
 20
-131.940
 30
0.000000
  70
    32
  0
VERTEX
  8
外枠
  5
1C9B
 10
69.1502
 20
-131.538
 30
0.000000
  70
    32
  0
VERTEX
  8
外枠
  5
1C9C
 10
70.9838
 20
-131.024
 30
0.000000
  70
    32
  0
VERTEX
  8
外枠
  5
1C9D
 10
72.7950
 20
-130.397
 30
0.000000
  70
    32
  0
VERTEX
  8
外枠
  5
1C9E
 10
74.5794
 20
-129.660
 30
0.000000
  70
    32
  0
VERTEX
  8
外枠
  5
1C9F
 10
76.3327
 20
-128.815
 30
0.000000
  70
    32
  0
VERTEX
  8
外枠
  5
1CA0
 10
78.0507
 20
-127.863
 30
0.000000
  70
    32
  0
VERTEX
  8
外枠
  5
1CA1
 10
79.7293
 20
-126.807
 30
0.000000
  70
    32
  0
VERTEX
  8
外枠
  5
1CA2
 10
81.3644
 20
-125.649
 30
0.000000
  70
    32
  0
VERTEX
  8
外枠
  5
1CA3
 10
82.9521
 20
-124.392
 30
0.000000
  70
    32
  0
VERTEX
  8
外枠
  5
1CA4
 10
84.4886
 20
-123.040
 30
0.000000
  70
    32
  0
VERTEX
  8
外枠
  5
1CA5
 10
85.9701
 20
-121.594
 30
0.000000
  70
    32
  0
VERTEX
  8
外枠
  5
1CA6
 10
87.3930
 20
-120.060
 30
0.000000
  70
    32
  0
VERTEX
  8
外枠
  5
1CA7
 10
88.7541
 20
-118.440
 30
0.000000
  70
    32
  0
VERTEX
  8
外枠
  5
1CA8
 10
90.0499
 20
-116.739
 30
0.000000
  70
    32
  0
VERTEX
  8
外枠
  5
1CA9
 10
91.2774
 20
-114.960
 30
0.000000
  70
    32
  0
VERTEX
  8
外枠
  5
1CAA
 10
92.4335
 20
-113.108
 30
0.000000
  70
    32
  0
VERTEX
  8
外枠
  5
1CAB
 10
93.5156
 20
-111.188
 30
0.000000
  70
    32
  0
VERTEX
  8
外枠
  5
1CAC
 10
94.5210
 20
-109.203
 30
0.000000
  70
    32
  0
VERTEX
  8
外枠
  5
1CAD
 10
95.4473
 20
-107.159
 30
0.000000
  70
    32
  0
VERTEX
  8
外枠
  5
1CAE
 10
96.2922
 20
-105.061
 30
0.000000
  70
    32
  0
VERTEX
  8
外枠
  5
1CAF
 10
97.0538
 20
-102.914
 30
0.000000
  70
    32
  0
VERTEX
  8
外枠
  5
1CB0
 10
97.7301
 20
-100.722
 30
0.000000
  70
    32
  0
VERTEX
  8
外枠
  5
1CB1
 10
98.3196
 20
-98.4915
 30
0.000000
  70
    32
  0
VERTEX
  8
外枠
  5
1CB2
 10
98.8208
 20
-96.2275
 30
0.000000
  70
    32
  0
VERTEX
  8
外枠
  5
1CB3
 10
99.2326
 20
-93.9355
 30
0.000000
  70
    32
  0
VERTEX
  8
外枠
  5
1CB4
 10
99.5538
 20
-91.6211
 30
0.000000
  70
    32
  0
VERTEX
  8
外枠
  5
1CB5
 10
99.7839
 20
-89.2897
 30
0.000000
  70
    32
  0
VERTEX
  8
外枠
  5
1CB6
 10
99.9221
 20
-86.9470
 30
0.000000
  70
    32
  0
VERTEX
  8
外枠
  5
1CB7
 10
99.9682
 20
-84.5986
 30
0.000000
  70
    32
  0
VERTEX
  8
外枠
  5
1CB8
 10
99.9221
 20
-82.2503
 30
0.000000
  70
    32
  0
VERTEX
  8
外枠
  5
1CB9
 10
99.7839
 20
-79.9076
 30
0.000000
  70
    32
  0
VERTEX
  8
外枠
  5
1CBA
 10
99.5538
 20
-77.5762
 30
0.000000
  70
    32
  0
VERTEX
  8
外枠
  5
1CBB
 10
99.2326
 20
-75.2617
 30
0.000000
  70
    32
  0
VERTEX
  8
外枠
  5
1CBC
 10
98.8208
 20
-72.9697
 30
0.000000
  70
    32
  0
VERTEX
  8
外枠
  5
1CBD
 10
98.3196
 20
-70.7058
 30
0.000000
  70
    32
  0
VERTEX
  8
外枠
  5
1CBE
 10
97.7301
 20
-68.4753
 30
0.000000
  70
    32
  0
VERTEX
  8
外枠
  5
1CBF
 10
97.0538
 20
-66.2836
 30
0.000000
  70
    32
  0
VERTEX
  8
外枠
  5
1CC0
 10
96.2922
 20
-64.1361
 30
0.000000
  70
    32
  0
VERTEX
  8
外枠
  5
1CC1
 10
95.4473
 20
-62.0378
 30
0.000000
  70
    32
  0
VERTEX
  8
外枠
  5
1CC2
 10
94.5210
 20
-59.9940
 30
0.000000
  70
    32
  0
VERTEX
  8
外枠
  5
1CC3
 10
93.5156
 20
-58.0093
 30
0.000000
  70
    32
  0
VERTEX
  8
外枠
  5
1CC4
 10
92.4335
 20
-56.0888
 30
0.000000
  70
    32
  0
VERTEX
  8
外枠
  5
1CC5
 10
91.2774
 20
-54.2369
 30
0.000000
  70
    32
  0
VERTEX
  8
外枠
  5
1CC6
 10
90.0499
 20
-52.4582
 30
0.000000
  70
    32
  0
VERTEX
  8
外枠
  5
1CC7
 10
88.7541
 20
-50.7569
 30
0.000000
  70
    32
  0
VERTEX
  8
外枠
  5
1CC8
 10
87.3930
 20
-49.1371
 30
0.000000
  70
    32
  0
VERTEX
  8
外枠
  5
1CC9
 10
85.9701
 20
-47.6028
 30
0.000000
  70
    32
  0
VERTEX
  8
外枠
  5
1CCA
 10
84.4886
 20
-46.1576
 30
0.000000
  70
    32
  0
VERTEX
  8
外枠
  5
1CCB
 10
82.9521
 20
-44.8050
 30
0.000000
  70
    32
  0
VERTEX
  8
外枠
  5
1CCC
 10
81.3644
 20
-43.5482
 30
0.000000
  70
    32
  0
VERTEX
  8
外枠
  5
1CCD
 10
79.7293
 20
-42.3904
 30
0.000000
  70
    32
  0
VERTEX
  8
外枠
  5
1CCE
 10
78.0507
 20
-41.3342
 30
0.000000
  70
    32
  0
VERTEX
  8
外枠
  5
1CCF
 10
76.3327
 20
-40.3823
 30
0.000000
  70
    32
  0
VERTEX
  8
外枠
  5
1CD0
 10
74.5794
 20
-39.5369
 30
0.000000
  70
    32
  0
VERTEX
  8
外枠
  5
1CD1
 10
72.7950
 20
-38.8000
 30
0.000000
  70
    32
  0
VERTEX
  8
外枠
  5
1CD2
 10
70.9838
 20
-38.1735
 30
0.000000
  70
    32
  0
VERTEX
  8
外枠
  5
1CD3
 10
69.1502
 20
-37.6588
 30
0.000000
  70
    32
  0
VERTEX
  8
外枠
  5
1CD4
 10
67.2986
 20
-37.2572
 30
0.000000
  70
    32
  0
VERTEX
  8
外枠
  5
1CD5
 10
65.4335
 20
-36.9696
 30
0.000000
  70
    32
  0
VERTEX
  8
外枠
  5
1CD6
 10
63.5594
 20
-36.7968
 30
0.000000
  70
    32
  0
VERTEX
  8
外枠
  5
1CD7
 10
61.6807
 20
-36.7392
 30
0.000000
  70
    32
  0
VERTEX
  8
外枠
  5
1CD8
 10
59.8020
 20
-36.7968
 30
0.000000
  70
    32
  0
VERTEX
  8
外枠
  5
1CD9
 10
57.9279
 20
-36.9696
 30
0.000000
  70
    32
  0
VERTEX
  8
外枠
  5
1CDA
 10
56.0627
 20
-37.2572
 30
0.000000
  70
    32
  0
VERTEX
  8
外枠
  5
1CDB
 10
54.2112
 20
-37.6588
 30
0.000000
  70
    32
  0
VERTEX
  8
外枠
  5
1CDC
 10
52.3776
 20
-38.1735
 30
0.000000
  70
    32
  0
VERTEX
  8
外枠
  5
1CDD
 10
50.5664
 20
-38.8000
 30
0.000000
  70
    32
  0
VERTEX
  8
外枠
  5
1CDE
 10
48.7820
 20
-39.5369
 30
0.000000
  70
    32
  0
VERTEX
  8
外枠
  5
1CDF
 10
47.0287
 20
-40.3823
 30
0.000000
  70
    32
  0
VERTEX
  8
外枠
  5
1CE0
 10
45.3106
 20
-41.3342
 30
0.000000
  70
    32
  0
VERTEX
  8
外枠
  5
1CE1
 10
43.6321
 20
-42.3904
 30
0.000000
  70
    32
  0
VERTEX
  8
外枠
  5
1CE2
 10
41.9969
 20
-43.5482
 30
0.000000
  70
    32
  0
VERTEX
  8
外枠
  5
1CE3
 10
40.4093
 20
-44.8050
 30
0.000000
  70
    32
  0
VERTEX
  8
外枠
  5
1CE4
 10
38.8728
 20
-46.1576
 30
0.000000
  70
    32
  0
VERTEX
  8
外枠
  5
1CE5
 10
37.3913
 20
-47.6028
 30
0.000000
  70
    32
  0
VERTEX
  8
外枠
  5
1CE6
 10
35.9683
 20
-49.1371
 30
0.000000
  70
    32
  0
VERTEX
  8
外枠
  5
1CE7
 10
34.6073
 20
-50.7569
 30
0.000000
  70
    32
  0
VERTEX
  8
外枠
  5
1CE8
 10
33.3115
 20
-52.4582
 30
0.000000
  70
    32
  0
VERTEX
  8
外枠
  5
1CE9
 10
32.0840
 20
-54.2369
 30
0.000000
  70
    32
  0
VERTEX
  8
外枠
  5
1CEA
 10
30.9278
 20
-56.0888
 30
0.000000
  70
    32
  0
VERTEX
  8
外枠
  5
1CEB
 10
29.8457
 20
-58.0093
 30
0.000000
  70
    32
  0
VERTEX
  8
外枠
  5
1CEC
 10
28.8404
 20
-59.9940
 30
0.000000
  70
    32
  0
VERTEX
  8
外枠
  5
1CED
 10
27.9141
 20
-62.0378
 30
0.000000
  70
    32
  0
VERTEX
  8
外枠
  5
1CEE
 10
27.0691
 20
-64.1361
 30
0.000000
  70
    32
  0
VERTEX
  8
外枠
  5
1CEF
 10
26.3076
 20
-66.2836
 30
0.000000
  70
    32
  0
VERTEX
  8
外枠
  5
1CF0
 10
25.6313
 20
-68.4753
 30
0.000000
  70
    32
  0
VERTEX
  8
外枠
  5
1CF1
 10
25.0418
 20
-70.7058
 30
0.000000
  70
    32
  0
VERTEX
  8
外枠
  5
1CF2
 10
24.5406
 20
-72.9697
 30
0.000000
  70
    32
  0
VERTEX
  8
外枠
  5
1CF3
 10
24.1288
 20
-75.2617
 30
0.000000
  70
    32
  0
VERTEX
  8
外枠
  5
1CF4
 10
23.8075
 20
-77.5762
 30
0.000000
  70
    32
  0
VERTEX
  8
外枠
  5
1CF5
 10
23.5775
 20
-79.9076
 30
0.000000
  70
    32
  0
VERTEX
  8
外枠
  5
1CF6
 10
23.4393
 20
-82.2503
 30
0.000000
  70
    32
  0
VERTEX
  8
外枠
  5
1CF7
 10
23.3931
 20
-84.5986
 30
0.000000
  70
    32
  0
VERTEX
  8
外枠
  5
1CF8
 10
23.4393
 20
-86.9470
 30
0.000000
  70
    32
  0
VERTEX
  8
外枠
  5
1CF9
 10
23.5775
 20
-89.2897
 30
0.000000
  70
    32
  0
VERTEX
  8
外枠
  5
1CFA
 10
23.8075
 20
-91.6211
 30
0.000000
  70
    32
  0
VERTEX
  8
外枠
  5
1CFB
 10
24.1288
 20
-93.9355
 30
0.000000
  70
    32
  0
VERTEX
  8
外枠
  5
1CFC
 10
24.5406
 20
-96.2275
 30
0.000000
  70
    32
  0
VERTEX
  8
外枠
  5
1CFD
 10
25.0418
 20
-98.4915
 30
0.000000
  70
    32
  0
VERTEX
  8
外枠
  5
1CFE
 10
25.6313
 20
-100.722
 30
0.000000
  70
    32
  0
VERTEX
  8
外枠
  5
1CFF
 10
26.3076
 20
-102.914
 30
0.000000
  70
    32
  0
VERTEX
  8
外枠
  5
1D00
 10
27.0691
 20
-105.061
 30
0.000000
  70
    32
  0
VERTEX
  8
外枠
  5
1D01
 10
27.9141
 20
-107.159
 30
0.000000
  70
    32
  0
VERTEX
  8
外枠
  5
1D02
 10
28.8404
 20
-109.203
 30
0.000000
  70
    32
  0
VERTEX
  8
外枠
  5
1D03
 10
29.8457
 20
-111.188
 30
0.000000
  70
    32
  0
VERTEX
  8
外枠
  5
1D04
 10
30.9278
 20
-113.108
 30
0.000000
  70
    32
  0
VERTEX
  8
外枠
  5
1D05
 10
32.0840
 20
-114.960
 30
0.000000
  70
    32
  0
VERTEX
  8
外枠
  5
1D06
 10
33.3115
 20
-116.739
 30
0.000000
  70
    32
  0
VERTEX
  8
外枠
  5
1D07
 10
34.6073
 20
-118.440
 30
0.000000
  70
    32
  0
VERTEX
  8
外枠
  5
1D08
 10
35.9683
 20
-120.060
 30
0.000000
  70
    32
  0
VERTEX
  8
外枠
  5
1D09
 10
37.3913
 20
-121.594
 30
0.000000
  70
    32
  0
VERTEX
  8
外枠
  5
1D0A
 10
38.8728
 20
-123.040
 30
0.000000
  70
    32
  0
VERTEX
  8
外枠
  5
1D0B
 10
40.4093
 20
-124.392
 30
0.000000
  70
    32
  0
VERTEX
  8
外枠
  5
1D0C
 10
41.9969
 20
-125.649
 30
0.000000
  70
    32
  0
VERTEX
  8
外枠
  5
1D0D
 10
43.6321
 20
-126.807
 30
0.000000
  70
    32
  0
VERTEX
  8
外枠
  5
1D0E
 10
45.3106
 20
-127.863
 30
0.000000
  70
    32
  0
VERTEX
  8
外枠
  5
1D0F
 10
47.0287
 20
-128.815
 30
0.000000
  70
    32
  0
VERTEX
  8
外枠
  5
1D10
 10
48.7820
 20
-129.660
 30
0.000000
  70
    32
  0
VERTEX
  8
外枠
  5
1D11
 10
50.5664
 20
-130.397
 30
0.000000
  70
    32
  0
VERTEX
  8
外枠
  5
1D12
 10
52.3776
 20
-131.024
 30
0.000000
  70
    32
  0
VERTEX
  8
外枠
  5
1D13
 10
54.2112
 20
-131.538
 30
0.000000
  70
    32
  0
VERTEX
  8
外枠
  5
1D14
 10
56.0627
 20
-131.940
 30
0.000000
  70
    32
  0
VERTEX
  8
外枠
  5
1D15
 10
57.9279
 20
-132.228
 30
0.000000
  70
    32
  0
VERTEX
  8
外枠
  5
1D16
 10
59.8020
 20
-132.400
 30
0.000000
  70
    32
  0
VERTEX
  8
外枠
  5
1D17
 10
61.6807
 20
-132.458
 30
0.000000
  70
    32
  0
SEQEND
  8
外枠
  5
1D18
  0
ENDBLK
  5
1420
  8
0
  0
BLOCK
  8
0
  2
GFB新
 70
     0
 10
0.0
 20
0.0
 30
0.0
  3
GFB新
  1

  0
LINE
  5
1571
  8
エンボス
 10
-207.74311631615549
 20
217.548054223251
 30
0.0
 11
-207.74311631615549
 21
37.548054223250972
 31
0.0
  0
LINE
  5
1572
  8
エンボス
 10
-177.50311631615571
 20
217.548054223251
 30
0.0
 11
-177.50311631615571
 21
37.548054223250972
 31
0.0
  0
POLYLINE
  5
1573
  8
エンボス
  6
CONTINUOUS
 66
     1
 10
0.0
 20
0.0
 30
0.0
 70
     1
  0
VERTEX
  5
1C35
  8
エンボス
  6
CONTINUOUS
 10
-354.31571309057108
 20
306.24319118209007
 30
0.0
  0
VERTEX
  5
1C36
  8
エンボス
  6
CONTINUOUS
 10
-20.000000000000458
 20
306.24319118209007
 30
0.0
  0
VERTEX
  5
1C37
  8
エンボス
  6
CONTINUOUS
 10
-20.000000000000458
 20
20.0
 30
0.0
  0
VERTEX
  5
1C38
  8
エンボス
  6
CONTINUOUS
 10
-354.31571309057108
 20
20.0
 30
0.0
  0
SEQEND
  5
1C39
  8
エンボス
  6
CONTINUOUS
  0
INSERT
  5
1574
  8
エンボス
  6
CONTINUOUS
  2
*X69
 10
0.0
 20
0.0
 30
0.0
1001
ACAD
1000
HATCH
1002
{
1070
    19
1000
ANSI31
1040
1.0
1040
0.0
1000
R14_HATCH_DATA
1000
1574
1011
1.0
1021
0.0
1031
0.0
1021
0.0
1031
0.0
1011
0.0
1021
0.0
1031
0.0
1021
1.0
1031
0.0
1011
0.0
1021
0.0
1031
0.0
1021
0.0
1031
1.0
1040
0.0
1010
0.0
1020
0.0
1030
1.0
1000
ANSI31
1070
     0
1070
     0
1071
        2
1071
        7
1070
     0
1070
     1
1071
        4
1040
-177.50311631615571
1040
190.17823274099501
1040
-207.74311631615549
1040
190.17823274099501
1040
-207.74311631615549
1040
150.17823274099501
1040
-177.50311631615571
1040
150.17823274099501
1071
        0
1071
        7
1070
     0
1070
     1
1071
        4
1040
-177.5031163161552
1040
110.178232740995
1040
-207.74311631615549
1040
110.178232740995
1040
-207.74311631615549
1040
70.178232740995043
1040
-177.50311631615571
1040
70.178232740995043
1071
        0
1070
     0
1070
     1
1040
0.0
1040
1.0
1070
     0
1070
     1
1040
0.7853981633974483
1040
-2606.130945379155
1040
61.804814815775238
1040
-2.2450640302672871
1040
2.245064030267288
1070
     0
1040
0.6338635763914874
1071
        2
1040
-190.25385516219151
1040
172.48400907998641
1040
0.0
1040
-186.4493471399023
1040
100.8574248738171
1040
0.0
1002
}
  0
LINE
  5
1575
  8
エンボス
  6
CONTINUOUS
 10
-207.74311631615549
 20
190.17823274099501
 30
0.0
 11
-177.5031163161552
 21
190.17823274099501
 31
0.0
  0
LINE
  5
1576
  8
エンボス
  6
CONTINUOUS
 10
-207.74311631615549
 20
150.17823274099501
 30
0.0
 11
-177.5031163161552
 21
150.17823274099501
 31
0.0
  0
LINE
  5
1577
  8
エンボス
  6
CONTINUOUS
 10
-207.74311631615549
 20
110.178232740995
 30
0.0
 11
-177.5031163161552
 21
110.178232740995
 31
0.0
  0
LINE
  5
1578
  8
エンボス
  6
CONTINUOUS
 10
-207.74311631615549
 20
70.178232740995043
 30
0.0
 11
-177.5031163161552
 21
70.178232740995043
 31
0.0
  0
TEXT
  5
1579
  8
エンボス
  6
CONTINUOUS
 10
-314.14121502745769
 20
260.50246152146133
 30
0.0
 40
30.0
  1
GFB形状詳細
1001
ACAD
1000
MTEXTBEGIN
1070
    73
1070
     1
1070
    44
1040
1.0
1070
    74
1070
     0
1000
MTEXTEND
1000
MTEXTBEGIN
1070
    73
1070
     1
1070
    44
1040
1.0
1070
    74
1070
     0
1000
MTEXTEND
1000
MTEXTBEGIN
1070
    73
1070
     1
1070
    44
1040
1.0
1070
    74
1070
     0
1000
MTEXTEND
1000
MTEXTBEGIN
1070
    73
1070
     1
1070
    44
1040
1.0
1070
    74
1070
     0
1000
MTEXTEND
  0
INSERT
  5
157A
  8
本体
  2
*U70
 10
0.0
 20
0.0
 30
0.0
  0
ENDBLK
  5
157D
  8
0
  0
BLOCK
  8
0
  2
*U17
 70
     1
 10
0.0
 20
0.0
 30
0.0
  3
*U17
  1

  0
POLYLINE
  5
15EE
  8
本体
  6
CONTINUOUS
 66
     1
 10
0.0
 20
0.0
 30
0.0
 70
     1
  0
VERTEX
  5
1C63
  8
本体
  6
CONTINUOUS
 10
3.3205369385061649
 20
12.5
 30
0.0
  0
VERTEX
  5
1C64
  8
本体
  6
CONTINUOUS
 10
6.3205369385061649
 20
12.5
 30
0.0
  0
VERTEX
  5
1C65
  8
本体
  6
CONTINUOUS
 10
6.3205369385061649
 20
-12.5
 30
0.0
  0
VERTEX
  5
1C66
  8
本体
  6
CONTINUOUS
 10
3.3205369385061649
 20
-12.5
 30
0.0
  0
SEQEND
  5
1C67
  8
本体
  6
CONTINUOUS
  0
LINE
  5
15EF
  8
本体
  6
CONTINUOUS
 10
-6.3205369385061649
 20
12.5
 30
0.0
 11
3.3205369385057111
 21
12.5
 31
0.0
  0
LINE
  5
15F0
  8
本体
  6
CONTINUOUS
 10
3.3205365385058481
 20
12.5
 30
0.0
 11
-6.2692070614941713
 21
12.5
 31
0.0
  0
LINE
  5
15F1
  8
本体
  6
CONTINUOUS
 10
-6.2692062614935358
 20
6.5
 30
0.0
 11
3.3205373385064831
 21
6.5
 31
0.0
  0
LINE
  5
15F2
  8
本体
  6
CONTINUOUS
 10
-6.2692062614935358
 20
6.5
 30
0.0
 11
3.3205373385064831
 21
12.5
 31
0.0
  0
LINE
  5
15F3
  8
本体
  6
CONTINUOUS
 10
-6.2692062614935358
 20
-6.5
 30
0.0
 11
3.3205373385064831
 21
-6.5
 31
0.0
  0
ENDBLK
  5
1588
  8
0
  0
BLOCK
  8
0
  2
*U18
 70
     1
 10
0.0
 20
0.0
 30
0.0
  3
*U18
  1

  0
INSERT
  5
15A2
  8
本体
  6
BYBLOCK
 62
     0
  2
*U17
 10
12.59
 20
0.0
 30
0.0
  0
INSERT
  5
15A3
  8
本体
  6
BYBLOCK
 62
     0
  2
*U17
 10
25.18
 20
0.0
 30
0.0
  0
INSERT
  5
15A4
  8
本体
  6
BYBLOCK
 62
     0
  2
*U17
 10
37.770000000000003
 20
0.0
 30
0.0
  0
INSERT
  5
15A5
  8
本体
  6
BYBLOCK
 62
     0
  2
*U17
 10
50.359999999999999
 20
0.0
 30
0.0
  0
INSERT
  5
15A6
  8
本体
  6
BYBLOCK
 62
     0
  2
*U17
 10
62.950000000000003
 20
0.0
 30
0.0
  0
INSERT
  5
15A7
  8
本体
  6
BYBLOCK
 62
     0
  2
*U17
 10
75.539999999999992
 20
0.0
 30
0.0
  0
INSERT
  5
15A8
  8
本体
  6
BYBLOCK
 62
     0
  2
*U17
 10
88.129999999999995
 20
0.0
 30
0.0
  0
INSERT
  5
15A9
  8
本体
  6
BYBLOCK
 62
     0
  2
*U17
 10
100.72
 20
0.0
 30
0.0
  0
INSERT
  5
15AA
  8
本体
  6
BYBLOCK
 62
     0
  2
*U17
 10
113.31
 20
0.0
 30
0.0
  0
INSERT
  5
15AB
  8
本体
  6
BYBLOCK
 62
     0
  2
*U17
 10
125.90000000000001
 20
0.0
 30
0.0
  0
INSERT
  5
15AC
  8
本体
  6
BYBLOCK
 62
     0
  2
*U17
 10
138.49000000000001
 20
0.0
 30
0.0
  0
INSERT
  5
15AD
  8
本体
  6
BYBLOCK
 62
     0
  2
*U17
 10
151.08000000000001
 20
0.0
 30
0.0
  0
INSERT
  5
15AE
  8
本体
  6
BYBLOCK
 62
     0
  2
*U17
 10
163.66999999999999
 20
0.0
 30
0.0
  0
INSERT
  5
15AF
  8
本体
  6
BYBLOCK
 62
     0
  2
*U17
 10
176.25999999999999
 20
0.0
 30
0.0
  0
INSERT
  5
15B0
  8
本体
  6
BYBLOCK
 62
     0
  2
*U17
 10
188.84999999999999
 20
0.0
 30
0.0
  0
INSERT
  5
15B1
  8
本体
  6
BYBLOCK
 62
     0
  2
*U17
 10
201.44
 20
0.0
 30
0.0
  0
INSERT
  5
15B2
  8
本体
  6
BYBLOCK
 62
     0
  2
*U17
 10
214.03
 20
0.0
 30
0.0
  0
INSERT
  5
15B3
  8
本体
  6
BYBLOCK
 62
     0
  2
*U17
 10
226.62
 20
0.0
 30
0.0
  0
INSERT
  5
15B4
  8
本体
  6
BYBLOCK
 62
     0
  2
*U17
 10
239.21000000000001
 20
0.0
 30
0.0
  0
INSERT
  5
15B5
  8
本体
  6
BYBLOCK
 62
     0
  2
*U17
 10
251.80000000000001
 20
0.0
 30
0.0
  0
INSERT
  5
15B6
  8
本体
  6
BYBLOCK
 62
     0
  2
*U17
 10
264.38999999999999
 20
0.0
 30
0.0
  0
INSERT
  5
15B7
  8
本体
  6
BYBLOCK
 62
     0
  2
*U17
 10
276.98000000000002
 20
0.0
 30
0.0
  0
INSERT
  5
15B8
  8
本体
  6
BYBLOCK
 62
     0
  2
*U17
 10
289.56999999999999
 20
0.0
 30
0.0
  0
INSERT
  5
15B9
  8
本体
  6
BYBLOCK
 62
     0
  2
*U17
 10
302.16000000000003
 20
0.0
 30
0.0
  0
INSERT
  5
15BA
  8
本体
  6
BYBLOCK
 62
     0
  2
*U17
 10
314.75
 20
0.0
 30
0.0
  0
INSERT
  5
15BB
  8
本体
  6
BYBLOCK
 62
     0
  2
*U17
 10
327.33999999999997
 20
0.0
 30
0.0
  0
INSERT
  5
15BC
  8
本体
  6
BYBLOCK
 62
     0
  2
*U17
 10
339.93000000000001
 20
0.0
 30
0.0
  0
INSERT
  5
15BD
  8
本体
  6
BYBLOCK
 62
     0
  2
*U17
 10
352.51999999999998
 20
0.0
 30
0.0
  0
INSERT
  5
15BE
  8
本体
  6
BYBLOCK
 62
     0
  2
*U17
 10
365.11000000000001
 20
0.0
 30
0.0
  0
INSERT
  5
15BF
  8
本体
  6
BYBLOCK
 62
     0
  2
*U17
 10
377.69999999999999
 20
0.0
 30
0.0
  0
INSERT
  5
15C0
  8
本体
  6
BYBLOCK
 62
     0
  2
*U17
 10
390.29000000000002
 20
0.0
 30
0.0
  0
INSERT
  5
15C1
  8
本体
  6
BYBLOCK
 62
     0
  2
*U17
 10
402.88
 20
0.0
 30
0.0
  0
INSERT
  5
15C2
  8
本体
  6
BYBLOCK
 62
     0
  2
*U17
 10
415.47000000000003
 20
0.0
 30
0.0
  0
INSERT
  5
15C3
  8
本体
  6
BYBLOCK
 62
     0
  2
*U17
 10
428.05999999999989
 20
0.0
 30
0.0
  0
INSERT
  5
15C4
  8
本体
  6
BYBLOCK
 62
     0
  2
*U17
 10
440.64999999999998
 20
0.0
 30
0.0
  0
INSERT
  5
15C5
  8
本体
  6
BYBLOCK
 62
     0
  2
*U17
 10
453.2399999999999
 20
0.0
 30
0.0
  0
INSERT
  5
15C6
  8
本体
  6
BYBLOCK
 62
     0
  2
*U17
 10
465.82999999999993
 20
0.0
 30
0.0
  0
INSERT
  5
15F4
  8
本体
  6
BYBLOCK
 62
     0
  2
*U17
 10
0.0
 20
0.0
 30
0.0
  0
ENDBLK
  5
158B
  8
0
  0
BLOCK
  8
0
  2
*U19
 70
     1
 10
0.0
 20
0.0
 30
0.0
  3
*U19
  1

  0
LINE
  5
19C6
  8
本体
  6
CONTINUOUS
 10
4.7948712049999349
 20
166.5
 30
0.0
 11
4.7948712049999349
 21
102.5
 31
0.0
  0
LINE
  5
19C7
  8
本体
  6
CONTINUOUS
 10
7.7948712049999349
 20
166.5
 30
0.0
 11
7.7948712049999349
 21
102.5
 31
0.0
  0
LINE
  5
19C8
  8
本体
  6
CONTINUOUS
 10
7.7948712049999349
 20
97.5
 30
0.0
 11
7.7948712049999349
 21
2.5
 31
0.0
  0
LINE
  5
19C9
  8
本体
  6
CONTINUOUS
 10
4.7948712049999349
 20
97.5
 30
0.0
 11
4.7948712049999349
 21
2.5
 31
0.0
  0
LINE
  5
19CA
  8
本体
  6
CONTINUOUS
 10
7.7948712049999349
 20
-2.5
 30
0.0
 11
7.7948712049999349
 21
-97.5
 31
0.0
  0
LINE
  5
19CB
  8
本体
  6
CONTINUOUS
 10
4.7948712049999349
 20
-2.5
 30
0.0
 11
4.7948712049999349
 21
-97.5
 31
0.0
  0
LINE
  5
19CC
  8
本体
  6
CONTINUOUS
 10
7.7948712049999349
 20
-166.5
 30
0.0
 11
7.7948712049999349
 21
-102.5
 31
0.0
  0
LINE
  5
19CD
  8
本体
  6
CONTINUOUS
 10
4.7948712049999349
 20
-166.5
 30
0.0
 11
4.7948712049999349
 21
-102.5
 31
0.0
  0
LINE
  5
19CE
  8
本体
  6
CONTINUOUS
 10
-7.7948723950000831
 20
97.5
 30
0.0
 11
4.7948712049999349
 21
102.5
 31
0.0
  0
LINE
  5
19CF
  8
本体
  6
CONTINUOUS
 10
-7.7948723950000831
 20
-2.5
 30
0.0
 11
4.7948712049999349
 21
2.5
 31
0.0
  0
LINE
  5
19D0
  8
本体
  6
CONTINUOUS
 10
-7.7948723950000831
 20
-102.5
 30
0.0
 11
4.7948712049999349
 21
-97.5
 31
0.0
  0
LINE
  5
19D1
  8
エンボス
  6
CONTINUOUS
 10
4.7948723950000831
 20
-88.96693721583938
 30
0.0
 11
7.7948723950000831
 21
-87.766937215839334
 31
0.0
  0
LINE
  5
19D2
  8
エンボス
  6
CONTINUOUS
 10
4.7948723950000831
 20
-162.56693721583949
 30
0.0
 11
7.7948723950000831
 21
-163.76693721583931
 31
0.0
  0
LINE
  5
19D3
  8
エンボス
  6
CONTINUOUS
 10
4.7948723950000831
 20
-138.20000479999999
 30
0.0
 11
7.7948723950000831
 21
-137.00000479999991
 31
0.0
  0
LINE
  5
19D4
  8
エンボス
  6
CONTINUOUS
 10
7.7948723950000831
 20
-131.60000480000011
 30
0.0
 11
4.7948723950000831
 21
-132.8000047999999
 31
0.0
  0
LINE
  5
19D5
  8
エンボス
  6
CONTINUOUS
 10
4.7948723950000831
 20
-128.60000480000011
 30
0.0
 11
7.7948723950000831
 21
-129.8000047999999
 31
0.0
  0
LINE
  5
19D6
  8
エンボス
  6
CONTINUOUS
 10
4.7948723950000831
 20
-145.4000048
 30
0.0
 11
7.7948723950000831
 21
-146.60000480000011
 31
0.0
  0
LINE
  5
19D7
  8
エンボス
  6
CONTINUOUS
 10
7.7948723950000831
 20
-148.4000048
 30
0.0
 11
4.7948723950000831
 21
-149.60000480000011
 31
0.0
  0
LINE
  5
19D8
  8
エンボス
  6
CONTINUOUS
 10
7.7948723950000831
 20
-158.00000479999991
 30
0.0
 11
4.7948723950000831
 21
-156.8000047999999
 31
0.0
  0
LINE
  5
19D9
  8
エンボス
  6
CONTINUOUS
 10
4.7948723950000831
 20
-155.00000479999991
 30
0.0
 11
7.7948723950000831
 21
-153.8000047999999
 31
0.0
  0
LINE
  5
19DA
  8
エンボス
  6
CONTINUOUS
 10
7.7948723950000831
 20
-141.20000479999999
 30
0.0
 11
4.7948723950000831
 21
-140.00000479999991
 31
0.0
  0
LINE
  5
19DB
  8
エンボス
  6
CONTINUOUS
 10
4.7948723950000831
 20
-104.60000480000009
 30
0.0
 11
7.7948723950000831
 21
-103.4000048
 31
0.0
  0
LINE
  5
19DC
  8
エンボス
  6
CONTINUOUS
 10
7.7948723950000831
 20
-107.60000479999999
 30
0.0
 11
4.7948723950000831
 21
-106.4000048
 31
0.0
  0
LINE
  5
19DD
  8
エンボス
  6
CONTINUOUS
 10
4.7948723950000831
 20
-111.8000047999999
 30
0.0
 11
7.7948723950000831
 21
-113.0000047999999
 31
0.0
  0
LINE
  5
19DE
  8
エンボス
  6
CONTINUOUS
 10
7.7948723950000831
 20
-114.8000047999999
 30
0.0
 11
4.7948723950000831
 21
-116.0000047999999
 31
0.0
  0
LINE
  5
19DF
  8
エンボス
  6
CONTINUOUS
 10
7.7948723950000831
 20
-124.4000048
 30
0.0
 11
4.7948723950000831
 21
-123.2000048
 31
0.0
  0
LINE
  5
19E0
  8
エンボス
  6
CONTINUOUS
 10
4.7948723950000831
 20
-121.4000048
 30
0.0
 11
7.7948723950000831
 21
-120.2000048
 31
0.0
  0
LINE
  5
19E1
  8
エンボス
  6
CONTINUOUS
 10
7.7948723950000831
 20
-91.966937215839394
 30
0.0
 11
4.7948723950000831
 21
-90.766937215839334
 31
0.0
  0
LINE
  5
19E2
  8
エンボス
  6
CONTINUOUS
 10
7.7948723950000831
 20
58.799995200000012
 30
0.0
 11
4.7948723950000831
 21
59.99999519999983
 31
0.0
  0
LINE
  5
19E3
  8
エンボス
  6
CONTINUOUS
 10
4.7948723950000831
 20
-62.566937215839509
 30
0.0
 11
7.7948723950000831
 21
-63.766937215839327
 31
0.0
  0
LINE
  5
19E4
  8
エンボス
  6
CONTINUOUS
 10
4.7948723950000831
 20
-55.000004799999942
 30
0.0
 11
7.7948723950000831
 21
-53.80000479999989
 31
0.0
  0
LINE
  5
19E5
  8
エンボス
  6
CONTINUOUS
 10
7.7948723950000831
 20
-58.000004799999942
 30
0.0
 11
4.7948723950000831
 21
-56.80000479999989
 31
0.0
  0
LINE
  5
19E6
  8
エンボス
  6
CONTINUOUS
 10
4.7948723950000831
 20
-79.366937215839471
 30
0.0
 11
7.7948723950000831
 21
-80.566937215839516
 31
0.0
  0
LINE
  5
19E7
  8
エンボス
  6
CONTINUOUS
 10
7.7948723950000831
 20
-82.366937215839471
 30
0.0
 11
4.7948723950000831
 21
-83.566937215839516
 31
0.0
  0
LINE
  5
19E8
  8
エンボス
  6
CONTINUOUS
 10
4.7948723950000831
 20
-72.166937215839425
 30
0.0
 11
7.7948723950000831
 21
-70.96693721583938
 31
0.0
  0
LINE
  5
19E9
  8
エンボス
  6
CONTINUOUS
 10
7.7948723950000831
 20
-65.566937215839516
 30
0.0
 11
4.7948723950000831
 21
-66.766937215839334
 31
0.0
  0
LINE
  5
19EA
  8
エンボス
  6
CONTINUOUS
 10
7.7948723950000831
 20
-75.166937215839425
 30
0.0
 11
4.7948723950000831
 21
-73.96693721583938
 31
0.0
  0
LINE
  5
19EB
  8
エンボス
  6
CONTINUOUS
 10
4.7948723950000831
 20
-21.40000480000003
 30
0.0
 11
7.7948723950000831
 21
-20.200004799999991
 31
0.0
  0
LINE
  5
19EC
  8
エンボス
  6
CONTINUOUS
 10
7.7948723950000831
 20
-24.40000480000004
 30
0.0
 11
4.7948723950000831
 21
-23.200004799999991
 31
0.0
  0
LINE
  5
19ED
  8
エンボス
  6
CONTINUOUS
 10
7.7948723950000831
 20
-14.80000479999989
 30
0.0
 11
4.7948723950000831
 21
-16.000004799999939
 31
0.0
  0
LINE
  5
19EE
  8
エンボス
  6
CONTINUOUS
 10
7.7948723950000831
 20
-41.200004799999981
 30
0.0
 11
4.7948723950000831
 21
-40.000004799999942
 31
0.0
  0
LINE
  5
19EF
  8
エンボス
  6
CONTINUOUS
 10
7.7948723950000831
 20
-48.40000480000004
 30
0.0
 11
4.7948723950000831
 21
-49.600004800000079
 31
0.0
  0
LINE
  5
19F0
  8
エンボス
  6
CONTINUOUS
 10
4.7948723950000831
 20
-45.400004800000033
 30
0.0
 11
7.7948723950000831
 21
-46.600004800000072
 31
0.0
  0
LINE
  5
19F1
  8
エンボス
  6
CONTINUOUS
 10
4.7948723950000831
 20
-28.600004800000079
 30
0.0
 11
7.7948723950000831
 21
-29.8000047999999
 31
0.0
  0
LINE
  5
19F2
  8
エンボス
  6
CONTINUOUS
 10
7.7948723950000831
 20
-31.600004800000079
 30
0.0
 11
4.7948723950000831
 21
-32.800004799999897
 31
0.0
  0
LINE
  5
19F3
  8
エンボス
  6
CONTINUOUS
 10
4.7948723950000831
 20
-38.200004799999988
 30
0.0
 11
7.7948723950000831
 21
-37.00000479999995
 31
0.0
  0
LINE
  5
19F4
  8
エンボス
  6
CONTINUOUS
 10
4.7948723950000831
 20
-11.80000479999989
 30
0.0
 11
7.7948723950000831
 21
-13.000004799999941
 31
0.0
  0
LINE
  5
19F5
  8
エンボス
  6
CONTINUOUS
 10
7.7948723950000831
 20
-7.6000048000000779
 30
0.0
 11
4.7948723950000831
 21
-6.4000048000000334
 31
0.0
  0
LINE
  5
19F6
  8
エンボス
  6
CONTINUOUS
 10
4.7948723950000831
 20
-4.6000048000000779
 30
0.0
 11
7.7948723950000831
 21
-3.4000048000000329
 31
0.0
  0
LINE
  5
19F7
  8
エンボス
  6
CONTINUOUS
 10
4.7948723950000831
 20
11.03306278416062
 30
0.0
 11
7.7948723950000831
 21
12.23306278416066
 31
0.0
  0
LINE
  5
19F8
  8
エンボス
  6
CONTINUOUS
 10
7.7948723950000831
 20
17.633062784160529
 30
0.0
 11
4.7948723950000831
 21
16.43306278416048
 31
0.0
  0
LINE
  5
19F9
  8
エンボス
  6
CONTINUOUS
 10
4.7948723950000831
 20
20.633062784160529
 30
0.0
 11
7.7948723950000831
 21
19.43306278416048
 31
0.0
  0
LINE
  5
19FA
  8
エンボス
  6
CONTINUOUS
 10
7.7948723950000831
 20
8.0330627841606201
 30
0.0
 11
4.7948723950000831
 21
9.2330627841606656
 31
0.0
  0
LINE
  5
19FB
  8
エンボス
  6
CONTINUOUS
 10
4.7948723950000831
 20
54.599995200000187
 30
0.0
 11
7.7948723950000831
 21
53.399995199999921
 31
0.0
  0
LINE
  5
19FC
  8
エンボス
  6
CONTINUOUS
 10
7.7948723950000831
 20
51.599995200000187
 30
0.0
 11
4.7948723950000831
 21
50.399995199999921
 31
0.0
  0
LINE
  5
19FD
  8
エンボス
  6
CONTINUOUS
 10
7.7948723950000831
 20
41.99999520000005
 30
0.0
 11
4.7948723950000831
 21
43.199995200000103
 31
0.0
  0
LINE
  5
19FE
  8
エンボス
  6
CONTINUOUS
 10
4.7948723950000831
 20
44.99999520000005
 30
0.0
 11
7.7948723950000831
 21
46.199995200000103
 31
0.0
  0
LINE
  5
19FF
  8
エンボス
  6
CONTINUOUS
 10
7.7948723950000831
 20
24.833062784160571
 30
0.0
 11
4.7948723950000831
 21
26.03306278416062
 31
0.0
  0
LINE
  5
1A00
  8
エンボス
  6
CONTINUOUS
 10
4.7948723950000831
 20
37.433062784160477
 30
0.0
 11
7.7948723950000831
 21
36.233062784160673
 31
0.0
  0
LINE
  5
1A01
  8
エンボス
  6
CONTINUOUS
 10
7.7948723950000831
 20
34.433062784160491
 30
0.0
 11
4.7948723950000831
 21
33.233062784160673
 31
0.0
  0
LINE
  5
1A02
  8
エンボス
  6
CONTINUOUS
 10
4.7948723950000831
 20
27.833062784160582
 30
0.0
 11
7.7948723950000831
 21
29.03306278416062
 31
0.0
  0
LINE
  5
1A03
  8
エンボス
  6
CONTINUOUS
 10
7.7948723950000831
 20
134.43306278416051
 30
0.0
 11
4.7948723950000831
 21
133.23306278416061
 31
0.0
  0
LINE
  5
1A04
  8
エンボス
  6
CONTINUOUS
 10
7.7948723950000831
 20
92.399995199999921
 30
0.0
 11
4.7948723950000831
 21
93.599995200000194
 31
0.0
  0
LINE
  5
1A05
  8
エンボス
  6
CONTINUOUS
 10
4.7948723950000831
 20
95.399995199999935
 30
0.0
 11
7.7948723950000831
 21
96.599995200000194
 31
0.0
  0
LINE
  5
1A06
  8
エンボス
  6
CONTINUOUS
 10
4.7948723950000831
 20
88.199995200000103
 30
0.0
 11
7.7948723950000831
 21
86.999995199999816
 31
0.0
  0
LINE
  5
1A07
  8
エンボス
  6
CONTINUOUS
 10
7.7948723950000831
 20
75.599995200000194
 30
0.0
 11
4.7948723950000831
 21
76.799995200000012
 31
0.0
  0
LINE
  5
1A08
  8
エンボス
  6
CONTINUOUS
 10
4.7948723950000831
 20
78.599995200000194
 30
0.0
 11
7.7948723950000831
 21
79.799995200000012
 31
0.0
  0
LINE
  5
1A09
  8
エンボス
  6
CONTINUOUS
 10
4.7948723950000831
 20
61.799995200000012
 30
0.0
 11
7.7948723950000831
 21
62.99999519999983
 31
0.0
  0
LINE
  5
1A0A
  8
エンボス
  6
CONTINUOUS
 10
7.7948723950000831
 20
68.399995199999921
 30
0.0
 11
4.7948723950000831
 21
67.199995200000103
 31
0.0
  0
LINE
  5
1A0B
  8
エンボス
  6
CONTINUOUS
 10
4.7948723950000831
 20
71.399995199999921
 30
0.0
 11
7.7948723950000831
 21
70.199995200000103
 31
0.0
  0
LINE
  5
1A0C
  8
エンボス
  6
CONTINUOUS
 10
7.7948723950000831
 20
85.199995200000103
 30
0.0
 11
4.7948723950000831
 21
83.99999519999983
 31
0.0
  0
LINE
  5
1A0D
  8
エンボス
  6
CONTINUOUS
 10
4.7948723950000831
 20
127.8330627841606
 30
0.0
 11
7.7948723950000831
 21
129.03306278416039
 31
0.0
  0
LINE
  5
1A0E
  8
エンボス
  6
CONTINUOUS
 10
7.7948723950000831
 20
124.8330627841605
 30
0.0
 11
4.7948723950000831
 21
126.03306278416041
 31
0.0
  0
LINE
  5
1A0F
  8
エンボス
  6
CONTINUOUS
 10
7.7948723950000831
 20
108.03306278416041
 30
0.0
 11
4.7948723950000831
 21
109.23306278416059
 31
0.0
  0
LINE
  5
1A10
  8
エンボス
  6
CONTINUOUS
 10
4.7948723950000831
 20
120.6330627841607
 30
0.0
 11
7.7948723950000831
 21
119.4330627841605
 31
0.0
  0
LINE
  5
1A11
  8
エンボス
  6
CONTINUOUS
 10
7.7948723950000831
 20
117.6330627841607
 30
0.0
 11
4.7948723950000831
 21
116.4330627841605
 31
0.0
  0
LINE
  5
1A12
  8
エンボス
  6
CONTINUOUS
 10
4.7948723950000831
 20
111.03306278416041
 30
0.0
 11
7.7948723950000831
 21
112.23306278416059
 31
0.0
  0
LINE
  5
1A13
  8
エンボス
  6
CONTINUOUS
 10
4.7948723950000831
 20
161.79999520000001
 30
0.0
 11
7.7948723950000831
 21
162.9999951999998
 31
0.0
  0
LINE
  5
1A14
  8
エンボス
  6
CONTINUOUS
 10
4.7948723950000831
 20
137.4330627841604
 30
0.0
 11
7.7948723950000831
 21
136.23306278416061
 31
0.0
  0
LINE
  5
1A15
  8
エンボス
  6
CONTINUOUS
 10
4.7948723950000831
 20
144.9999951999998
 30
0.0
 11
7.7948723950000831
 21
146.1999952000001
 31
0.0
  0
LINE
  5
1A16
  8
エンボス
  6
CONTINUOUS
 10
7.7948723950000831
 20
141.9999951999998
 30
0.0
 11
4.7948723950000831
 21
143.1999952000001
 31
0.0
  0
LINE
  5
1A17
  8
エンボス
  6
CONTINUOUS
 10
7.7948723950000831
 20
151.59999520000019
 30
0.0
 11
4.7948723950000831
 21
150.39999519999989
 31
0.0
  0
LINE
  5
1A18
  8
エンボス
  6
CONTINUOUS
 10
4.7948723950000831
 20
154.59999520000019
 30
0.0
 11
7.7948723950000831
 21
153.39999519999989
 31
0.0
  0
LINE
  5
1A19
  8
エンボス
  6
CONTINUOUS
 10
7.7948723950000831
 20
158.79999520000001
 30
0.0
 11
4.7948723950000831
 21
159.9999951999998
 31
0.0
  0
ENDBLK
  5
16A3
  8
0
  0
BLOCK
  8
0
  2
*U20
 70
     1
 10
0.0
 20
0.0
 30
0.0
  3
*U20
  1

  0
INSERT
  5
1708
  8
本体
  6
BYBLOCK
 62
     0
  2
*U19
 10
0.0
 20
0.0
 30
0.0
  0
INSERT
  5
1709
  8
本体
  6
BYBLOCK
 62
     0
  2
*U19
 10
12.59
 20
0.0
 30
0.0
  0
INSERT
  5
170A
  8
本体
  6
BYBLOCK
 62
     0
  2
*U19
 10
25.18
 20
0.0
 30
0.0
  0
INSERT
  5
170B
  8
本体
  6
BYBLOCK
 62
     0
  2
*U19
 10
37.770000000000003
 20
0.0
 30
0.0
  0
INSERT
  5
170C
  8
本体
  6
BYBLOCK
 62
     0
  2
*U19
 10
50.359999999999999
 20
0.0
 30
0.0
  0
INSERT
  5
170D
  8
本体
  6
BYBLOCK
 62
     0
  2
*U19
 10
62.950000000000003
 20
0.0
 30
0.0
  0
INSERT
  5
170E
  8
本体
  6
BYBLOCK
 62
     0
  2
*U19
 10
75.539999999999992
 20
0.0
 30
0.0
  0
INSERT
  5
170F
  8
本体
  6
BYBLOCK
 62
     0
  2
*U19
 10
88.129999999999995
 20
0.0
 30
0.0
  0
INSERT
  5
1710
  8
本体
  6
BYBLOCK
 62
     0
  2
*U19
 10
100.72
 20
0.0
 30
0.0
  0
INSERT
  5
1711
  8
本体
  6
BYBLOCK
 62
     0
  2
*U19
 10
113.31
 20
0.0
 30
0.0
  0
INSERT
  5
1712
  8
本体
  6
BYBLOCK
 62
     0
  2
*U19
 10
125.90000000000001
 20
0.0
 30
0.0
  0
INSERT
  5
1713
  8
本体
  6
BYBLOCK
 62
     0
  2
*U19
 10
138.49000000000001
 20
0.0
 30
0.0
  0
INSERT
  5
1714
  8
本体
  6
BYBLOCK
 62
     0
  2
*U19
 10
151.08000000000001
 20
0.0
 30
0.0
  0
INSERT
  5
1715
  8
本体
  6
BYBLOCK
 62
     0
  2
*U19
 10
163.66999999999999
 20
0.0
 30
0.0
  0
INSERT
  5
1716
  8
本体
  6
BYBLOCK
 62
     0
  2
*U19
 10
176.25999999999999
 20
0.0
 30
0.0
  0
INSERT
  5
1717
  8
本体
  6
BYBLOCK
 62
     0
  2
*U19
 10
188.84999999999999
 20
0.0
 30
0.0
  0
INSERT
  5
1718
  8
本体
  6
BYBLOCK
 62
     0
  2
*U19
 10
201.44
 20
0.0
 30
0.0
  0
INSERT
  5
1719
  8
本体
  6
BYBLOCK
 62
     0
  2
*U19
 10
214.03
 20
0.0
 30
0.0
  0
INSERT
  5
171A
  8
本体
  6
BYBLOCK
 62
     0
  2
*U19
 10
226.62
 20
0.0
 30
0.0
  0
INSERT
  5
171B
  8
本体
  6
BYBLOCK
 62
     0
  2
*U19
 10
239.21000000000001
 20
0.0
 30
0.0
  0
INSERT
  5
171C
  8
本体
  6
BYBLOCK
 62
     0
  2
*U19
 10
251.80000000000001
 20
0.0
 30
0.0
  0
INSERT
  5
171D
  8
本体
  6
BYBLOCK
 62
     0
  2
*U19
 10
264.38999999999999
 20
0.0
 30
0.0
  0
INSERT
  5
171E
  8
本体
  6
BYBLOCK
 62
     0
  2
*U19
 10
276.98000000000002
 20
0.0
 30
0.0
  0
INSERT
  5
171F
  8
本体
  6
BYBLOCK
 62
     0
  2
*U19
 10
289.56999999999999
 20
0.0
 30
0.0
  0
INSERT
  5
1720
  8
本体
  6
BYBLOCK
 62
     0
  2
*U19
 10
302.16000000000003
 20
0.0
 30
0.0
  0
INSERT
  5
1722
  8
本体
  6
BYBLOCK
 62
     0
  2
*U19
 10
327.33999999999997
 20
0.0
 30
0.0
  0
INSERT
  5
1723
  8
本体
  6
BYBLOCK
 62
     0
  2
*U19
 10
339.93000000000001
 20
0.0
 30
0.0
  0
INSERT
  5
1724
  8
本体
  6
BYBLOCK
 62
     0
  2
*U19
 10
352.51999999999998
 20
0.0
 30
0.0
  0
INSERT
  5
1725
  8
本体
  6
BYBLOCK
 62
     0
  2
*U19
 10
365.11000000000001
 20
0.0
 30
0.0
  0
INSERT
  5
1726
  8
本体
  6
BYBLOCK
 62
     0
  2
*U19
 10
377.69999999999999
 20
0.0
 30
0.0
  0
INSERT
  5
1727
  8
本体
  6
BYBLOCK
 62
     0
  2
*U19
 10
390.29000000000002
 20
0.0
 30
0.0
  0
INSERT
  5
1728
  8
本体
  6
BYBLOCK
 62
     0
  2
*U19
 10
402.88
 20
0.0
 30
0.0
  0
INSERT
  5
1729
  8
本体
  6
BYBLOCK
 62
     0
  2
*U19
 10
415.47000000000003
 20
0.0
 30
0.0
  0
INSERT
  5
172A
  8
本体
  6
BYBLOCK
 62
     0
  2
*U19
 10
428.05999999999989
 20
0.0
 30
0.0
  0
INSERT
  5
172B
  8
本体
  6
BYBLOCK
 62
     0
  2
*U19
 10
440.64999999999998
 20
0.0
 30
0.0
  0
INSERT
  5
172C
  8
本体
  6
BYBLOCK
 62
     0
  2
*U19
 10
453.2399999999999
 20
0.0
 30
0.0
  0
INSERT
  5
172D
  8
本体
  6
BYBLOCK
 62
     0
  2
*U19
 10
465.82999999999993
 20
0.0
 30
0.0
  0
INSERT
  5
1A1A
  8
本体
  6
BYBLOCK
 62
     0
  2
*U19
 10
314.75
 20
0.0
 30
0.0
  0
ENDBLK
  5
16A6
  8
0
  0
BLOCK
  8
0
  2
*D21
 70
     1
 10
0.0
 20
0.0
 30
0.0
  3
*D21
  1

  0
LINE
  5
17F4
  8
本体
 62
     0
 10
1187.600114714314
 20
1582.3444796039309
 30
0.0
 11
1377.9240115897139
 21
1582.3444796039309
 31
0.0
  0
LINE
  5
17F5
  8
本体
 62
     0
 10
1187.600114714314
 20
1237.3444796039321
 30
0.0
 11
1377.9240115897139
 21
1237.3444796039321
 31
0.0
  0
LINE
  5
17F6
  8
本体
 62
     0
 10
1362.9240115897139
 20
1567.3444796039309
 30
0.0
 11
1362.924011589713
 21
1252.3444796039309
 31
0.0
  0
INSERT
  5
17F7
  8
本体
 62
     0
  2
_OPEN30
 10
1362.9240115897139
 20
1582.3444796039309
 30
0.0
 41
15.0
 42
15.0
 43
15.0
 50
90.0
  0
INSERT
  5
17F8
  8
本体
 62
     0
  2
_OPEN30
 10
1362.924011589713
 20
1237.3444796039321
 30
0.0
 41
15.0
 42
15.0
 43
15.0
 50
270.0
  0
INSERT
  5
17F9
  8
本体
  2
*U77
 10
0.0
 20
0.0
 30
0.0
  0
POINT
  5
17FA
  8
DEFPOINTS
 62
     0
 10
1167.600114714314
 20
1582.3444796039309
 30
0.0
  0
POINT
  5
17FB
  8
DEFPOINTS
 62
     0
 10
1167.600114714314
 20
1237.3444796039321
 30
0.0
  0
POINT
  5
17FC
  8
DEFPOINTS
 62
     0
 10
1362.924011589713
 20
1237.3444796039321
 30
0.0
  0
ENDBLK
  5
17A5
  8
0
  0
BLOCK
  8
0
  2
*D22
 70
     1
 10
0.0
 20
0.0
 30
0.0
  3
*D22
  1

  0
LINE
  5
17FD
  8
本体
 62
     0
 10
1187.600114714314
 20
1582.3444796039309
 30
0.0
 11
1258.5262723186349
 21
1582.3444796039309
 31
0.0
  0
LINE
  5
17FE
  8
本体
 62
     0
 10
1187.600114714314
 20
1576.3444796039309
 30
0.0
 11
1258.5262723186349
 21
1576.3444796039309
 31
0.0
  0
LINE
  5
17FF
  8
本体
 62
     0
 10
1243.5262723186349
 20
1597.3444796039321
 30
0.0
 11
1243.5262723186349
 21
1612.3444796039309
 31
0.0
  0
LINE
  5
1800
  8
本体
 62
     0
 10
1243.5262723186349
 20
1561.3444796039309
 30
0.0
 11
1243.5262723186349
 21
1521.1160532079921
 31
0.0
  0
LINE
  5
1801
  8
本体
 62
     0
 10
1243.5262723186349
 20
1582.3444796039309
 30
0.0
 11
1243.5262723186349
 21
1576.3444796039309
 31
0.0
  0
INSERT
  5
1802
  8
本体
 62
     0
  2
_OPEN30
 10
1243.5262723186349
 20
1582.3444796039309
 30
0.0
 41
15.0
 42
15.0
 43
15.0
 50
270.0
  0
INSERT
  5
1803
  8
本体
 62
     0
  2
_OPEN30
 10
1243.5262723186349
 20
1576.3444796039309
 30
0.0
 41
15.0
 42
15.0
 43
15.0
 50
90.0
  0
INSERT
  5
1804
  8
本体
  2
*U78
 10
0.0
 20
0.0
 30
0.0
  0
POINT
  5
1805
  8
DEFPOINTS
 62
     0
 10
1167.600114714314
 20
1582.3444796039309
 30
0.0
  0
POINT
  5
1806
  8
DEFPOINTS
 62
     0
 10
1167.600114714314
 20
1576.3444796039309
 30
0.0
  0
POINT
  5
1807
  8
DEFPOINTS
 62
     0
 10
1243.5262723186349
 20
1576.3444796039309
 30
0.0
  0
ENDBLK
  5
17B2
  8
0
  0
BLOCK
  8
0
  2
*U24
 70
     1
 10
0.0
 20
0.0
 30
0.0
  3
*U24
  1

  0
TEXT
  5
1AB4
  8
外枠
 10
544.16033877741631
 20
104.2093939876667
 30
0.0
 40
29.0
  1
細目自由勾配側溝用グレーチング
  0
ENDBLK
  5
1AB6
  8
0
  0
BLOCK
  8
0
  2
*U25
 70
     1
 10
0.0
 20
0.0
 30
0.0
  3
*U25
  1

  0
TEXT
  5
1AB8
  8
外枠
 10
244.9031816178296
 20
27.33083800182602
 30
0.0
 40
35.0
  1
345\U+00D7494\U+00D725/90
  0
ENDBLK
  5
1ABA
  8
0
  0
BLOCK
  8
0
  2
*U26
 70
     1
 10
0.0
 20
0.0
 30
0.0
  3
*U26
  1

  0
TEXT
  5
1ABC
  8
外枠
 10
71.649122718585275
 20
107.37606802663871
 30
0.0
 40
30.0
  1
T-6
  0
ENDBLK
  5
1ABE
  8
0
  0
BLOCK
  8
0
  2
*U27
 70
     1
 10
0.0
 20
0.0
 30
0.0
  3
*U27
  1

  0
TEXT
  5
1AC0
  8
外枠
 10
66.262860812487318
 20
24.959666329152238
 30
0.0
 40
35.0
  1
EVH
  0
ENDBLK
  5
1AC2
  8
0
  0
BLOCK
  8
0
  2
*U28
 70
     1
 10
0.0
 20
0.0
 30
0.0
  3
*U28
  1

  0
TEXT
  5
1AC4
  8
外枠
 10
12.31559173967991
 20
55.820384735241532
 30
0.0
 40
20.0
  1
品
  0
TEXT
  5
1AC5
  8
外枠
 10
13.93995722191341
 20
21.877914346070629
 30
0.0
 40
20.0
  1
番
  0
ENDBLK
  5
1AC7
  8
0
  0
BLOCK
  8
0
  2
*U29
 70
     1
 10
0.0
 20
0.0
 30
0.0
  3
*U29
  1

  0
TEXT
  5
1AC9
  8
外枠
 10
13.701826488448861
 20
128.21497167387659
 30
0.0
 40
20.0
  1
荷
  0
TEXT
  5
1ACA
  8
外枠
 10
13.0926894326113
 20
94.170978442066129
 30
0.0
 40
20.0
  1
重
  0
ENDBLK
  5
1ACC
  8
0
  0
BLOCK
  8
0
  2
*U30
 70
     1
 10
0.0
 20
0.0
 30
0.0
  3
*U30
  1

  0
TEXT
  5
1ACE
  8
外枠
 10
268.17274124078699
 20
103.8572910967996
 30
0.0
 40
30.0
  1
VS250用
  0
ENDBLK
  5
1AD0
  8
0
  0
BLOCK
  8
0
  2
*U31
 70
     1
 10
0.0
 20
0.0
 30
0.0
  3
*U31
  1

  0
TEXT
  5
1AD2
  8
外枠
 10
183.11485662015511
 20
128.1906988549033
 30
0.0
 40
20.0
  1
溝
  0
TEXT
  5
1AD3
  8
外枠
 10
183.0133337775155
 20
93.842137095174095
 30
0.0
 40
20.0
  1
幅
  0
ENDBLK
  5
1AD5
  8
0
  0
BLOCK
  8
0
  2
*U32
 70
     1
 10
0.0
 20
0.0
 30
0.0
  3
*U32
  1

  0
TEXT
  5
1AD7
  8
外枠
 10
475.15442836342851
 20
129.30745012393891
 30
0.0
 40
20.0
  1
品
  0
TEXT
  5
1AD8
  8
外枠
 10
475.96661110454528
 20
95.161934049488821
 30
0.0
 40
20.0
  1
名
  0
ENDBLK
  5
1ADA
  8
0
  0
BLOCK
  8
0
  2
*U33
 70
     1
 10
0.0
 20
0.0
 30
0.0
  3
*U33
  1

  0
TEXT
  5
1ADC
  8
外枠
 10
727.25961354227786
 20
55.707237623488901
 30
0.0
 40
20.0
  1
摘
  0
TEXT
  5
1ADD
  8
外枠
 10
727.05656785699875
 20
22.373904290155579
 30
0.0
 40
20.0
  1
要
  0
ENDBLK
  5
1ADF
  8
0
  0
BLOCK
  8
0
  2
*U34
 70
     1
 10
0.0
 20
0.0
 30
0.0
  3
*U34
  1

  0
TEXT
  5
1AE1
  8
外枠
 10
978.81925431222055
 20
54.137594719728661
 30
0.0
 40
20.0
  1
材
  0
TEXT
  5
1AE2
  8
外枠
 10
977.90554872846417
 20
20.195124330557778
 30
0.0
 40
20.0
  1
質
  0
ENDBLK
  5
1AE4
  8
0
  0
BLOCK
  8
0
  2
*U35
 70
     1
 10
0.0
 20
0.0
 30
0.0
  3
*U35
  1

  0
TEXT
  5
1AE6
  8
外枠
 10
1681.794748081516
 20
20.714807640952891
 30
0.0
 40
30.000240000000002
  1
T A K A R A   G R A T I N G
  0
ENDBLK
  5
1AE8
  8
0
  0
BLOCK
  8
0
  2
*U36
 70
     1
 10
0.0
 20
0.0
 30
0.0
  3
*U36
  1

  0
TEXT
  5
1AEA
  8
外枠
 10
1726.954624788975
 20
95.492166944130545
 30
0.0
 40
30.0
  1
株 式 会 社
  0
ENDBLK
  5
1AEC
  8
0
  0
BLOCK
  8
0
  2
*U37
 70
     1
 10
0.0
 20
0.0
 30
0.0
  3
*U37
  1

  0
TEXT
  5
1AEE
  8
外枠
 10
1517.938865336755
 20
117.4995509975779
 30
0.0
 40
20.0
  1
13.1
  0
ENDBLK
  5
1AF0
  8
0
  0
BLOCK
  8
0
  2
*U38
 70
     1
 10
0.0
 20
0.0
 30
0.0
  3
*U38
  1

  0
TEXT
  5
1AF2
  8
外枠
 10
1567.002769251978
 20
90.413699317992709
 30
0.0
 40
18.0
  1
kg
  0
ENDBLK
  5
1AF4
  8
0
  0
BLOCK
  8
0
  2
*U39
 70
     1
 10
0.0
 20
0.0
 30
0.0
  3
*U39
  1

  0
TEXT
  5
1AF6
  8
外枠
 10
1639.8007154907209
 20
96.013399894071753
 30
0.0
 40
23.95393639053264
  1
宝
  0
ENDBLK
  5
1AF8
  8
0
  0
BLOCK
  8
0
  2
*U40
 70
     1
 10
0.0
 20
0.0
 30
0.0
  3
*U40
  1

  0
TEXT
  5
1AFA
  8
外枠
 10
1975.9014350948289
 20
89.247018277145415
 30
0.0
 40
50.0
  1
宝 機 材
  0
ENDBLK
  5
1AFC
  8
0
  0
BLOCK
  8
0
  2
*U41
 70
     1
 10
0.0
 20
0.0
 30
0.0
  3
*U41
  1

  0
TEXT
  5
1AFE
  8
外枠
 10
2518.1471238823701
 20
63.088198900772277
 30
0.0
 40
16.435188
  1
縮尺（A4用紙)
  0
ENDBLK
  5
1B00
  8
0
  0
BLOCK
  8
0
  2
*U42
 70
     1
 10
0.0
 20
0.0
 30
0.0
  3
*U42
  1

  0
TEXT
  5
1B02
  8
外枠
 10
2554.607782067043
 20
18.76277905183791
 30
0.0
 40
23.478840000000002
  1
1：10
  0
ENDBLK
  5
1B04
  8
0
  0
BLOCK
  8
0
  2
*U43
 70
     1
 10
0.0
 20
0.0
 30
0.0
  3
*U43
  1

  0
TEXT
  5
1B06
  8
外枠
 10
2279.33694895495
 20
130.72982924297881
 30
0.0
 40
18.783072000000001
  1
Check
  0
ENDBLK
  5
1B08
  8
0
  0
BLOCK
  8
0
  2
*U44
 70
     1
 10
0.0
 20
0.0
 30
0.0
  3
*U44
  1

  0
TEXT
  5
1B0A
  8
外枠
 10
2396.8904551337728
 20
130.72982924297881
 30
0.0
 40
18.783072000000001
  1
Draw
  0
ENDBLK
  5
1B0C
  8
0
  0
BLOCK
  8
0
  2
*U45
 70
     1
 10
0.0
 20
0.0
 30
0.0
  3
*U45
  1

  0
TEXT
  5
1B0E
  8
外枠
 10
2516.7288589280552
 20
136.3775277676057
 30
0.0
 40
16.435188
  1
図面作成日
  0
ENDBLK
  5
1B10
  8
0
  0
BLOCK
  8
0
  2
*U46
 70
     1
 10
0.0
 20
0.0
 30
0.0
  3
*U46
  1

  0
TEXT
  5
1B12
  8
寸法線
 62
     0
 10
1893.9669151660139
 20
1429.4637689440331
 30
0.0
 40
30.0
  1
100
 50
90.0
  0
ENDBLK
  5
1B14
  8
0
  0
BLOCK
  8
0
  2
*U47
 70
     1
 10
0.0
 20
0.0
 30
0.0
  3
*U47
  1

  0
TEXT
  5
1B16
  8
寸法線
 62
     0
 10
1793.923163282667
 20
1380.9104694516479
 30
0.0
 40
30.0
  1
345
 50
90.0
  0
ENDBLK
  5
1B18
  8
0
  0
BLOCK
  8
0
  2
*U48
 70
     1
 10
0.0
 20
0.0
 30
0.0
  3
*U48
  1

  0
INSERT
  5
1B1A
  8
寸法線
  6
CONTINUOUS
  2
_OPEN30
 10
1166.314230440212
 20
1580.8444796039309
 30
0.0
 41
15.0
 42
15.0
 43
15.0
 50
231.76655740499729
  0
POLYLINE
  5
1B1B
  8
寸法線
  6
CONTINUOUS
 66
     1
 10
0.0
 20
0.0
 30
0.0
  0
VERTEX
  5
1B1C
  8
寸法線
  6
CONTINUOUS
 10
1175.59723516433
 20
1592.6269166732311
 30
0.0
  0
VERTEX
  5
1B1D
  8
寸法線
  6
CONTINUOUS
 10
1222.0249085588671
 20
1651.555157722586
 30
0.0
  0
VERTEX
  5
1B1E
  8
寸法線
  6
CONTINUOUS
 10
1413.1924212492229
 20
1651.555157722586
 30
0.0
  0
SEQEND
  5
1B1F
  8
寸法線
  6
CONTINUOUS
  0
ENDBLK
  5
1B21
  8
0
  0
BLOCK
  8
0
  2
*U49
 70
     1
 10
0.0
 20
0.0
 30
0.0
  3
*U49
  1

  0
TEXT
  5
1B23
  8
寸法線
 10
1240.0452131273951
 20
1656.555157722586
 30
0.0
 40
30.0
  1
FB4.5\U+00D719
  0
ENDBLK
  5
1B25
  8
0
  0
BLOCK
  8
0
  2
*U50
 70
     1
 10
0.0
 20
0.0
 30
0.0
  3
*U50
  1

  0
INSERT
  5
1B27
  8
寸法線
  6
CONTINUOUS
  2
_OPEN30
 10
2053.910582214648
 20
1572.344480603932
 30
0.0
 41
15.0
 42
15.0
 43
15.0
 50
231.7021865050435
  0
POLYLINE
  5
1B28
  8
寸法線
  6
CONTINUOUS
 66
     1
 10
0.0
 20
0.0
 30
0.0
  0
VERTEX
  5
1B29
  8
寸法線
  6
CONTINUOUS
 10
2063.206818458656
 20
1584.1164809307911
 30
0.0
  0
VERTEX
  5
1B2A
  8
寸法線
  6
CONTINUOUS
 10
2119.6212593333021
 20
1655.555157722586
 30
0.0
  0
VERTEX
  5
1B2B
  8
寸法線
  6
CONTINUOUS
 10
2525.0527314145211
 20
1655.555157722586
 30
0.0
  0
SEQEND
  5
1B2C
  8
寸法線
  6
CONTINUOUS
  0
ENDBLK
  5
1B2E
  8
0
  0
BLOCK
  8
0
  2
*U51
 70
     1
 10
0.0
 20
0.0
 30
0.0
  3
*U51
  1

  0
TEXT
  5
1B30
  8
寸法線
 10
2137.4892796378708
 20
1661.0120105144649
 30
0.0
 40
30.0
  1
P2.3\U+00D760\U+00D740+HGRゴム
  0
ENDBLK
  5
1B32
  8
0
  0
BLOCK
  8
0
  2
*U52
 70
     1
 10
0.0
 20
0.0
 30
0.0
  3
*U52
  1

  0
TEXT
  5
1B34
  8
寸法線
 62
     0
 10
1364.326975541577
 20
598.73312866415483
 30
0.0
 40
30.0
  1
90
 50
90.0
  0
ENDBLK
  5
1B36
  8
0
  0
BLOCK
  8
0
  2
*X53
 70
     1
 10
0.0
 20
0.0
 30
0.0
  3
*X53
  1

  0
LINE
  5
1B38
  8
0
 62
     0
 10
1155.988659072427
 20
573.45394084689599
 30
0.0
 11
1158.100114714314
 21
575.56539648878311
 31
0.0
  0
LINE
  5
1B39
  8
0
 62
     0
 10
1151.498531011893
 20
573.45394084689599
 30
0.0
 11
1156.4985310118921
 21
578.45394084689576
 31
0.0
  0
LINE
  5
1B3A
  8
0
 62
     0
 10
1147.008402951358
 20
573.45394084689599
 30
0.0
 11
1152.0084029513571
 21
578.45394084689588
 31
0.0
  0
LINE
  5
1B3B
  8
0
 62
     0
 10
1142.518274890823
 20
573.45394084689599
 30
0.0
 11
1147.518274890823
 21
578.45394084689565
 31
0.0
  0
LINE
  5
1B3C
  8
0
 62
     0
 10
1138.028146830289
 20
573.45394084689599
 30
0.0
 11
1143.0281468302881
 21
578.45394084689576
 31
0.0
  0
LINE
  5
1B3D
  8
0
 62
     0
 10
1133.538018769754
 20
573.45394084689599
 30
0.0
 11
1138.538018769754
 21
578.45394084689576
 31
0.0
  0
LINE
  5
1B3E
  8
0
 62
     0
 10
1129.0478907092199
 20
573.45394084689599
 30
0.0
 11
1134.047890709219
 21
578.45394084689576
 31
0.0
  0
LINE
  5
1B3F
  8
0
 62
     0
 10
1124.557762648685
 20
573.45394084689599
 30
0.0
 11
1129.557762648685
 21
578.45394084689576
 31
0.0
  0
LINE
  5
1B40
  8
0
 62
     0
 10
1120.06763458815
 20
573.45394084689599
 30
0.0
 11
1125.06763458815
 21
578.45394084689576
 31
0.0
  0
LINE
  5
1B41
  8
0
 62
     0
 10
1115.5775065276159
 20
573.45394084689599
 30
0.0
 11
1120.5775065276159
 21
578.45394084689576
 31
0.0
  0
LINE
  5
1B42
  8
0
 62
     0
 10
1111.087378467081
 20
573.45394084689599
 30
0.0
 11
1116.087378467081
 21
578.45394084689588
 31
0.0
  0
LINE
  5
1B43
  8
0
 62
     0
 10
1106.5972504065469
 20
573.45394084689599
 30
0.0
 11
1111.597250406546
 21
578.45394084689576
 31
0.0
  0
LINE
  5
1B44
  8
0
 62
     0
 10
1102.1071223460119
 20
573.45394084689599
 30
0.0
 11
1107.1071223460119
 21
578.45394084689576
 31
0.0
  0
LINE
  5
1B45
  8
0
 62
     0
 10
1097.6169942854769
 20
573.45394084689599
 30
0.0
 11
1102.6169942854769
 21
578.45394084689576
 31
0.0
  0
LINE
  5
1B46
  8
0
 62
     0
 10
1093.1268662249429
 20
573.45394084689599
 30
0.0
 11
1098.1268662249429
 21
578.45394084689588
 31
0.0
  0
LINE
  5
1B47
  8
0
 62
     0
 10
1088.6367381644079
 20
573.45394084689599
 30
0.0
 11
1093.6367381644079
 21
578.45394084689576
 31
0.0
  0
LINE
  5
1B48
  8
0
 62
     0
 10
1084.1466101038741
 20
573.45394084689599
 30
0.0
 11
1089.1466101038729
 21
578.45394084689576
 31
0.0
  0
LINE
  5
1B49
  8
0
 62
     0
 10
1079.6564820433391
 20
573.45394084689599
 30
0.0
 11
1084.6564820433391
 21
578.45394084689588
 31
0.0
  0
LINE
  5
1B4A
  8
0
 62
     0
 10
1075.166353982805
 20
573.45394084689599
 30
0.0
 11
1080.166353982805
 21
578.45394084689565
 31
0.0
  0
LINE
  5
1B4B
  8
0
 62
     0
 10
1070.6762259222701
 20
573.45394084689599
 30
0.0
 11
1075.6762259222701
 21
578.45394084689576
 31
0.0
  0
LINE
  5
1B4C
  8
0
 62
     0
 10
1066.1860978617351
 20
573.45394084689599
 30
0.0
 11
1071.1860978617351
 21
578.45394084689576
 31
0.0
  0
LINE
  5
1B4D
  8
0
 62
     0
 10
1061.695969801201
 20
573.45394084689599
 30
0.0
 11
1066.695969801201
 21
578.45394084689576
 31
0.0
  0
LINE
  5
1B4E
  8
0
 62
     0
 10
1057.2058417406661
 20
573.45394084689599
 30
0.0
 11
1062.2058417406661
 21
578.45394084689576
 31
0.0
  0
LINE
  5
1B4F
  8
0
 62
     0
 10
1052.7157136801311
 20
573.45394084689599
 30
0.0
 11
1057.715713680132
 21
578.45394084689576
 31
0.0
  0
LINE
  5
1B50
  8
0
 62
     0
 10
1048.225585619597
 20
573.45394084689599
 30
0.0
 11
1053.225585619597
 21
578.45394084689576
 31
0.0
  0
LINE
  5
1B51
  8
0
 62
     0
 10
1043.735457559063
 20
573.45394084689599
 30
0.0
 11
1048.7354575590621
 21
578.45394084689576
 31
0.0
  0
LINE
  5
1B52
  8
0
 62
     0
 10
1039.245329498528
 20
573.45394084689599
 30
0.0
 11
1044.245329498528
 21
578.45394084689576
 31
0.0
  0
LINE
  5
1B53
  8
0
 62
     0
 10
1034.755201437993
 20
573.45394084689599
 30
0.0
 11
1039.755201437993
 21
578.45394084689576
 31
0.0
  0
LINE
  5
1B54
  8
0
 62
     0
 10
1030.265073377459
 20
573.45394084689599
 30
0.0
 11
1035.265073377459
 21
578.45394084689576
 31
0.0
  0
LINE
  5
1B55
  8
0
 62
     0
 10
1025.774945316924
 20
573.45394084689599
 30
0.0
 11
1030.774945316924
 21
578.45394084689576
 31
0.0
  0
LINE
  5
1B56
  8
0
 62
     0
 10
1021.2848172563901
 20
573.45394084689588
 30
0.0
 11
1026.284817256389
 21
578.45394084689576
 31
0.0
  0
LINE
  5
1B57
  8
0
 62
     0
 10
1016.794689195855
 20
573.45394084689599
 30
0.0
 11
1021.794689195855
 21
578.45394084689576
 31
0.0
  0
LINE
  5
1B58
  8
0
 62
     0
 10
1012.30456113532
 20
573.45394084689599
 30
0.0
 11
1017.30456113532
 21
578.45394084689588
 31
0.0
  0
LINE
  5
1B59
  8
0
 62
     0
 10
1007.8144330747861
 20
573.45394084689599
 30
0.0
 11
1012.8144330747861
 21
578.45394084689565
 31
0.0
  0
LINE
  5
1B5A
  8
0
 62
     0
 10
1003.324305014251
 20
573.45394084689599
 30
0.0
 11
1008.324305014251
 21
578.45394084689576
 31
0.0
  0
LINE
  5
1B5B
  8
0
 62
     0
 10
998.83417695371702
 20
573.45394084689599
 30
0.0
 11
1003.834176953716
 21
578.45394084689576
 31
0.0
  0
LINE
  5
1B5C
  8
0
 62
     0
 10
994.34404889318228
 20
573.45394084689599
 30
0.0
 11
999.34404889318216
 21
578.45394084689576
 31
0.0
  0
LINE
  5
1B5D
  8
0
 62
     0
 10
989.85392083264787
 20
573.45394084689588
 30
0.0
 11
994.85392083264765
 21
578.45394084689576
 31
0.0
  0
LINE
  5
1B5E
  8
0
 62
     0
 10
985.36379277211313
 20
573.45394084689599
 30
0.0
 11
990.3637927721129
 21
578.45394084689576
 31
0.0
  0
LINE
  5
1B5F
  8
0
 62
     0
 10
980.87366471157861
 20
573.45394084689599
 30
0.0
 11
985.8736647115785
 21
578.45394084689576
 31
0.0
  0
LINE
  5
1B60
  8
0
 62
     0
 10
976.3835366510441
 20
573.45394084689599
 30
0.0
 11
981.38353665104376
 21
578.45394084689576
 31
0.0
  0
LINE
  5
1B61
  8
0
 62
     0
 10
971.89340859050947
 20
573.45394084689588
 30
0.0
 11
976.89340859050935
 21
578.45394084689576
 31
0.0
  0
LINE
  5
1B62
  8
0
 62
     0
 10
967.40328052997495
 20
573.45394084689599
 30
0.0
 11
972.40328052997461
 21
578.45394084689576
 31
0.0
  0
LINE
  5
1B63
  8
0
 62
     0
 10
962.91315246944021
 20
573.45394084689599
 30
0.0
 11
967.91315246944009
 21
578.45394084689576
 31
0.0
  0
LINE
  5
1B64
  8
0
 62
     0
 10
958.4230244089058
 20
573.45394084689588
 30
0.0
 11
963.42302440890546
 21
578.45394084689576
 31
0.0
  0
LINE
  5
1B65
  8
0
 62
     0
 10
953.93289634837095
 20
573.45394084689588
 30
0.0
 11
958.93289634837083
 21
578.45394084689576
 31
0.0
  0
LINE
  5
1B66
  8
0
 62
     0
 10
949.44276828783654
 20
573.45394084689599
 30
0.0
 11
954.44276828783643
 21
578.45394084689576
 31
0.0
  0
LINE
  5
1B67
  8
0
 62
     0
 10
944.95264022730203
 20
573.45394084689599
 30
0.0
 11
949.95264022730169
 21
578.45394084689565
 31
0.0
  0
LINE
  5
1B68
  8
0
 62
     0
 10
940.46251216676762
 20
573.45394084689588
 30
0.0
 11
945.46251216676728
 21
578.45394084689565
 31
0.0
  0
LINE
  5
1B69
  8
0
 62
     0
 10
935.97238410623288
 20
573.45394084689599
 30
0.0
 11
940.97238410623265
 21
578.45394084689576
 31
0.0
  0
LINE
  5
1B6A
  8
0
 62
     0
 10
931.48225604569825
 20
573.45394084689599
 30
0.0
 11
936.48225604569825
 21
578.45394084689576
 31
0.0
  0
LINE
  5
1B6B
  8
0
 62
     0
 10
926.99212798516373
 20
573.45394084689588
 30
0.0
 11
931.99212798516351
 21
578.45394084689576
 31
0.0
  0
LINE
  5
1B6C
  8
0
 62
     0
 10
922.50199992462899
 20
573.45394084689588
 30
0.0
 11
927.50199992462888
 21
578.45394084689565
 31
0.0
  0
LINE
  5
1B6D
  8
0
 62
     0
 10
918.01187186409436
 20
573.45394084689599
 30
0.0
 11
923.01187186409425
 21
578.45394084689576
 31
0.0
  0
LINE
  5
1B6E
  8
0
 62
     0
 10
913.52174380355984
 20
573.45394084689599
 30
0.0
 11
918.52174380355984
 21
578.45394084689576
 31
0.0
  0
LINE
  5
1B6F
  8
0
 62
     0
 10
909.03161574302555
 20
573.45394084689588
 30
0.0
 11
914.03161574302521
 21
578.45394084689576
 31
0.0
  0
LINE
  5
1B70
  8
0
 62
     0
 10
904.54148768249081
 20
573.45394084689588
 30
0.0
 11
909.54148768249036
 21
578.45394084689565
 31
0.0
  0
LINE
  5
1B71
  8
0
 62
     0
 10
900.05135962195618
 20
573.45394084689599
 30
0.0
 11
905.05135962195595
 21
578.45394084689576
 31
0.0
  0
LINE
  5
1B72
  8
0
 62
     0
 10
895.56123156142155
 20
573.45394084689588
 30
0.0
 11
900.56123156142144
 21
578.45394084689576
 31
0.0
  0
LINE
  5
1B73
  8
0
 62
     0
 10
891.07110350088715
 20
573.45394084689576
 30
0.0
 11
896.07110350088681
 21
578.45394084689576
 31
0.0
  0
LINE
  5
1B74
  8
0
 62
     0
 10
886.58097544035252
 20
573.45394084689576
 30
0.0
 11
891.58097544035218
 21
578.45394084689565
 31
0.0
  0
LINE
  5
1B75
  8
0
 62
     0
 10
882.09084737981777
 20
573.45394084689599
 30
0.0
 11
887.09084737981766
 21
578.45394084689565
 31
0.0
  0
LINE
  5
1B76
  8
0
 62
     0
 10
877.60071931928337
 20
573.45394084689576
 30
0.0
 11
882.60071931928314
 21
578.45394084689565
 31
0.0
  0
LINE
  5
1B77
  8
0
 62
     0
 10
873.11059125874885
 20
573.45394084689588
 30
0.0
 11
878.11059125874863
 21
578.45394084689576
 31
0.0
  0
LINE
  5
1B78
  8
0
 62
     0
 10
868.62046319821434
 20
573.45394084689599
 30
0.0
 11
873.620463198214
 21
578.45394084689576
 31
0.0
  0
LINE
  5
1B79
  8
0
 62
     0
 10
864.13033513767959
 20
573.45394084689588
 30
0.0
 11
869.13033513767948
 21
578.45394084689576
 31
0.0
  0
LINE
  5
1B7A
  8
0
 62
     0
 10
859.64020707714496
 20
573.45394084689576
 30
0.0
 11
864.64020707714474
 21
578.45394084689565
 31
0.0
  0
LINE
  5
1B7B
  8
0
 62
     0
 10
855.15007901661033
 20
573.45394084689588
 30
0.0
 11
860.15007901661022
 21
578.45394084689565
 31
0.0
  0
LINE
  5
1B7C
  8
0
 62
     0
 10
850.6599509560757
 20
573.45394084689599
 30
0.0
 11
855.65995095607559
 21
578.45394084689576
 31
0.0
  0
LINE
  5
1B7D
  8
0
 62
     0
 10
846.1698228955413
 20
573.45394084689576
 30
0.0
 11
851.16982289554096
 21
578.45394084689576
 31
0.0
  0
LINE
  5
1B7E
  8
0
 62
     0
 10
841.67969483500679
 20
573.45394084689588
 30
0.0
 11
846.67969483500633
 21
578.45394084689565
 31
0.0
  0
LINE
  5
1B7F
  8
0
 62
     0
 10
837.18956677447215
 20
573.45394084689588
 30
0.0
 11
842.18956677447193
 21
578.45394084689565
 31
0.0
  0
LINE
  5
1B80
  8
0
 62
     0
 10
832.69943871393752
 20
573.45394084689588
 30
0.0
 11
837.69943871393718
 21
578.45394084689565
 31
0.0
  0
LINE
  5
1B81
  8
0
 62
     0
 10
828.20931065340312
 20
573.45394084689576
 30
0.0
 11
833.20931065340278
 21
578.45394084689565
 31
0.0
  0
LINE
  5
1B82
  8
0
 62
     0
 10
823.71918259286838
 20
573.45394084689588
 30
0.0
 11
828.71918259286804
 21
578.45394084689565
 31
0.0
  0
LINE
  5
1B83
  8
0
 62
     0
 10
819.22905453233375
 20
573.45394084689588
 30
0.0
 11
824.22905453233352
 21
578.45394084689565
 31
0.0
  0
LINE
  5
1B84
  8
0
 62
     0
 10
814.73892647179912
 20
573.45394084689576
 30
0.0
 11
819.738926471799
 21
578.45394084689565
 31
0.0
  0
LINE
  5
1B85
  8
0
 62
     0
 10
810.24879841126472
 20
573.45394084689588
 30
0.0
 11
815.24879841126437
 21
578.45394084689565
 31
0.0
  0
LINE
  5
1B86
  8
0
 62
     0
 10
805.75867035072986
 20
573.45394084689576
 30
0.0
 11
810.75867035072974
 21
578.45394084689565
 31
0.0
  0
LINE
  5
1B87
  8
0
 62
     0
 10
801.26854229019546
 20
573.45394084689588
 30
0.0
 11
806.26854229019511
 21
578.45394084689565
 31
0.0
  0
LINE
  5
1B88
  8
0
 62
     0
 10
796.77841422966094
 20
573.45394084689576
 30
0.0
 11
801.77841422966071
 21
578.45394084689565
 31
0.0
  0
LINE
  5
1B89
  8
0
 62
     0
 10
792.28828616912642
 20
573.45394084689588
 30
0.0
 11
797.28828616912608
 21
578.45394084689565
 31
0.0
  0
LINE
  5
1B8A
  8
0
 62
     0
 10
787.79815810859168
 20
573.45394084689576
 30
0.0
 11
792.79815810859156
 21
578.45394084689565
 31
0.0
  0
LINE
  5
1B8B
  8
0
 62
     0
 10
783.30803004805705
 20
573.45394084689576
 30
0.0
 11
788.30803004805693
 21
578.45394084689565
 31
0.0
  0
LINE
  5
1B8C
  8
0
 62
     0
 10
778.81790198752265
 20
573.45394084689576
 30
0.0
 11
783.81790198752242
 21
578.45394084689565
 31
0.0
  0
LINE
  5
1B8D
  8
0
 62
     0
 10
774.3277739269879
 20
573.45394084689576
 30
0.0
 11
779.32777392698779
 21
578.45394084689565
 31
0.0
  0
LINE
  5
1B8E
  8
0
 62
     0
 10
769.83764586645339
 20
573.45394084689576
 30
0.0
 11
774.83764586645316
 21
578.45394084689565
 31
0.0
  0
LINE
  5
1B8F
  8
0
 62
     0
 10
765.34751780591876
 20
573.45394084689576
 30
0.0
 11
770.34751780591876
 21
578.45394084689565
 31
0.0
  0
LINE
  5
1B90
  8
0
 62
     0
 10
760.85738974538435
 20
573.45394084689588
 30
0.0
 11
765.85738974538401
 21
578.45394084689565
 31
0.0
  0
LINE
  5
1B91
  8
0
 62
     0
 10
756.36726168484961
 20
573.45394084689576
 30
0.0
 11
761.3672616848495
 21
578.45394084689565
 31
0.0
  0
LINE
  5
1B92
  8
0
 62
     0
 10
751.87713362431498
 20
573.45394084689576
 30
0.0
 11
756.87713362431475
 21
578.45394084689565
 31
0.0
  0
LINE
  5
1B93
  8
0
 62
     0
 10
747.38700556378058
 20
573.45394084689576
 30
0.0
 11
752.38700556378035
 21
578.45394084689565
 31
0.0
  0
LINE
  5
1B94
  8
0
 62
     0
 10
742.89687750324595
 20
573.45394084689576
 30
0.0
 11
747.89687750324583
 21
578.45394084689565
 31
0.0
  0
LINE
  5
1B95
  8
0
 62
     0
 10
738.40674944271143
 20
573.45394084689576
 30
0.0
 11
743.40674944271132
 21
578.45394084689565
 31
0.0
  0
LINE
  5
1B96
  8
0
 62
     0
 10
733.91662138217669
 20
573.45394084689576
 30
0.0
 11
738.91662138217646
 21
578.45394084689565
 31
0.0
  0
LINE
  5
1B97
  8
0
 62
     0
 10
729.42649332164228
 20
573.45394084689576
 30
0.0
 11
734.42649332164206
 21
578.45394084689565
 31
0.0
  0
LINE
  5
1B98
  8
0
 62
     0
 10
724.93636526110754
 20
573.45394084689576
 30
0.0
 11
729.93636526110754
 21
578.45394084689565
 31
0.0
  0
LINE
  5
1B99
  8
0
 62
     0
 10
720.44623720057302
 20
573.45394084689576
 30
0.0
 11
725.44623720057291
 21
578.45394084689565
 31
0.0
  0
LINE
  5
1B9A
  8
0
 62
     0
 10
715.95610914003839
 20
573.45394084689576
 30
0.0
 11
720.95610914003828
 21
578.45394084689565
 31
0.0
  0
LINE
  5
1B9B
  8
0
 62
     0
 10
711.46598107950376
 20
573.45394084689576
 30
0.0
 11
716.46598107950365
 21
578.45394084689565
 31
0.0
  0
LINE
  5
1B9C
  8
0
 62
     0
 10
706.97585301896936
 20
573.45394084689576
 30
0.0
 11
711.97585301896925
 21
578.45394084689565
 31
0.0
  0
LINE
  5
1B9D
  8
0
 62
     0
 10
702.48572495843473
 20
573.45394084689576
 30
0.0
 11
707.48572495843462
 21
578.45394084689565
 31
0.0
  0
LINE
  5
1B9E
  8
0
 62
     0
 10
697.99559689790021
 20
573.45394084689576
 30
0.0
 11
702.99559689789976
 21
578.45394084689565
 31
0.0
  0
LINE
  5
1B9F
  8
0
 62
     0
 10
693.50546883736558
 20
573.45394084689576
 30
0.0
 11
698.50546883736536
 21
578.45394084689565
 31
0.0
  0
LINE
  5
1BA0
  8
0
 62
     0
 10
689.01534077683095
 20
573.45394084689576
 30
0.0
 11
694.01534077683084
 21
578.45394084689565
 31
0.0
  0
LINE
  5
1BA1
  8
0
 62
     0
 10
684.52521271629644
 20
573.45394084689576
 30
0.0
 11
689.52521271629621
 21
578.45394084689565
 31
0.0
  0
LINE
  5
1BA2
  8
0
 62
     0
 10
683.10011471431415
 20
576.51897090544821
 30
0.0
 11
685.03508465576169
 21
578.45394084689565
 31
0.0
  0
ENDBLK
  5
1BA4
  8
0
  0
BLOCK
  8
0
  2
*U54
 70
     1
 10
0.0
 20
0.0
 30
0.0
  3
*U54
  1

  0
TEXT
  5
1BA6
  8
寸法線
 62
     0
 10
1265.3647386380781
 20
521.24581901948488
 30
0.0
 40
30.0
  1
5
 50
90.0
  0
ENDBLK
  5
1BA8
  8
0
  0
BLOCK
  8
0
  2
*U55
 70
     1
 10
0.0
 20
0.0
 30
0.0
  3
*U55
  1

  0
TEXT
  5
1BB2
  8
寸法線
 62
     0
 10
2175.7915037225239
 20
1380.9104694516479
 30
0.0
 40
30.0
  1
325
 50
90.0
  0
ENDBLK
  5
1BB4
  8
0
  0
BLOCK
  8
0
  2
*U56
 70
     1
 10
0.0
 20
0.0
 30
0.0
  3
*U56
  1

  0
TEXT
  5
1BB6
  8
外枠
 10
1002.756638030892
 20
58.605103723572149
 30
0.0
 40
18.0
  1
【主部材】
  0
ENDBLK
  5
1BB8
  8
0
  0
BLOCK
  8
0
  2
*U57
 70
     1
 10
0.0
 20
0.0
 30
0.0
  3
*U57
  1

  0
TEXT
  5
1BBA
  8
外枠
 10
1037.7063084011361
 20
18.781699955294702
 30
0.0
 40
25.0
  1
SS400
  0
ENDBLK
  5
1BBC
  8
0
  0
BLOCK
  8
0
  2
*U58
 70
     1
 10
0.0
 20
0.0
 30
0.0
  3
*U58
  1

  0
TEXT
  5
1BBE
  8
外枠
 10
1200.774403761845
 20
93.741825146087464
 30
0.0
 40
25.0
  1
溶融亜鉛めっき仕上
  0
ENDBLK
  5
1BC0
  8
0
  0
BLOCK
  8
0
  2
*U59
 70
     1
 10
0.0
 20
0.0
 30
0.0
  3
*U59
  1

  0
TEXT
  5
1BC2
  8
外枠
 10
1180.3251905442769
 20
131.25457676755281
 30
0.0
 40
18.0
  1
【グレーチング】JIS　H8641
  0
ENDBLK
  5
1BC4
  8
0
  0
BLOCK
  8
0
  2
*U60
 70
     1
 10
0.0
 20
0.0
 30
0.0
  3
*U60
  1

  0
TEXT
  5
1BC6
  8
外枠
 10
1157.8625562838049
 20
127.6974059990939
 30
0.0
 40
20.0
  1
表
  0
TEXT
  5
1BC7
  8
外枠
 10
1157.4564649132469
 20
94.364072665760617
 30
0.0
 40
20.0
  1
面
  0
TEXT
  5
1BC8
  8
外枠
 10
1158.1671248117241
 20
60.218556591310538
 30
0.0
 40
20.0
  1
処
  0
TEXT
  5
1BC9
  8
外枠
 10
1158.0656019690839
 20
26.885223257977199
 30
0.0
 40
20.0
  1
理
  0
ENDBLK
  5
1BCB
  8
0
  0
BLOCK
  8
0
  2
*U61
 70
     1
 10
0.0
 20
0.0
 30
0.0
  3
*U61
  1

  0
TEXT
  5
1BCD
  8
外枠
 10
2507.3635429420642
 20
97.741770568656875
 30
0.0
 40
23.478840000000002
  1
'14・09・01
  0
ENDBLK
  5
1BCF
  8
0
  0
BLOCK
  8
0
  2
*U62
 70
     1
 10
0.0
 20
0.0
 30
0.0
  3
*U62
  1

  0
TEXT
  5
1BD6
  8
ゴム
 62
     0
 10
891.89453095796898
 20
428.57401983913633
 30
0.0
 40
30.0
  1
475
  0
ENDBLK
  5
1BD8
  8
0
  0
BLOCK
  8
0
  2
*U63
 70
     1
 10
0.0
 20
0.0
 30
0.0
  3
*U63
  1

  0
TEXT
  5
1BDA
  8
外枠
 10
2424.948327010743
 20
34.983382491011568
 30
0.0
 40
28.17460800000001
  1
水
  0
ENDBLK
  5
1BDC
  8
0
  0
BLOCK
  8
0
  2
*U64
 70
     1
 10
0.0
 20
0.0
 30
0.0
  3
*U64
  1

  0
TEXT
  5
1BDE
  8
外枠
 10
2425.2631271001292
 20
76.726407136675249
 30
0.0
 40
28.17460800000001
  1
清
  0
ENDBLK
  5
1BE0
  8
0
  0
BLOCK
  8
0
  2
*U65
 70
     1
 10
0.0
 20
0.0
 30
0.0
  3
*U65
  1

  0
TEXT
  5
1C1C
  8
外枠
 10
36.933134784657412
 20
-119.3140900169393
 30
0.0
 40
28.17460800000001
  1
下
  0
ENDBLK
  5
1C1E
  8
0
  0
BLOCK
  8
0
  2
*U66
 70
     1
 10
0.0
 20
0.0
 30
0.0
  3
*U66
  1

  0
TEXT
  5
1C20
  8
外枠
 10
39.13673541035574
 20
-78.672865684124787
 30
0.0
 40
28.17460800000001
  1
鎌
  0
ENDBLK
  5
1C22
  8
0
  0
BLOCK
  8
0
  2
*U67
 70
     1
 10
0.0
 20
0.0
 30
0.0
  3
*U67
  1

  0
TEXT
  5
1C2E
  8
寸法線
 62
     0
 10
1265.3647386380781
 20
696.62652967938334
 30
0.0
 40
30.0
  1
25
 50
90.0
  0
ENDBLK
  5
1C30
  8
0
  0
BLOCK
  8
0
  2
*U68
 70
     1
 10
0.0
 20
0.0
 30
0.0
  3
*U68
  1

  0
TEXT
  5
1C32
  8
寸法線
 62
     0
 10
1265.3647386380781
 20
588.65698653217521
 30
0.0
 40
30.0
  1
60
 50
90.0
  0
ENDBLK
  5
1C34
  8
0
  0
BLOCK
  8
0
  2
*X69
 70
     1
 10
0.0
 20
0.0
 30
0.0
  3
*X69
  1

  0
LINE
  5
1C3B
  8
0
 62
     0
 10
-177.5785028257983
 20
70.178232740994872
 30
0.0
 11
-177.50311631615571
 21
70.253619250637485
 31
0.0
  0
LINE
  5
1C3C
  8
0
 62
     0
 10
-182.06863088633301
 20
70.178232740995099
 30
0.0
 11
-177.50311631615591
 21
74.743747311172214
 31
0.0
  0
LINE
  5
1C3D
  8
0
 62
     0
 10
-186.5587589468675
 20
70.178232740995099
 30
0.0
 11
-177.50311631615571
 21
79.233875371706972
 31
0.0
  0
LINE
  5
1C3E
  8
0
 62
     0
 10
-191.04888700740199
 20
70.178232740995099
 30
0.0
 11
-177.50311631615571
 21
83.724003432241474
 31
0.0
  0
LINE
  5
1C3F
  8
0
 62
     0
 10
-195.53901506793659
 20
70.178232740995327
 30
0.0
 11
-177.50311631615571
 21
88.214131492776005
 31
0.0
  0
LINE
  5
1C40
  8
0
 62
     0
 10
-200.02914312847111
 20
70.178232740995327
 30
0.0
 11
-177.5031163161554
 21
92.704259553310976
 31
0.0
  0
LINE
  5
1C41
  8
0
 62
     0
 10
-204.51927118900559
 20
70.178232740995327
 30
0.0
 11
-177.5031163161554
 21
97.194387613845507
 31
0.0
  0
LINE
  5
1C42
  8
0
 62
     0
 10
-207.74311631615549
 20
71.444515674379772
 30
0.0
 11
-177.5031163161554
 21
101.68451567437999
 31
0.0
  0
LINE
  5
1C43
  8
0
 62
     0
 10
-207.74311631615569
 20
75.934643734914275
 30
0.0
 11
-177.5031163161554
 21
106.1746437349145
 31
0.0
  0
LINE
  5
1C44
  8
0
 62
     0
 10
-207.74311631615569
 20
80.424771795449033
 30
0.0
 11
-177.9896553706094
 21
110.1782327409953
 31
0.0
  0
LINE
  5
1C45
  8
0
 62
     0
 10
-207.74311631615569
 20
84.914899855983535
 30
0.0
 11
-182.47978343114389
 21
110.1782327409953
 31
0.0
  0
LINE
  5
1C46
  8
0
 62
     0
 10
-207.74311631615569
 20
89.405027916518065
 30
0.0
 11
-186.9699114916784
 21
110.1782327409953
 31
0.0
  0
LINE
  5
1C47
  8
0
 62
     0
 10
-207.74311631615569
 20
93.895155977052582
 30
0.0
 11
-191.4600395522132
 21
110.1782327409951
 31
0.0
  0
LINE
  5
1C48
  8
0
 62
     0
 10
-207.74311631615569
 20
98.385284037587098
 30
0.0
 11
-195.95016761274769
 21
110.1782327409951
 31
0.0
  0
LINE
  5
1C49
  8
0
 62
     0
 10
-207.74311631615569
 20
102.8754120981216
 30
0.0
 11
-200.44029567328221
 21
110.1782327409951
 31
0.0
  0
LINE
  5
1C4A
  8
0
 62
     0
 10
-207.74311631615549
 20
107.3655401586563
 30
0.0
 11
-204.9304237338167
 21
110.1782327409951
 31
0.0
  0
LINE
  5
1C4B
  8
0
 62
     0
 10
-178.4008079154207
 20
150.1782327409951
 30
0.0
 11
-177.50311631615591
 21
151.07592434025989
 31
0.0
  0
LINE
  5
1C4C
  8
0
 62
     0
 10
-182.89093597595519
 20
150.1782327409953
 30
0.0
 11
-177.50311631615591
 21
155.5660524007944
 31
0.0
  0
LINE
  5
1C4D
  8
0
 62
     0
 10
-187.3810640364897
 20
150.1782327409953
 30
0.0
 11
-177.50311631615591
 21
160.05618046132889
 31
0.0
  0
LINE
  5
1C4E
  8
0
 62
     0
 10
-191.87119209702431
 20
150.1782327409953
 30
0.0
 11
-177.50311631615591
 21
164.54630852186341
 31
0.0
  0
LINE
  5
1C4F
  8
0
 62
     0
 10
-196.36132015755879
 20
150.1782327409953
 30
0.0
 11
-177.50311631615571
 21
169.03643658239821
 31
0.0
  0
LINE
  5
1C50
  8
0
 62
     0
 10
-200.85144821809331
 20
150.1782327409953
 30
0.0
 11
-177.50311631615571
 21
173.5265646429327
 31
0.0
  0
LINE
  5
1C51
  8
0
 62
     0
 10
-205.34157627862811
 20
150.1782327409955
 30
0.0
 11
-177.50311631615591
 21
178.01669270346741
 31
0.0
  0
LINE
  5
1C52
  8
0
 62
     0
 10
-207.74311631615589
 20
152.2668207640022
 30
0.0
 11
-177.50311631615591
 21
182.50682076400199
 31
0.0
  0
LINE
  5
1C53
  8
0
 62
     0
 10
-207.74311631615589
 20
156.75694882453669
 30
0.0
 11
-177.50311631615591
 21
186.9969488245365
 31
0.0
  0
LINE
  5
1C54
  8
0
 62
     0
 10
-207.74311631615569
 20
161.24707688507121
 30
0.0
 11
-178.811960460232
 21
190.17823274099479
 31
0.0
  0
LINE
  5
1C55
  8
0
 62
     0
 10
-207.74311631615569
 20
165.7372049456057
 30
0.0
 11
-183.30208852076629
 21
190.1782327409951
 31
0.0
  0
LINE
  5
1C56
  8
0
 62
     0
 10
-207.74311631615569
 20
170.2273330061403
 30
0.0
 11
-187.79221658130109
 21
190.17823274099479
 31
0.0
  0
LINE
  5
1C57
  8
0
 62
     0
 10
-207.74311631615549
 20
174.71746106667501
 30
0.0
 11
-192.28234464183541
 21
190.1782327409951
 31
0.0
  0
LINE
  5
1C58
  8
0
 62
     0
 10
-207.74311631615569
 20
179.2075891272097
 30
0.0
 11
-196.77247270237029
 21
190.1782327409951
 31
0.0
  0
LINE
  5
1C59
  8
0
 62
     0
 10
-207.74311631615569
 20
183.6977171877443
 30
0.0
 11
-201.26260076290481
 21
190.1782327409951
 31
0.0
  0
LINE
  5
1C5A
  8
0
 62
     0
 10
-207.74311631615569
 20
188.18784524827871
 30
0.0
 11
-205.75272882343941
 21
190.1782327409953
 31
0.0
  0
ENDBLK
  5
1C5C
  8
0
  0
BLOCK
  8
0
  2
*U70
 70
     1
 10
0.0
 20
0.0
 30
0.0
  3
*U70
  1

  0
TEXT
  5
1C5E
  8
エンボス
 10
-285.58405834783338
 20
230.35974499297851
 30
0.0
 40
15.0
  1
※塗りつぶし部分突起
  0
ENDBLK
  5
1C60
  8
0
  0
BLOCK
  8
0
  2
*U71
 70
     1
 10
0.0
 20
0.0
 30
0.0
  3
*U71
  1

  0
INSERT
  5
1C6B
  8
寸法線
  6
CONTINUOUS
  2
_OPEN30
 10
1166.314230440212
 20
1444.2985135829799
 30
0.0
 41
15.0
 42
15.0
 43
15.0
 50
231.76655740499729
  0
POLYLINE
  5
1C6C
  8
寸法線
  6
CONTINUOUS
 66
     1
 10
0.0
 20
0.0
 30
0.0
  0
VERTEX
  5
1C6D
  8
寸法線
  6
CONTINUOUS
 10
1175.59723516433
 20
1456.0809506522789
 30
0.0
  0
VERTEX
  5
1C6E
  8
寸法線
  6
CONTINUOUS
 10
1222.0249085588671
 20
1515.009191701635
 30
0.0
  0
VERTEX
  5
1C6F
  8
寸法線
  6
CONTINUOUS
 10
1394.156888254299
 20
1515.009191701635
 30
0.0
  0
SEQEND
  5
1C70
  8
寸法線
  6
CONTINUOUS
  0
ENDBLK
  5
1C72
  8
0
  0
BLOCK
  8
0
  2
*U72
 70
     1
 10
0.0
 20
0.0
 30
0.0
  3
*U72
  1

  0
TEXT
  5
1C74
  8
寸法線
 10
1240.5020659192739
 20
1520.009191701635
 30
0.0
 40
30.0
  1
GFB3\U+00D725
  0
ENDBLK
  5
1C76
  8
0
  0
BLOCK
  8
0
  2
*U73
 70
     1
 10
0.0
 20
0.0
 30
0.0
  3
*U73
  1

  0
INSERT
  5
1C78
  8
寸法線
  6
CONTINUOUS
  2
_OPEN30
 10
1166.314230440212
 20
1309.2396787550399
 30
0.0
 41
15.0
 42
15.0
 43
15.0
 50
231.76655740499729
  0
POLYLINE
  5
1C79
  8
寸法線
  6
CONTINUOUS
 66
     1
 10
0.0
 20
0.0
 30
0.0
  0
VERTEX
  5
1C7A
  8
寸法線
  6
CONTINUOUS
 10
1175.59723516433
 20
1321.0221158243389
 30
0.0
  0
VERTEX
  5
1C7B
  8
寸法線
  6
CONTINUOUS
 10
1222.0249085588671
 20
1379.950356873695
 30
0.0
  0
VERTEX
  5
1C7C
  8
寸法線
  6
CONTINUOUS
 10
1277.8117105893241
 20
1379.950356873695
 30
0.0
  0
SEQEND
  5
1C7D
  8
寸法線
  6
CONTINUOUS
  0
ENDBLK
  5
1C7F
  8
0
  0
BLOCK
  8
0
  2
*U74
 70
     1
 10
0.0
 20
0.0
 30
0.0
  3
*U74
  1

  0
TEXT
  5
1C81
  8
寸法線
 10
1240.197497391355
 20
1384.950356873695
 30
0.0
 40
30.0
  1
TB
  0
ENDBLK
  5
1C83
  8
0
  0
BLOCK
  8
0
  2
*U75
 70
     1
 10
0.0
 20
0.0
 30
0.0
  3
*U75
  1

  0
TEXT
  5
1C85
  8
寸法線
 62
     0
 10
1071.3955725153289
 20
725.02248334181957
 30
0.0
 40
30.0
  1
12.5
  0
ENDBLK
  5
1C87
  8
0
  0
BLOCK
  8
0
  2
*U76
 70
     1
 10
0.0
 20
0.0
 30
0.0
  3
*U76
  1

  0
TEXT
  5
1C89
  8
寸法線
 62
     0
 10
891.4376781660909
 20
805.02248334181957
 30
0.0
 40
30.0
  1
494
  0
ENDBLK
  5
1C8B
  8
0
  0
BLOCK
  8
0
  2
*U77
 70
     1
 10
0.0
 20
0.0
 30
0.0
  3
*U77
  1

  0
TEXT
  5
1C8D
  8
本体
 62
     0
 10
1357.924011589713
 20
1380.9104694516479
 30
0.0
 40
30.0
  1
345
 50
90.0
  0
ENDBLK
  5
1C8F
  8
0
  0
BLOCK
  8
0
  2
*U78
 70
     1
 10
0.0
 20
0.0
 30
0.0
  3
*U78
  1

  0
TEXT
  5
1C91
  8
本体
 62
     0
 10
1238.526272318634
 20
1523.9840735125611
 30
0.0
 40
30.0
  1
6
 50
90.0
  0
ENDBLK
  5
1C93
  8
0
  0
ENDSEC
  0
SECTION
  2
ENTITIES
  0
LINE
  5
12
  8
外枠
 10
0.0
 20
0.0
 30
0.0
 11
2789.511161023067
 21
0.0
 31
0.0
  0
LINE
  5
13
  8
外枠
 10
2789.5111610230711
 20
1973.26911249564
 30
0.0
 11
0.0
 21
1973.26911249564
 31
0.0
  0
LINE
  5
14
  8
外枠
 10
10.0
 20
10.0
 30
0.0
 11
2780.119625023061
 21
10.0
 31
0.0
  0
LINE
  5
17
  8
外枠
  6
CONTINUOUS
 10
9.999999999996362
 20
155.39927282080311
 30
0.0
 11
2780.119625023061
 21
155.3992728207995
 31
0.0
  0
LINE
  5
18
  8
外枠
  6
CONTINUOUS
 10
9.999999999996362
 20
160.09504082080451
 30
0.0
 11
2780.119625023061
 21
160.09504082079729
 31
0.0
  0
LINE
  5
19
  8
外枠
 10
10.0
 20
1963.8775764956331
 30
0.0
 11
2780.1196250230528
 21
1963.877576495637
 31
0.0
  0
LINE
  5
1A
  8
外枠
 10
0.0
 20
0.0
 30
0.0
 11
0.0
 21
1973.26911249564
 31
0.0
  0
LINE
  5
1B
  8
外枠
 10
10.0
 20
1963.8775764956331
 30
0.0
 11
10.0
 21
10.0
 31
0.0
  0
LINE
  5
1C
  8
外枠
  6
CONTINUOUS
 10
10.0
 20
82.699636410401581
 30
0.0
 11
1153.5301085520041
 21
82.699636410397943
 31
0.0
  0
INSERT
  5
1D
  8
本体
  2
*U24
 10
0.0
 20
0.0
 30
0.0
  0
INSERT
  5
1E
  8
本体
  2
*U25
 10
0.0
 20
0.0
 30
0.0
  0
INSERT
  5
1F
  8
本体
  2
*U26
 10
0.0
 20
0.0
 30
0.0
  0
INSERT
  5
20
  8
本体
  2
*U27
 10
0.0
 20
0.0
 30
0.0
  0
LINE
  5
21
  8
外枠
 10
45.0
 20
155.39927282080311
 30
0.0
 11
45.0
 21
10.0
 31
0.0
  0
INSERT
  5
22
  8
本体
  2
*U28
 10
0.0
 20
0.0
 30
0.0
  0
INSERT
  5
23
  8
本体
  2
*U29
 10
0.0
 20
0.0
 30
0.0
  0
LINE
  5
24
  8
外枠
 10
179.10404955628471
 20
155.39927282080311
 30
0.0
 11
179.10404955628471
 21
10.0
 31
0.0
  0
INSERT
  5
25
  8
本体
  2
*U30
 10
0.0
 20
0.0
 30
0.0
  0
INSERT
  5
26
  8
本体
  2
*U31
 10
0.0
 20
0.0
 30
0.0
  0
LINE
  5
27
  8
外枠
 10
214.10404955628471
 20
155.39927282080311
 30
0.0
 11
214.10404955628471
 21
82.699636410401581
 31
0.0
  0
INSERT
  5
28
  8
本体
  2
*U32
 10
0.0
 20
0.0
 30
0.0
  0
LINE
  5
29
  8
外枠
 10
472.56494109651243
 20
155.39927282080311
 30
0.0
 11
472.56494109651243
 21
82.699636410401581
 31
0.0
  0
LINE
  5
2A
  8
外枠
 10
507.56494109651248
 20
155.39927282080311
 30
0.0
 11
507.56494109651248
 21
82.699636410401581
 31
0.0
  0
INSERT
  5
2B
  8
本体
  2
*U33
 10
0.0
 20
0.0
 30
0.0
  0
LINE
  5
2C
  8
外枠
 10
723.82823731158715
 20
82.699636410394305
 30
0.0
 11
723.82823731158715
 21
9.999999999992724
 31
0.0
  0
LINE
  5
2F
  8
外枠
 10
758.82823731158715
 20
82.699636410394305
 30
0.0
 11
758.82823731158715
 21
9.999999999992724
 31
0.0
  0
LINE
  5
31
  8
外枠
 10
974.95130697009506
 20
82.699636410394305
 30
0.0
 11
974.95130697009506
 21
9.999999999992724
 31
0.0
  0
INSERT
  5
32
  8
本体
  2
*U34
 10
0.0
 20
0.0
 30
0.0
  0
LINE
  5
33
  8
外枠
 10
1009.9513069700949
 20
82.699636410394305
 30
0.0
 11
1009.9513069700949
 21
9.999999999992724
 31
0.0
  0
LINE
  5
37
  8
外枠
 10
2789.511161023067
 20
0.0
 30
0.0
 11
2789.5111610230711
 21
1973.26911249564
 31
0.0
  0
LINE
  5
38
  8
外枠
 10
2780.1196250230528
 20
1963.877576495637
 30
0.0
 11
2780.119625023061
 21
10.0
 31
0.0
  0
LINE
  5
3A
  8
外枠
 10
1607.0722549125451
 20
61.670687199520671
 30
0.0
 11
2262.1736009346318
 21
61.670687199520671
 31
0.0
  0
INSERT
  5
3B
  8
本体
  2
*U35
 10
0.0
 20
0.0
 30
0.0
  0
INSERT
  5
3C
  8
本体
  2
*U36
 10
0.0
 20
0.0
 30
0.0
  0
LINE
  5
3D
  8
外枠
  6
CONTINUOUS
 10
1508.6801378779819
 20
155.3992728208068
 30
0.0
 11
1508.6801378779819
 21
10.00000000000364
 31
0.0
  0
LINE
  5
3E
  8
外枠
  6
CONTINUOUS
 10
1593.9514185391599
 20
155.3992728207995
 30
0.0
 11
1593.9514185391599
 21
9.999999999996362
 31
0.0
  0
LINE
  5
3F
  8
外枠
  6
CONTINUOUS
 10
1616.7778133374991
 20
106.63406306906199
 30
0.0
 11
1612.463999974505
 21
110.08511375945
 31
0.0
  0
LINE
  5
40
  8
外枠
  6
CONTINUOUS
 10
1616.7778133374991
 20
106.63406306906199
 30
0.0
 11
1612.463999974505
 21
103.18301237866299
 31
0.0
  0
LINE
  5
41
  8
外枠
  6
CONTINUOUS
 10
1616.777813337505
 20
113.5361644498489
 30
0.0
 11
1612.463999974505
 21
110.08511375945
 31
0.0
  0
LINE
  5
42
  8
外枠
  6
CONTINUOUS
 10
1616.7778133374991
 20
99.731961688275078
 30
0.0
 11
1612.463999974505
 21
103.18301237866299
 31
0.0
  0
INSERT
  5
43
  8
本体
  2
*U37
 10
0.0
 20
0.0
 30
0.0
  0
INSERT
  5
44
  8
本体
  2
*U38
 10
0.0
 20
0.0
 30
0.0
  0
LINE
  5
45
  8
外枠
  6
CONTINUOUS
 10
1649.1226435070421
 20
139.41202858547419
 30
0.0
 11
1653.436456870031
 21
135.96097789508619
 31
0.0
  0
LINE
  5
46
  8
外枠
  6
CONTINUOUS
 10
1666.3778969590089
 20
139.41202858547419
 30
0.0
 11
1662.0640835960201
 21
135.96097789508619
 31
0.0
  0
INSERT
  5
47
  8
本体
  2
*U39
 10
0.0
 20
0.0
 30
0.0
  0
LINE
  5
48
  8
外枠
  6
CONTINUOUS
 10
1662.0640835960201
 20
135.96097789508619
 30
0.0
 11
1694.4089137655569
 21
110.08511375945
 31
0.0
  0
LINE
  5
49
  8
外枠
  6
CONTINUOUS
 10
1657.750270233026
 20
132.5099272046927
 30
0.0
 11
1690.095100402563
 21
106.63406306906199
 31
0.0
  0
LINE
  5
4A
  8
外枠
  6
CONTINUOUS
 10
1690.095100402563
 20
106.63406306906199
 30
0.0
 11
1657.750270233026
 21
80.758198933431231
 31
0.0
  0
LINE
  5
4B
  8
外枠
  6
CONTINUOUS
 10
1694.4089137655569
 20
103.18301237866299
 30
0.0
 11
1662.0640835960201
 21
77.307148243037773
 31
0.0
  0
LINE
  5
4C
  8
外枠
  6
CONTINUOUS
 10
1657.750270233026
 20
80.758198933425774
 30
0.0
 11
1625.405440063488
 21
106.63406306906199
 31
0.0
  0
LINE
  5
4D
  8
外枠
  6
CONTINUOUS
 10
1653.436456870031
 20
77.307148243037773
 30
0.0
 11
1621.0916267005
 21
103.18301237866299
 31
0.0
  0
LINE
  5
4E
  8
外枠
  6
CONTINUOUS
 10
1621.0916267005
 20
103.18301237866299
 30
0.0
 11
1616.777813337505
 21
99.731961688275078
 31
0.0
  0
LINE
  5
4F
  8
外枠
  6
CONTINUOUS
 10
1653.436456870031
 20
77.307148243037773
 30
0.0
 11
1649.1226435070421
 21
73.856097552638843
 31
0.0
  0
LINE
  5
50
  8
外枠
  6
CONTINUOUS
 10
1653.436456870031
 20
70.405046862245399
 30
0.0
 11
1649.1226435070421
 21
73.856097552638843
 31
0.0
  0
LINE
  5
51
  8
外枠
  6
CONTINUOUS
 10
1657.750270233026
 20
73.856097552638843
 30
0.0
 11
1653.436456870031
 21
70.405046862245399
 31
0.0
  0
LINE
  5
52
  8
外枠
  6
CONTINUOUS
 10
1666.3778969590089
 20
73.856097552638843
 30
0.0
 11
1662.0640835960201
 21
70.405046862245399
 31
0.0
  0
LINE
  5
53
  8
外枠
  6
CONTINUOUS
 10
1662.0640835960201
 20
70.405046862245399
 30
0.0
 11
1657.750270233026
 21
73.856097552638843
 31
0.0
  0
LINE
  5
54
  8
外枠
  6
CONTINUOUS
 10
1666.3778969590089
 20
73.856097552638843
 30
0.0
 11
1662.0640835960201
 21
77.307148243037773
 31
0.0
  0
LINE
  5
55
  8
外枠
  6
CONTINUOUS
 10
1657.750270233026
 20
132.5099272046927
 30
0.0
 11
1625.405440063483
 21
106.63406306906199
 31
0.0
  0
LINE
  5
56
  8
外枠
  6
CONTINUOUS
 10
1653.436456870031
 20
135.96097789508619
 30
0.0
 11
1621.0916267005
 21
110.08511375945
 31
0.0
  0
LINE
  5
57
  8
外枠
  6
CONTINUOUS
 10
1621.0916267005
 20
110.08511375945
 30
0.0
 11
1616.777813337505
 21
113.5361644498489
 31
0.0
  0
LINE
  5
58
  8
外枠
  6
CONTINUOUS
 10
1694.4089137655569
 20
103.18301237866299
 30
0.0
 11
1698.722727128541
 21
99.731961688275078
 31
0.0
  0
LINE
  5
59
  8
外枠
  6
CONTINUOUS
 10
1703.036540491541
 20
103.18301237866299
 30
0.0
 11
1698.722727128541
 21
99.731961688275078
 31
0.0
  0
LINE
  5
5A
  8
外枠
  6
CONTINUOUS
 10
1698.722727128541
 20
113.5361644498489
 30
0.0
 11
1694.4089137655569
 21
110.08511375945
 31
0.0
  0
LINE
  5
5B
  8
外枠
  6
CONTINUOUS
 10
1698.722727128541
 20
106.63406306906199
 30
0.0
 11
1703.036540491541
 21
103.18301237866299
 31
0.0
  0
LINE
  5
5C
  8
外枠
  6
CONTINUOUS
 10
1698.722727128541
 20
113.5361644498489
 30
0.0
 11
1703.036540491541
 21
110.08511375945
 31
0.0
  0
LINE
  5
5D
  8
外枠
  6
CONTINUOUS
 10
1703.036540491541
 20
110.08511375945
 30
0.0
 11
1698.722727128541
 21
106.63406306906199
 31
0.0
  0
LINE
  5
5E
  8
外枠
  6
CONTINUOUS
 10
1653.436456870031
 20
142.86307927586759
 30
0.0
 11
1649.1226435070421
 21
139.41202858547419
 31
0.0
  0
LINE
  5
5F
  8
外枠
  6
CONTINUOUS
 10
1662.0640835960201
 20
142.86307927586759
 30
0.0
 11
1666.3778969590089
 21
139.41202858547419
 31
0.0
  0
LINE
  5
60
  8
外枠
  6
CONTINUOUS
 10
1653.436456870031
 20
142.86307927586759
 30
0.0
 11
1657.750270233026
 21
139.41202858547419
 31
0.0
  0
LINE
  5
61
  8
外枠
  6
CONTINUOUS
 10
1662.0640835960201
 20
142.86307927586759
 30
0.0
 11
1657.750270233026
 21
139.41202858547419
 31
0.0
  0
INSERT
  5
62
  8
本体
  2
*U40
 10
0.0
 20
0.0
 30
0.0
  0
LINE
  5
63
  8
外枠
  6
CONTINUOUS
 10
2694.7754806681442
 20
78.597264921136215
 30
0.0
 11
2729.6397793227738
 21
43.732966266506992
 31
0.0
  0
LINE
  5
64
  8
外枠
  6
CONTINUOUS
 10
2729.6397793227738
 20
113.46156357576911
 30
0.0
 11
2694.7754806681442
 21
78.597264921136215
 31
0.0
  0
LINE
  5
66
  8
外枠
  6
CONTINUOUS
 10
2271.7307654178112
 20
155.3992728207995
 30
0.0
 11
2271.7307654178112
 21
10.0
 31
0.0
  0
LINE
  5
67
  8
外枠
  6
CONTINUOUS
 10
2387.3855920473138
 20
155.3992728207995
 30
0.0
 11
2387.3855920473138
 21
9.999999999996362
 31
0.0
  0
INSERT
  5
68
  8
本体
  2
*U41
 10
0.0
 20
0.0
 30
0.0
  0
LINE
  5
69
  8
外枠
  6
CONTINUOUS
 10
2503.0404186768101
 20
155.3992728207995
 30
0.0
 11
2503.0404186768101
 21
9.999999999996362
 31
0.0
  0
LINE
  5
6A
  8
外枠
  6
CONTINUOUS
 10
2676.6623590285931
 20
155.3992728207995
 30
0.0
 11
2676.6623590285931
 21
10.0
 31
0.0
  0
INSERT
  5
6B
  8
本体
  2
*U42
 10
0.0
 20
0.0
 30
0.0
  0
INSERT
  5
6C
  8
本体
  2
*U43
 10
0.0
 20
0.0
 30
0.0
  0
INSERT
  5
6D
  8
本体
  2
*U44
 10
0.0
 20
0.0
 30
0.0
  0
LINE
  5
6F
  8
外枠
  6
CONTINUOUS
 10
2676.6623590285931
 20
85.047520410396828
 30
0.0
 11
2503.0404186768101
 21
85.047520410396828
 31
0.0
  0
INSERT
  5
70
  8
本体
  2
*U45
 10
0.0
 20
0.0
 30
0.0
  0
LINE
  5
72
  8
外枠
  6
CONTINUOUS
 10
2729.6397793227738
 20
43.732966266506992
 30
0.0
 11
2764.5040779773958
 21
78.597264921136215
 31
0.0
  0
LINE
  5
73
  8
外枠
  6
CONTINUOUS
 10
2764.5040779773958
 20
78.597264921136215
 30
0.0
 11
2729.6397793227738
 21
113.46156357576911
 31
0.0
  0
LINE
  5
7F
  8
本体
  6
CONTINUOUS
 10
673.60011471431415
 20
1582.3444796039309
 30
0.0
 11
1167.600114714314
 21
1582.3444796039309
 31
0.0
  0
LINE
  5
81
  8
本体
  6
CONTINUOUS
 10
673.60011471431415
 20
1576.3444796039309
 30
0.0
 11
1167.600114714314
 21
1576.3444796039309
 31
0.0
  0
LINE
  5
82
  8
本体
  6
CONTINUOUS
 10
673.60011471431415
 20
1512.3444796039321
 30
0.0
 11
1167.600114714314
 21
1512.3444796039321
 31
0.0
  0
LINE
  5
83
  8
本体
  6
CONTINUOUS
 10
673.60011471431415
 20
1507.3444796039309
 30
0.0
 11
1167.600114714314
 21
1507.3444796039309
 31
0.0
  0
LINE
  5
84
  8
本体
  6
CONTINUOUS
 10
673.60011471431415
 20
1412.3444796039309
 30
0.0
 11
1167.600114714314
 21
1412.3444796039309
 31
0.0
  0
LINE
  5
85
  8
本体
  6
CONTINUOUS
 10
673.60011471431415
 20
1407.3444796039321
 30
0.0
 11
1167.600114714314
 21
1407.3444796039321
 31
0.0
  0
LINE
  5
8B
  8
本体
  6
CONTINUOUS
 10
1998.910585214647
 20
1582.3444796039309
 30
0.0
 11
1998.910585214647
 21
1577.8444796039309
 31
0.0
  0
LINE
  5
8C
  8
本体
  6
CONTINUOUS
 10
1998.910585214647
 20
1577.8444796039309
 30
0.0
 11
2023.9105852146481
 21
1577.8444796039309
 31
0.0
  0
LINE
  5
8D
  8
本体
  6
CONTINUOUS
 10
2017.9105852146481
 20
1577.8444796039309
 30
0.0
 11
2017.9105852146481
 21
1582.3444796039309
 31
0.0
  0
LINE
  5
8E
  8
本体
  6
CONTINUOUS
 10
2017.910585214647
 20
1582.3444796039309
 30
0.0
 11
1998.910585214647
 21
1582.3444796039309
 31
0.0
  0
LINE
  5
8F
  8
本体
  6
CONTINUOUS
 10
1998.910585214647
 20
1241.8444796039321
 30
0.0
 11
2023.9105852146481
 21
1241.8444796039321
 31
0.0
  0
LINE
  5
90
  8
本体
  6
CONTINUOUS
 10
2017.910585214647
 20
1237.3444796039321
 30
0.0
 11
1998.910585214647
 21
1237.3444796039321
 31
0.0
  0
LINE
  5
91
  8
本体
  6
CONTINUOUS
 10
1998.910585214647
 20
1237.3444796039321
 30
0.0
 11
1998.910585214647
 21
1241.8444796039321
 31
0.0
  0
LINE
  5
92
  8
本体
  6
CONTINUOUS
 10
2017.9105852146481
 20
1241.8444796039321
 30
0.0
 11
2017.9105852146481
 21
1237.3444796039321
 31
0.0
  0
LINE
  5
93
  8
本体
  6
CONTINUOUS
 10
1998.910585214647
 20
1577.8444796039309
 30
0.0
 11
1998.910585214647
 21
1241.8444796039321
 31
0.0
  0
LINE
  5
94
  8
本体
  6
CONTINUOUS
 10
2023.9105852146481
 20
1577.8444796039309
 30
0.0
 11
2023.9105852146481
 21
1241.8444796039321
 31
0.0
  0
DIMENSION
  5
A0
  8
寸法線
  6
CONTINUOUS
  2
*D3
 10
1898.9669151660139
 20
1409.8444796039321
 30
0.0
 11
1878.9669151660139
 21
1459.8444796039321
 31
0.0
 70
     0
 13
1998.910585214647
 23
1509.8444796039321
 33
0.0
 14
1998.910585214647
 24
1409.8444796039321
 34
0.0
 50
90.0
  0
DIMENSION
  5
AE
  8
寸法線
  6
CONTINUOUS
  2
*D4
 10
1798.923163282667
 20
1237.3444796039321
 30
0.0
 11
1778.923163282667
 21
1409.8444796039321
 31
0.0
 70
     0
 13
1998.910585214647
 23
1582.3444796039309
 33
0.0
 14
1998.910585214647
 24
1237.3444796039321
 34
0.0
 50
90.0
  0
DIMENSION
  5
BB
  8
寸法線
  6
CONTINUOUS
  2
*D5
 10
2180.7915037225248
 20
1247.344478603932
 30
0.0
 11
2160.7915037225239
 21
1409.8444796039321
 31
0.0
 70
     0
 13
2080.9105822146471
 23
1572.344480603932
 33
0.0
 14
2080.9105822146471
 24
1247.344478603932
 34
0.0
 50
90.0
  0
INSERT
  5
C8
  8
本体
  2
*U48
 10
0.0
 20
0.0
 30
0.0
1001
ACAD
1000
DSTYLE
1002
{
1070
     5
1000
OPEN30
1070
    77
1070
     1
1070
   147
1040
0.5
1070
   342
1005
96
1002
}
  0
INSERT
  5
C9
  8
本体
  2
*U49
 10
0.0
 20
0.0
 30
0.0
  0
INSERT
  5
CA
  8
本体
  2
*U50
 10
0.0
 20
0.0
 30
0.0
1001
ACAD
1000
DSTYLE
1002
{
1070
     5
1000
OPEN30
1070
    77
1070
     1
1070
   147
1040
0.5
1070
   342
1005
96
1002
}
  0
INSERT
  5
CB
  8
本体
  2
*U51
 10
0.0
 20
0.0
 30
0.0
  0
LINE
  5
CC
  8
嵩上断面
  6
CONTINUOUS
 10
1158.100114714314
 20
578.45394084689576
 30
0.0
 11
683.10011471431415
 21
578.45394084689576
 31
0.0
1001
ACAD
1000
ASC_BOUNDS
1002
{
1070
    19
1005
315
1002
}
  0
LINE
  5
CE
  8
嵩上断面
  6
HIDDEN
 10
1158.100114714314
 20
636.15394084689569
 30
0.0
 11
683.10011471431415
 21
636.15394084689569
 31
0.0
  0
LINE
  5
D0
  8
嵩上断面
  6
HIDDEN
 10
1158.100114714314
 20
580.75394084689594
 30
0.0
 11
683.10011471431415
 21
580.75394084689594
 31
0.0
  0
DIMENSION
  5
D1
  8
ゴム
  6
CONTINUOUS
  2
*D6
 10
1158.100114714314
 20
423.57401983913633
 30
0.0
 11
920.60011471431415
 21
443.57401983913633
 31
0.0
 70
     0
 13
683.10011471431415
 23
573.45394084689576
 33
0.0
 14
1158.100114714314
 24
573.45394084689576
 34
0.0
  0
DIMENSION
  5
DE
  8
寸法線
  6
CONTINUOUS
  2
*D7
 10
1270.3647386380781
 20
578.45394084689576
 30
0.0
 11
1250.3647386380781
 21
608.45394084689599
 31
0.0
 70
     0
 13
1158.100114714314
 23
638.45394084689588
 33
0.0
 14
1158.100114714314
 24
578.45394084689576
 34
0.0
 50
90.0
  0
LINE
  5
EB
  8
中心線
  6
CONTINUOUS
 10
1027.6129355143139
 20
671.45394084689576
 30
0.0
 11
1027.6129355143139
 21
630.45394084689588
 31
0.0
  0
LINE
  5
EC
  8
中心線
  6
CONTINUOUS
 10
1040.2026791143139
 20
671.45394084689576
 30
0.0
 11
1040.2026791143139
 21
630.45394084689588
 31
0.0
  0
LINE
  5
EF
  8
本体
  6
CONTINUOUS
 10
673.60011471431415
 20
1307.3444796039309
 30
0.0
 11
1167.600114714314
 21
1307.3444796039309
 31
0.0
  0
LINE
  5
F0
  8
本体
  6
CONTINUOUS
 10
673.60011471431415
 20
1312.3444796039321
 30
0.0
 11
1167.600114714314
 21
1312.3444796039321
 31
0.0
  0
LINE
  5
F4
  8
本体
  6
CONTINUOUS
 10
673.60011471431415
 20
1243.3444796039309
 30
0.0
 11
1167.600114714314
 21
1243.3444796039309
 31
0.0
  0
LINE
  5
F5
  8
本体
  6
CONTINUOUS
 10
673.60011471431415
 20
1237.3444796039321
 30
0.0
 11
1167.600114714314
 21
1237.3444796039321
 31
0.0
  0
INSERT
  5
F9
  8
本体
  6
CONTINUOUS
  2
TB6
 10
1998.910585214647
 20
1509.8444796039321
 30
0.0
  0
INSERT
  5
102
  8
本体
  6
CONTINUOUS
  2
TB6
 10
1998.910585214647
 20
1409.8444796039321
 30
0.0
  0
INSERT
  5
103
  8
本体
  6
CONTINUOUS
  2
TB6
 10
1998.910585214647
 20
1309.8444796039309
 30
0.0
  0
DIMENSION
  5
124
  8
寸法線
  6
CONTINUOUS
  2
*D8
 10
1167.600114714314
 20
800.02248334181968
 30
0.0
 11
920.60011471431415
 21
800.02248334181968
 31
0.0
 70
   128
 13
673.60011471431415
 23
663.45394084689588
 33
0.0
 14
1167.600114714314
 24
663.45394084689588
 34
0.0
1001
ACAD
1000
DSTYLE
1002
{
1070
   279
1070
     0
1002
}
  0
DIMENSION
  5
131
  8
寸法線
  6
CONTINUOUS
  2
*D9
 10
1270.3647386380781
 20
663.45394084689588
 30
0.0
 11
1250.3647386380781
 21
715.89048907024608
 31
0.0
 70
     0
 13
1158.100114714314
 23
638.45394084689588
 33
0.0
 14
1165.100114714314
 24
663.45394084689588
 34
0.0
 50
90.0
  0
DIMENSION
  5
140
  8
寸法線
  6
CONTINUOUS
  2
*D10
 10
1369.3269755415779
 20
573.45394084689576
 30
0.0
 11
1349.326975541577
 21
618.45394084689588
 31
0.0
 70
     0
 13
1165.100114714314
 23
663.45394084689588
 33
0.0
 14
1158.100114714314
 24
573.45394084689576
 34
0.0
 50
90.0
  0
LINE
  5
2FA
  8
本体
  6
CONTINUOUS
 10
1155.0103715143141
 20
663.45394084689588
 30
0.0
 11
1164.6001151143139
 21
663.45394084689588
 31
0.0
  0
LINE
  5
2FB
  8
本体
  6
CONTINUOUS
 10
1164.6001151143139
 20
657.45394084689576
 30
0.0
 11
1155.010371114314
 21
657.45394084689576
 31
0.0
  0
LINE
  5
2FC
  8
本体
  6
CONTINUOUS
 10
1164.6514449913259
 20
663.45394084689588
 30
0.0
 11
1155.010371114314
 21
663.45394084689588
 31
0.0
  0
DIMENSION
  5
2FD
  8
寸法線
  6
CONTINUOUS
  2
*D11
 10
1040.2026791143139
 20
720.02248334181968
 30
0.0
 11
1111.14176540873
 21
740.02248334181968
 31
0.0
 70
     0
  1
12.5
 13
1027.6129355143139
 23
663.45394084689588
 33
0.0
 14
1040.2026791143139
 24
663.45394084689588
 34
0.0
1001
ACAD
1000
DSTYLE
1002
{
1070
   279
1070
     0
1002
}
  0
LINE
  5
311
  8
嵩上断面
  6
CONTINUOUS
 10
683.10011471431415
 20
638.45394084689588
 30
0.0
 11
1158.100114714314
 21
638.45394084689599
 31
0.0
  0
LINE
  5
312
  8
ゴム
  6
CONTINUOUS
 10
683.10011471431415
 20
578.45394084689576
 30
0.0
 11
683.10011471431415
 21
573.45394084689576
 31
0.0
1001
ACAD
1000
ASC_BOUNDS
1002
{
1070
    19
1005
315
1002
}
  0
LINE
  5
313
  8
ゴム
  6
CONTINUOUS
 10
683.10011471431415
 20
573.45394084689576
 30
0.0
 11
1158.100114714314
 21
573.45394084689576
 31
0.0
1001
ACAD
1000
ASC_BOUNDS
1002
{
1070
    19
1005
315
1002
}
  0
LINE
  5
314
  8
ゴム
  6
CONTINUOUS
 10
1158.100114714314
 20
573.45394084689576
 30
0.0
 11
1158.100114714314
 21
578.45394084689576
 31
0.0
1001
ACAD
1000
ASC_BOUNDS
1002
{
1070
    19
1005
315
1002
}
  0
INSERT
  5
315
  8
ゴム
  6
CONTINUOUS
  2
*X53
 10
0.0
 20
0.0
 30
0.0
1001
ACAD
1000
HATCH
1002
{
1070
    19
1000
ANSI31
1040
1.0
1040
0.0
1000
ASC_BOUNDS
1070
     1
1070
     2
1070
     4
1005
313
1005
312
1005
CC
1005
314
1000
ASC_SEEDPOINT
1011
86.818585294611694
1021
0.0
1031
0.0
1021
361.89832663118477
1031
0.0
1000
R14_HATCH_DATA
1000
315
1011
1.0
1021
0.0
1031
0.0
1021
0.0
1031
0.0
1011
0.0
1021
0.0
1031
0.0
1021
1.0
1031
0.0
1011
0.0
1021
0.0
1031
0.0
1021
0.0
1031
1.0
1040
0.0
1010
0.0
1020
0.0
1030
1.0
1000
ANSI31
1070
     0
1070
     1
1071
        1
1071
        1
1071
        4
1070
     1
1040
1158.100114714314
1040
573.45394084689576
1040
1158.100114714314
1040
578.45394084689576
1070
     1
1040
1158.100114714314
1040
578.45394084689576
1040
683.10011471431415
1040
578.45394084689576
1070
     1
1040
683.10011471431415
1040
578.45394084689576
1040
683.10011471431415
1040
573.45394084689576
1070
     1
1040
683.10011471431415
1040
573.45394084689576
1040
1158.100114714314
1040
573.45394084689576
1071
        4
1005
314
1005
CC
1005
312
1005
313
1070
     0
1070
     1
1040
0.0
1040
1.0
1070
     0
1070
     1
1040
0.7853981633974483
1040
86.818585294611694
1040
361.89832663118477
1040
-2.2450640302672871
1040
2.245064030267288
1070
     0
1071
        1
1040
86.818585294611694
1040
361.89832663118477
1040
0.0
1002
}
  0
DIMENSION
  5
318
  8
寸法線
  6
CONTINUOUS
  2
*D12
 10
1270.3647386380781
 20
573.45394084689576
 30
0.0
 11
1250.3647386380781
 21
530.68744338496697
 31
0.0
 70
     0
 13
1158.100114714314
 23
578.45394084689576
 33
0.0
 14
1158.100114714314
 24
573.45394084689576
 34
0.0
 50
90.0
  0
LINE
  5
34D
  8
本体
  6
CONTINUOUS
 10
1155.010371114314
 20
657.45394084689576
 30
0.0
 11
1164.600114714314
 21
663.45394084689588
 31
0.0
  0
LINE
  5
F3A
  8
嵩上断面
  6
CONTINUOUS
 10
1158.100114714314
 20
638.45394084689588
 30
0.0
 11
1158.100114714314
 21
578.45394084689576
 31
0.0
  0
LINE
  5
F3B
  8
嵩上断面
  6
CONTINUOUS
 10
683.10011471431415
 20
638.45394084689588
 30
0.0
 11
683.10011471431415
 21
578.45394084689576
 31
0.0
  0
INSERT
  5
F75
  8
ゴム
  2
平ゴムパッキン
 10
2080.9105822146471
 20
1572.344480603932
 30
0.0
  0
INSERT
  5
F76
  8
ゴム
  2
平ゴムパッキン
 10
2080.9105822146471
 20
1287.344478603932
 30
0.0
  0
LINE
  5
FB6
  8
嵩上平面
  6
HIDDEN
 10
683.10011471431415
 20
1572.344480603932
 30
0.0
 11
1158.100114714314
 21
1572.344480603932
 31
0.0
  0
LINE
  5
FB7
  8
嵩上平面
  6
HIDDEN
 10
683.10011471431415
 20
1532.3444806039311
 30
0.0
 11
1158.100114714314
 21
1532.3444806039311
 31
0.0
  0
LINE
  5
FB8
  8
嵩上平面
  6
HIDDEN
 10
683.10011471431415
 20
1287.344478603932
 30
0.0
 11
1158.100114714314
 21
1287.344478603932
 31
0.0
  0
LINE
  5
FB9
  8
嵩上平面
  6
HIDDEN
 10
683.10011471431415
 20
1247.344478603932
 30
0.0
 11
1158.100114714314
 21
1247.344478603932
 31
0.0
  0
LINE
  5
FBA
  8
嵩上平面
  6
HIDDEN
 10
1158.100114714314
 20
1572.344480603932
 30
0.0
 11
1158.100114714314
 21
1532.3444806039311
 31
0.0
  0
LINE
  5
FBB
  8
嵩上平面
  6
HIDDEN
 10
683.10011471431415
 20
1572.344480603932
 30
0.0
 11
683.10011471431415
 21
1532.3444806039311
 31
0.0
  0
LINE
  5
FBC
  8
嵩上平面
  6
HIDDEN
 10
683.10011471431415
 20
1287.344478603932
 30
0.0
 11
683.10011471431415
 21
1247.344478603932
 31
0.0
  0
LINE
  5
FBD
  8
嵩上平面
  6
HIDDEN
 10
1158.100114714314
 20
1287.344478603932
 30
0.0
 11
1158.100114714314
 21
1247.344478603932
 31
0.0
  0
INSERT
  5
1158
  8
本体
  2
*U56
 10
0.0
 20
0.0
 30
0.0
  0
INSERT
  5
1159
  8
本体
  2
*U57
 10
0.0
 20
0.0
 30
0.0
  0
INSERT
  5
115A
  8
本体
  2
*U58
 10
0.0
 20
0.0
 30
0.0
  0
INSERT
  5
115B
  8
本体
  2
*U59
 10
0.0
 20
0.0
 30
0.0
  0
INSERT
  5
115C
  8
本体
  2
*U60
 10
0.0
 20
0.0
 30
0.0
  0
LINE
  5
115D
  8
外枠
  6
CONTINUOUS
 10
1188.5317911666509
 20
155.39927282079989
 30
0.0
 11
1188.5317911666509
 21
9.9999999999968168
 31
0.0
  0
LINE
  5
115E
  8
外枠
  6
CONTINUOUS
 10
1153.5313069700951
 20
155.39927282079989
 30
0.0
 11
1153.5313069700951
 21
9.9999999999968168
 31
0.0
  0
LINE
  5
115F
  8
外枠
 10
1188.5317911666509
 20
82.699636410398398
 30
0.0
 11
1593.9513362960729
 21
82.699636410398398
 31
0.0
  0
INSERT
  5
123C
  8
本体
  2
*U61
 10
0.0
 20
0.0
 30
0.0
  0
INSERT
  5
1315
  8
嵩上断面
  2
P-H60
 10
2023.9105852146481
 20
1572.344480603932
 30
0.0
  0
INSERT
  5
1316
  8
嵩上断面
  2
P-H60
 10
2023.9105852146481
 20
1247.3444786039311
 30
0.0
 41
-1.0
 50
180.0
  0
LINE
  5
1334
  8
本体
  6
CONTINUOUS
 10
1164.6001151143139
 20
644.45394084689576
 30
0.0
 11
1155.010371114314
 21
644.45394084689576
 31
0.0
  0
INSERT
  5
1346
  8
本体
  2
*U63
 10
0.0
 20
0.0
 30
0.0
  0
INSERT
  5
1347
  8
本体
  2
*U64
 10
0.0
 20
0.0
 30
0.0
  0
POLYLINE
  5
1348
  8
外枠
  6
CONTINUOUS
 10
2449.0662789108651
 20
22.941198273993322
 30
0.0
 66
     1
 70
     8
  0
VERTEX
  8
外枠
  5
1D19
 10
2449.07
 20
22.9412
 30
0.000000
  70
    32
  0
VERTEX
  8
外枠
  5
1D1A
 10
2450.94
 20
22.9988
 30
0.000000
  70
    32
  0
VERTEX
  8
外枠
  5
1D1B
 10
2452.82
 20
23.1717
 30
0.000000
  70
    32
  0
VERTEX
  8
外枠
  5
1D1C
 10
2454.68
 20
23.4592
 30
0.000000
  70
    32
  0
VERTEX
  8
外枠
  5
1D1D
 10
2456.54
 20
23.8608
 30
0.000000
  70
    32
  0
VERTEX
  8
外枠
  5
1D1E
 10
2458.37
 20
24.3755
 30
0.000000
  70
    32
  0
VERTEX
  8
外枠
  5
1D1F
 10
2460.18
 20
25.0020
 30
0.000000
  70
    32
  0
VERTEX
  8
外枠
  5
1D20
 10
2461.96
 20
25.7389
 30
0.000000
  70
    32
  0
VERTEX
  8
外枠
  5
1D21
 10
2463.72
 20
26.5843
 30
0.000000
  70
    32
  0
VERTEX
  8
外枠
  5
1D22
 10
2465.44
 20
27.5362
 30
0.000000
  70
    32
  0
VERTEX
  8
外枠
  5
1D23
 10
2467.11
 20
28.5924
 30
0.000000
  70
    32
  0
VERTEX
  8
外枠
  5
1D24
 10
2468.75
 20
29.7502
 30
0.000000
  70
    32
  0
VERTEX
  8
外枠
  5
1D25
 10
2470.34
 20
31.0070
 30
0.000000
  70
    32
  0
VERTEX
  8
外枠
  5
1D26
 10
2471.87
 20
32.3596
 30
0.000000
  70
    32
  0
VERTEX
  8
外枠
  5
1D27
 10
2473.36
 20
33.8048
 30
0.000000
  70
    32
  0
VERTEX
  8
外枠
  5
1D28
 10
2474.78
 20
35.3391
 30
0.000000
  70
    32
  0
VERTEX
  8
外枠
  5
1D29
 10
2476.14
 20
36.9589
 30
0.000000
  70
    32
  0
VERTEX
  8
外枠
  5
1D2A
 10
2477.44
 20
38.6602
 30
0.000000
  70
    32
  0
VERTEX
  8
外枠
  5
1D2B
 10
2478.66
 20
40.4389
 30
0.000000
  70
    32
  0
VERTEX
  8
外枠
  5
1D2C
 10
2479.82
 20
42.2908
 30
0.000000
  70
    32
  0
VERTEX
  8
外枠
  5
1D2D
 10
2480.90
 20
44.2114
 30
0.000000
  70
    32
  0
VERTEX
  8
外枠
  5
1D2E
 10
2481.91
 20
46.1960
 30
0.000000
  70
    32
  0
VERTEX
  8
外枠
  5
1D2F
 10
2482.83
 20
48.2399
 30
0.000000
  70
    32
  0
VERTEX
  8
外枠
  5
1D30
 10
2483.68
 20
50.3381
 30
0.000000
  70
    32
  0
VERTEX
  8
外枠
  5
1D31
 10
2484.44
 20
52.4856
 30
0.000000
  70
    32
  0
VERTEX
  8
外枠
  5
1D32
 10
2485.12
 20
54.6773
 30
0.000000
  70
    32
  0
VERTEX
  8
外枠
  5
1D33
 10
2485.71
 20
56.9078
 30
0.000000
  70
    32
  0
VERTEX
  8
外枠
  5
1D34
 10
2486.21
 20
59.1717
 30
0.000000
  70
    32
  0
VERTEX
  8
外枠
  5
1D35
 10
2486.62
 20
61.4637
 30
0.000000
  70
    32
  0
VERTEX
  8
外枠
  5
1D36
 10
2486.94
 20
63.7782
 30
0.000000
  70
    32
  0
VERTEX
  8
外枠
  5
1D37
 10
2487.17
 20
66.1096
 30
0.000000
  70
    32
  0
VERTEX
  8
外枠
  5
1D38
 10
2487.31
 20
68.4523
 30
0.000000
  70
    32
  0
VERTEX
  8
外枠
  5
1D39
 10
2487.35
 20
70.8006
 30
0.000000
  70
    32
  0
VERTEX
  8
外枠
  5
1D3A
 10
2487.31
 20
73.1490
 30
0.000000
  70
    32
  0
VERTEX
  8
外枠
  5
1D3B
 10
2487.17
 20
75.4917
 30
0.000000
  70
    32
  0
VERTEX
  8
外枠
  5
1D3C
 10
2486.94
 20
77.8231
 30
0.000000
  70
    32
  0
VERTEX
  8
外枠
  5
1D3D
 10
2486.62
 20
80.1376
 30
0.000000
  70
    32
  0
VERTEX
  8
外枠
  5
1D3E
 10
2486.21
 20
82.4295
 30
0.000000
  70
    32
  0
VERTEX
  8
外枠
  5
1D3F
 10
2485.71
 20
84.6935
 30
0.000000
  70
    32
  0
VERTEX
  8
外枠
  5
1D40
 10
2485.12
 20
86.9240
 30
0.000000
  70
    32
  0
VERTEX
  8
外枠
  5
1D41
 10
2484.44
 20
89.1157
 30
0.000000
  70
    32
  0
VERTEX
  8
外枠
  5
1D42
 10
2483.68
 20
91.2632
 30
0.000000
  70
    32
  0
VERTEX
  8
外枠
  5
1D43
 10
2482.83
 20
93.3614
 30
0.000000
  70
    32
  0
VERTEX
  8
外枠
  5
1D44
 10
2481.91
 20
95.4053
 30
0.000000
  70
    32
  0
VERTEX
  8
外枠
  5
1D45
 10
2480.90
 20
97.3899
 30
0.000000
  70
    32
  0
VERTEX
  8
外枠
  5
1D46
 10
2479.82
 20
99.3105
 30
0.000000
  70
    32
  0
VERTEX
  8
外枠
  5
1D47
 10
2478.66
 20
101.162
 30
0.000000
  70
    32
  0
VERTEX
  8
外枠
  5
1D48
 10
2477.44
 20
102.941
 30
0.000000
  70
    32
  0
VERTEX
  8
外枠
  5
1D49
 10
2476.14
 20
104.642
 30
0.000000
  70
    32
  0
VERTEX
  8
外枠
  5
1D4A
 10
2474.78
 20
106.262
 30
0.000000
  70
    32
  0
VERTEX
  8
外枠
  5
1D4B
 10
2473.36
 20
107.796
 30
0.000000
  70
    32
  0
VERTEX
  8
外枠
  5
1D4C
 10
2471.87
 20
109.242
 30
0.000000
  70
    32
  0
VERTEX
  8
外枠
  5
1D4D
 10
2470.34
 20
110.594
 30
0.000000
  70
    32
  0
VERTEX
  8
外枠
  5
1D4E
 10
2468.75
 20
111.851
 30
0.000000
  70
    32
  0
VERTEX
  8
外枠
  5
1D4F
 10
2467.11
 20
113.009
 30
0.000000
  70
    32
  0
VERTEX
  8
外枠
  5
1D50
 10
2465.44
 20
114.065
 30
0.000000
  70
    32
  0
VERTEX
  8
外枠
  5
1D51
 10
2463.72
 20
115.017
 30
0.000000
  70
    32
  0
VERTEX
  8
外枠
  5
1D52
 10
2461.96
 20
115.862
 30
0.000000
  70
    32
  0
VERTEX
  8
外枠
  5
1D53
 10
2460.18
 20
116.599
 30
0.000000
  70
    32
  0
VERTEX
  8
外枠
  5
1D54
 10
2458.37
 20
117.226
 30
0.000000
  70
    32
  0
VERTEX
  8
外枠
  5
1D55
 10
2456.54
 20
117.740
 30
0.000000
  70
    32
  0
VERTEX
  8
外枠
  5
1D56
 10
2454.68
 20
118.142
 30
0.000000
  70
    32
  0
VERTEX
  8
外枠
  5
1D57
 10
2452.82
 20
118.430
 30
0.000000
  70
    32
  0
VERTEX
  8
外枠
  5
1D58
 10
2450.94
 20
118.602
 30
0.000000
  70
    32
  0
VERTEX
  8
外枠
  5
1D59
 10
2449.07
 20
118.660
 30
0.000000
  70
    32
  0
VERTEX
  8
外枠
  5
1D5A
 10
2447.19
 20
118.602
 30
0.000000
  70
    32
  0
VERTEX
  8
外枠
  5
1D5B
 10
2445.31
 20
118.430
 30
0.000000
  70
    32
  0
VERTEX
  8
外枠
  5
1D5C
 10
2443.45
 20
118.142
 30
0.000000
  70
    32
  0
VERTEX
  8
外枠
  5
1D5D
 10
2441.60
 20
117.740
 30
0.000000
  70
    32
  0
VERTEX
  8
外枠
  5
1D5E
 10
2439.76
 20
117.226
 30
0.000000
  70
    32
  0
VERTEX
  8
外枠
  5
1D5F
 10
2437.95
 20
116.599
 30
0.000000
  70
    32
  0
VERTEX
  8
外枠
  5
1D60
 10
2436.17
 20
115.862
 30
0.000000
  70
    32
  0
VERTEX
  8
外枠
  5
1D61
 10
2434.41
 20
115.017
 30
0.000000
  70
    32
  0
VERTEX
  8
外枠
  5
1D62
 10
2432.70
 20
114.065
 30
0.000000
  70
    32
  0
VERTEX
  8
外枠
  5
1D63
 10
2431.02
 20
113.009
 30
0.000000
  70
    32
  0
VERTEX
  8
外枠
  5
1D64
 10
2429.38
 20
111.851
 30
0.000000
  70
    32
  0
VERTEX
  8
外枠
  5
1D65
 10
2427.79
 20
110.594
 30
0.000000
  70
    32
  0
VERTEX
  8
外枠
  5
1D66
 10
2426.26
 20
109.242
 30
0.000000
  70
    32
  0
VERTEX
  8
外枠
  5
1D67
 10
2424.78
 20
107.796
 30
0.000000
  70
    32
  0
VERTEX
  8
外枠
  5
1D68
 10
2423.35
 20
106.262
 30
0.000000
  70
    32
  0
VERTEX
  8
外枠
  5
1D69
 10
2421.99
 20
104.642
 30
0.000000
  70
    32
  0
VERTEX
  8
外枠
  5
1D6A
 10
2420.70
 20
102.941
 30
0.000000
  70
    32
  0
VERTEX
  8
外枠
  5
1D6B
 10
2419.47
 20
101.162
 30
0.000000
  70
    32
  0
VERTEX
  8
外枠
  5
1D6C
 10
2418.31
 20
99.3105
 30
0.000000
  70
    32
  0
VERTEX
  8
外枠
  5
1D6D
 10
2417.23
 20
97.3899
 30
0.000000
  70
    32
  0
VERTEX
  8
外枠
  5
1D6E
 10
2416.23
 20
95.4053
 30
0.000000
  70
    32
  0
VERTEX
  8
外枠
  5
1D6F
 10
2415.30
 20
93.3614
 30
0.000000
  70
    32
  0
VERTEX
  8
外枠
  5
1D70
 10
2414.45
 20
91.2632
 30
0.000000
  70
    32
  0
VERTEX
  8
外枠
  5
1D71
 10
2413.69
 20
89.1157
 30
0.000000
  70
    32
  0
VERTEX
  8
外枠
  5
1D72
 10
2413.02
 20
86.9240
 30
0.000000
  70
    32
  0
VERTEX
  8
外枠
  5
1D73
 10
2412.43
 20
84.6935
 30
0.000000
  70
    32
  0
VERTEX
  8
外枠
  5
1D74
 10
2411.93
 20
82.4295
 30
0.000000
  70
    32
  0
VERTEX
  8
外枠
  5
1D75
 10
2411.51
 20
80.1376
 30
0.000000
  70
    32
  0
VERTEX
  8
外枠
  5
1D76
 10
2411.19
 20
77.8231
 30
0.000000
  70
    32
  0
VERTEX
  8
外枠
  5
1D77
 10
2410.96
 20
75.4917
 30
0.000000
  70
    32
  0
VERTEX
  8
外枠
  5
1D78
 10
2410.82
 20
73.1490
 30
0.000000
  70
    32
  0
VERTEX
  8
外枠
  5
1D79
 10
2410.78
 20
70.8006
 30
0.000000
  70
    32
  0
VERTEX
  8
外枠
  5
1D7A
 10
2410.82
 20
68.4523
 30
0.000000
  70
    32
  0
VERTEX
  8
外枠
  5
1D7B
 10
2410.96
 20
66.1096
 30
0.000000
  70
    32
  0
VERTEX
  8
外枠
  5
1D7C
 10
2411.19
 20
63.7782
 30
0.000000
  70
    32
  0
VERTEX
  8
外枠
  5
1D7D
 10
2411.51
 20
61.4637
 30
0.000000
  70
    32
  0
VERTEX
  8
外枠
  5
1D7E
 10
2411.93
 20
59.1717
 30
0.000000
  70
    32
  0
VERTEX
  8
外枠
  5
1D7F
 10
2412.43
 20
56.9078
 30
0.000000
  70
    32
  0
VERTEX
  8
外枠
  5
1D80
 10
2413.02
 20
54.6773
 30
0.000000
  70
    32
  0
VERTEX
  8
外枠
  5
1D81
 10
2413.69
 20
52.4856
 30
0.000000
  70
    32
  0
VERTEX
  8
外枠
  5
1D82
 10
2414.45
 20
50.3381
 30
0.000000
  70
    32
  0
VERTEX
  8
外枠
  5
1D83
 10
2415.30
 20
48.2399
 30
0.000000
  70
    32
  0
VERTEX
  8
外枠
  5
1D84
 10
2416.23
 20
46.1960
 30
0.000000
  70
    32
  0
VERTEX
  8
外枠
  5
1D85
 10
2417.23
 20
44.2114
 30
0.000000
  70
    32
  0
VERTEX
  8
外枠
  5
1D86
 10
2418.31
 20
42.2908
 30
0.000000
  70
    32
  0
VERTEX
  8
外枠
  5
1D87
 10
2419.47
 20
40.4389
 30
0.000000
  70
    32
  0
VERTEX
  8
外枠
  5
1D88
 10
2420.70
 20
38.6602
 30
0.000000
  70
    32
  0
VERTEX
  8
外枠
  5
1D89
 10
2421.99
 20
36.9589
 30
0.000000
  70
    32
  0
VERTEX
  8
外枠
  5
1D8A
 10
2423.35
 20
35.3391
 30
0.000000
  70
    32
  0
VERTEX
  8
外枠
  5
1D8B
 10
2424.78
 20
33.8048
 30
0.000000
  70
    32
  0
VERTEX
  8
外枠
  5
1D8C
 10
2426.26
 20
32.3596
 30
0.000000
  70
    32
  0
VERTEX
  8
外枠
  5
1D8D
 10
2427.79
 20
31.0070
 30
0.000000
  70
    32
  0
VERTEX
  8
外枠
  5
1D8E
 10
2429.38
 20
29.7502
 30
0.000000
  70
    32
  0
VERTEX
  8
外枠
  5
1D8F
 10
2431.02
 20
28.5924
 30
0.000000
  70
    32
  0
VERTEX
  8
外枠
  5
1D90
 10
2432.70
 20
27.5362
 30
0.000000
  70
    32
  0
VERTEX
  8
外枠
  5
1D91
 10
2434.41
 20
26.5843
 30
0.000000
  70
    32
  0
VERTEX
  8
外枠
  5
1D92
 10
2436.17
 20
25.7389
 30
0.000000
  70
    32
  0
VERTEX
  8
外枠
  5
1D93
 10
2437.95
 20
25.0020
 30
0.000000
  70
    32
  0
VERTEX
  8
外枠
  5
1D94
 10
2439.76
 20
24.3755
 30
0.000000
  70
    32
  0
VERTEX
  8
外枠
  5
1D95
 10
2441.60
 20
23.8608
 30
0.000000
  70
    32
  0
VERTEX
  8
外枠
  5
1D96
 10
2443.45
 20
23.4592
 30
0.000000
  70
    32
  0
VERTEX
  8
外枠
  5
1D97
 10
2445.31
 20
23.1717
 30
0.000000
  70
    32
  0
VERTEX
  8
外枠
  5
1D98
 10
2447.19
 20
22.9988
 30
0.000000
  70
    32
  0
VERTEX
  8
外枠
  5
1D99
 10
2449.07
 20
22.9412
 30
0.000000
  70
    32
  0
SEQEND
  8
外枠
  5
1D9A
  0
INSERT
  5
1421
  8
外枠
  2
鎌下
 10
2271.7307654178112
 20
155.3992728207995
 30
0.0
  0
POLYLINE
  5
1472
  8
本体
  6
CONTINUOUS
 66
     1
 10
0.0
 20
0.0
 30
0.0
 70
     1
  0
VERTEX
  5
1C23
  8
本体
  6
CONTINUOUS
 10
673.60011511431446
 20
663.45394084689588
 30
0.0
  0
VERTEX
  5
1C24
  8
本体
  6
CONTINUOUS
 10
676.60011511431458
 20
663.45394084689588
 30
0.0
  0
VERTEX
  5
1C25
  8
本体
  6
CONTINUOUS
 10
676.60011511431458
 20
638.45394084689588
 30
0.0
  0
VERTEX
  5
1C26
  8
本体
  6
CONTINUOUS
 10
673.60011511431446
 20
638.45394084689588
 30
0.0
  0
SEQEND
  5
1C27
  8
本体
  6
CONTINUOUS
  0
POLYLINE
  5
1476
  8
本体
  6
CONTINUOUS
 66
     1
 10
0.0
 20
0.0
 30
0.0
 70
     1
  0
VERTEX
  5
1C28
  8
本体
  6
CONTINUOUS
 10
1164.6001151143139
 20
663.45394084689588
 30
0.0
  0
VERTEX
  5
1C29
  8
本体
  6
CONTINUOUS
 10
1167.6001151143139
 20
663.45394084689588
 30
0.0
  0
VERTEX
  5
1C2A
  8
本体
  6
CONTINUOUS
 10
1167.6001151143139
 20
638.45394084689588
 30
0.0
  0
VERTEX
  5
1C2B
  8
本体
  6
CONTINUOUS
 10
1164.6001151143139
 20
638.45394084689588
 30
0.0
  0
SEQEND
  5
1C2C
  8
本体
  6
CONTINUOUS
  0
INSERT
  5
157E
  8
本体
  2
GFB新
 10
2780.1196250230601
 20
160.09504082079729
 30
0.0
  0
INSERT
  5
158C
  8
本体
  2
*U18
 10
682.869321375808
 20
650.95394084689588
 30
0.0
  0
LINE
  5
15F5
  8
本体
  6
CONTINUOUS
 10
1164.600114714314
 20
1576.3444796039309
 30
0.0
 11
1164.600114714314
 21
1512.3444796039321
 31
0.0
  0
LINE
  5
15F6
  8
本体
  6
CONTINUOUS
 10
1167.600114714314
 20
1576.3444796039309
 30
0.0
 11
1167.600114714314
 21
1512.3444796039321
 31
0.0
  0
LINE
  5
15F7
  8
本体
  6
CONTINUOUS
 10
1167.600114714314
 20
1507.3444796039309
 30
0.0
 11
1167.600114714314
 21
1412.3444796039309
 31
0.0
  0
LINE
  5
15F8
  8
本体
  6
CONTINUOUS
 10
1164.600114714314
 20
1507.3444796039309
 30
0.0
 11
1164.600114714314
 21
1412.3444796039309
 31
0.0
  0
LINE
  5
15F9
  8
本体
  6
CONTINUOUS
 10
1167.600114714314
 20
1407.3444796039321
 30
0.0
 11
1167.600114714314
 21
1312.3444796039321
 31
0.0
  0
LINE
  5
15FA
  8
本体
  6
CONTINUOUS
 10
1164.600114714314
 20
1407.3444796039321
 30
0.0
 11
1164.600114714314
 21
1312.3444796039321
 31
0.0
  0
LINE
  5
15FB
  8
本体
  6
CONTINUOUS
 10
1167.600114714314
 20
1243.3444796039309
 30
0.0
 11
1167.600114714314
 21
1307.3444796039309
 31
0.0
  0
LINE
  5
15FC
  8
本体
  6
CONTINUOUS
 10
1164.600114714314
 20
1243.3444796039309
 30
0.0
 11
1164.600114714314
 21
1307.3444796039309
 31
0.0
  0
LINE
  5
15FD
  8
本体
  6
CONTINUOUS
 10
1152.010371114314
 20
1507.3444796039309
 30
0.0
 11
1164.600114714314
 21
1512.3444796039321
 31
0.0
  0
LINE
  5
15FE
  8
本体
  6
CONTINUOUS
 10
1152.010371114314
 20
1407.3444796039321
 30
0.0
 11
1164.600114714314
 21
1412.3444796039309
 31
0.0
  0
LINE
  5
15FF
  8
本体
  6
CONTINUOUS
 10
1152.010371114314
 20
1307.3444796039309
 30
0.0
 11
1164.600114714314
 21
1312.3444796039321
 31
0.0
  0
LINE
  5
1600
  8
エンボス
  6
CONTINUOUS
 10
1164.600115904314
 20
1320.877542388092
 30
0.0
 11
1167.600115904314
 21
1322.0775423880921
 31
0.0
  0
LINE
  5
1601
  8
エンボス
  6
CONTINUOUS
 10
1164.600115904314
 20
1247.2775423880919
 30
0.0
 11
1167.600115904314
 21
1246.0775423880921
 31
0.0
  0
LINE
  5
1603
  8
エンボス
  6
CONTINUOUS
 10
1164.600115904314
 20
1271.644474803931
 30
0.0
 11
1167.600115904314
 21
1272.8444748039319
 31
0.0
  0
LINE
  5
1604
  8
エンボス
  6
CONTINUOUS
 10
1167.600115904314
 20
1278.2444748039311
 30
0.0
 11
1164.600115904314
 21
1277.044474803932
 31
0.0
  0
LINE
  5
1605
  8
エンボス
  6
CONTINUOUS
 10
1164.600115904314
 20
1281.2444748039311
 30
0.0
 11
1167.600115904314
 21
1280.044474803932
 31
0.0
  0
LINE
  5
1606
  8
エンボス
  6
CONTINUOUS
 10
1164.600115904314
 20
1264.4444748039309
 30
0.0
 11
1167.600115904314
 21
1263.2444748039311
 31
0.0
  0
LINE
  5
1607
  8
エンボス
  6
CONTINUOUS
 10
1167.600115904314
 20
1261.4444748039309
 30
0.0
 11
1164.600115904314
 21
1260.2444748039311
 31
0.0
  0
LINE
  5
1608
  8
エンボス
  6
CONTINUOUS
 10
1167.600115904314
 20
1251.844474803931
 30
0.0
 11
1164.600115904314
 21
1253.0444748039311
 31
0.0
  0
LINE
  5
1609
  8
エンボス
  6
CONTINUOUS
 10
1164.600115904314
 20
1254.8444748039319
 30
0.0
 11
1167.600115904314
 21
1256.044474803932
 31
0.0
  0
LINE
  5
160A
  8
エンボス
  6
CONTINUOUS
 10
1167.600115904314
 20
1268.6444748039321
 30
0.0
 11
1164.600115904314
 21
1269.8444748039319
 31
0.0
  0
LINE
  5
160B
  8
エンボス
  6
CONTINUOUS
 10
1164.600115904314
 20
1305.2444748039311
 30
0.0
 11
1167.600115904314
 21
1306.4444748039309
 31
0.0
  0
LINE
  5
160C
  8
エンボス
  6
CONTINUOUS
 10
1167.600115904314
 20
1302.2444748039311
 30
0.0
 11
1164.600115904314
 21
1303.4444748039309
 31
0.0
  0
LINE
  5
160D
  8
エンボス
  6
CONTINUOUS
 10
1164.600115904314
 20
1298.044474803932
 30
0.0
 11
1167.600115904314
 21
1296.8444748039319
 31
0.0
  0
LINE
  5
160E
  8
エンボス
  6
CONTINUOUS
 10
1167.600115904314
 20
1295.044474803932
 30
0.0
 11
1164.600115904314
 21
1293.844474803931
 31
0.0
  0
LINE
  5
160F
  8
エンボス
  6
CONTINUOUS
 10
1167.600115904314
 20
1285.4444748039309
 30
0.0
 11
1164.600115904314
 21
1286.6444748039321
 31
0.0
  0
LINE
  5
1610
  8
エンボス
  6
CONTINUOUS
 10
1164.600115904314
 20
1288.4444748039309
 30
0.0
 11
1167.600115904314
 21
1289.644474803931
 31
0.0
  0
LINE
  5
1611
  8
エンボス
  6
CONTINUOUS
 10
1167.600115904314
 20
1317.877542388092
 30
0.0
 11
1164.600115904314
 21
1319.0775423880921
 31
0.0
  0
LINE
  5
1612
  8
エンボス
  6
CONTINUOUS
 10
1167.600115904314
 20
1468.6444748039321
 30
0.0
 11
1164.600115904314
 21
1469.844474803931
 31
0.0
  0
LINE
  5
1613
  8
エンボス
  6
CONTINUOUS
 10
1164.600115904314
 20
1347.2775423880919
 30
0.0
 11
1167.600115904314
 21
1346.0775423880921
 31
0.0
  0
LINE
  5
1614
  8
エンボス
  6
CONTINUOUS
 10
1164.600115904314
 20
1354.8444748039319
 30
0.0
 11
1167.600115904314
 21
1356.044474803932
 31
0.0
  0
LINE
  5
1615
  8
エンボス
  6
CONTINUOUS
 10
1167.600115904314
 20
1351.844474803931
 30
0.0
 11
1164.600115904314
 21
1353.044474803932
 31
0.0
  0
LINE
  5
1616
  8
エンボス
  6
CONTINUOUS
 10
1164.600115904314
 20
1330.4775423880919
 30
0.0
 11
1167.600115904314
 21
1329.2775423880919
 31
0.0
  0
LINE
  5
1617
  8
エンボス
  6
CONTINUOUS
 10
1167.600115904314
 20
1327.4775423880919
 30
0.0
 11
1164.600115904314
 21
1326.2775423880919
 31
0.0
  0
LINE
  5
1618
  8
エンボス
  6
CONTINUOUS
 10
1164.600115904314
 20
1337.677542388092
 30
0.0
 11
1167.600115904314
 21
1338.877542388092
 31
0.0
  0
LINE
  5
1619
  8
エンボス
  6
CONTINUOUS
 10
1167.600115904314
 20
1344.2775423880919
 30
0.0
 11
1164.600115904314
 21
1343.0775423880921
 31
0.0
  0
LINE
  5
161A
  8
エンボス
  6
CONTINUOUS
 10
1167.600115904314
 20
1334.677542388092
 30
0.0
 11
1164.600115904314
 21
1335.877542388092
 31
0.0
  0
LINE
  5
161B
  8
エンボス
  6
CONTINUOUS
 10
1164.600115904314
 20
1388.4444748039309
 30
0.0
 11
1167.600115904314
 21
1389.6444748039321
 31
0.0
  0
LINE
  5
161C
  8
エンボス
  6
CONTINUOUS
 10
1167.600115904314
 20
1385.4444748039321
 30
0.0
 11
1164.600115904314
 21
1386.644474803931
 31
0.0
  0
LINE
  5
161D
  8
エンボス
  6
CONTINUOUS
 10
1167.600115904314
 20
1395.0444748039311
 30
0.0
 11
1164.600115904314
 21
1393.8444748039319
 31
0.0
  0
LINE
  5
161E
  8
エンボス
  6
CONTINUOUS
 10
1167.600115904314
 20
1368.6444748039321
 30
0.0
 11
1164.600115904314
 21
1369.8444748039319
 31
0.0
  0
LINE
  5
161F
  8
エンボス
  6
CONTINUOUS
 10
1167.600115904314
 20
1361.4444748039321
 30
0.0
 11
1164.600115904314
 21
1360.2444748039311
 31
0.0
  0
LINE
  5
1620
  8
エンボス
  6
CONTINUOUS
 10
1164.600115904314
 20
1364.4444748039309
 30
0.0
 11
1167.600115904314
 21
1363.2444748039311
 31
0.0
  0
LINE
  5
1621
  8
エンボス
  6
CONTINUOUS
 10
1164.600115904314
 20
1381.2444748039311
 30
0.0
 11
1167.600115904314
 21
1380.044474803932
 31
0.0
  0
LINE
  5
1622
  8
エンボス
  6
CONTINUOUS
 10
1167.600115904314
 20
1378.2444748039311
 30
0.0
 11
1164.600115904314
 21
1377.044474803932
 31
0.0
  0
LINE
  5
1623
  8
エンボス
  6
CONTINUOUS
 10
1164.600115904314
 20
1371.6444748039321
 30
0.0
 11
1167.600115904314
 21
1372.8444748039319
 31
0.0
  0
LINE
  5
1624
  8
エンボス
  6
CONTINUOUS
 10
1164.600115904314
 20
1398.044474803932
 30
0.0
 11
1167.600115904314
 21
1396.8444748039319
 31
0.0
  0
LINE
  5
1625
  8
エンボス
  6
CONTINUOUS
 10
1167.600115904314
 20
1402.2444748039311
 30
0.0
 11
1164.600115904314
 21
1403.4444748039309
 31
0.0
  0
LINE
  5
1626
  8
エンボス
  6
CONTINUOUS
 10
1164.600115904314
 20
1405.2444748039311
 30
0.0
 11
1167.600115904314
 21
1406.4444748039309
 31
0.0
  0
LINE
  5
1627
  8
エンボス
  6
CONTINUOUS
 10
1164.600115904314
 20
1420.877542388092
 30
0.0
 11
1167.600115904314
 21
1422.0775423880921
 31
0.0
  0
LINE
  5
1628
  8
エンボス
  6
CONTINUOUS
 10
1167.600115904314
 20
1427.4775423880919
 30
0.0
 11
1164.600115904314
 21
1426.2775423880919
 31
0.0
  0
LINE
  5
1629
  8
エンボス
  6
CONTINUOUS
 10
1164.600115904314
 20
1430.4775423880919
 30
0.0
 11
1167.600115904314
 21
1429.2775423880919
 31
0.0
  0
LINE
  5
162A
  8
エンボス
  6
CONTINUOUS
 10
1167.600115904314
 20
1417.877542388092
 30
0.0
 11
1164.600115904314
 21
1419.0775423880921
 31
0.0
  0
LINE
  5
162B
  8
エンボス
  6
CONTINUOUS
 10
1164.600115904314
 20
1464.4444748039321
 30
0.0
 11
1167.600115904314
 21
1463.2444748039311
 31
0.0
  0
LINE
  5
162C
  8
エンボス
  6
CONTINUOUS
 10
1167.600115904314
 20
1461.4444748039321
 30
0.0
 11
1164.600115904314
 21
1460.2444748039311
 31
0.0
  0
LINE
  5
162D
  8
エンボス
  6
CONTINUOUS
 10
1167.600115904314
 20
1451.844474803931
 30
0.0
 11
1164.600115904314
 21
1453.0444748039311
 31
0.0
  0
LINE
  5
162E
  8
エンボス
  6
CONTINUOUS
 10
1164.600115904314
 20
1454.844474803931
 30
0.0
 11
1167.600115904314
 21
1456.044474803932
 31
0.0
  0
LINE
  5
162F
  8
エンボス
  6
CONTINUOUS
 10
1167.600115904314
 20
1434.677542388092
 30
0.0
 11
1164.600115904314
 21
1435.877542388092
 31
0.0
  0
LINE
  5
1630
  8
エンボス
  6
CONTINUOUS
 10
1164.600115904314
 20
1447.2775423880919
 30
0.0
 11
1167.600115904314
 21
1446.0775423880921
 31
0.0
  0
LINE
  5
1631
  8
エンボス
  6
CONTINUOUS
 10
1167.600115904314
 20
1444.2775423880919
 30
0.0
 11
1164.600115904314
 21
1443.0775423880921
 31
0.0
  0
LINE
  5
1632
  8
エンボス
  6
CONTINUOUS
 10
1164.600115904314
 20
1437.677542388092
 30
0.0
 11
1167.600115904314
 21
1438.877542388092
 31
0.0
  0
LINE
  5
1633
  8
エンボス
  6
CONTINUOUS
 10
1167.600115904314
 20
1544.2775423880919
 30
0.0
 11
1164.600115904314
 21
1543.0775423880921
 31
0.0
  0
LINE
  5
1634
  8
エンボス
  6
CONTINUOUS
 10
1167.600115904314
 20
1502.2444748039311
 30
0.0
 11
1164.600115904314
 21
1503.4444748039321
 31
0.0
  0
LINE
  5
1635
  8
エンボス
  6
CONTINUOUS
 10
1164.600115904314
 20
1505.2444748039311
 30
0.0
 11
1167.600115904314
 21
1506.4444748039321
 31
0.0
  0
LINE
  5
1636
  8
エンボス
  6
CONTINUOUS
 10
1164.600115904314
 20
1498.044474803932
 30
0.0
 11
1167.600115904314
 21
1496.844474803931
 31
0.0
  0
LINE
  5
1637
  8
エンボス
  6
CONTINUOUS
 10
1167.600115904314
 20
1485.4444748039321
 30
0.0
 11
1164.600115904314
 21
1486.6444748039321
 31
0.0
  0
LINE
  5
1638
  8
エンボス
  6
CONTINUOUS
 10
1164.600115904314
 20
1488.4444748039321
 30
0.0
 11
1167.600115904314
 21
1489.644474803931
 31
0.0
  0
LINE
  5
1639
  8
エンボス
  6
CONTINUOUS
 10
1164.600115904314
 20
1471.644474803931
 30
0.0
 11
1167.600115904314
 21
1472.844474803931
 31
0.0
  0
LINE
  5
163A
  8
エンボス
  6
CONTINUOUS
 10
1167.600115904314
 20
1478.2444748039311
 30
0.0
 11
1164.600115904314
 21
1477.0444748039311
 31
0.0
  0
LINE
  5
163B
  8
エンボス
  6
CONTINUOUS
 10
1164.600115904314
 20
1481.2444748039311
 30
0.0
 11
1167.600115904314
 21
1480.044474803932
 31
0.0
  0
LINE
  5
163C
  8
エンボス
  6
CONTINUOUS
 10
1167.600115904314
 20
1495.044474803932
 30
0.0
 11
1164.600115904314
 21
1493.844474803931
 31
0.0
  0
LINE
  5
163D
  8
エンボス
  6
CONTINUOUS
 10
1164.600115904314
 20
1537.677542388092
 30
0.0
 11
1167.600115904314
 21
1538.877542388092
 31
0.0
  0
LINE
  5
163E
  8
エンボス
  6
CONTINUOUS
 10
1167.600115904314
 20
1534.677542388092
 30
0.0
 11
1164.600115904314
 21
1535.877542388092
 31
0.0
  0
LINE
  5
163F
  8
エンボス
  6
CONTINUOUS
 10
1167.600115904314
 20
1517.877542388092
 30
0.0
 11
1164.600115904314
 21
1519.0775423880921
 31
0.0
  0
LINE
  5
1640
  8
エンボス
  6
CONTINUOUS
 10
1164.600115904314
 20
1530.4775423880919
 30
0.0
 11
1167.600115904314
 21
1529.2775423880919
 31
0.0
  0
LINE
  5
1641
  8
エンボス
  6
CONTINUOUS
 10
1167.600115904314
 20
1527.4775423880919
 30
0.0
 11
1164.600115904314
 21
1526.2775423880919
 31
0.0
  0
LINE
  5
1642
  8
エンボス
  6
CONTINUOUS
 10
1164.600115904314
 20
1520.877542388092
 30
0.0
 11
1167.600115904314
 21
1522.0775423880921
 31
0.0
  0
LINE
  5
1644
  8
エンボス
  6
CONTINUOUS
 10
1164.600115904314
 20
1571.6444748039321
 30
0.0
 11
1167.600115904314
 21
1572.844474803931
 31
0.0
  0
LINE
  5
1645
  8
エンボス
  6
CONTINUOUS
 10
1164.600115904314
 20
1547.2775423880919
 30
0.0
 11
1167.600115904314
 21
1546.0775423880921
 31
0.0
  0
LINE
  5
1646
  8
エンボス
  6
CONTINUOUS
 10
1164.600115904314
 20
1554.844474803931
 30
0.0
 11
1167.600115904314
 21
1556.044474803932
 31
0.0
  0
LINE
  5
1647
  8
エンボス
  6
CONTINUOUS
 10
1167.600115904314
 20
1551.844474803931
 30
0.0
 11
1164.600115904314
 21
1553.044474803932
 31
0.0
  0
LINE
  5
1648
  8
エンボス
  6
CONTINUOUS
 10
1167.600115904314
 20
1561.4444748039321
 30
0.0
 11
1164.600115904314
 21
1560.2444748039311
 31
0.0
  0
LINE
  5
1649
  8
エンボス
  6
CONTINUOUS
 10
1164.600115904314
 20
1564.4444748039321
 30
0.0
 11
1167.600115904314
 21
1563.2444748039311
 31
0.0
  0
LINE
  5
164A
  8
エンボス
  6
CONTINUOUS
 10
1167.600115904314
 20
1568.6444748039321
 30
0.0
 11
1164.600115904314
 21
1569.844474803931
 31
0.0
  0
LINE
  5
164B
  8
本体
  6
CONTINUOUS
 10
673.60011471431415
 20
1576.3444796039309
 30
0.0
 11
673.60011471431415
 21
1512.3444796039321
 31
0.0
  0
LINE
  5
164C
  8
本体
  6
CONTINUOUS
 10
676.60011471431426
 20
1576.3444796039309
 30
0.0
 11
676.60011471431426
 21
1512.3444796039321
 31
0.0
  0
LINE
  5
164D
  8
本体
  6
CONTINUOUS
 10
676.60011471431426
 20
1507.3444796039309
 30
0.0
 11
676.60011471431426
 21
1412.3444796039309
 31
0.0
  0
LINE
  5
164E
  8
本体
  6
CONTINUOUS
 10
673.60011471431415
 20
1507.3444796039309
 30
0.0
 11
673.60011471431415
 21
1412.3444796039309
 31
0.0
  0
LINE
  5
164F
  8
本体
  6
CONTINUOUS
 10
676.60011471431426
 20
1407.3444796039321
 30
0.0
 11
676.60011471431426
 21
1312.3444796039321
 31
0.0
  0
LINE
  5
1650
  8
本体
  6
CONTINUOUS
 10
673.60011471431415
 20
1407.3444796039321
 30
0.0
 11
673.60011471431415
 21
1312.3444796039321
 31
0.0
  0
LINE
  5
1651
  8
本体
  6
CONTINUOUS
 10
676.60011471431426
 20
1243.3444796039309
 30
0.0
 11
676.60011471431426
 21
1307.3444796039309
 31
0.0
  0
LINE
  5
1652
  8
本体
  6
CONTINUOUS
 10
673.60011471431415
 20
1243.3444796039309
 30
0.0
 11
673.60011471431415
 21
1307.3444796039309
 31
0.0
  0
LINE
  5
1653
  8
エンボス
  6
CONTINUOUS
 10
673.60011590431429
 20
1320.877542388092
 30
0.0
 11
676.60011590431441
 21
1322.0775423880921
 31
0.0
  0
LINE
  5
1654
  8
エンボス
  6
CONTINUOUS
 10
673.60011590431429
 20
1247.2775423880919
 30
0.0
 11
676.60011590431441
 21
1246.0775423880921
 31
0.0
  0
LINE
  5
1656
  8
エンボス
  6
CONTINUOUS
 10
673.60011590431429
 20
1271.644474803931
 30
0.0
 11
676.60011590431441
 21
1272.8444748039319
 31
0.0
  0
LINE
  5
1657
  8
エンボス
  6
CONTINUOUS
 10
676.60011590431441
 20
1278.2444748039311
 30
0.0
 11
673.60011590431429
 21
1277.044474803932
 31
0.0
  0
LINE
  5
1658
  8
エンボス
  6
CONTINUOUS
 10
673.60011590431429
 20
1281.2444748039311
 30
0.0
 11
676.60011590431441
 21
1280.044474803932
 31
0.0
  0
LINE
  5
1659
  8
エンボス
  6
CONTINUOUS
 10
673.60011590431429
 20
1264.4444748039309
 30
0.0
 11
676.60011590431441
 21
1263.2444748039311
 31
0.0
  0
LINE
  5
165A
  8
エンボス
  6
CONTINUOUS
 10
676.60011590431441
 20
1261.4444748039309
 30
0.0
 11
673.60011590431429
 21
1260.2444748039311
 31
0.0
  0
LINE
  5
165B
  8
エンボス
  6
CONTINUOUS
 10
676.60011590431441
 20
1251.844474803931
 30
0.0
 11
673.60011590431429
 21
1253.0444748039311
 31
0.0
  0
LINE
  5
165C
  8
エンボス
  6
CONTINUOUS
 10
673.60011590431429
 20
1254.8444748039319
 30
0.0
 11
676.60011590431441
 21
1256.044474803932
 31
0.0
  0
LINE
  5
165D
  8
エンボス
  6
CONTINUOUS
 10
676.60011590431441
 20
1268.6444748039321
 30
0.0
 11
673.60011590431429
 21
1269.8444748039319
 31
0.0
  0
LINE
  5
165E
  8
エンボス
  6
CONTINUOUS
 10
673.60011590431429
 20
1305.2444748039311
 30
0.0
 11
676.60011590431441
 21
1306.4444748039309
 31
0.0
  0
LINE
  5
165F
  8
エンボス
  6
CONTINUOUS
 10
676.60011590431441
 20
1302.2444748039311
 30
0.0
 11
673.60011590431429
 21
1303.4444748039309
 31
0.0
  0
LINE
  5
1660
  8
エンボス
  6
CONTINUOUS
 10
673.60011590431429
 20
1298.044474803932
 30
0.0
 11
676.60011590431441
 21
1296.8444748039319
 31
0.0
  0
LINE
  5
1661
  8
エンボス
  6
CONTINUOUS
 10
676.60011590431441
 20
1295.044474803932
 30
0.0
 11
673.60011590431429
 21
1293.844474803931
 31
0.0
  0
LINE
  5
1662
  8
エンボス
  6
CONTINUOUS
 10
676.60011590431441
 20
1285.4444748039309
 30
0.0
 11
673.60011590431429
 21
1286.6444748039321
 31
0.0
  0
LINE
  5
1663
  8
エンボス
  6
CONTINUOUS
 10
673.60011590431429
 20
1288.4444748039309
 30
0.0
 11
676.60011590431441
 21
1289.644474803931
 31
0.0
  0
LINE
  5
1664
  8
エンボス
  6
CONTINUOUS
 10
676.60011590431441
 20
1317.877542388092
 30
0.0
 11
673.60011590431429
 21
1319.0775423880921
 31
0.0
  0
LINE
  5
1665
  8
エンボス
  6
CONTINUOUS
 10
676.60011590431441
 20
1468.6444748039321
 30
0.0
 11
673.60011590431429
 21
1469.844474803931
 31
0.0
  0
LINE
  5
1666
  8
エンボス
  6
CONTINUOUS
 10
673.60011590431429
 20
1347.2775423880919
 30
0.0
 11
676.60011590431441
 21
1346.0775423880921
 31
0.0
  0
LINE
  5
1667
  8
エンボス
  6
CONTINUOUS
 10
673.60011590431429
 20
1354.8444748039319
 30
0.0
 11
676.60011590431441
 21
1356.044474803932
 31
0.0
  0
LINE
  5
1668
  8
エンボス
  6
CONTINUOUS
 10
676.60011590431441
 20
1351.844474803931
 30
0.0
 11
673.60011590431429
 21
1353.044474803932
 31
0.0
  0
LINE
  5
1669
  8
エンボス
  6
CONTINUOUS
 10
673.60011590431429
 20
1330.4775423880919
 30
0.0
 11
676.60011590431441
 21
1329.2775423880919
 31
0.0
  0
LINE
  5
166A
  8
エンボス
  6
CONTINUOUS
 10
676.60011590431441
 20
1327.4775423880919
 30
0.0
 11
673.60011590431429
 21
1326.2775423880919
 31
0.0
  0
LINE
  5
166B
  8
エンボス
  6
CONTINUOUS
 10
673.60011590431429
 20
1337.677542388092
 30
0.0
 11
676.60011590431441
 21
1338.877542388092
 31
0.0
  0
LINE
  5
166C
  8
エンボス
  6
CONTINUOUS
 10
676.60011590431441
 20
1344.2775423880919
 30
0.0
 11
673.60011590431429
 21
1343.0775423880921
 31
0.0
  0
LINE
  5
166D
  8
エンボス
  6
CONTINUOUS
 10
676.60011590431441
 20
1334.677542388092
 30
0.0
 11
673.60011590431429
 21
1335.877542388092
 31
0.0
  0
LINE
  5
166E
  8
エンボス
  6
CONTINUOUS
 10
673.60011590431429
 20
1388.4444748039309
 30
0.0
 11
676.60011590431441
 21
1389.6444748039321
 31
0.0
  0
LINE
  5
166F
  8
エンボス
  6
CONTINUOUS
 10
676.60011590431441
 20
1385.4444748039321
 30
0.0
 11
673.60011590431429
 21
1386.644474803931
 31
0.0
  0
LINE
  5
1670
  8
エンボス
  6
CONTINUOUS
 10
676.60011590431441
 20
1395.0444748039311
 30
0.0
 11
673.60011590431429
 21
1393.8444748039319
 31
0.0
  0
LINE
  5
1671
  8
エンボス
  6
CONTINUOUS
 10
676.60011590431441
 20
1368.6444748039321
 30
0.0
 11
673.60011590431429
 21
1369.8444748039319
 31
0.0
  0
LINE
  5
1672
  8
エンボス
  6
CONTINUOUS
 10
676.60011590431441
 20
1361.4444748039321
 30
0.0
 11
673.60011590431429
 21
1360.2444748039311
 31
0.0
  0
LINE
  5
1673
  8
エンボス
  6
CONTINUOUS
 10
673.60011590431429
 20
1364.4444748039309
 30
0.0
 11
676.60011590431441
 21
1363.2444748039311
 31
0.0
  0
LINE
  5
1674
  8
エンボス
  6
CONTINUOUS
 10
673.60011590431429
 20
1381.2444748039311
 30
0.0
 11
676.60011590431441
 21
1380.044474803932
 31
0.0
  0
LINE
  5
1675
  8
エンボス
  6
CONTINUOUS
 10
676.60011590431441
 20
1378.2444748039311
 30
0.0
 11
673.60011590431429
 21
1377.044474803932
 31
0.0
  0
LINE
  5
1676
  8
エンボス
  6
CONTINUOUS
 10
673.60011590431429
 20
1371.6444748039321
 30
0.0
 11
676.60011590431441
 21
1372.8444748039319
 31
0.0
  0
LINE
  5
1677
  8
エンボス
  6
CONTINUOUS
 10
673.60011590431429
 20
1398.044474803932
 30
0.0
 11
676.60011590431441
 21
1396.8444748039319
 31
0.0
  0
LINE
  5
1678
  8
エンボス
  6
CONTINUOUS
 10
676.60011590431441
 20
1402.2444748039311
 30
0.0
 11
673.60011590431429
 21
1403.4444748039309
 31
0.0
  0
LINE
  5
1679
  8
エンボス
  6
CONTINUOUS
 10
673.60011590431429
 20
1405.2444748039311
 30
0.0
 11
676.60011590431441
 21
1406.4444748039309
 31
0.0
  0
LINE
  5
167A
  8
エンボス
  6
CONTINUOUS
 10
673.60011590431429
 20
1420.877542388092
 30
0.0
 11
676.60011590431441
 21
1422.0775423880921
 31
0.0
  0
LINE
  5
167B
  8
エンボス
  6
CONTINUOUS
 10
676.60011590431441
 20
1427.4775423880919
 30
0.0
 11
673.60011590431429
 21
1426.2775423880919
 31
0.0
  0
LINE
  5
167C
  8
エンボス
  6
CONTINUOUS
 10
673.60011590431429
 20
1430.4775423880919
 30
0.0
 11
676.60011590431441
 21
1429.2775423880919
 31
0.0
  0
LINE
  5
167D
  8
エンボス
  6
CONTINUOUS
 10
676.60011590431441
 20
1417.877542388092
 30
0.0
 11
673.60011590431429
 21
1419.0775423880921
 31
0.0
  0
LINE
  5
167E
  8
エンボス
  6
CONTINUOUS
 10
673.60011590431429
 20
1464.4444748039321
 30
0.0
 11
676.60011590431441
 21
1463.2444748039311
 31
0.0
  0
LINE
  5
167F
  8
エンボス
  6
CONTINUOUS
 10
676.60011590431441
 20
1461.4444748039321
 30
0.0
 11
673.60011590431429
 21
1460.2444748039311
 31
0.0
  0
LINE
  5
1680
  8
エンボス
  6
CONTINUOUS
 10
676.60011590431441
 20
1451.844474803931
 30
0.0
 11
673.60011590431429
 21
1453.0444748039311
 31
0.0
  0
LINE
  5
1681
  8
エンボス
  6
CONTINUOUS
 10
673.60011590431429
 20
1454.844474803931
 30
0.0
 11
676.60011590431441
 21
1456.044474803932
 31
0.0
  0
LINE
  5
1682
  8
エンボス
  6
CONTINUOUS
 10
676.60011590431441
 20
1434.677542388092
 30
0.0
 11
673.60011590431429
 21
1435.877542388092
 31
0.0
  0
LINE
  5
1683
  8
エンボス
  6
CONTINUOUS
 10
673.60011590431429
 20
1447.2775423880919
 30
0.0
 11
676.60011590431441
 21
1446.0775423880921
 31
0.0
  0
LINE
  5
1684
  8
エンボス
  6
CONTINUOUS
 10
676.60011590431441
 20
1444.2775423880919
 30
0.0
 11
673.60011590431429
 21
1443.0775423880921
 31
0.0
  0
LINE
  5
1685
  8
エンボス
  6
CONTINUOUS
 10
673.60011590431429
 20
1437.677542388092
 30
0.0
 11
676.60011590431441
 21
1438.877542388092
 31
0.0
  0
LINE
  5
1686
  8
エンボス
  6
CONTINUOUS
 10
676.60011590431441
 20
1544.2775423880919
 30
0.0
 11
673.60011590431429
 21
1543.0775423880921
 31
0.0
  0
LINE
  5
1687
  8
エンボス
  6
CONTINUOUS
 10
676.60011590431441
 20
1502.2444748039311
 30
0.0
 11
673.60011590431429
 21
1503.4444748039321
 31
0.0
  0
LINE
  5
1688
  8
エンボス
  6
CONTINUOUS
 10
673.60011590431429
 20
1505.2444748039311
 30
0.0
 11
676.60011590431441
 21
1506.4444748039321
 31
0.0
  0
LINE
  5
1689
  8
エンボス
  6
CONTINUOUS
 10
673.60011590431429
 20
1498.044474803932
 30
0.0
 11
676.60011590431441
 21
1496.844474803931
 31
0.0
  0
LINE
  5
168A
  8
エンボス
  6
CONTINUOUS
 10
676.60011590431441
 20
1485.4444748039321
 30
0.0
 11
673.60011590431429
 21
1486.6444748039321
 31
0.0
  0
LINE
  5
168B
  8
エンボス
  6
CONTINUOUS
 10
673.60011590431429
 20
1488.4444748039321
 30
0.0
 11
676.60011590431441
 21
1489.644474803931
 31
0.0
  0
LINE
  5
168C
  8
エンボス
  6
CONTINUOUS
 10
673.60011590431429
 20
1471.644474803931
 30
0.0
 11
676.60011590431441
 21
1472.844474803931
 31
0.0
  0
LINE
  5
168D
  8
エンボス
  6
CONTINUOUS
 10
676.60011590431441
 20
1478.2444748039311
 30
0.0
 11
673.60011590431429
 21
1477.0444748039311
 31
0.0
  0
LINE
  5
168E
  8
エンボス
  6
CONTINUOUS
 10
673.60011590431429
 20
1481.2444748039311
 30
0.0
 11
676.60011590431441
 21
1480.044474803932
 31
0.0
  0
LINE
  5
168F
  8
エンボス
  6
CONTINUOUS
 10
676.60011590431441
 20
1495.044474803932
 30
0.0
 11
673.60011590431429
 21
1493.844474803931
 31
0.0
  0
LINE
  5
1690
  8
エンボス
  6
CONTINUOUS
 10
673.60011590431429
 20
1537.677542388092
 30
0.0
 11
676.60011590431441
 21
1538.877542388092
 31
0.0
  0
LINE
  5
1691
  8
エンボス
  6
CONTINUOUS
 10
676.60011590431441
 20
1534.677542388092
 30
0.0
 11
673.60011590431429
 21
1535.877542388092
 31
0.0
  0
LINE
  5
1692
  8
エンボス
  6
CONTINUOUS
 10
676.60011590431441
 20
1517.877542388092
 30
0.0
 11
673.60011590431429
 21
1519.0775423880921
 31
0.0
  0
LINE
  5
1693
  8
エンボス
  6
CONTINUOUS
 10
673.60011590431429
 20
1530.4775423880919
 30
0.0
 11
676.60011590431441
 21
1529.2775423880919
 31
0.0
  0
LINE
  5
1694
  8
エンボス
  6
CONTINUOUS
 10
676.60011590431441
 20
1527.4775423880919
 30
0.0
 11
673.60011590431429
 21
1526.2775423880919
 31
0.0
  0
LINE
  5
1695
  8
エンボス
  6
CONTINUOUS
 10
673.60011590431429
 20
1520.877542388092
 30
0.0
 11
676.60011590431441
 21
1522.0775423880921
 31
0.0
  0
LINE
  5
1697
  8
エンボス
  6
CONTINUOUS
 10
673.60011590431429
 20
1571.6444748039321
 30
0.0
 11
676.60011590431441
 21
1572.844474803931
 31
0.0
  0
LINE
  5
1698
  8
エンボス
  6
CONTINUOUS
 10
673.60011590431429
 20
1547.2775423880919
 30
0.0
 11
676.60011590431441
 21
1546.0775423880921
 31
0.0
  0
LINE
  5
1699
  8
エンボス
  6
CONTINUOUS
 10
673.60011590431429
 20
1554.844474803931
 30
0.0
 11
676.60011590431441
 21
1556.044474803932
 31
0.0
  0
LINE
  5
169A
  8
エンボス
  6
CONTINUOUS
 10
676.60011590431441
 20
1551.844474803931
 30
0.0
 11
673.60011590431429
 21
1553.044474803932
 31
0.0
  0
LINE
  5
169B
  8
エンボス
  6
CONTINUOUS
 10
676.60011590431441
 20
1561.4444748039321
 30
0.0
 11
673.60011590431429
 21
1560.2444748039311
 31
0.0
  0
LINE
  5
169C
  8
エンボス
  6
CONTINUOUS
 10
673.60011590431429
 20
1564.4444748039321
 30
0.0
 11
676.60011590431441
 21
1563.2444748039311
 31
0.0
  0
LINE
  5
169D
  8
エンボス
  6
CONTINUOUS
 10
676.60011590431441
 20
1568.6444748039321
 30
0.0
 11
673.60011590431429
 21
1569.844474803931
 31
0.0
  0
LINE
  5
169E
  8
本体
 10
673.60011471431415
 20
1582.3444796039309
 30
0.0
 11
673.60011471431415
 21
1237.3444796039321
 31
0.0
  0
LINE
  5
169F
  8
本体
 10
1167.600114714314
 20
1237.3444796039321
 30
0.0
 11
1167.600114714314
 21
1582.3444796039309
 31
0.0
  0
INSERT
  5
16A7
  8
本体
  2
*U20
 10
681.39498710931434
 20
1409.8444796039321
 30
0.0
  0
INSERT
  5
172E
  8
本体
  2
*U71
 10
0.0
 20
0.0
 30
0.0
1001
ACAD
1000
DSTYLE
1002
{
1070
     5
1000
OPEN30
1070
    77
1070
     1
1070
   147
1040
0.5
1070
   342
1005
96
1002
}
  0
INSERT
  5
172F
  8
本体
  2
*U72
 10
0.0
 20
0.0
 30
0.0
  0
INSERT
  5
1730
  8
本体
  2
*U73
 10
0.0
 20
0.0
 30
0.0
1001
ACAD
1000
DSTYLE
1002
{
1070
     5
1000
OPEN30
1070
    77
1070
     1
1070
   147
1040
0.5
1070
   342
1005
96
1002
}
  0
INSERT
  5
1731
  8
本体
  2
*U74
 10
0.0
 20
0.0
 30
0.0
  0
ENDSEC
  0
EOF
