  0
SECTION
  2
HEADER
  9
$ACADVER
  1
AC1015
  9
$ACADMAINTVER
 70
    20
  9
$DWGCODEPAGE
  3
ANSI_932
  9
$INSBASE
 10
0.0
 20
0.0
 30
0.0
  9
$EXTMIN
 10
-0.1276599116808939
 20
-0.090305199040813
 30
-0.0000000000000058
  9
$EXTMAX
 10
2789.638872896218
 20
1973.359454451644
 30
0.0000000000000104
  9
$LIMMIN
 10
0.0
 20
0.0
  9
$LIMMAX
 10
297.0
 20
209.0
  9
$ORTHOMODE
 70
     1
  9
$REGENMODE
 70
     1
  9
$FILLMODE
 70
     1
  9
$QTEXTMODE
 70
     0
  9
$MIRRTEXT
 70
     1
  9
$LTSCALE
 40
1.0
  9
$ATTMODE
 70
     1
  9
$TEXTSIZE
 40
2.5
  9
$TRACEWID
 40
1.0
  9
$TEXTSTYLE
  7
Standard
  9
$CLAYER
  8
本体
  9
$CELTYPE
  6
ByLayer
  9
$CECOLOR
 62
   256
  9
$CELTSCALE
 40
3.0
  9
$DISPSILH
 70
     0
  9
$DIMSCALE
 40
10.0
  9
$DIMASZ
 40
1.5
  9
$DIMEXO
 40
2.0
  9
$DIMDLI
 40
3.75
  9
$DIMRND
 40
0.0
  9
$DIMDLE
 40
0.0
  9
$DIMEXE
 40
1.5
  9
$DIMTP
 40
0.0
  9
$DIMTM
 40
0.0
  9
$DIMTXT
 40
3.0
  9
$DIMCEN
 40
2.5
  9
$DIMTSZ
 40
0.0
  9
$DIMTOL
 70
     0
  9
$DIMLIM
 70
     0
  9
$DIMTIH
 70
     0
  9
$DIMTOH
 70
     0
  9
$DIMSE1
 70
     0
  9
$DIMSE2
 70
     0
  9
$DIMTAD
 70
     1
  9
$DIMZIN
 70
     8
  9
$DIMBLK
  1
Open30
  9
$DIMASO
 70
     1
  9
$DIMSHO
 70
     1
  9
$DIMPOST
  1

  9
$DIMAPOST
  1

  9
$DIMALT
 70
     0
  9
$DIMALTD
 70
     3
  9
$DIMALTF
 40
0.03937007874016
  9
$DIMLFAC
 40
1.0
  9
$DIMTOFL
 70
     1
  9
$DIMTVP
 40
0.0
  9
$DIMTIX
 70
     0
  9
$DIMSOXD
 70
     0
  9
$DIMSAH
 70
     0
  9
$DIMBLK1
  1

  9
$DIMBLK2
  1

  9
$DIMSTYLE
  2
ISO-25
  9
$DIMCLRD
 70
     0
  9
$DIMCLRE
 70
     0
  9
$DIMCLRT
 70
     0
  9
$DIMTFAC
 40
1.0
  9
$DIMGAP
 40
0.5
  9
$DIMJUST
 70
     0
  9
$DIMSD1
 70
     0
  9
$DIMSD2
 70
     0
  9
$DIMTOLJ
 70
     0
  9
$DIMTZIN
 70
     8
  9
$DIMALTZ
 70
     0
  9
$DIMALTTZ
 70
     0
  9
$DIMUPT
 70
     0
  9
$DIMDEC
 70
     2
  9
$DIMTDEC
 70
     2
  9
$DIMALTU
 70
     2
  9
$DIMALTTD
 70
     3
  9
$DIMTXSTY
  7
Standard
  9
$DIMAUNIT
 70
     0
  9
$DIMADEC
 70
     0
  9
$DIMALTRND
 40
0.0
  9
$DIMAZIN
 70
     0
  9
$DIMDSEP
 70
    46
  9
$DIMATFIT
 70
     0
  9
$DIMFRAC
 70
     0
  9
$DIMLDRBLK
  1
Open30
  9
$DIMLUNIT
 70
     2
  9
$DIMLWD
 70
    -2
  9
$DIMLWE
 70
    -2
  9
$DIMTMOVE
 70
     0
  9
$LUNITS
 70
     2
  9
$LUPREC
 70
     4
  9
$SKETCHINC
 40
1.0
  9
$FILLETRAD
 40
9.9
  9
$AUNITS
 70
     0
  9
$AUPREC
 70
     0
  9
$MENU
  1
.
  9
$ELEVATION
 40
0.0
  9
$PELEVATION
 40
0.0
  9
$THICKNESS
 40
0.0
  9
$LIMCHECK
 70
     0
  9
$CHAMFERA
 40
10.0
  9
$CHAMFERB
 40
10.0
  9
$CHAMFERC
 40
20.0
  9
$CHAMFERD
 40
0.0
  9
$SKPOLY
 70
     0
  9
$TDCREATE
 40
2453510.558637211
  9
$TDUCREATE
 40
2453510.183637211
  9
$TDUPDATE
 40
2457540.740362327
  9
$TDUUPDATE
 40
2457540.365362326
  9
$TDINDWG
 40
0.0115237153
  9
$TDUSRTIMER
 40
0.0115237153
  9
$USRTIMER
 70
     1
  9
$ANGBASE
 50
0.0
  9
$ANGDIR
 70
     0
  9
$PDMODE
 70
     0
  9
$PDSIZE
 40
0.0
  9
$PLINEWID
 40
0.0
  9
$SPLFRAME
 70
     0
  9
$SPLINETYPE
 70
     6
  9
$SPLINESEGS
 70
     8
  9
$HANDSEED
  5
1B98
  9
$SURFTAB1
 70
     6
  9
$SURFTAB2
 70
     6
  9
$SURFTYPE
 70
     6
  9
$SURFU
 70
     6
  9
$SURFV
 70
     6
  9
$UCSBASE
  2

  9
$UCSNAME
  2

  9
$UCSORG
 10
0.0
 20
0.0
 30
0.0
  9
$UCSXDIR
 10
1.0
 20
0.0
 30
0.0
  9
$UCSYDIR
 10
0.0
 20
1.0
 30
0.0
  9
$UCSORTHOREF
  2

  9
$UCSORTHOVIEW
 70
     0
  9
$UCSORGTOP
 10
0.0
 20
0.0
 30
0.0
  9
$UCSORGBOTTOM
 10
0.0
 20
0.0
 30
0.0
  9
$UCSORGLEFT
 10
0.0
 20
0.0
 30
0.0
  9
$UCSORGRIGHT
 10
0.0
 20
0.0
 30
0.0
  9
$UCSORGFRONT
 10
0.0
 20
0.0
 30
0.0
  9
$UCSORGBACK
 10
0.0
 20
0.0
 30
0.0
  9
$PUCSBASE
  2

  9
$PUCSNAME
  2

  9
$PUCSORG
 10
0.0
 20
0.0
 30
0.0
  9
$PUCSXDIR
 10
1.0
 20
0.0
 30
0.0
  9
$PUCSYDIR
 10
0.0
 20
1.0
 30
0.0
  9
$PUCSORTHOREF
  2

  9
$PUCSORTHOVIEW
 70
     0
  9
$PUCSORGTOP
 10
0.0
 20
0.0
 30
0.0
  9
$PUCSORGBOTTOM
 10
0.0
 20
0.0
 30
0.0
  9
$PUCSORGLEFT
 10
0.0
 20
0.0
 30
0.0
  9
$PUCSORGRIGHT
 10
0.0
 20
0.0
 30
0.0
  9
$PUCSORGFRONT
 10
0.0
 20
0.0
 30
0.0
  9
$PUCSORGBACK
 10
0.0
 20
0.0
 30
0.0
  9
$USERI1
 70
     0
  9
$USERI2
 70
     0
  9
$USERI3
 70
     0
  9
$USERI4
 70
     0
  9
$USERI5
 70
     0
  9
$USERR1
 40
0.0
  9
$USERR2
 40
0.0
  9
$USERR3
 40
0.0
  9
$USERR4
 40
0.0
  9
$USERR5
 40
0.0
  9
$WORLDVIEW
 70
     1
  9
$SHADEDGE
 70
     3
  9
$SHADEDIF
 70
    70
  9
$TILEMODE
 70
     1
  9
$MAXACTVP
 70
    48
  9
$PINSBASE
 10
0.0
 20
0.0
 30
0.0
  9
$PLIMCHECK
 70
     0
  9
$PEXTMIN
 10
0.0
 20
0.0
 30
0.0
  9
$PEXTMAX
 10
0.0
 20
0.0
 30
0.0
  9
$PLIMMIN
 10
0.0
 20
0.0
  9
$PLIMMAX
 10
12.0
 20
9.0
  9
$UNITMODE
 70
     0
  9
$VISRETAIN
 70
     1
  9
$PLINEGEN
 70
     0
  9
$PSLTSCALE
 70
     1
  9
$TREEDEPTH
 70
  3020
  9
$CMLSTYLE
  2
Standard
  9
$CMLJUST
 70
     0
  9
$CMLSCALE
 40
20.0
  9
$PROXYGRAPHICS
 70
     1
  9
$MEASUREMENT
 70
     1
  9
$CELWEIGHT
370
    -1
  9
$ENDCAPS
280
     0
  9
$JOINSTYLE
280
     0
  9
$LWDISPLAY
290
     0
  9
$INSUNITS
 70
     4
  9
$HYPERLINKBASE
  1

  9
$STYLESHEET
  1
monochrome.ctb
  9
$XEDIT
290
     1
  9
$CEPSNTYPE
380
     0
  9
$PSTYLEMODE
290
     1
  9
$FINGERPRINTGUID
  2

  9
$VERSIONGUID
  2
{C9A69E83-FFEF-425D-A5AB-D247430F88D5}
  9
$EXTNAMES
290
     1
  9
$PSVPSCALE
 40
0.0
  9
$OLESTARTUP
290
     0
  0
ENDSEC
  0
SECTION
  2
CLASSES
  0
CLASS
  1
ACDBDICTIONARYWDFLT
  2
AcDbDictionaryWithDefault
  3
ObjectDBX Classes
 90
        0
280
     0
281
     0
  0
CLASS
  1
ACDBPLACEHOLDER
  2
AcDbPlaceHolder
  3
ObjectDBX Classes
 90
        0
280
     0
281
     0
  0
CLASS
  1
LAYOUT
  2
AcDbLayout
  3
ObjectDBX Classes
 90
        0
280
     0
281
     0
  0
CLASS
  1
DICTIONARYVAR
  2
AcDbDictionaryVar
  3
ObjectDBX Classes
 90
        0
280
     0
281
     0
  0
CLASS
  1
MATERIAL
  2
AcDbMaterial
  3
ObjectDBX Classes
 90
     1153
280
     0
281
     0
  0
CLASS
  1
VISUALSTYLE
  2
AcDbVisualStyle
  3
ObjectDBX Classes
 90
     4095
280
     0
281
     0
  0
CLASS
  1
TABLESTYLE
  2
AcDbTableStyle
  3
ObjectDBX Classes
 90
     4095
280
     0
281
     0
  0
CLASS
  1
SCALE
  2
AcDbScale
  3
ObjectDBX Classes
 90
     1153
280
     0
281
     0
  0
CLASS
  1
MLEADERSTYLE
  2
AcDbMLeaderStyle
  3
ACDB_MLEADERSTYLE_CLASS
 90
     4095
280
     0
281
     0
  0
CLASS
  1
ACDBSECTIONVIEWSTYLE
  2
AcDbSectionViewStyle
  3
ObjectDBX Classes
 90
     1025
280
     0
281
     0
  0
CLASS
  1
ACDBDETAILVIEWSTYLE
  2
AcDbDetailViewStyle
  3
ObjectDBX Classes
 90
     1025
280
     0
281
     0
  0
CLASS
  1
CELLSTYLEMAP
  2
AcDbCellStyleMap
  3
ObjectDBX Classes
 90
     1152
280
     0
281
     0
  0
CLASS
  1
ACARRAYJIGENTITY
  2
AcArrayJigEntity
  3
ACAD_ARRAY
 90
    32897
280
     0
281
     1
  0
CLASS
  1
ACDBASSOCNETWORK
  2
AcDbAssocNetwork
  3
ObjectDBX Classes
 90
     1025
280
     0
281
     0
  0
CLASS
  1
ACDBASSOCACTION
  2
AcDbAssocAction
  3
ObjectDBX Classes
 90
     1025
280
     0
281
     0
  0
CLASS
  1
ACDBASSOCARRAYACTIONBODY
  2
AcDbAssocArrayActionBody
  3
ObjectDBX Classes
 90
     1025
280
     0
281
     0
  0
CLASS
  1
ACDBASSOCVERTEXACTIONPARAM
  2
AcDbAssocVertexActionParam
  3
ObjectDBX Classes
 90
     1025
280
     0
281
     0
  0
CLASS
  1
ACDBASSOCDEPENDENCY
  2
AcDbAssocDependency
  3
ObjectDBX Classes
 90
     1025
280
     0
281
     0
  0
CLASS
  1
ACDBASSOCARRAYRECTANGULARPARAMETERS
  2
AcDbAssocArrayRectangularParameters
  3
ObjectDBX Classes
 90
    33793
280
     0
281
     0
  0
ENDSEC
  0
SECTION
  2
TABLES
  0
TABLE
  2
VPORT
  5
147B
102
{ACAD_XDICTIONARY
360
17EC
102
}
330
0
100
AcDbSymbolTable
 70
     1
  0
VPORT
  5
177C
330
147B
100
AcDbSymbolTableRecord
100
AcDbViewportTableRecord
  2
*Active
 70
     0
 10
0.0
 20
0.0
 11
1.0
 21
1.0
 12
1394.755606492269
 22
986.6345746263016
 13
0.0
 23
0.0
 14
10.0
 24
10.0
 15
10.0
 25
10.0
 16
0.0
 26
0.0
 36
1.0
 17
0.0
 27
0.0
 37
0.0
 40
1990.511284950258
 41
1.754689754689754
 42
50.0
 43
0.0
 44
0.0
 50
0.0
 51
0.0
 71
     0
 72
   100
 73
     1
 74
     3
 75
     0
 76
     0
 77
     0
 78
     0
281
     0
 65
     1
110
0.0
120
0.0
130
0.0
111
1.0
121
0.0
131
0.0
112
0.0
122
1.0
132
0.0
 79
     0
146
0.0
1001
ACAD_NAV_VCDISPLAY
1070
     3
  0
ENDTAB
  0
TABLE
  2
LTYPE
  5
1476
330
0
100
AcDbSymbolTable
 70
     3
  0
LTYPE
  5
1477
330
1476
100
AcDbSymbolTableRecord
100
AcDbLinetypeTableRecord
  2
ByBlock
 70
     0
  3

 72
    65
 73
     0
 40
0.0
  0
LTYPE
  5
1478
330
1476
100
AcDbSymbolTableRecord
100
AcDbLinetypeTableRecord
  2
ByLayer
 70
     0
  3

 72
    65
 73
     0
 40
0.0
  0
LTYPE
  5
8
330
1476
100
AcDbSymbolTableRecord
100
AcDbLinetypeTableRecord
  2
Continuous
 70
     0
  3
Solid line
 72
    65
 73
     0
 40
0.0
  0
LTYPE
  5
7B
330
1476
100
AcDbSymbolTableRecord
100
AcDbLinetypeTableRecord
  2
HIDDEN
 70
     0
  3
Hidden __ __ __ __ __ __ __ __ __ __ __ __ __ _
 72
    65
 73
     2
 40
9.524999999999998
 49
6.349999999999999
 74
     0
 49
-3.174999999999999
 74
     0
  0
LTYPE
  5
409
330
1476
100
AcDbSymbolTableRecord
100
AcDbLinetypeTableRecord
  2
CENTER
 70
     0
  3
------ - ------ - ----
 72
    65
 73
     4
 40
10.0
 49
6.25
 74
     0
 49
-1.25
 74
     0
 49
1.25
 74
     0
 49
-1.25
 74
     0
  0
ENDTAB
  0
TABLE
  2
LAYER
  5
1473
330
0
100
AcDbSymbolTable
 70
     9
  0
LAYER
  5
77
102
{ACAD_XDICTIONARY
360
17D1
102
}
330
1473
100
AcDbSymbolTableRecord
100
AcDbLayerTableRecord
  2
0
 70
     0
 62
     7
  6
Continuous
370
    -3
390
5
  0
LAYER
  5
7A
102
{ACAD_XDICTIONARY
360
17D3
102
}
330
1473
100
AcDbSymbolTableRecord
100
AcDbLayerTableRecord
  2
本体
 70
     0
 62
     7
  6
Continuous
370
    13
390
5
  0
LAYER
  5
4
102
{ACAD_XDICTIONARY
360
17D5
102
}
330
1473
100
AcDbSymbolTableRecord
100
AcDbLayerTableRecord
  2
寸法線
 70
     0
 62
     2
  6
Continuous
370
     9
390
5
  0
LAYER
  5
2E
102
{ACAD_XDICTIONARY
360
17D7
102
}
330
1473
100
AcDbSymbolTableRecord
100
AcDbLayerTableRecord
  2
枠寸法
 70
     0
 62
   -31
  6
Continuous
370
     9
390
5
  0
LAYER
  5
4B1
102
{ACAD_XDICTIONARY
360
17D9
102
}
330
1473
100
AcDbSymbolTableRecord
100
AcDbLayerTableRecord
  2
エンボス
 70
     0
 62
     4
  6
Continuous
370
     5
390
5
  0
LAYER
  5
11
102
{ACAD_XDICTIONARY
360
17DB
102
}
330
1473
100
AcDbSymbolTableRecord
100
AcDbLayerTableRecord
  2
外枠
 70
     0
 62
     7
  6
Continuous
370
    -3
390
5
  0
LAYER
  5
4B4
102
{ACAD_XDICTIONARY
360
17DD
102
}
330
1473
100
AcDbSymbolTableRecord
100
AcDbLayerTableRecord
  2
受け枠
 70
     0
 62
    -3
  6
Continuous
370
     9
390
5
  0
LAYER
  5
AC
330
1473
100
AcDbSymbolTableRecord
100
AcDbLayerTableRecord
  2
Defpoints
 70
     0
 62
     7
  6
Continuous
290
     0
370
    -3
390
5
  0
LAYER
  5
1766
102
{ACAD_XDICTIONARY
360
17DF
102
}
330
1473
100
AcDbSymbolTableRecord
100
AcDbLayerTableRecord
  2
中心線
 70
     0
 62
     1
  6
CENTER
370
     5
390
5
  0
ENDTAB
  0
TABLE
  2
STYLE
  5
1474
330
0
100
AcDbSymbolTable
 70
     1
  0
STYLE
  5
9
330
1474
100
AcDbSymbolTableRecord
100
AcDbTextStyleTableRecord
  2
Standard
 70
     0
 40
0.0
 41
1.0
 50
0.0
 71
     0
 42
2.5
  3

  4

1001
ACAD
1000
MS Gothic
1071
    32817
  0
ENDTAB
  0
TABLE
  2
VIEW
  5
1479
330
0
100
AcDbSymbolTable
 70
     0
  0
ENDTAB
  0
TABLE
  2
UCS
  5
147A
330
0
100
AcDbSymbolTable
 70
     0
  0
ENDTAB
  0
TABLE
  2
APPID
  5
147D
330
0
100
AcDbSymbolTable
 70
     4
  0
APPID
  5
A
330
147D
100
AcDbSymbolTableRecord
100
AcDbRegAppTableRecord
  2
ACAD
 70
     0
  0
APPID
  5
17E1
330
147D
100
AcDbSymbolTableRecord
100
AcDbRegAppTableRecord
  2
ACAD_NAV_VCDISPLAY
 70
     0
  0
APPID
  5
1822
330
147D
100
AcDbSymbolTableRecord
100
AcDbRegAppTableRecord
  2
ACAD_MLEADERVER
 70
     0
  0
APPID
  5
1839
330
147D
100
AcDbSymbolTableRecord
100
AcDbRegAppTableRecord
  2
ACAD_EXEMPT_FROM_CAD_STANDARDS
 70
     0
  0
ENDTAB
  0
TABLE
  2
DIMSTYLE
  5
147E
330
0
100
AcDbSymbolTable
 70
     2
100
AcDbDimStyleTable
 71
     1
340
A0
  0
DIMSTYLE
105
A0
102
{ACAD_REACTORS
330
3F6
330
A3
330
B1
330
BE
330
CB
330
DA
330
E7
330
F6
330
104
330
113
102
}
330
147E
100
AcDbSymbolTableRecord
100
AcDbDimStyleTableRecord
  2
ISO-25
 70
     0
 40
10.0
 41
1.5
 42
2.0
 43
3.75
 44
1.5
 73
     0
 74
     0
 77
     1
 78
     8
140
3.0
141
2.5
143
0.03937007874016
147
0.5
171
     3
172
     1
271
     2
272
     2
274
     3
283
     0
284
     8
289
     0
340
9
341
99
342
99
  0
DIMSTYLE
105
1767
330
147E
100
AcDbSymbolTableRecord
100
AcDbDimStyleTableRecord
  2
Standard
 70
     0
340
9
  0
ENDTAB
  0
TABLE
  2
BLOCK_RECORD
  5
1
330
0
100
AcDbSymbolTable
 70
    22
  0
BLOCK_RECORD
  5
2
102
{ACAD_XDICTIONARY
360
1461
102
}
330
1
100
AcDbSymbolTableRecord
100
AcDbBlockTableRecord
  2
*Model_Space
340
1465
  0
BLOCK_RECORD
  5
1467
102
{ACAD_XDICTIONARY
360
1468
102
}
330
1
100
AcDbSymbolTableRecord
100
AcDbBlockTableRecord
  2
*Paper_Space
340
146C
  0
BLOCK_RECORD
  5
146D
102
{ACAD_XDICTIONARY
360
146E
102
}
330
1
100
AcDbSymbolTableRecord
100
AcDbBlockTableRecord
  2
*Paper_Space0
340
1472
  0
BLOCK_RECORD
  5
99
330
1
100
AcDbSymbolTableRecord
100
AcDbBlockTableRecord
  2
_Open30
340
0
102
{BLKREFS
331
1AC0
331
1AC1
331
1AC9
331
1ACA
331
1AD4
331
1AD5
331
1ADD
331
1ADE
331
1AE6
331
1AE7
331
1A5A
331
1A5B
331
1A65
331
1A66
331
1A9E
331
1A9F
331
1AA9
331
1AAA
331
1AB5
331
1AB6
102
}
  0
BLOCK_RECORD
  5
406
330
1
100
AcDbSymbolTableRecord
100
AcDbBlockTableRecord
  2
TB5
340
0
102
{BLKREFS
331
405
331
40E
102
}
1001
ACAD
1000
DesignCenter Data
1002
{
1070
     1
1070
     4
1002
}
  0
BLOCK_RECORD
  5
4B2
330
1
100
AcDbSymbolTableRecord
100
AcDbBlockTableRecord
  2
A$C76CF7395
340
0
102
{BLKREFS
331
4B0
331
4BE
102
}
  0
BLOCK_RECORD
  5
3F7
330
1
100
AcDbSymbolTableRecord
100
AcDbBlockTableRecord
  2
*D4
340
0
  0
BLOCK_RECORD
  5
A4
330
1
100
AcDbSymbolTableRecord
100
AcDbBlockTableRecord
  2
*D5
340
0
  0
BLOCK_RECORD
  5
B2
330
1
100
AcDbSymbolTableRecord
100
AcDbBlockTableRecord
  2
*D6
340
0
  0
BLOCK_RECORD
  5
BF
330
1
100
AcDbSymbolTableRecord
100
AcDbBlockTableRecord
  2
*D7
340
0
  0
BLOCK_RECORD
  5
CC
330
1
100
AcDbSymbolTableRecord
100
AcDbBlockTableRecord
  2
*D8
340
0
  0
BLOCK_RECORD
  5
DB
330
1
100
AcDbSymbolTableRecord
100
AcDbBlockTableRecord
  2
*D9
340
0
  0
BLOCK_RECORD
  5
E8
330
1
100
AcDbSymbolTableRecord
100
AcDbBlockTableRecord
  2
*D10
340
0
  0
BLOCK_RECORD
  5
F7
330
1
100
AcDbSymbolTableRecord
100
AcDbBlockTableRecord
  2
*D11
340
0
  0
BLOCK_RECORD
  5
105
330
1
100
AcDbSymbolTableRecord
100
AcDbBlockTableRecord
  2
*D12
340
0
  0
BLOCK_RECORD
  5
114
330
1
100
AcDbSymbolTableRecord
100
AcDbBlockTableRecord
  2
*D13
340
0
  0
BLOCK_RECORD
  5
183B
102
{ACAD_XDICTIONARY
360
183F
102
}
330
1
100
AcDbSymbolTableRecord
100
AcDbBlockTableRecord
  2
鎌下
340
0
102
{BLKREFS
331
1842
102
}
1001
ACAD
1000
DesignCenter Data
1002
{
1070
     1
1070
     4
1002
}
  0
BLOCK_RECORD
  5
191F
102
{ACAD_REACTORS
330
1968
102
}
330
1
100
AcDbSymbolTableRecord
100
AcDbBlockTableRecord
  2
*U15
340
0
102
{BLKREFS
331
19A0
331
19A1
331
19A2
331
19A3
331
19A4
331
19A5
331
19A6
331
19A7
331
19A8
331
19A9
331
19AA
331
19AB
331
19AC
331
19AD
331
19AE
331
19AF
331
19B0
331
19B1
331
19B2
331
19B3
331
19B4
331
19B5
331
19B6
331
19B7
331
19B8
331
19B9
331
196C
331
196D
331
196E
331
196F
331
1970
331
1971
331
1972
331
1973
331
1974
331
1975
331
1976
331
1977
331
1978
331
1979
331
197A
331
197B
331
197C
331
197D
331
197E
331
197F
331
1980
331
1981
331
1982
331
1983
331
1984
331
1985
331
1986
331
1987
331
1988
331
1989
331
198A
331
198B
331
198C
331
198D
331
198E
331
198F
331
1990
331
1991
331
1992
331
1993
331
1994
331
1995
331
1996
331
1997
331
1998
331
1999
331
199A
331
199B
331
199C
331
199D
331
199E
331
199F
102
}
  0
BLOCK_RECORD
  5
1922
102
{ACAD_XDICTIONARY
360
1B3F
102
}
102
{ACAD_REACTORS
330
1967
102
}
330
1
100
AcDbSymbolTableRecord
100
AcDbBlockTableRecord
  2
*U16
340
0
102
{BLKREFS
331
1925
102
}
  0
BLOCK_RECORD
  5
19BB
102
{ACAD_REACTORS
330
19CA
102
}
330
1
100
AcDbSymbolTableRecord
100
AcDbBlockTableRecord
  2
*U17
340
0
102
{BLKREFS
331
19CE
331
19CF
331
19D0
331
19D1
331
19D2
331
19D3
331
19D4
331
19D5
331
19D6
331
19D7
331
19D8
331
19D9
331
19DA
331
19DB
331
19DC
331
19DD
331
19DE
331
19DF
331
19E0
331
19E1
331
19E2
331
19E3
331
19E4
331
19E5
331
19E6
331
19E7
331
19E8
331
19E9
331
19EA
331
19EB
331
19EC
331
19ED
331
19EE
102
}
  0
BLOCK_RECORD
  5
19BE
102
{ACAD_XDICTIONARY
360
1B42
102
}
102
{ACAD_REACTORS
330
19C9
102
}
330
1
100
AcDbSymbolTableRecord
100
AcDbBlockTableRecord
  2
*U18
340
0
102
{BLKREFS
331
19C1
102
}
  0
BLOCK_RECORD
  5
19F0
102
{ACAD_REACTORS
330
1A01
102
}
330
1
100
AcDbSymbolTableRecord
100
AcDbBlockTableRecord
  2
*U19
340
0
102
{BLKREFS
331
1A05
331
1A06
331
1A07
331
1A08
331
1A09
331
1A0A
331
1A0B
331
1A0C
331
1A0D
331
1A0E
331
1A0F
331
1A10
331
1A11
331
1A12
331
1A13
331
1A14
331
1A15
331
1A16
331
1A17
331
1A18
331
1A19
331
1A1A
331
1A1B
331
1A1C
331
1A1D
331
1A1E
331
1A1F
331
1A20
331
1A21
331
1A22
331
1A23
331
1A24
331
1A25
331
1A26
331
1A27
331
1A28
331
1A29
331
1A2A
331
1A2B
331
1A2C
331
1A2D
331
1A2E
331
1A2F
331
1A30
331
1A31
331
1A32
331
1A33
331
1A34
331
1A35
331
1A36
331
1A37
331
1A38
331
1A39
331
1A3A
331
1A3B
331
1A3C
331
1A3D
331
1A3E
331
1A3F
331
1A40
331
1A41
331
1A42
331
1A43
331
1A44
331
1A45
331
1A46
331
1A47
331
1A48
331
1A49
331
1A4A
331
1A4B
331
1A4C
331
1A4D
331
1A4E
331
1A4F
331
1A50
331
1A51
331
1A52
331
1A53
102
}
  0
BLOCK_RECORD
  5
19F3
102
{ACAD_XDICTIONARY
360
1B45
102
}
102
{ACAD_REACTORS
330
1A00
102
}
330
1
100
AcDbSymbolTableRecord
100
AcDbBlockTableRecord
  2
*U20
340
0
102
{BLKREFS
331
19F6
102
}
  0
BLOCK_RECORD
  5
1AEC
102
{ACAD_XDICTIONARY
360
1AF7
102
}
330
1
100
AcDbSymbolTableRecord
100
AcDbBlockTableRecord
  2
GFB新
340
0
102
{BLKREFS
331
1AFA
102
}
1001
ACAD
1000
DesignCenter Data
1002
{
1070
     1
1070
     4
1002
}
  0
ENDTAB
  0
ENDSEC
  0
SECTION
  2
BLOCKS
  0
BLOCK
  5
1463
330
2
100
AcDbEntity
  8
0
100
AcDbBlockBegin
  2
*Model_Space
 70
     0
 10
0.0
 20
0.0
 30
0.0
  3
*Model_Space
  1

  0
ENDBLK
  5
1464
330
2
100
AcDbEntity
  8
0
100
AcDbBlockEnd
  0
BLOCK
  5
146A
330
1467
100
AcDbEntity
 67
     1
  8
0
100
AcDbBlockBegin
  2
*Paper_Space
 70
     0
 10
0.0
 20
0.0
 30
0.0
  3
*Paper_Space
  1

  0
ENDBLK
  5
146B
330
1467
100
AcDbEntity
 67
     1
  8
0
100
AcDbBlockEnd
  0
BLOCK
  5
1470
330
146D
100
AcDbEntity
 67
     1
  8
0
100
AcDbBlockBegin
  2
*Paper_Space0
 70
     0
 10
0.0
 20
0.0
 30
0.0
  3
*Paper_Space0
  1

  0
ENDBLK
  5
1471
330
146D
100
AcDbEntity
 67
     1
  8
0
100
AcDbBlockEnd
  0
BLOCK
  5
9D
330
99
100
AcDbEntity
  8
0
100
AcDbBlockBegin
  2
_Open30
 70
     0
 10
0.0
 20
0.0
 30
0.0
  3
_Open30
  1

  0
LINE
  5
9A
330
99
100
AcDbEntity
  8
0
  6
ByBlock
 62
     0
370
    -2
100
AcDbLine
 10
-1.0
 20
0.26794919
 30
0.0
 11
0.0
 21
0.0
 31
0.0
  0
LINE
  5
9B
330
99
100
AcDbEntity
  8
0
  6
ByBlock
 62
     0
370
    -2
100
AcDbLine
 10
0.0
 20
0.0
 30
0.0
 11
-1.0
 21
-0.26794919
 31
0.0
  0
LINE
  5
9C
330
99
100
AcDbEntity
  8
0
  6
ByBlock
 62
     0
370
    -2
100
AcDbLine
 10
0.0
 20
0.0
 30
0.0
 11
-1.0
 21
0.0
 31
0.0
  0
ENDBLK
  5
9E
330
99
100
AcDbEntity
  8
0
100
AcDbBlockEnd
  0
BLOCK
  5
40C
330
406
100
AcDbEntity
  8
0
100
AcDbBlockBegin
  2
TB5
 70
     0
 10
0.0
 20
0.0
 30
0.0
  3
TB5
  1

  0
MTEXT
  5
407
330
406
100
AcDbEntity
  8
寸法線
  6
Continuous
100
AcDbMText
 10
917.3216494432054
 20
235.349302881973
 30
0.0
 40
20.0
 41
17.2146
 71
     7
 72
     1
  1

 73
     1
 44
1.0
1001
ACAD
1000
MTEXTBEGIN
1070
    73
1070
     1
1070
    44
1040
1.0
1070
    74
1070
     0
1000
MTEXTEND
  0
LINE
  5
408
330
406
100
AcDbEntity
  8
本体
  6
CENTER
 62
     1
 48
0.3
100
AcDbLine
 10
7.499999997999999
 20
0.0
 30
0.0
 11
-2.499999997999999
 21
0.0
 31
0.0
  0
LINE
  5
40A
330
406
100
AcDbEntity
  8
本体
  6
CENTER
 62
     1
 48
0.3
100
AcDbLine
 10
2.5
 20
4.999999997999999
 30
0.0
 11
2.5
 21
-4.999999997999999
 31
0.0
  0
CIRCLE
  5
40B
330
406
100
AcDbEntity
  8
本体
  6
Continuous
 62
     0
100
AcDbCircle
 10
2.5
 20
0.0
 30
0.0
 40
2.5
  0
ENDBLK
  5
40D
330
406
100
AcDbEntity
  8
0
100
AcDbBlockEnd
  0
BLOCK
  5
4BC
330
4B2
100
AcDbEntity
  8
0
100
AcDbBlockBegin
  2
A$C76CF7395
 70
     0
 10
0.0
 20
0.0
 30
0.0
  3
A$C76CF7395
  1

  0
LINE
  5
4B3
330
4B2
100
AcDbEntity
  8
受け枠
  6
Continuous
100
AcDbLine
 10
0.0
 20
0.0
 30
0.0
 11
-0.0000000000002274
 21
22.00000000000045
 31
0.0
  0
LINE
  5
4B5
330
4B2
100
AcDbEntity
  8
受け枠
  6
Continuous
100
AcDbLine
 10
1.999999999999545
 20
0.0
 30
0.0
 11
1.999999999999772
 21
22.00000000000045
 31
0.0
  0
LINE
  5
4B6
330
4B2
100
AcDbEntity
  8
受け枠
  6
Continuous
100
AcDbLine
 10
3.0
 20
-3.0
 30
0.0
 11
24.99999999999977
 21
-2.999999999999545
 31
0.0
  0
LINE
  5
4B7
330
4B2
100
AcDbEntity
  8
受け枠
  6
Continuous
100
AcDbLine
 10
24.99999999999977
 20
-0.9999999999995452
 30
0.0
 11
2.999999999999545
 21
-1.0
 31
0.0
  0
ARC
  5
4B8
330
4B2
100
AcDbEntity
  8
受け枠
  6
Continuous
100
AcDbCircle
 10
2.999999999999545
 20
0.0
 30
0.0
 40
1.0
100
AcDbArc
 50
180.0
 51
270.0
  0
ARC
  5
4B9
330
4B2
100
AcDbEntity
  8
受け枠
  6
Continuous
100
AcDbCircle
 10
3.0
 20
0.0
 30
0.0
 40
3.0
100
AcDbArc
 50
180.0
 51
270.0
  0
LINE
  5
4BA
330
4B2
100
AcDbEntity
  8
受け枠
  6
Continuous
100
AcDbLine
 10
24.99999999999977
 20
-2.999999999999545
 30
0.0
 11
24.99999999999977
 21
-0.9999999999995452
 31
0.0
  0
LINE
  5
4BB
330
4B2
100
AcDbEntity
  8
受け枠
  6
Continuous
100
AcDbLine
 10
1.999999999999772
 20
22.00000000000045
 30
0.0
 11
-0.0000000000002274
 21
22.00000000000045
 31
0.0
  0
ENDBLK
  5
4BD
330
4B2
100
AcDbEntity
  8
0
100
AcDbBlockEnd
  0
BLOCK
  5
403
330
3F7
100
AcDbEntity
  8
0
 48
3.0
100
AcDbBlockBegin
  2
*D4
 70
     1
 10
0.0
 20
0.0
 30
0.0
  3
*D4
  1

  0
LINE
  5
1A60
330
3F7
100
AcDbEntity
  8
寸法線
  6
Continuous
 62
     0
370
    -2
100
AcDbLine
 10
1152.269353055099
 20
841.596911996171
 30
0.0
 11
1152.269353055099
 21
916.596911996171
 31
0.0
  0
LINE
  5
1A61
330
3F7
100
AcDbEntity
  8
寸法線
  6
Continuous
 62
     0
370
    -2
100
AcDbLine
 10
1164.826315055099
 20
841.596911996171
 30
0.0
 11
1164.826315055099
 21
916.596911996171
 31
0.0
  0
LINE
  5
1A62
330
3F7
100
AcDbEntity
  8
寸法線
  6
Continuous
 62
     0
370
    -2
100
AcDbLine
 10
1137.269353055099
 20
901.596911996171
 30
0.0
 11
1122.2693530551
 21
901.596911996171
 31
0.0
  0
LINE
  5
1A63
330
3F7
100
AcDbEntity
  8
寸法線
  6
Continuous
 62
     0
370
    -2
100
AcDbLine
 10
1179.826315055099
 20
901.596911996171
 30
0.0
 11
1276.704487643932
 21
901.596911996171
 31
0.0
  0
LINE
  5
1A64
330
3F7
100
AcDbEntity
  8
寸法線
  6
Continuous
 62
     0
370
    -2
100
AcDbLine
 10
1152.269353055099
 20
901.596911996171
 30
0.0
 11
1164.826315055099
 21
901.596911996171
 31
0.0
  0
INSERT
  5
1A65
330
3F7
100
AcDbEntity
  8
寸法線
  6
Continuous
 62
     0
370
    -2
100
AcDbBlockReference
  2
_Open30
 10
1152.269353055099
 20
901.596911996171
 30
0.0
 41
15.0
 42
15.0
 43
15.0
  0
INSERT
  5
1A66
330
3F7
100
AcDbEntity
  8
寸法線
  6
Continuous
 62
     0
370
    -2
100
AcDbBlockReference
  2
_Open30
 10
1164.826315055099
 20
901.596911996171
 30
0.0
 41
15.0
 42
15.0
 43
15.0
 50
180.0
  0
MTEXT
  5
1A67
330
3F7
100
AcDbEntity
  8
寸法線
  6
Continuous
 62
     0
100
AcDbMText
 10
1235.765401349515
 20
921.5969119961711
 30
0.0
 40
30.0
 41
0.0
 71
     5
 72
     1
  1
12.5
 73
     1
 44
1.0
1001
ACAD
1000
MTEXTBEGIN
1070
    73
1070
     1
1070
    44
1040
1.0
1070
    74
1070
     0
1000
MTEXTEND
  0
POINT
  5
1A68
330
3F7
100
AcDbEntity
  8
Defpoints
  6
Continuous
 62
     0
100
AcDbPoint
 10
1152.269353055099
 20
821.5969119961709
 30
0.0
  0
POINT
  5
1A69
330
3F7
100
AcDbEntity
  8
Defpoints
  6
Continuous
 62
     0
100
AcDbPoint
 10
1164.826315055099
 20
821.5969119961709
 30
0.0
  0
POINT
  5
1A6A
330
3F7
100
AcDbEntity
  8
Defpoints
  6
Continuous
 62
     0
100
AcDbPoint
 10
1164.826315055099
 20
901.596911996171
 30
0.0
  0
ENDBLK
  5
404
330
3F7
100
AcDbEntity
  8
0
 48
3.0
100
AcDbBlockEnd
  0
BLOCK
  5
AF
330
A4
100
AcDbEntity
  8
0
 48
3.0
100
AcDbBlockBegin
  2
*D5
 70
     1
 10
0.0
 20
0.0
 30
0.0
  3
*D5
  1

  0
LINE
  5
1A57
330
A4
100
AcDbEntity
  8
寸法線
  6
Continuous
 62
     0
370
    -2
100
AcDbLine
 10
422.4655570550994
 20
841.596911996171
 30
0.0
 11
422.4655570550994
 21
996.5969119961711
 31
0.0
  0
LINE
  5
1A58
330
A4
100
AcDbEntity
  8
寸法線
  6
Continuous
 62
     0
370
    -2
100
AcDbLine
 10
1417.4655570551
 20
841.5969119961653
 30
0.0
 11
1417.4655570551
 21
996.5969119961711
 31
0.0
  0
LINE
  5
1A59
330
A4
100
AcDbEntity
  8
寸法線
  6
Continuous
 62
     0
370
    -2
100
AcDbLine
 10
437.4655570550994
 20
981.596911996171
 30
0.0
 11
1402.4655570551
 21
981.596911996171
 31
0.0
  0
INSERT
  5
1A5A
330
A4
100
AcDbEntity
  8
寸法線
  6
Continuous
 62
     0
370
    -2
100
AcDbBlockReference
  2
_Open30
 10
422.4655570550994
 20
981.596911996171
 30
0.0
 41
15.0
 42
15.0
 43
15.0
 50
180.0
  0
INSERT
  5
1A5B
330
A4
100
AcDbEntity
  8
寸法線
  6
Continuous
 62
     0
370
    -2
100
AcDbBlockReference
  2
_Open30
 10
1417.4655570551
 20
981.596911996171
 30
0.0
 41
15.0
 42
15.0
 43
15.0
  0
MTEXT
  5
1A5C
330
A4
100
AcDbEntity
  8
寸法線
  6
Continuous
 62
     0
100
AcDbMText
 10
919.9655570551
 20
1001.596911996171
 30
0.0
 40
30.0
 41
0.0
 71
     5
 72
     1
  1
995
 73
     1
 44
1.0
1001
ACAD
1000
MTEXTBEGIN
1070
    73
1070
     1
1070
    44
1040
1.0
1070
    74
1070
     0
1000
MTEXTEND
  0
POINT
  5
1A5D
330
A4
100
AcDbEntity
  8
Defpoints
  6
Continuous
 62
     0
100
AcDbPoint
 10
422.4655570550994
 20
821.5969119961709
 30
0.0
  0
POINT
  5
1A5E
330
A4
100
AcDbEntity
  8
Defpoints
  6
Continuous
 62
     0
100
AcDbPoint
 10
1417.4655570551
 20
821.5969119961652
 30
0.0
  0
POINT
  5
1A5F
330
A4
100
AcDbEntity
  8
Defpoints
  6
Continuous
 62
     0
100
AcDbPoint
 10
1417.4655570551
 20
981.596911996171
 30
0.0
  0
ENDBLK
  5
B0
330
A4
100
AcDbEntity
  8
0
 48
3.0
100
AcDbBlockEnd
  0
BLOCK
  5
BC
330
B2
100
AcDbEntity
  8
0
 48
3.0
100
AcDbBlockBegin
  2
*D6
 70
     1
 10
0.0
 20
0.0
 30
0.0
  3
*D6
  1

  0
LINE
  5
1AE3
330
B2
100
AcDbEntity
  8
寸法線
  6
Continuous
 62
     0
370
    -2
100
AcDbLine
 10
1964.4655570551
 20
1540.075460837858
 30
0.0
 11
2042.467634152481
 21
1540.075460837858
 31
0.0
  0
LINE
  5
1AE4
330
B2
100
AcDbEntity
  8
寸法線
  6
Continuous
 62
     0
370
    -2
100
AcDbLine
 10
1964.465557055099
 20
1310.075460837858
 30
0.0
 11
2042.46763415248
 21
1310.075460837858
 31
0.0
  0
LINE
  5
1AE5
330
B2
100
AcDbEntity
  8
寸法線
  6
Continuous
 62
     0
370
    -2
100
AcDbLine
 10
2027.46763415248
 20
1525.075460837858
 30
0.0
 11
2027.46763415248
 21
1325.075460837858
 31
0.0
  0
INSERT
  5
1AE6
330
B2
100
AcDbEntity
  8
寸法線
  6
Continuous
 62
     0
370
    -2
100
AcDbBlockReference
  2
_Open30
 10
2027.46763415248
 20
1540.075460837858
 30
0.0
 41
15.0
 42
15.0
 43
15.0
 50
90.0
  0
INSERT
  5
1AE7
330
B2
100
AcDbEntity
  8
寸法線
  6
Continuous
 62
     0
370
    -2
100
AcDbBlockReference
  2
_Open30
 10
2027.46763415248
 20
1310.075460837858
 30
0.0
 41
15.0
 42
15.0
 43
15.0
 50
270.0
  0
MTEXT
  5
1AE8
330
B2
100
AcDbEntity
  8
寸法線
  6
Continuous
 62
     0
100
AcDbMText
 10
2007.46763415248
 20
1425.075460837858
 30
0.0
 40
30.0
 41
0.0
 71
     5
 72
     1
  1
230
 11
0.0000000000000001
 21
1.0
 31
0.0
 73
     1
 44
1.0
1001
ACAD
1000
MTEXTBEGIN
1070
    73
1070
     1
1070
    44
1040
1.0
1070
    74
1070
     0
1000
MTEXTEND
  0
POINT
  5
1AE9
330
B2
100
AcDbEntity
  8
Defpoints
  6
Continuous
 62
     0
100
AcDbPoint
 10
1944.4655570551
 20
1540.075460837858
 30
0.0
  0
POINT
  5
1AEA
330
B2
100
AcDbEntity
  8
Defpoints
  6
Continuous
 62
     0
100
AcDbPoint
 10
1944.465557055099
 20
1310.075460837858
 30
0.0
  0
POINT
  5
1AEB
330
B2
100
AcDbEntity
  8
Defpoints
  6
Continuous
 62
     0
100
AcDbPoint
 10
2027.46763415248
 20
1310.075460837858
 30
0.0
  0
ENDBLK
  5
BD
330
B2
100
AcDbEntity
  8
0
 48
3.0
100
AcDbBlockEnd
  0
BLOCK
  5
C9
330
BF
100
AcDbEntity
  8
0
 48
3.0
100
AcDbBlockBegin
  2
*D7
 70
     1
 10
0.0
 20
0.0
 30
0.0
  3
*D7
  1

  0
LINE
  5
1AB2
330
BF
100
AcDbEntity
  8
寸法線
  6
Continuous
 62
     0
370
    -2
100
AcDbLine
 10
1897.465557055099
 20
1475.075460837858
 30
0.0
 11
1822.465557055099
 21
1475.075460837858
 31
0.0
  0
LINE
  5
1AB3
330
BF
100
AcDbEntity
  8
寸法線
  6
Continuous
 62
     0
370
    -2
100
AcDbLine
 10
1897.465557055099
 20
1375.075460837858
 30
0.0
 11
1822.465557055099
 21
1375.075460837858
 31
0.0
  0
LINE
  5
1AB4
330
BF
100
AcDbEntity
  8
寸法線
  6
Continuous
 62
     0
370
    -2
100
AcDbLine
 10
1837.465557055099
 20
1460.075460837858
 30
0.0
 11
1837.465557055099
 21
1390.075460837858
 31
0.0
  0
INSERT
  5
1AB5
330
BF
100
AcDbEntity
  8
寸法線
  6
Continuous
 62
     0
370
    -2
100
AcDbBlockReference
  2
_Open30
 10
1837.465557055099
 20
1475.075460837858
 30
0.0
 41
15.0
 42
15.0
 43
15.0
 50
90.0
  0
INSERT
  5
1AB6
330
BF
100
AcDbEntity
  8
寸法線
  6
Continuous
 62
     0
370
    -2
100
AcDbBlockReference
  2
_Open30
 10
1837.465557055099
 20
1375.075460837858
 30
0.0
 41
15.0
 42
15.0
 43
15.0
 50
270.0
  0
MTEXT
  5
1AB7
330
BF
100
AcDbEntity
  8
寸法線
  6
Continuous
 62
     0
100
AcDbMText
 10
1817.465557055099
 20
1425.075460837859
 30
0.0
 40
30.0
 41
0.0
 71
     5
 72
     1
  1
100
 11
0.0000000000000001
 21
1.0
 31
0.0
 73
     1
 44
1.0
1001
ACAD
1000
MTEXTBEGIN
1070
    73
1070
     1
1070
    44
1040
1.0
1070
    74
1070
     0
1000
MTEXTEND
  0
POINT
  5
1AB8
330
BF
100
AcDbEntity
  8
Defpoints
  6
Continuous
 62
     0
100
AcDbPoint
 10
1917.465557055099
 20
1475.075460837858
 30
0.0
  0
POINT
  5
1AB9
330
BF
100
AcDbEntity
  8
Defpoints
  6
Continuous
 62
     0
100
AcDbPoint
 10
1917.465557055099
 20
1375.075460837858
 30
0.0
  0
POINT
  5
1ABA
330
BF
100
AcDbEntity
  8
Defpoints
  6
Continuous
 62
     0
100
AcDbPoint
 10
1837.465557055099
 20
1375.075460837858
 30
0.0
  0
ENDBLK
  5
CA
330
BF
100
AcDbEntity
  8
0
 48
3.0
100
AcDbBlockEnd
  0
BLOCK
  5
D8
330
CC
100
AcDbEntity
  8
0
 48
3.0
100
AcDbBlockBegin
  2
*D8
 70
     1
 10
0.0
 20
0.0
 30
0.0
  3
*D8
  1

  0
LINE
  5
1ABB
330
CC
100
AcDbEntity
  8
寸法線
  6
Continuous
 62
     0
370
    -2
100
AcDbLine
 10
1897.465557055099
 20
1537.075460837858
 30
0.0
 11
1742.465557055099
 21
1537.075460837858
 31
0.0
  0
LINE
  5
1ABC
330
CC
100
AcDbEntity
  8
寸法線
  6
Continuous
 62
     0
370
    -2
100
AcDbLine
 10
1897.465557055099
 20
1567.075460837858
 30
0.0
 11
1742.465557055099
 21
1567.075460837858
 31
0.0
  0
LINE
  5
1ABD
330
CC
100
AcDbEntity
  8
寸法線
  6
Continuous
 62
     0
370
    -2
100
AcDbLine
 10
1757.465557055099
 20
1522.075460837858
 30
0.0
 11
1757.465557055099
 21
1507.075460837858
 31
0.0
  0
LINE
  5
1ABE
330
CC
100
AcDbEntity
  8
寸法線
  6
Continuous
 62
     0
370
    -2
100
AcDbLine
 10
1757.465557055099
 20
1582.075460837858
 30
0.0
 11
1757.465557055099
 21
1642.862262868315
 31
0.0
  0
LINE
  5
1ABF
330
CC
100
AcDbEntity
  8
寸法線
  6
Continuous
 62
     0
370
    -2
100
AcDbLine
 10
1757.465557055099
 20
1537.075460837858
 30
0.0
 11
1757.465557055099
 21
1567.075460837858
 31
0.0
  0
INSERT
  5
1AC0
330
CC
100
AcDbEntity
  8
寸法線
  6
Continuous
 62
     0
370
    -2
100
AcDbBlockReference
  2
_Open30
 10
1757.465557055099
 20
1537.075460837858
 30
0.0
 41
15.0
 42
15.0
 43
15.0
 50
90.0
  0
INSERT
  5
1AC1
330
CC
100
AcDbEntity
  8
寸法線
  6
Continuous
 62
     0
370
    -2
100
AcDbBlockReference
  2
_Open30
 10
1757.465557055099
 20
1567.075460837858
 30
0.0
 41
15.0
 42
15.0
 43
15.0
 50
270.0
  0
MTEXT
  5
1AC2
330
CC
100
AcDbEntity
  8
寸法線
  6
Continuous
 62
     0
100
AcDbMText
 10
1737.465557055099
 20
1619.968861853087
 30
0.0
 40
30.0
 41
0.0
 71
     5
 72
     1
  1
30
 11
0.0000000000000001
 21
1.0
 31
0.0
 73
     1
 44
1.0
1001
ACAD
1000
MTEXTBEGIN
1070
    73
1070
     1
1070
    44
1040
1.0
1070
    74
1070
     0
1000
MTEXTEND
  0
POINT
  5
1AC3
330
CC
100
AcDbEntity
  8
Defpoints
  6
Continuous
 62
     0
100
AcDbPoint
 10
1917.465557055099
 20
1537.075460837858
 30
0.0
  0
POINT
  5
1AC4
330
CC
100
AcDbEntity
  8
Defpoints
  6
Continuous
 62
     0
100
AcDbPoint
 10
1917.465557055099
 20
1567.075460837858
 30
0.0
  0
POINT
  5
1AC5
330
CC
100
AcDbEntity
  8
Defpoints
  6
Continuous
 62
     0
100
AcDbPoint
 10
1757.465557055099
 20
1567.075460837858
 30
0.0
  0
ENDBLK
  5
D9
330
CC
100
AcDbEntity
  8
0
 48
3.0
100
AcDbBlockEnd
  0
BLOCK
  5
E5
330
DB
100
AcDbEntity
  8
0
 48
3.0
100
AcDbBlockBegin
  2
*D9
 70
     1
 10
0.0
 20
0.0
 30
0.0
  3
*D9
  1

  0
LINE
  5
1AC6
330
DB
100
AcDbEntity
  8
寸法線
  6
Continuous
 62
     0
370
    -2
100
AcDbLine
 10
1897.465557055099
 20
1537.075460837858
 30
0.0
 11
1742.465557055099
 21
1537.075460837858
 31
0.0
  0
LINE
  5
1AC7
330
DB
100
AcDbEntity
  8
寸法線
  6
Continuous
 62
     0
370
    -2
100
AcDbLine
 10
1897.465557055099
 20
1313.075460837858
 30
0.0
 11
1742.465557055099
 21
1313.075460837858
 31
0.0
  0
LINE
  5
1AC8
330
DB
100
AcDbEntity
  8
寸法線
  6
Continuous
 62
     0
370
    -2
100
AcDbLine
 10
1757.465557055099
 20
1522.075460837858
 30
0.0
 11
1757.465557055099
 21
1328.075460837858
 31
0.0
  0
INSERT
  5
1AC9
330
DB
100
AcDbEntity
  8
寸法線
  6
Continuous
 62
     0
370
    -2
100
AcDbBlockReference
  2
_Open30
 10
1757.4655570551
 20
1537.075460837858
 30
0.0
 41
15.0
 42
15.0
 43
15.0
 50
90.0
  0
INSERT
  5
1ACA
330
DB
100
AcDbEntity
  8
寸法線
  6
Continuous
 62
     0
370
    -2
100
AcDbBlockReference
  2
_Open30
 10
1757.465557055099
 20
1313.075460837858
 30
0.0
 41
15.0
 42
15.0
 43
15.0
 50
270.0
  0
MTEXT
  5
1ACB
330
DB
100
AcDbEntity
  8
寸法線
  6
Continuous
 62
     0
100
AcDbMText
 10
1737.465557055099
 20
1425.075460837859
 30
0.0
 40
30.0
 41
0.0
 71
     5
 72
     1
  1
224
 11
0.0000000000000001
 21
1.0
 31
0.0
 73
     1
 44
1.0
1001
ACAD
1000
MTEXTBEGIN
1070
    73
1070
     1
1070
    44
1040
1.0
1070
    74
1070
     0
1000
MTEXTEND
  0
POINT
  5
1ACC
330
DB
100
AcDbEntity
  8
Defpoints
  6
Continuous
 62
     0
100
AcDbPoint
 10
1917.465557055099
 20
1537.075460837858
 30
0.0
  0
POINT
  5
1ACD
330
DB
100
AcDbEntity
  8
Defpoints
  6
Continuous
 62
     0
100
AcDbPoint
 10
1917.465557055099
 20
1313.075460837858
 30
0.0
  0
POINT
  5
1ACE
330
DB
100
AcDbEntity
  8
Defpoints
  6
Continuous
 62
     0
100
AcDbPoint
 10
1757.465557055099
 20
1313.075460837858
 30
0.0
  0
ENDBLK
  5
E6
330
DB
100
AcDbEntity
  8
0
 48
3.0
100
AcDbBlockEnd
  0
BLOCK
  5
F4
330
E8
100
AcDbEntity
  8
0
 48
3.0
100
AcDbBlockBegin
  2
*D10
 70
     1
 10
0.0
 20
0.0
 30
0.0
  3
*D10
  1

  0
LINE
  5
1ACF
330
E8
100
AcDbEntity
  8
寸法線
  6
Continuous
 62
     0
370
    -2
100
AcDbLine
 10
1897.465557055099
 20
1313.075460837858
 30
0.0
 11
1742.465557055099
 21
1313.075460837858
 31
0.0
  0
LINE
  5
1AD0
330
E8
100
AcDbEntity
  8
寸法線
  6
Continuous
 62
     0
370
    -2
100
AcDbLine
 10
1897.465557055099
 20
1283.075460837858
 30
0.0
 11
1742.465557055099
 21
1283.075460837858
 31
0.0
  0
LINE
  5
1AD1
330
E8
100
AcDbEntity
  8
寸法線
  6
Continuous
 62
     0
370
    -2
100
AcDbLine
 10
1757.465557055099
 20
1328.075460837858
 30
0.0
 11
1757.465557055099
 21
1343.075460837859
 31
0.0
  0
LINE
  5
1AD2
330
E8
100
AcDbEntity
  8
寸法線
  6
Continuous
 62
     0
370
    -2
100
AcDbLine
 10
1757.465557055099
 20
1268.075460837858
 30
0.0
 11
1757.465557055099
 21
1207.288658807401
 31
0.0
  0
LINE
  5
1AD3
330
E8
100
AcDbEntity
  8
寸法線
  6
Continuous
 62
     0
370
    -2
100
AcDbLine
 10
1757.465557055099
 20
1313.075460837858
 30
0.0
 11
1757.465557055099
 21
1283.075460837858
 31
0.0
  0
INSERT
  5
1AD4
330
E8
100
AcDbEntity
  8
寸法線
  6
Continuous
 62
     0
370
    -2
100
AcDbBlockReference
  2
_Open30
 10
1757.465557055099
 20
1313.075460837858
 30
0.0
 41
15.0
 42
15.0
 43
15.0
 50
270.0
  0
INSERT
  5
1AD5
330
E8
100
AcDbEntity
  8
寸法線
  6
Continuous
 62
     0
370
    -2
100
AcDbBlockReference
  2
_Open30
 10
1757.465557055099
 20
1283.075460837858
 30
0.0
 41
15.0
 42
15.0
 43
15.0
 50
90.0
  0
MTEXT
  5
1AD6
330
E8
100
AcDbEntity
  8
寸法線
  6
Continuous
 62
     0
100
AcDbMText
 10
1737.465557055099
 20
1230.18205982263
 30
0.0
 40
30.0
 41
0.0
 71
     5
 72
     1
  1
30
 11
0.0000000000000001
 21
1.0
 31
0.0
 73
     1
 44
1.0
1001
ACAD
1000
MTEXTBEGIN
1070
    73
1070
     1
1070
    44
1040
1.0
1070
    74
1070
     0
1000
MTEXTEND
  0
POINT
  5
1AD7
330
E8
100
AcDbEntity
  8
Defpoints
  6
Continuous
 62
     0
100
AcDbPoint
 10
1917.465557055099
 20
1313.075460837858
 30
0.0
  0
POINT
  5
1AD8
330
E8
100
AcDbEntity
  8
Defpoints
  6
Continuous
 62
     0
100
AcDbPoint
 10
1917.465557055099
 20
1283.075460837858
 30
0.0
  0
POINT
  5
1AD9
330
E8
100
AcDbEntity
  8
Defpoints
  6
Continuous
 62
     0
100
AcDbPoint
 10
1757.465557055099
 20
1283.075460837858
 30
0.0
  0
ENDBLK
  5
F5
330
E8
100
AcDbEntity
  8
0
 48
3.0
100
AcDbBlockEnd
  0
BLOCK
  5
101
330
F7
100
AcDbEntity
  8
0
 48
3.0
100
AcDbBlockBegin
  2
*D11
 70
     1
 10
0.0
 20
0.0
 30
0.0
  3
*D11
  1

  0
LINE
  5
1ADA
330
F7
100
AcDbEntity
  8
寸法線
  6
Continuous
 62
     0
370
    -2
100
AcDbLine
 10
1897.465557055099
 20
1567.075460837858
 30
0.0
 11
1662.465557055099
 21
1567.075460837858
 31
0.0
  0
LINE
  5
1ADB
330
F7
100
AcDbEntity
  8
寸法線
  6
Continuous
 62
     0
370
    -2
100
AcDbLine
 10
1897.465557055099
 20
1283.075460837858
 30
0.0
 11
1662.465557055099
 21
1283.075460837858
 31
0.0
  0
LINE
  5
1ADC
330
F7
100
AcDbEntity
  8
寸法線
  6
Continuous
 62
     0
370
    -2
100
AcDbLine
 10
1677.4655570551
 20
1552.075460837858
 30
0.0
 11
1677.465557055099
 21
1298.075460837858
 31
0.0
  0
INSERT
  5
1ADD
330
F7
100
AcDbEntity
  8
寸法線
  6
Continuous
 62
     0
370
    -2
100
AcDbBlockReference
  2
_Open30
 10
1677.4655570551
 20
1567.075460837858
 30
0.0
 41
15.0
 42
15.0
 43
15.0
 50
90.0
  0
INSERT
  5
1ADE
330
F7
100
AcDbEntity
  8
寸法線
  6
Continuous
 62
     0
370
    -2
100
AcDbBlockReference
  2
_Open30
 10
1677.465557055099
 20
1283.075460837858
 30
0.0
 41
15.0
 42
15.0
 43
15.0
 50
270.0
  0
MTEXT
  5
1ADF
330
F7
100
AcDbEntity
  8
寸法線
  6
Continuous
 62
     0
100
AcDbMText
 10
1657.465557055099
 20
1425.075460837858
 30
0.0
 40
30.0
 41
0.0
 71
     5
 72
     1
  1
284
 11
0.0000000000000001
 21
1.0
 31
0.0
 73
     1
 44
1.0
1001
ACAD
1000
MTEXTBEGIN
1070
    73
1070
     1
1070
    44
1040
1.0
1070
    74
1070
     0
1000
MTEXTEND
  0
POINT
  5
1AE0
330
F7
100
AcDbEntity
  8
Defpoints
  6
Continuous
 62
     0
100
AcDbPoint
 10
1917.465557055099
 20
1567.075460837858
 30
0.0
  0
POINT
  5
1AE1
330
F7
100
AcDbEntity
  8
Defpoints
  6
Continuous
 62
     0
100
AcDbPoint
 10
1917.465557055099
 20
1283.075460837858
 30
0.0
  0
POINT
  5
1AE2
330
F7
100
AcDbEntity
  8
Defpoints
  6
Continuous
 62
     0
100
AcDbPoint
 10
1677.465557055099
 20
1283.075460837858
 30
0.0
  0
ENDBLK
  5
102
330
F7
100
AcDbEntity
  8
0
 48
3.0
100
AcDbBlockEnd
  0
BLOCK
  5
111
330
105
100
AcDbEntity
  8
0
 48
3.0
100
AcDbBlockBegin
  2
*D12
 70
     1
 10
0.0
 20
0.0
 30
0.0
  3
*D12
  1

  0
LINE
  5
1A99
330
105
100
AcDbEntity
  8
寸法線
  6
Continuous
 62
     0
370
    -2
100
AcDbLine
 10
1437.465557055099
 20
802.5969119961709
 30
0.0
 11
1542.467599878604
 21
802.5969119961709
 31
0.0
  0
LINE
  5
1A9A
330
105
100
AcDbEntity
  8
寸法線
  6
Continuous
 62
     0
370
    -2
100
AcDbLine
 10
1437.465557055099
 20
821.5969119961709
 30
0.0
 11
1542.467599878604
 21
821.5969119961709
 31
0.0
  0
LINE
  5
1A9B
330
105
100
AcDbEntity
  8
寸法線
  6
Continuous
 62
     0
370
    -2
100
AcDbLine
 10
1527.467599878604
 20
787.596911996171
 30
0.0
 11
1527.467599878604
 21
772.5969119961709
 31
0.0
  0
LINE
  5
1A9C
330
105
100
AcDbEntity
  8
寸法線
  6
Continuous
 62
     0
370
    -2
100
AcDbLine
 10
1527.467599878604
 20
836.5969119961709
 30
0.0
 11
1527.467599878604
 21
894.4903130113994
 31
0.0
  0
LINE
  5
1A9D
330
105
100
AcDbEntity
  8
寸法線
  6
Continuous
 62
     0
370
    -2
100
AcDbLine
 10
1527.467599878604
 20
802.5969119961709
 30
0.0
 11
1527.467599878604
 21
821.5969119961709
 31
0.0
  0
INSERT
  5
1A9E
330
105
100
AcDbEntity
  8
寸法線
  6
Continuous
 62
     0
370
    -2
100
AcDbBlockReference
  2
_Open30
 10
1527.467599878604
 20
802.5969119961709
 30
0.0
 41
15.0
 42
15.0
 43
15.0
 50
90.0
  0
INSERT
  5
1A9F
330
105
100
AcDbEntity
  8
寸法線
  6
Continuous
 62
     0
370
    -2
100
AcDbBlockReference
  2
_Open30
 10
1527.467599878604
 20
821.5969119961709
 30
0.0
 41
15.0
 42
15.0
 43
15.0
 50
270.0
  0
MTEXT
  5
1AA0
330
105
100
AcDbEntity
  8
寸法線
  6
Continuous
 62
     0
100
AcDbMText
 10
1507.467599878603
 20
873.0436125037854
 30
0.0
 40
30.0
 41
0.0
 71
     5
 72
     1
  1
19
 11
0.0000000000000001
 21
1.0
 31
0.0
 73
     1
 44
1.0
1001
ACAD
1000
MTEXTBEGIN
1070
    73
1070
     1
1070
    44
1040
1.0
1070
    74
1070
     0
1000
MTEXTEND
  0
POINT
  5
1AA1
330
105
100
AcDbEntity
  8
Defpoints
  6
Continuous
 62
     0
100
AcDbPoint
 10
1417.465557055099
 20
802.5969119961709
 30
0.0
  0
POINT
  5
1AA2
330
105
100
AcDbEntity
  8
Defpoints
  6
Continuous
 62
     0
100
AcDbPoint
 10
1417.465557055099
 20
821.5969119961709
 30
0.0
  0
POINT
  5
1AA3
330
105
100
AcDbEntity
  8
Defpoints
  6
Continuous
 62
     0
100
AcDbPoint
 10
1527.467599878604
 20
821.5969119961709
 30
0.0
  0
ENDBLK
  5
112
330
105
100
AcDbEntity
  8
0
 48
3.0
100
AcDbBlockEnd
  0
BLOCK
  5
120
330
114
100
AcDbEntity
  8
0
 48
3.0
100
AcDbBlockBegin
  2
*D13
 70
     1
 10
0.0
 20
0.0
 30
0.0
  3
*D13
  1

  0
LINE
  5
1AA4
330
114
100
AcDbEntity
  8
寸法線
  6
Continuous
 62
     0
370
    -2
100
AcDbLine
 10
1437.465557055099
 20
791.596911996171
 30
0.0
 11
1622.467599878604
 21
791.596911996171
 31
0.0
  0
LINE
  5
1AA5
330
114
100
AcDbEntity
  8
寸法線
  6
Continuous
 62
     0
370
    -2
100
AcDbLine
 10
1437.465557055099
 20
821.5969119961709
 30
0.0
 11
1622.467599878604
 21
821.5969119961709
 31
0.0
  0
LINE
  5
1AA6
330
114
100
AcDbEntity
  8
寸法線
  6
Continuous
 62
     0
370
    -2
100
AcDbLine
 10
1607.467599878604
 20
776.596911996171
 30
0.0
 11
1607.467599878604
 21
761.596911996171
 31
0.0
  0
LINE
  5
1AA7
330
114
100
AcDbEntity
  8
寸法線
  6
Continuous
 62
     0
370
    -2
100
AcDbLine
 10
1607.467599878604
 20
836.5969119961709
 30
0.0
 11
1607.467599878604
 21
897.3837140266279
 31
0.0
  0
LINE
  5
1AA8
330
114
100
AcDbEntity
  8
寸法線
  6
Continuous
 62
     0
370
    -2
100
AcDbLine
 10
1607.467599878604
 20
791.596911996171
 30
0.0
 11
1607.467599878604
 21
821.5969119961709
 31
0.0
  0
INSERT
  5
1AA9
330
114
100
AcDbEntity
  8
寸法線
  6
Continuous
 62
     0
370
    -2
100
AcDbBlockReference
  2
_Open30
 10
1607.467599878604
 20
791.596911996171
 30
0.0
 41
15.0
 42
15.0
 43
15.0
 50
90.0
  0
INSERT
  5
1AAA
330
114
100
AcDbEntity
  8
寸法線
  6
Continuous
 62
     0
370
    -2
100
AcDbBlockReference
  2
_Open30
 10
1607.467599878604
 20
821.5969119961709
 30
0.0
 41
15.0
 42
15.0
 43
15.0
 50
270.0
  0
MTEXT
  5
1AAB
330
114
100
AcDbEntity
  8
寸法線
  6
Continuous
 62
     0
100
AcDbMText
 10
1587.467599878604
 20
874.4903130113996
 30
0.0
 40
30.0
 41
0.0
 71
     5
 72
     1
  1
30
 11
0.0000000000000001
 21
1.0
 31
0.0
 73
     1
 44
1.0
1001
ACAD
1000
MTEXTBEGIN
1070
    73
1070
     1
1070
    44
1040
1.0
1070
    74
1070
     0
1000
MTEXTEND
  0
POINT
  5
1AAC
330
114
100
AcDbEntity
  8
Defpoints
  6
Continuous
 62
     0
100
AcDbPoint
 10
1417.465557055099
 20
791.596911996171
 30
0.0
  0
POINT
  5
1AAD
330
114
100
AcDbEntity
  8
Defpoints
  6
Continuous
 62
     0
100
AcDbPoint
 10
1417.465557055099
 20
821.5969119961709
 30
0.0
  0
POINT
  5
1AAE
330
114
100
AcDbEntity
  8
Defpoints
  6
Continuous
 62
     0
100
AcDbPoint
 10
1607.467599878604
 20
821.5969119961709
 30
0.0
  0
ENDBLK
  5
121
330
114
100
AcDbEntity
  8
0
 48
3.0
100
AcDbBlockEnd
  0
BLOCK
  5
1840
330
183B
100
AcDbEntity
  8
0
 48
3.0
100
AcDbBlockBegin
  2
鎌下
 70
     0
 10
0.0
 20
0.0
 30
0.0
  3
鎌下
  1

  0
MTEXT
  5
183C
330
183B
100
AcDbEntity
  8
外枠
  6
Continuous
100
AcDbMText
 10
40.55333581259037
 20
-88.14888116777728
 30
0.0
 40
28.17460800000001
 41
43.8527
 71
     1
 72
     5
  1
{\fHGSeikaishotaiPRO|b0|i0|c128|p65;下}
 73
     1
 44
1.0
1001
ACAD
1000
MTEXTBEGIN
1070
    73
1070
     1
1070
    44
1040
1.0
1070
    74
1070
     0
1000
MTEXTEND
  0
MTEXT
  5
183D
330
183B
100
AcDbEntity
  8
外枠
  6
Continuous
100
AcDbMText
 10
40.55333581259037
 20
-45.61885629864991
 30
0.0
 40
28.17460800000001
 41
43.8527
 71
     1
 72
     5
  1
{\fHGSeikaishotaiPRO|b0|i0|c128|p65;鎌}
 73
     1
 44
1.0
1001
ACAD
1000
MTEXTBEGIN
1070
    73
1070
     1
1070
    44
1040
1.0
1070
    74
1070
     0
1000
MTEXTEND
  0
ELLIPSE
  5
183E
330
183B
100
AcDbEntity
  8
外枠
  6
Continuous
100
AcDbEllipse
 10
61.68068686355036
 20
-84.59863033186412
 30
0.0
 11
0.0
 21
-47.8594442149426
 31
0.0
210
0.0
220
0.0
230
1.0
 40
0.7999999999999857
 41
0.0
 42
6.283185307179586
  0
ENDBLK
  5
1841
330
183B
100
AcDbEntity
  8
0
 48
3.0
100
AcDbBlockEnd
  0
BLOCK
  5
1920
330
191F
100
AcDbEntity
  8
0
 48
3.0
100
AcDbBlockBegin
  2
*U15
 70
     1
 10
0.0
 20
0.0
 30
0.0
  3
*U15
  1

  0
LINE
  5
1926
330
191F
100
AcDbEntity
  8
本体
  6
Continuous
100
AcDbLine
 10
1.499998800000184
 20
112.0
 30
0.0
 11
1.499998800000184
 21
52.5
 31
0.0
  0
LINE
  5
1927
330
191F
100
AcDbEntity
  8
本体
  6
Continuous
100
AcDbLine
 10
-1.500001199999815
 20
112.0
 30
0.0
 11
-1.500001199999815
 21
52.5
 31
0.0
  0
LINE
  5
1928
330
191F
100
AcDbEntity
  8
本体
  6
Continuous
100
AcDbLine
 10
1.499998800000184
 20
47.5
 30
0.0
 11
1.499998800000184
 21
-47.5
 31
0.0
  0
LINE
  5
1929
330
191F
100
AcDbEntity
  8
本体
  6
Continuous
100
AcDbLine
 10
-1.500001199999815
 20
47.5
 30
0.0
 11
-1.500001199999815
 21
-47.5
 31
0.0
  0
LINE
  5
192A
330
191F
100
AcDbEntity
  8
本体
  6
Continuous
100
AcDbLine
 10
1.499998800000184
 20
-52.5
 30
0.0
 11
1.499998800000184
 21
-112.0000000000002
 31
0.0
  0
LINE
  5
192B
330
191F
100
AcDbEntity
  8
本体
  6
Continuous
100
AcDbLine
 10
-1.500001199999815
 20
-52.5
 30
0.0
 11
-1.500001199999815
 21
-112.0000000000002
 31
0.0
  0
LINE
  5
192C
330
191F
100
AcDbEntity
  8
エンボス
  6
Continuous
100
AcDbLine
 10
1.500000000000227
 20
-92.10000480000008
 30
0.0
 11
-1.499999999999772
 21
-93.3000047999999
 31
0.0
  0
LINE
  5
192D
330
191F
100
AcDbEntity
  8
エンボス
  6
Continuous
100
AcDbLine
 10
1.500000000000227
 20
-101.7000048
 30
0.0
 11
-1.499999999999772
 21
-100.5000047999999
 31
0.0
  0
LINE
  5
192E
330
191F
100
AcDbEntity
  8
エンボス
  6
Continuous
100
AcDbLine
 10
-1.499999999999772
 20
-98.70000479999999
 30
0.0
 11
1.500000000000227
 21
-97.50000479999995
 31
0.0
  0
LINE
  5
192F
330
191F
100
AcDbEntity
  8
エンボス
  6
Continuous
100
AcDbLine
 10
-1.499999999999772
 20
-105.9000048
 30
0.0
 11
1.500000000000227
 21
-107.1000048000001
 31
0.0
  0
LINE
  5
1930
330
191F
100
AcDbEntity
  8
エンボス
  6
Continuous
100
AcDbLine
 10
1.500000000000227
 20
-108.9000048
 30
0.0
 11
-1.499999999999772
 21
-110.1000048000001
 31
0.0
  0
LINE
  5
1931
330
191F
100
AcDbEntity
  8
エンボス
  6
Continuous
100
AcDbLine
 10
-1.499999999999772
 20
-89.19886802276801
 30
0.0
 11
1.500000000000227
 21
-90.39886802276805
 31
0.0
  0
LINE
  5
1932
330
191F
100
AcDbEntity
  8
エンボス
  6
Continuous
100
AcDbLine
 10
-1.499999999999772
 20
-81.99886802276797
 30
0.0
 11
1.500000000000227
 21
-80.79886802276792
 31
0.0
  0
LINE
  5
1933
330
191F
100
AcDbEntity
  8
エンボス
  6
Continuous
100
AcDbLine
 10
1.500000000000227
 20
-84.99886802276796
 30
0.0
 11
-1.499999999999772
 21
-83.79886802276791
 31
0.0
  0
LINE
  5
1934
330
191F
100
AcDbEntity
  8
エンボス
  6
Continuous
100
AcDbLine
 10
1.500000000000227
 20
-58.47396724362216
 30
0.0
 11
-1.499999999999772
 21
-59.67396724362197
 31
0.0
  0
LINE
  5
1935
330
191F
100
AcDbEntity
  8
エンボス
  6
Continuous
100
AcDbLine
 10
1.500000000000227
 20
-68.07396724362206
 30
0.0
 11
-1.499999999999772
 21
-66.87396724362201
 31
0.0
  0
LINE
  5
1936
330
191F
100
AcDbEntity
  8
エンボス
  6
Continuous
100
AcDbLine
 10
-1.499999999999772
 20
-65.07396724362206
 30
0.0
 11
1.500000000000227
 21
-63.87396724362202
 31
0.0
  0
LINE
  5
1937
330
191F
100
AcDbEntity
  8
エンボス
  6
Continuous
100
AcDbLine
 10
-1.499999999999772
 20
-55.34906646447621
 30
0.0
 11
1.500000000000227
 21
-56.54906646447625
 31
0.0
  0
LINE
  5
1938
330
191F
100
AcDbEntity
  8
エンボス
  6
Continuous
100
AcDbLine
 10
1.500000000000227
 20
-75.39886802276805
 30
0.0
 11
-1.499999999999772
 21
-76.59886802276787
 31
0.0
  0
LINE
  5
1939
330
191F
100
AcDbEntity
  8
エンボス
  6
Continuous
100
AcDbLine
 10
-1.499999999999772
 20
-72.27396724362211
 30
0.0
 11
1.500000000000227
 21
-73.47396724362216
 31
0.0
  0
LINE
  5
193A
330
191F
100
AcDbEntity
  8
エンボス
  6
Continuous
100
AcDbLine
 10
1.500001199999815
 20
-41.60000527999978
 30
0.0
 11
-1.499998800000184
 21
-40.40000527999973
 31
0.0
  0
LINE
  5
193B
330
191F
100
AcDbEntity
  8
エンボス
  6
Continuous
100
AcDbLine
 10
-1.499998800000184
 20
-38.60000527999978
 30
0.0
 11
1.500001199999815
 21
-37.40000527999973
 31
0.0
  0
LINE
  5
193C
330
191F
100
AcDbEntity
  8
エンボス
  6
Continuous
100
AcDbLine
 10
-1.499998800000184
 20
-21.80000527999983
 30
0.0
 11
1.500001199999815
 21
-20.60000527999978
 31
0.0
  0
LINE
  5
193D
330
191F
100
AcDbEntity
  8
エンボス
  6
Continuous
100
AcDbLine
 10
1.500001199999815
 20
-24.80000527999982
 30
0.0
 11
-1.499998800000184
 21
-23.60000527999978
 31
0.0
  0
LINE
  5
193E
330
191F
100
AcDbEntity
  8
エンボス
  6
Continuous
100
AcDbLine
 10
1.500001199999815
 20
-15.20000527999991
 30
0.0
 11
-1.499998800000184
 21
-16.40000527999973
 31
0.0
  0
LINE
  5
193F
330
191F
100
AcDbEntity
  8
エンボス
  6
Continuous
100
AcDbLine
 10
-1.499998800000184
 20
-12.20000527999991
 30
0.0
 11
1.500001199999815
 21
-13.40000527999973
 31
0.0
  0
LINE
  5
1940
330
191F
100
AcDbEntity
  8
エンボス
  6
Continuous
100
AcDbLine
 10
-1.499998800000184
 20
-29.00000527999987
 30
0.0
 11
1.500001199999815
 21
-30.20000527999992
 31
0.0
  0
LINE
  5
1941
330
191F
100
AcDbEntity
  8
エンボス
  6
Continuous
100
AcDbLine
 10
1.500001199999815
 20
-32.00000527999987
 30
0.0
 11
-1.499998800000184
 21
-33.20000527999992
 31
0.0
  0
LINE
  5
1942
330
191F
100
AcDbEntity
  8
エンボス
  6
Continuous
100
AcDbLine
 10
-1.499999999999772
 20
-5.000004799999942
 30
0.0
 11
1.500000000000227
 21
-3.800004799999896
 31
0.0
  0
LINE
  5
1943
330
191F
100
AcDbEntity
  8
エンボス
  6
Continuous
100
AcDbLine
 10
1.500000000000227
 20
-8.000004799999942
 30
0.0
 11
-1.499999999999772
 21
-6.800004799999896
 31
0.0
  0
LINE
  5
1944
330
191F
100
AcDbEntity
  8
エンボス
  6
Continuous
100
AcDbLine
 10
1.500000000000227
 20
1.599995199999966
 30
0.0
 11
-1.499999999999772
 21
0.3999951999999212
 31
0.0
  0
LINE
  5
1945
330
191F
100
AcDbEntity
  8
エンボス
  6
Continuous
100
AcDbLine
 10
-1.499999999999772
 20
4.599995199999966
 30
0.0
 11
1.500000000000227
 21
3.399995199999921
 31
0.0
  0
LINE
  5
1946
330
191F
100
AcDbEntity
  8
エンボス
  6
Continuous
100
AcDbLine
 10
-1.499999999999772
 20
21.39999519999992
 30
0.0
 11
1.500000000000227
 21
20.1999952000001
 31
0.0
  0
LINE
  5
1947
330
191F
100
AcDbEntity
  8
エンボス
  6
Continuous
100
AcDbLine
 10
1.500000000000227
 20
18.39999519999992
 30
0.0
 11
-1.499999999999772
 21
17.1999952000001
 31
0.0
  0
LINE
  5
1948
330
191F
100
AcDbEntity
  8
エンボス
  6
Continuous
100
AcDbLine
 10
1.500000000000227
 20
8.799995200000012
 30
0.0
 11
-1.499999999999772
 21
9.999995200000057
 31
0.0
  0
LINE
  5
1949
330
191F
100
AcDbEntity
  8
エンボス
  6
Continuous
100
AcDbLine
 10
-1.499999999999772
 20
11.79999520000001
 30
0.0
 11
1.500000000000227
 21
12.99999520000006
 31
0.0
  0
LINE
  5
194A
330
191F
100
AcDbEntity
  8
エンボス
  6
Continuous
100
AcDbLine
 10
-1.499999999999772
 20
28.59999519999997
 30
0.0
 11
1.500000000000227
 21
29.79999520000001
 31
0.0
  0
LINE
  5
194B
330
191F
100
AcDbEntity
  8
エンボス
  6
Continuous
100
AcDbLine
 10
1.500000000000227
 20
25.59999519999997
 30
0.0
 11
-1.499999999999772
 21
26.79999520000001
 31
0.0
  0
LINE
  5
194C
330
191F
100
AcDbEntity
  8
エンボス
  6
Continuous
100
AcDbLine
 10
1.500000000000227
 20
35.1999952000001
 30
0.0
 11
-1.499999999999772
 21
33.99999520000006
 31
0.0
  0
LINE
  5
194D
330
191F
100
AcDbEntity
  8
エンボス
  6
Continuous
100
AcDbLine
 10
-1.499999999999772
 20
38.1999952000001
 30
0.0
 11
1.500000000000227
 21
36.99999520000006
 31
0.0
  0
LINE
  5
194E
330
191F
100
AcDbEntity
  8
エンボス
  6
Continuous
100
AcDbLine
 10
1.500000000000227
 20
42.39999519999992
 30
0.0
 11
-1.499999999999772
 21
43.59999519999997
 31
0.0
  0
LINE
  5
194F
330
191F
100
AcDbEntity
  8
エンボス
  6
Continuous
100
AcDbLine
 10
-1.499999999999772
 20
45.39999519999992
 30
0.0
 11
1.500000000000227
 21
46.59999519999996
 31
0.0
  0
LINE
  5
1950
330
191F
100
AcDbEntity
  8
エンボス
  6
Continuous
100
AcDbLine
 10
-1.499999999999772
 20
92.22603275637789
 30
0.0
 11
1.500000000000227
 21
91.02603275637784
 31
0.0
  0
LINE
  5
1951
330
191F
100
AcDbEntity
  8
エンボス
  6
Continuous
100
AcDbLine
 10
1.500000000000227
 20
89.10113197723195
 30
0.0
 11
-1.499999999999772
 21
87.90113197723213
 31
0.0
  0
LINE
  5
1952
330
191F
100
AcDbEntity
  8
エンボス
  6
Continuous
100
AcDbLine
 10
1.500000000000227
 20
79.50113197723204
 30
0.0
 11
-1.499999999999772
 21
80.70113197723207
 31
0.0
  0
LINE
  5
1953
330
191F
100
AcDbEntity
  8
エンボス
  6
Continuous
100
AcDbLine
 10
-1.499999999999772
 20
82.50113197723203
 30
0.0
 11
1.500000000000227
 21
83.70113197723208
 31
0.0
  0
LINE
  5
1954
330
191F
100
AcDbEntity
  8
エンボス
  6
Continuous
100
AcDbLine
 10
-1.499999999999772
 20
75.30113197723199
 30
0.0
 11
1.500000000000227
 21
74.10113197723195
 31
0.0
  0
LINE
  5
1955
330
191F
100
AcDbEntity
  8
エンボス
  6
Continuous
100
AcDbLine
 10
1.500000000000227
 20
55.59999519999997
 30
0.0
 11
-1.499999999999772
 21
54.39999519999992
 31
0.0
  0
LINE
  5
1956
330
191F
100
AcDbEntity
  8
エンボス
  6
Continuous
100
AcDbLine
 10
-1.499999999999772
 20
58.59999519999997
 30
0.0
 11
1.500000000000227
 21
57.39999519999992
 31
0.0
  0
LINE
  5
1957
330
191F
100
AcDbEntity
  8
エンボス
  6
Continuous
100
AcDbLine
 10
-1.499999999999772
 20
65.79999520000001
 30
0.0
 11
1.500000000000227
 21
66.99999520000005
 31
0.0
  0
LINE
  5
1958
330
191F
100
AcDbEntity
  8
エンボス
  6
Continuous
100
AcDbLine
 10
1.500000000000227
 20
62.79999520000001
 30
0.0
 11
-1.499999999999772
 21
63.99999520000005
 31
0.0
  0
LINE
  5
1959
330
191F
100
AcDbEntity
  8
エンボス
  6
Continuous
100
AcDbLine
 10
1.500000000000227
 20
72.39999519999992
 30
0.0
 11
-1.499999999999772
 21
71.19999520000011
 31
0.0
  0
LINE
  5
195A
330
191F
100
AcDbEntity
  8
エンボス
  6
Continuous
100
AcDbLine
 10
-1.499999999999772
 20
109.1509335355238
 30
0.0
 11
1.500000000000227
 21
107.9509335355237
 31
0.0
  0
LINE
  5
195B
330
191F
100
AcDbEntity
  8
エンボス
  6
Continuous
100
AcDbLine
 10
-1.499999999999772
 20
99.42603275637793
 30
0.0
 11
1.500000000000227
 21
100.626032756378
 31
0.0
  0
LINE
  5
195C
330
191F
100
AcDbEntity
  8
エンボス
  6
Continuous
100
AcDbLine
 10
1.500000000000227
 20
96.42603275637794
 30
0.0
 11
-1.499999999999772
 21
97.62603275637799
 31
0.0
  0
LINE
  5
195D
330
191F
100
AcDbEntity
  8
エンボス
  6
Continuous
100
AcDbLine
 10
1.500000000000227
 20
106.0260327563778
 30
0.0
 11
-1.499999999999772
 21
104.826032756378
 31
0.0
  0
ENDBLK
  5
1921
330
191F
100
AcDbEntity
  8
0
 48
3.0
100
AcDbBlockEnd
  0
BLOCK
  5
1923
330
1922
100
AcDbEntity
  8
0
 48
3.0
100
AcDbBlockBegin
  2
*U16
 70
     1
 10
0.0
 20
0.0
 30
0.0
  3
*U16
  1

  0
INSERT
  5
196C
330
1922
100
AcDbEntity
  8
枠寸法
  6
ByBlock
 62
     0
370
    -2
380
     1
100
AcDbBlockReference
  2
*U15
 10
0.0
 20
0.0
 30
0.0
  0
INSERT
  5
196D
330
1922
100
AcDbEntity
  8
枠寸法
  6
ByBlock
 62
     0
370
    -2
380
     1
100
AcDbBlockReference
  2
*U15
 10
12.56
 20
0.0
 30
0.0
  0
INSERT
  5
196E
330
1922
100
AcDbEntity
  8
枠寸法
  6
ByBlock
 62
     0
370
    -2
380
     1
100
AcDbBlockReference
  2
*U15
 10
25.12
 20
0.0
 30
0.0
  0
INSERT
  5
196F
330
1922
100
AcDbEntity
  8
枠寸法
  6
ByBlock
 62
     0
370
    -2
380
     1
100
AcDbBlockReference
  2
*U15
 10
37.68
 20
0.0
 30
0.0
  0
INSERT
  5
1970
330
1922
100
AcDbEntity
  8
枠寸法
  6
ByBlock
 62
     0
370
    -2
380
     1
100
AcDbBlockReference
  2
*U15
 10
50.24
 20
0.0
 30
0.0
  0
INSERT
  5
1971
330
1922
100
AcDbEntity
  8
枠寸法
  6
ByBlock
 62
     0
370
    -2
380
     1
100
AcDbBlockReference
  2
*U15
 10
62.80000000000001
 20
0.0
 30
0.0
  0
INSERT
  5
1972
330
1922
100
AcDbEntity
  8
枠寸法
  6
ByBlock
 62
     0
370
    -2
380
     1
100
AcDbBlockReference
  2
*U15
 10
75.36
 20
0.0
 30
0.0
  0
INSERT
  5
1973
330
1922
100
AcDbEntity
  8
枠寸法
  6
ByBlock
 62
     0
370
    -2
380
     1
100
AcDbBlockReference
  2
*U15
 10
87.91999999999999
 20
0.0
 30
0.0
  0
INSERT
  5
1974
330
1922
100
AcDbEntity
  8
枠寸法
  6
ByBlock
 62
     0
370
    -2
380
     1
100
AcDbBlockReference
  2
*U15
 10
100.48
 20
0.0
 30
0.0
  0
INSERT
  5
1975
330
1922
100
AcDbEntity
  8
枠寸法
  6
ByBlock
 62
     0
370
    -2
380
     1
100
AcDbBlockReference
  2
*U15
 10
113.04
 20
0.0
 30
0.0
  0
INSERT
  5
1976
330
1922
100
AcDbEntity
  8
枠寸法
  6
ByBlock
 62
     0
370
    -2
380
     1
100
AcDbBlockReference
  2
*U15
 10
125.6
 20
0.0
 30
0.0
  0
INSERT
  5
1977
330
1922
100
AcDbEntity
  8
枠寸法
  6
ByBlock
 62
     0
370
    -2
380
     1
100
AcDbBlockReference
  2
*U15
 10
138.16
 20
0.0
 30
0.0
  0
INSERT
  5
1978
330
1922
100
AcDbEntity
  8
枠寸法
  6
ByBlock
 62
     0
370
    -2
380
     1
100
AcDbBlockReference
  2
*U15
 10
150.72
 20
0.0
 30
0.0
  0
INSERT
  5
1979
330
1922
100
AcDbEntity
  8
枠寸法
  6
ByBlock
 62
     0
370
    -2
380
     1
100
AcDbBlockReference
  2
*U15
 10
163.28
 20
0.0
 30
0.0
  0
INSERT
  5
197A
330
1922
100
AcDbEntity
  8
枠寸法
  6
ByBlock
 62
     0
370
    -2
380
     1
100
AcDbBlockReference
  2
*U15
 10
175.84
 20
0.0
 30
0.0
  0
INSERT
  5
197B
330
1922
100
AcDbEntity
  8
枠寸法
  6
ByBlock
 62
     0
370
    -2
380
     1
100
AcDbBlockReference
  2
*U15
 10
188.4
 20
0.0
 30
0.0
  0
INSERT
  5
197C
330
1922
100
AcDbEntity
  8
枠寸法
  6
ByBlock
 62
     0
370
    -2
380
     1
100
AcDbBlockReference
  2
*U15
 10
200.96
 20
0.0
 30
0.0
  0
INSERT
  5
197D
330
1922
100
AcDbEntity
  8
枠寸法
  6
ByBlock
 62
     0
370
    -2
380
     1
100
AcDbBlockReference
  2
*U15
 10
213.52
 20
0.0
 30
0.0
  0
INSERT
  5
197E
330
1922
100
AcDbEntity
  8
枠寸法
  6
ByBlock
 62
     0
370
    -2
380
     1
100
AcDbBlockReference
  2
*U15
 10
226.08
 20
0.0
 30
0.0
  0
INSERT
  5
197F
330
1922
100
AcDbEntity
  8
枠寸法
  6
ByBlock
 62
     0
370
    -2
380
     1
100
AcDbBlockReference
  2
*U15
 10
238.64
 20
0.0
 30
0.0
  0
INSERT
  5
1980
330
1922
100
AcDbEntity
  8
枠寸法
  6
ByBlock
 62
     0
370
    -2
380
     1
100
AcDbBlockReference
  2
*U15
 10
251.2
 20
0.0
 30
0.0
  0
INSERT
  5
1981
330
1922
100
AcDbEntity
  8
枠寸法
  6
ByBlock
 62
     0
370
    -2
380
     1
100
AcDbBlockReference
  2
*U15
 10
263.76
 20
0.0
 30
0.0
  0
INSERT
  5
1982
330
1922
100
AcDbEntity
  8
枠寸法
  6
ByBlock
 62
     0
370
    -2
380
     1
100
AcDbBlockReference
  2
*U15
 10
276.32
 20
0.0
 30
0.0
  0
INSERT
  5
1983
330
1922
100
AcDbEntity
  8
枠寸法
  6
ByBlock
 62
     0
370
    -2
380
     1
100
AcDbBlockReference
  2
*U15
 10
288.88
 20
0.0
 30
0.0
  0
INSERT
  5
1984
330
1922
100
AcDbEntity
  8
枠寸法
  6
ByBlock
 62
     0
370
    -2
380
     1
100
AcDbBlockReference
  2
*U15
 10
301.44
 20
0.0
 30
0.0
  0
INSERT
  5
1985
330
1922
100
AcDbEntity
  8
枠寸法
  6
ByBlock
 62
     0
370
    -2
380
     1
100
AcDbBlockReference
  2
*U15
 10
314.0
 20
0.0
 30
0.0
  0
INSERT
  5
1986
330
1922
100
AcDbEntity
  8
枠寸法
  6
ByBlock
 62
     0
370
    -2
380
     1
100
AcDbBlockReference
  2
*U15
 10
326.56
 20
0.0
 30
0.0
  0
INSERT
  5
1987
330
1922
100
AcDbEntity
  8
枠寸法
  6
ByBlock
 62
     0
370
    -2
380
     1
100
AcDbBlockReference
  2
*U15
 10
339.12
 20
0.0
 30
0.0
  0
INSERT
  5
1988
330
1922
100
AcDbEntity
  8
枠寸法
  6
ByBlock
 62
     0
370
    -2
380
     1
100
AcDbBlockReference
  2
*U15
 10
351.68
 20
0.0
 30
0.0
  0
INSERT
  5
1989
330
1922
100
AcDbEntity
  8
枠寸法
  6
ByBlock
 62
     0
370
    -2
380
     1
100
AcDbBlockReference
  2
*U15
 10
364.24
 20
0.0
 30
0.0
  0
INSERT
  5
198A
330
1922
100
AcDbEntity
  8
枠寸法
  6
ByBlock
 62
     0
370
    -2
380
     1
100
AcDbBlockReference
  2
*U15
 10
376.8
 20
0.0
 30
0.0
  0
INSERT
  5
198B
330
1922
100
AcDbEntity
  8
枠寸法
  6
ByBlock
 62
     0
370
    -2
380
     1
100
AcDbBlockReference
  2
*U15
 10
389.36
 20
0.0
 30
0.0
  0
INSERT
  5
198C
330
1922
100
AcDbEntity
  8
枠寸法
  6
ByBlock
 62
     0
370
    -2
380
     1
100
AcDbBlockReference
  2
*U15
 10
401.92
 20
0.0
 30
0.0
  0
INSERT
  5
198D
330
1922
100
AcDbEntity
  8
枠寸法
  6
ByBlock
 62
     0
370
    -2
380
     1
100
AcDbBlockReference
  2
*U15
 10
414.48
 20
0.0
 30
0.0
  0
INSERT
  5
198E
330
1922
100
AcDbEntity
  8
枠寸法
  6
ByBlock
 62
     0
370
    -2
380
     1
100
AcDbBlockReference
  2
*U15
 10
427.04
 20
0.0
 30
0.0
  0
INSERT
  5
198F
330
1922
100
AcDbEntity
  8
枠寸法
  6
ByBlock
 62
     0
370
    -2
380
     1
100
AcDbBlockReference
  2
*U15
 10
439.5999999999999
 20
0.0
 30
0.0
  0
INSERT
  5
1990
330
1922
100
AcDbEntity
  8
枠寸法
  6
ByBlock
 62
     0
370
    -2
380
     1
100
AcDbBlockReference
  2
*U15
 10
452.16
 20
0.0
 30
0.0
  0
INSERT
  5
1991
330
1922
100
AcDbEntity
  8
枠寸法
  6
ByBlock
 62
     0
370
    -2
380
     1
100
AcDbBlockReference
  2
*U15
 10
464.72
 20
0.0
 30
0.0
  0
INSERT
  5
1992
330
1922
100
AcDbEntity
  8
枠寸法
  6
ByBlock
 62
     0
370
    -2
380
     1
100
AcDbBlockReference
  2
*U15
 10
477.28
 20
0.0
 30
0.0
  0
INSERT
  5
1993
330
1922
100
AcDbEntity
  8
枠寸法
  6
ByBlock
 62
     0
370
    -2
380
     1
100
AcDbBlockReference
  2
*U15
 10
489.84
 20
0.0
 30
0.0
  0
INSERT
  5
1994
330
1922
100
AcDbEntity
  8
枠寸法
  6
ByBlock
 62
     0
370
    -2
380
     1
100
AcDbBlockReference
  2
*U15
 10
502.4
 20
0.0
 30
0.0
  0
INSERT
  5
1995
330
1922
100
AcDbEntity
  8
枠寸法
  6
ByBlock
 62
     0
370
    -2
380
     1
100
AcDbBlockReference
  2
*U15
 10
514.96
 20
0.0
 30
0.0
  0
INSERT
  5
1996
330
1922
100
AcDbEntity
  8
枠寸法
  6
ByBlock
 62
     0
370
    -2
380
     1
100
AcDbBlockReference
  2
*U15
 10
527.5199999999999
 20
0.0
 30
0.0
  0
INSERT
  5
1997
330
1922
100
AcDbEntity
  8
枠寸法
  6
ByBlock
 62
     0
370
    -2
380
     1
100
AcDbBlockReference
  2
*U15
 10
540.08
 20
0.0
 30
0.0
  0
INSERT
  5
1998
330
1922
100
AcDbEntity
  8
枠寸法
  6
ByBlock
 62
     0
370
    -2
380
     1
100
AcDbBlockReference
  2
*U15
 10
552.6399999999999
 20
0.0
 30
0.0
  0
INSERT
  5
1999
330
1922
100
AcDbEntity
  8
枠寸法
  6
ByBlock
 62
     0
370
    -2
380
     1
100
AcDbBlockReference
  2
*U15
 10
565.2
 20
0.0
 30
0.0
  0
INSERT
  5
199A
330
1922
100
AcDbEntity
  8
枠寸法
  6
ByBlock
 62
     0
370
    -2
380
     1
100
AcDbBlockReference
  2
*U15
 10
577.7599999999999
 20
0.0
 30
0.0
  0
INSERT
  5
199B
330
1922
100
AcDbEntity
  8
枠寸法
  6
ByBlock
 62
     0
370
    -2
380
     1
100
AcDbBlockReference
  2
*U15
 10
590.32
 20
0.0
 30
0.0
  0
INSERT
  5
199C
330
1922
100
AcDbEntity
  8
枠寸法
  6
ByBlock
 62
     0
370
    -2
380
     1
100
AcDbBlockReference
  2
*U15
 10
602.88
 20
0.0
 30
0.0
  0
INSERT
  5
199D
330
1922
100
AcDbEntity
  8
枠寸法
  6
ByBlock
 62
     0
370
    -2
380
     1
100
AcDbBlockReference
  2
*U15
 10
615.44
 20
0.0
 30
0.0
  0
INSERT
  5
199E
330
1922
100
AcDbEntity
  8
枠寸法
  6
ByBlock
 62
     0
370
    -2
380
     1
100
AcDbBlockReference
  2
*U15
 10
628.0
 20
0.0
 30
0.0
  0
INSERT
  5
199F
330
1922
100
AcDbEntity
  8
枠寸法
  6
ByBlock
 62
     0
370
    -2
380
     1
100
AcDbBlockReference
  2
*U15
 10
640.56
 20
0.0
 30
0.0
  0
INSERT
  5
19A0
330
1922
100
AcDbEntity
  8
枠寸法
  6
ByBlock
 62
     0
370
    -2
380
     1
100
AcDbBlockReference
  2
*U15
 10
653.12
 20
0.0
 30
0.0
  0
INSERT
  5
19A1
330
1922
100
AcDbEntity
  8
枠寸法
  6
ByBlock
 62
     0
370
    -2
380
     1
100
AcDbBlockReference
  2
*U15
 10
665.68
 20
0.0
 30
0.0
  0
INSERT
  5
19A2
330
1922
100
AcDbEntity
  8
枠寸法
  6
ByBlock
 62
     0
370
    -2
380
     1
100
AcDbBlockReference
  2
*U15
 10
678.2399999999999
 20
0.0
 30
0.0
  0
INSERT
  5
19A3
330
1922
100
AcDbEntity
  8
枠寸法
  6
ByBlock
 62
     0
370
    -2
380
     1
100
AcDbBlockReference
  2
*U15
 10
690.8000000000001
 20
0.0
 30
0.0
  0
INSERT
  5
19A4
330
1922
100
AcDbEntity
  8
枠寸法
  6
ByBlock
 62
     0
370
    -2
380
     1
100
AcDbBlockReference
  2
*U15
 10
703.3599999999999
 20
0.0
 30
0.0
  0
INSERT
  5
19A5
330
1922
100
AcDbEntity
  8
枠寸法
  6
ByBlock
 62
     0
370
    -2
380
     1
100
AcDbBlockReference
  2
*U15
 10
715.9200000000001
 20
0.0
 30
0.0
  0
INSERT
  5
19A6
330
1922
100
AcDbEntity
  8
枠寸法
  6
ByBlock
 62
     0
370
    -2
380
     1
100
AcDbBlockReference
  2
*U15
 10
728.48
 20
0.0
 30
0.0
  0
INSERT
  5
19A7
330
1922
100
AcDbEntity
  8
枠寸法
  6
ByBlock
 62
     0
370
    -2
380
     1
100
AcDbBlockReference
  2
*U15
 10
741.04
 20
0.0
 30
0.0
  0
INSERT
  5
19A8
330
1922
100
AcDbEntity
  8
枠寸法
  6
ByBlock
 62
     0
370
    -2
380
     1
100
AcDbBlockReference
  2
*U15
 10
753.6
 20
0.0
 30
0.0
  0
INSERT
  5
19A9
330
1922
100
AcDbEntity
  8
枠寸法
  6
ByBlock
 62
     0
370
    -2
380
     1
100
AcDbBlockReference
  2
*U15
 10
766.16
 20
0.0
 30
0.0
  0
INSERT
  5
19AA
330
1922
100
AcDbEntity
  8
枠寸法
  6
ByBlock
 62
     0
370
    -2
380
     1
100
AcDbBlockReference
  2
*U15
 10
778.72
 20
0.0
 30
0.0
  0
INSERT
  5
19AB
330
1922
100
AcDbEntity
  8
枠寸法
  6
ByBlock
 62
     0
370
    -2
380
     1
100
AcDbBlockReference
  2
*U15
 10
791.28
 20
0.0
 30
0.0
  0
INSERT
  5
19AC
330
1922
100
AcDbEntity
  8
枠寸法
  6
ByBlock
 62
     0
370
    -2
380
     1
100
AcDbBlockReference
  2
*U15
 10
803.8400000000001
 20
0.0
 30
0.0
  0
INSERT
  5
19AD
330
1922
100
AcDbEntity
  8
枠寸法
  6
ByBlock
 62
     0
370
    -2
380
     1
100
AcDbBlockReference
  2
*U15
 10
816.3999999999999
 20
0.0
 30
0.0
  0
INSERT
  5
19AE
330
1922
100
AcDbEntity
  8
枠寸法
  6
ByBlock
 62
     0
370
    -2
380
     1
100
AcDbBlockReference
  2
*U15
 10
828.96
 20
0.0
 30
0.0
  0
INSERT
  5
19AF
330
1922
100
AcDbEntity
  8
枠寸法
  6
ByBlock
 62
     0
370
    -2
380
     1
100
AcDbBlockReference
  2
*U15
 10
841.52
 20
0.0
 30
0.0
  0
INSERT
  5
19B0
330
1922
100
AcDbEntity
  8
枠寸法
  6
ByBlock
 62
     0
370
    -2
380
     1
100
AcDbBlockReference
  2
*U15
 10
854.08
 20
0.0
 30
0.0
  0
INSERT
  5
19B1
330
1922
100
AcDbEntity
  8
枠寸法
  6
ByBlock
 62
     0
370
    -2
380
     1
100
AcDbBlockReference
  2
*U15
 10
866.6399999999999
 20
0.0
 30
0.0
  0
INSERT
  5
19B2
330
1922
100
AcDbEntity
  8
枠寸法
  6
ByBlock
 62
     0
370
    -2
380
     1
100
AcDbBlockReference
  2
*U15
 10
879.1999999999999
 20
0.0
 30
0.0
  0
INSERT
  5
19B3
330
1922
100
AcDbEntity
  8
枠寸法
  6
ByBlock
 62
     0
370
    -2
380
     1
100
AcDbBlockReference
  2
*U15
 10
891.76
 20
0.0
 30
0.0
  0
INSERT
  5
19B4
330
1922
100
AcDbEntity
  8
枠寸法
  6
ByBlock
 62
     0
370
    -2
380
     1
100
AcDbBlockReference
  2
*U15
 10
904.32
 20
0.0
 30
0.0
  0
INSERT
  5
19B5
330
1922
100
AcDbEntity
  8
枠寸法
  6
ByBlock
 62
     0
370
    -2
380
     1
100
AcDbBlockReference
  2
*U15
 10
916.88
 20
0.0
 30
0.0
  0
INSERT
  5
19B6
330
1922
100
AcDbEntity
  8
枠寸法
  6
ByBlock
 62
     0
370
    -2
380
     1
100
AcDbBlockReference
  2
*U15
 10
929.4400000000001
 20
0.0
 30
0.0
  0
INSERT
  5
19B7
330
1922
100
AcDbEntity
  8
枠寸法
  6
ByBlock
 62
     0
370
    -2
380
     1
100
AcDbBlockReference
  2
*U15
 10
942.0
 20
0.0
 30
0.0
  0
INSERT
  5
19B8
330
1922
100
AcDbEntity
  8
枠寸法
  6
ByBlock
 62
     0
370
    -2
380
     1
100
AcDbBlockReference
  2
*U15
 10
954.56
 20
0.0
 30
0.0
  0
INSERT
  5
19B9
330
1922
100
AcDbEntity
  8
枠寸法
  6
ByBlock
 62
     0
370
    -2
380
     1
100
AcDbBlockReference
  2
*U15
 10
967.12
 20
0.0
 30
0.0
  0
ENDBLK
  5
1924
330
1922
100
AcDbEntity
  8
0
 48
3.0
100
AcDbBlockEnd
  0
BLOCK
  5
19BC
330
19BB
100
AcDbEntity
  8
0
 48
3.0
100
AcDbBlockBegin
  2
*U17
 70
     1
 10
0.0
 20
0.0
 30
0.0
  3
*U17
  1

  0
LINE
  5
19C2
330
19BB
100
AcDbEntity
  8
本体
  6
Continuous
100
AcDbLine
 10
-15.0
 20
47.5
 30
0.0
 11
15.0
 21
52.5
 31
0.0
  0
LINE
  5
19C3
330
19BB
100
AcDbEntity
  8
本体
  6
Continuous
100
AcDbLine
 10
-15.0
 20
-52.5
 30
0.0
 11
15.0
 21
-47.5
 31
0.0
  0
ENDBLK
  5
19BD
330
19BB
100
AcDbEntity
  8
0
 48
3.0
100
AcDbBlockEnd
  0
BLOCK
  5
19BF
330
19BE
100
AcDbEntity
  8
0
 48
3.0
100
AcDbBlockBegin
  2
*U18
 70
     1
 10
0.0
 20
0.0
 30
0.0
  3
*U18
  1

  0
INSERT
  5
19CE
330
19BE
100
AcDbEntity
  8
枠寸法
  6
ByBlock
 62
     0
370
    -2
380
     1
100
AcDbBlockReference
  2
*U17
 10
0.0
 20
0.0
 30
0.0
  0
INSERT
  5
19CF
330
19BE
100
AcDbEntity
  8
枠寸法
  6
ByBlock
 62
     0
370
    -2
380
     1
100
AcDbBlockReference
  2
*U17
 10
30.0
 20
0.0
 30
0.0
  0
INSERT
  5
19D0
330
19BE
100
AcDbEntity
  8
枠寸法
  6
ByBlock
 62
     0
370
    -2
380
     1
100
AcDbBlockReference
  2
*U17
 10
60.0
 20
0.0
 30
0.0
  0
INSERT
  5
19D1
330
19BE
100
AcDbEntity
  8
枠寸法
  6
ByBlock
 62
     0
370
    -2
380
     1
100
AcDbBlockReference
  2
*U17
 10
90.0
 20
0.0
 30
0.0
  0
INSERT
  5
19D2
330
19BE
100
AcDbEntity
  8
枠寸法
  6
ByBlock
 62
     0
370
    -2
380
     1
100
AcDbBlockReference
  2
*U17
 10
120.0
 20
0.0
 30
0.0
  0
INSERT
  5
19D3
330
19BE
100
AcDbEntity
  8
枠寸法
  6
ByBlock
 62
     0
370
    -2
380
     1
100
AcDbBlockReference
  2
*U17
 10
150.0
 20
0.0
 30
0.0
  0
INSERT
  5
19D4
330
19BE
100
AcDbEntity
  8
枠寸法
  6
ByBlock
 62
     0
370
    -2
380
     1
100
AcDbBlockReference
  2
*U17
 10
180.0
 20
0.0
 30
0.0
  0
INSERT
  5
19D5
330
19BE
100
AcDbEntity
  8
枠寸法
  6
ByBlock
 62
     0
370
    -2
380
     1
100
AcDbBlockReference
  2
*U17
 10
210.0
 20
0.0
 30
0.0
  0
INSERT
  5
19D6
330
19BE
100
AcDbEntity
  8
枠寸法
  6
ByBlock
 62
     0
370
    -2
380
     1
100
AcDbBlockReference
  2
*U17
 10
240.0
 20
0.0
 30
0.0
  0
INSERT
  5
19D7
330
19BE
100
AcDbEntity
  8
枠寸法
  6
ByBlock
 62
     0
370
    -2
380
     1
100
AcDbBlockReference
  2
*U17
 10
270.0
 20
0.0
 30
0.0
  0
INSERT
  5
19D8
330
19BE
100
AcDbEntity
  8
枠寸法
  6
ByBlock
 62
     0
370
    -2
380
     1
100
AcDbBlockReference
  2
*U17
 10
300.0
 20
0.0
 30
0.0
  0
INSERT
  5
19D9
330
19BE
100
AcDbEntity
  8
枠寸法
  6
ByBlock
 62
     0
370
    -2
380
     1
100
AcDbBlockReference
  2
*U17
 10
330.0
 20
0.0
 30
0.0
  0
INSERT
  5
19DA
330
19BE
100
AcDbEntity
  8
枠寸法
  6
ByBlock
 62
     0
370
    -2
380
     1
100
AcDbBlockReference
  2
*U17
 10
360.0
 20
0.0
 30
0.0
  0
INSERT
  5
19DB
330
19BE
100
AcDbEntity
  8
枠寸法
  6
ByBlock
 62
     0
370
    -2
380
     1
100
AcDbBlockReference
  2
*U17
 10
390.0
 20
0.0
 30
0.0
  0
INSERT
  5
19DC
330
19BE
100
AcDbEntity
  8
枠寸法
  6
ByBlock
 62
     0
370
    -2
380
     1
100
AcDbBlockReference
  2
*U17
 10
420.0
 20
0.0
 30
0.0
  0
INSERT
  5
19DD
330
19BE
100
AcDbEntity
  8
枠寸法
  6
ByBlock
 62
     0
370
    -2
380
     1
100
AcDbBlockReference
  2
*U17
 10
450.0
 20
0.0
 30
0.0
  0
INSERT
  5
19DE
330
19BE
100
AcDbEntity
  8
枠寸法
  6
ByBlock
 62
     0
370
    -2
380
     1
100
AcDbBlockReference
  2
*U17
 10
480.0
 20
0.0
 30
0.0
  0
INSERT
  5
19DF
330
19BE
100
AcDbEntity
  8
枠寸法
  6
ByBlock
 62
     0
370
    -2
380
     1
100
AcDbBlockReference
  2
*U17
 10
510.0
 20
0.0
 30
0.0
  0
INSERT
  5
19E0
330
19BE
100
AcDbEntity
  8
枠寸法
  6
ByBlock
 62
     0
370
    -2
380
     1
100
AcDbBlockReference
  2
*U17
 10
540.0
 20
0.0
 30
0.0
  0
INSERT
  5
19E1
330
19BE
100
AcDbEntity
  8
枠寸法
  6
ByBlock
 62
     0
370
    -2
380
     1
100
AcDbBlockReference
  2
*U17
 10
570.0
 20
0.0
 30
0.0
  0
INSERT
  5
19E2
330
19BE
100
AcDbEntity
  8
枠寸法
  6
ByBlock
 62
     0
370
    -2
380
     1
100
AcDbBlockReference
  2
*U17
 10
600.0
 20
0.0
 30
0.0
  0
INSERT
  5
19E3
330
19BE
100
AcDbEntity
  8
枠寸法
  6
ByBlock
 62
     0
370
    -2
380
     1
100
AcDbBlockReference
  2
*U17
 10
630.0
 20
0.0
 30
0.0
  0
INSERT
  5
19E4
330
19BE
100
AcDbEntity
  8
枠寸法
  6
ByBlock
 62
     0
370
    -2
380
     1
100
AcDbBlockReference
  2
*U17
 10
660.0
 20
0.0
 30
0.0
  0
INSERT
  5
19E5
330
19BE
100
AcDbEntity
  8
枠寸法
  6
ByBlock
 62
     0
370
    -2
380
     1
100
AcDbBlockReference
  2
*U17
 10
690.0
 20
0.0
 30
0.0
  0
INSERT
  5
19E6
330
19BE
100
AcDbEntity
  8
枠寸法
  6
ByBlock
 62
     0
370
    -2
380
     1
100
AcDbBlockReference
  2
*U17
 10
720.0
 20
0.0
 30
0.0
  0
INSERT
  5
19E7
330
19BE
100
AcDbEntity
  8
枠寸法
  6
ByBlock
 62
     0
370
    -2
380
     1
100
AcDbBlockReference
  2
*U17
 10
750.0
 20
0.0
 30
0.0
  0
INSERT
  5
19E8
330
19BE
100
AcDbEntity
  8
枠寸法
  6
ByBlock
 62
     0
370
    -2
380
     1
100
AcDbBlockReference
  2
*U17
 10
780.0
 20
0.0
 30
0.0
  0
INSERT
  5
19E9
330
19BE
100
AcDbEntity
  8
枠寸法
  6
ByBlock
 62
     0
370
    -2
380
     1
100
AcDbBlockReference
  2
*U17
 10
810.0
 20
0.0
 30
0.0
  0
INSERT
  5
19EA
330
19BE
100
AcDbEntity
  8
枠寸法
  6
ByBlock
 62
     0
370
    -2
380
     1
100
AcDbBlockReference
  2
*U17
 10
840.0
 20
0.0
 30
0.0
  0
INSERT
  5
19EB
330
19BE
100
AcDbEntity
  8
枠寸法
  6
ByBlock
 62
     0
370
    -2
380
     1
100
AcDbBlockReference
  2
*U17
 10
870.0
 20
0.0
 30
0.0
  0
INSERT
  5
19EC
330
19BE
100
AcDbEntity
  8
枠寸法
  6
ByBlock
 62
     0
370
    -2
380
     1
100
AcDbBlockReference
  2
*U17
 10
900.0
 20
0.0
 30
0.0
  0
INSERT
  5
19ED
330
19BE
100
AcDbEntity
  8
枠寸法
  6
ByBlock
 62
     0
370
    -2
380
     1
100
AcDbBlockReference
  2
*U17
 10
930.0
 20
0.0
 30
0.0
  0
INSERT
  5
19EE
330
19BE
100
AcDbEntity
  8
枠寸法
  6
ByBlock
 62
     0
370
    -2
380
     1
100
AcDbBlockReference
  2
*U17
 10
960.0
 20
0.0
 30
0.0
  0
ENDBLK
  5
19C0
330
19BE
100
AcDbEntity
  8
0
 48
3.0
100
AcDbBlockEnd
  0
BLOCK
  5
19F1
330
19F0
100
AcDbEntity
  8
0
 48
3.0
100
AcDbBlockBegin
  2
*U19
 70
     1
 10
0.0
 20
0.0
 30
0.0
  3
*U19
  1

  0
LINE
  5
19F7
330
19F0
100
AcDbEntity
  8
本体
  6
Continuous
100
AcDbLine
 10
-3.278481000000056
 20
9.5
 30
0.0
 11
6.278481000000056
 21
9.499999999999772
 31
0.0
  0
LINE
  5
19F8
330
19F0
100
AcDbEntity
  8
本体
  6
Continuous
100
AcDbLine
 10
-3.278481000000056
 20
4.5
 30
0.0
 11
6.278481000000056
 21
4.499999999999772
 31
0.0
  0
LWPOLYLINE
  5
19F9
330
19F0
100
AcDbEntity
  8
本体
  6
Continuous
100
AcDbPolyline
 90
        4
 70
     1
 43
0.0
 10
-6.278481000000056
 20
9.5
 10
-3.278481000000056
 20
9.5
 10
-3.278481000000056
 20
-9.5
 10
-6.278481000000056
 20
-9.5
  0
LINE
  5
19FA
330
19F0
100
AcDbEntity
  8
本体
  6
Continuous
100
AcDbLine
 10
-3.278481000000056
 20
4.5
 30
0.0
 11
6.278481000000056
 21
9.499999999999772
 31
0.0
  0
ENDBLK
  5
19F2
330
19F0
100
AcDbEntity
  8
0
 48
3.0
100
AcDbBlockEnd
  0
BLOCK
  5
19F4
330
19F3
100
AcDbEntity
  8
0
 48
3.0
100
AcDbBlockBegin
  2
*U20
 70
     1
 10
0.0
 20
0.0
 30
0.0
  3
*U20
  1

  0
INSERT
  5
1A05
330
19F3
100
AcDbEntity
  8
枠寸法
  6
ByBlock
 62
     0
370
    -2
380
     1
100
AcDbBlockReference
  2
*U19
 10
0.0
 20
0.0
 30
0.0
  0
INSERT
  5
1A06
330
19F3
100
AcDbEntity
  8
枠寸法
  6
ByBlock
 62
     0
370
    -2
380
     1
100
AcDbBlockReference
  2
*U19
 10
12.56
 20
0.0
 30
0.0
  0
INSERT
  5
1A07
330
19F3
100
AcDbEntity
  8
枠寸法
  6
ByBlock
 62
     0
370
    -2
380
     1
100
AcDbBlockReference
  2
*U19
 10
25.12
 20
0.0
 30
0.0
  0
INSERT
  5
1A08
330
19F3
100
AcDbEntity
  8
枠寸法
  6
ByBlock
 62
     0
370
    -2
380
     1
100
AcDbBlockReference
  2
*U19
 10
37.68
 20
0.0
 30
0.0
  0
INSERT
  5
1A09
330
19F3
100
AcDbEntity
  8
枠寸法
  6
ByBlock
 62
     0
370
    -2
380
     1
100
AcDbBlockReference
  2
*U19
 10
50.24
 20
0.0
 30
0.0
  0
INSERT
  5
1A0A
330
19F3
100
AcDbEntity
  8
枠寸法
  6
ByBlock
 62
     0
370
    -2
380
     1
100
AcDbBlockReference
  2
*U19
 10
62.80000000000001
 20
0.0
 30
0.0
  0
INSERT
  5
1A0B
330
19F3
100
AcDbEntity
  8
枠寸法
  6
ByBlock
 62
     0
370
    -2
380
     1
100
AcDbBlockReference
  2
*U19
 10
75.36
 20
0.0
 30
0.0
  0
INSERT
  5
1A0C
330
19F3
100
AcDbEntity
  8
枠寸法
  6
ByBlock
 62
     0
370
    -2
380
     1
100
AcDbBlockReference
  2
*U19
 10
87.91999999999999
 20
0.0
 30
0.0
  0
INSERT
  5
1A0D
330
19F3
100
AcDbEntity
  8
枠寸法
  6
ByBlock
 62
     0
370
    -2
380
     1
100
AcDbBlockReference
  2
*U19
 10
100.48
 20
0.0
 30
0.0
  0
INSERT
  5
1A0E
330
19F3
100
AcDbEntity
  8
枠寸法
  6
ByBlock
 62
     0
370
    -2
380
     1
100
AcDbBlockReference
  2
*U19
 10
113.04
 20
0.0
 30
0.0
  0
INSERT
  5
1A0F
330
19F3
100
AcDbEntity
  8
枠寸法
  6
ByBlock
 62
     0
370
    -2
380
     1
100
AcDbBlockReference
  2
*U19
 10
125.6
 20
0.0
 30
0.0
  0
INSERT
  5
1A10
330
19F3
100
AcDbEntity
  8
枠寸法
  6
ByBlock
 62
     0
370
    -2
380
     1
100
AcDbBlockReference
  2
*U19
 10
138.16
 20
0.0
 30
0.0
  0
INSERT
  5
1A11
330
19F3
100
AcDbEntity
  8
枠寸法
  6
ByBlock
 62
     0
370
    -2
380
     1
100
AcDbBlockReference
  2
*U19
 10
150.72
 20
0.0
 30
0.0
  0
INSERT
  5
1A12
330
19F3
100
AcDbEntity
  8
枠寸法
  6
ByBlock
 62
     0
370
    -2
380
     1
100
AcDbBlockReference
  2
*U19
 10
163.28
 20
0.0
 30
0.0
  0
INSERT
  5
1A13
330
19F3
100
AcDbEntity
  8
枠寸法
  6
ByBlock
 62
     0
370
    -2
380
     1
100
AcDbBlockReference
  2
*U19
 10
175.84
 20
0.0
 30
0.0
  0
INSERT
  5
1A14
330
19F3
100
AcDbEntity
  8
枠寸法
  6
ByBlock
 62
     0
370
    -2
380
     1
100
AcDbBlockReference
  2
*U19
 10
188.4
 20
0.0
 30
0.0
  0
INSERT
  5
1A15
330
19F3
100
AcDbEntity
  8
枠寸法
  6
ByBlock
 62
     0
370
    -2
380
     1
100
AcDbBlockReference
  2
*U19
 10
200.96
 20
0.0
 30
0.0
  0
INSERT
  5
1A16
330
19F3
100
AcDbEntity
  8
枠寸法
  6
ByBlock
 62
     0
370
    -2
380
     1
100
AcDbBlockReference
  2
*U19
 10
213.52
 20
0.0
 30
0.0
  0
INSERT
  5
1A17
330
19F3
100
AcDbEntity
  8
枠寸法
  6
ByBlock
 62
     0
370
    -2
380
     1
100
AcDbBlockReference
  2
*U19
 10
226.08
 20
0.0
 30
0.0
  0
INSERT
  5
1A18
330
19F3
100
AcDbEntity
  8
枠寸法
  6
ByBlock
 62
     0
370
    -2
380
     1
100
AcDbBlockReference
  2
*U19
 10
238.64
 20
0.0
 30
0.0
  0
INSERT
  5
1A19
330
19F3
100
AcDbEntity
  8
枠寸法
  6
ByBlock
 62
     0
370
    -2
380
     1
100
AcDbBlockReference
  2
*U19
 10
251.2
 20
0.0
 30
0.0
  0
INSERT
  5
1A1A
330
19F3
100
AcDbEntity
  8
枠寸法
  6
ByBlock
 62
     0
370
    -2
380
     1
100
AcDbBlockReference
  2
*U19
 10
263.76
 20
0.0
 30
0.0
  0
INSERT
  5
1A1B
330
19F3
100
AcDbEntity
  8
枠寸法
  6
ByBlock
 62
     0
370
    -2
380
     1
100
AcDbBlockReference
  2
*U19
 10
276.32
 20
0.0
 30
0.0
  0
INSERT
  5
1A1C
330
19F3
100
AcDbEntity
  8
枠寸法
  6
ByBlock
 62
     0
370
    -2
380
     1
100
AcDbBlockReference
  2
*U19
 10
288.88
 20
0.0
 30
0.0
  0
INSERT
  5
1A1D
330
19F3
100
AcDbEntity
  8
枠寸法
  6
ByBlock
 62
     0
370
    -2
380
     1
100
AcDbBlockReference
  2
*U19
 10
301.44
 20
0.0
 30
0.0
  0
INSERT
  5
1A1E
330
19F3
100
AcDbEntity
  8
枠寸法
  6
ByBlock
 62
     0
370
    -2
380
     1
100
AcDbBlockReference
  2
*U19
 10
314.0
 20
0.0
 30
0.0
  0
INSERT
  5
1A1F
330
19F3
100
AcDbEntity
  8
枠寸法
  6
ByBlock
 62
     0
370
    -2
380
     1
100
AcDbBlockReference
  2
*U19
 10
326.56
 20
0.0
 30
0.0
  0
INSERT
  5
1A20
330
19F3
100
AcDbEntity
  8
枠寸法
  6
ByBlock
 62
     0
370
    -2
380
     1
100
AcDbBlockReference
  2
*U19
 10
339.12
 20
0.0
 30
0.0
  0
INSERT
  5
1A21
330
19F3
100
AcDbEntity
  8
枠寸法
  6
ByBlock
 62
     0
370
    -2
380
     1
100
AcDbBlockReference
  2
*U19
 10
351.68
 20
0.0
 30
0.0
  0
INSERT
  5
1A22
330
19F3
100
AcDbEntity
  8
枠寸法
  6
ByBlock
 62
     0
370
    -2
380
     1
100
AcDbBlockReference
  2
*U19
 10
364.24
 20
0.0
 30
0.0
  0
INSERT
  5
1A23
330
19F3
100
AcDbEntity
  8
枠寸法
  6
ByBlock
 62
     0
370
    -2
380
     1
100
AcDbBlockReference
  2
*U19
 10
376.8
 20
0.0
 30
0.0
  0
INSERT
  5
1A24
330
19F3
100
AcDbEntity
  8
枠寸法
  6
ByBlock
 62
     0
370
    -2
380
     1
100
AcDbBlockReference
  2
*U19
 10
389.36
 20
0.0
 30
0.0
  0
INSERT
  5
1A25
330
19F3
100
AcDbEntity
  8
枠寸法
  6
ByBlock
 62
     0
370
    -2
380
     1
100
AcDbBlockReference
  2
*U19
 10
401.92
 20
0.0
 30
0.0
  0
INSERT
  5
1A26
330
19F3
100
AcDbEntity
  8
枠寸法
  6
ByBlock
 62
     0
370
    -2
380
     1
100
AcDbBlockReference
  2
*U19
 10
414.48
 20
0.0
 30
0.0
  0
INSERT
  5
1A27
330
19F3
100
AcDbEntity
  8
枠寸法
  6
ByBlock
 62
     0
370
    -2
380
     1
100
AcDbBlockReference
  2
*U19
 10
427.04
 20
0.0
 30
0.0
  0
INSERT
  5
1A28
330
19F3
100
AcDbEntity
  8
枠寸法
  6
ByBlock
 62
     0
370
    -2
380
     1
100
AcDbBlockReference
  2
*U19
 10
439.5999999999999
 20
0.0
 30
0.0
  0
INSERT
  5
1A29
330
19F3
100
AcDbEntity
  8
枠寸法
  6
ByBlock
 62
     0
370
    -2
380
     1
100
AcDbBlockReference
  2
*U19
 10
452.16
 20
0.0
 30
0.0
  0
INSERT
  5
1A2A
330
19F3
100
AcDbEntity
  8
枠寸法
  6
ByBlock
 62
     0
370
    -2
380
     1
100
AcDbBlockReference
  2
*U19
 10
464.72
 20
0.0
 30
0.0
  0
INSERT
  5
1A2B
330
19F3
100
AcDbEntity
  8
枠寸法
  6
ByBlock
 62
     0
370
    -2
380
     1
100
AcDbBlockReference
  2
*U19
 10
477.28
 20
0.0
 30
0.0
  0
INSERT
  5
1A2C
330
19F3
100
AcDbEntity
  8
枠寸法
  6
ByBlock
 62
     0
370
    -2
380
     1
100
AcDbBlockReference
  2
*U19
 10
489.84
 20
0.0
 30
0.0
  0
INSERT
  5
1A2D
330
19F3
100
AcDbEntity
  8
枠寸法
  6
ByBlock
 62
     0
370
    -2
380
     1
100
AcDbBlockReference
  2
*U19
 10
502.4
 20
0.0
 30
0.0
  0
INSERT
  5
1A2E
330
19F3
100
AcDbEntity
  8
枠寸法
  6
ByBlock
 62
     0
370
    -2
380
     1
100
AcDbBlockReference
  2
*U19
 10
514.96
 20
0.0
 30
0.0
  0
INSERT
  5
1A2F
330
19F3
100
AcDbEntity
  8
枠寸法
  6
ByBlock
 62
     0
370
    -2
380
     1
100
AcDbBlockReference
  2
*U19
 10
527.5199999999999
 20
0.0
 30
0.0
  0
INSERT
  5
1A30
330
19F3
100
AcDbEntity
  8
枠寸法
  6
ByBlock
 62
     0
370
    -2
380
     1
100
AcDbBlockReference
  2
*U19
 10
540.08
 20
0.0
 30
0.0
  0
INSERT
  5
1A31
330
19F3
100
AcDbEntity
  8
枠寸法
  6
ByBlock
 62
     0
370
    -2
380
     1
100
AcDbBlockReference
  2
*U19
 10
552.6399999999999
 20
0.0
 30
0.0
  0
INSERT
  5
1A32
330
19F3
100
AcDbEntity
  8
枠寸法
  6
ByBlock
 62
     0
370
    -2
380
     1
100
AcDbBlockReference
  2
*U19
 10
565.2
 20
0.0
 30
0.0
  0
INSERT
  5
1A33
330
19F3
100
AcDbEntity
  8
枠寸法
  6
ByBlock
 62
     0
370
    -2
380
     1
100
AcDbBlockReference
  2
*U19
 10
577.7599999999999
 20
0.0
 30
0.0
  0
INSERT
  5
1A34
330
19F3
100
AcDbEntity
  8
枠寸法
  6
ByBlock
 62
     0
370
    -2
380
     1
100
AcDbBlockReference
  2
*U19
 10
590.32
 20
0.0
 30
0.0
  0
INSERT
  5
1A35
330
19F3
100
AcDbEntity
  8
枠寸法
  6
ByBlock
 62
     0
370
    -2
380
     1
100
AcDbBlockReference
  2
*U19
 10
602.88
 20
0.0
 30
0.0
  0
INSERT
  5
1A36
330
19F3
100
AcDbEntity
  8
枠寸法
  6
ByBlock
 62
     0
370
    -2
380
     1
100
AcDbBlockReference
  2
*U19
 10
615.44
 20
0.0
 30
0.0
  0
INSERT
  5
1A37
330
19F3
100
AcDbEntity
  8
枠寸法
  6
ByBlock
 62
     0
370
    -2
380
     1
100
AcDbBlockReference
  2
*U19
 10
628.0
 20
0.0
 30
0.0
  0
INSERT
  5
1A38
330
19F3
100
AcDbEntity
  8
枠寸法
  6
ByBlock
 62
     0
370
    -2
380
     1
100
AcDbBlockReference
  2
*U19
 10
640.56
 20
0.0
 30
0.0
  0
INSERT
  5
1A39
330
19F3
100
AcDbEntity
  8
枠寸法
  6
ByBlock
 62
     0
370
    -2
380
     1
100
AcDbBlockReference
  2
*U19
 10
653.12
 20
0.0
 30
0.0
  0
INSERT
  5
1A3A
330
19F3
100
AcDbEntity
  8
枠寸法
  6
ByBlock
 62
     0
370
    -2
380
     1
100
AcDbBlockReference
  2
*U19
 10
665.68
 20
0.0
 30
0.0
  0
INSERT
  5
1A3B
330
19F3
100
AcDbEntity
  8
枠寸法
  6
ByBlock
 62
     0
370
    -2
380
     1
100
AcDbBlockReference
  2
*U19
 10
678.2399999999999
 20
0.0
 30
0.0
  0
INSERT
  5
1A3C
330
19F3
100
AcDbEntity
  8
枠寸法
  6
ByBlock
 62
     0
370
    -2
380
     1
100
AcDbBlockReference
  2
*U19
 10
690.8000000000001
 20
0.0
 30
0.0
  0
INSERT
  5
1A3D
330
19F3
100
AcDbEntity
  8
枠寸法
  6
ByBlock
 62
     0
370
    -2
380
     1
100
AcDbBlockReference
  2
*U19
 10
703.3599999999999
 20
0.0
 30
0.0
  0
INSERT
  5
1A3E
330
19F3
100
AcDbEntity
  8
枠寸法
  6
ByBlock
 62
     0
370
    -2
380
     1
100
AcDbBlockReference
  2
*U19
 10
715.9200000000001
 20
0.0
 30
0.0
  0
INSERT
  5
1A3F
330
19F3
100
AcDbEntity
  8
枠寸法
  6
ByBlock
 62
     0
370
    -2
380
     1
100
AcDbBlockReference
  2
*U19
 10
728.48
 20
0.0
 30
0.0
  0
INSERT
  5
1A40
330
19F3
100
AcDbEntity
  8
枠寸法
  6
ByBlock
 62
     0
370
    -2
380
     1
100
AcDbBlockReference
  2
*U19
 10
741.04
 20
0.0
 30
0.0
  0
INSERT
  5
1A41
330
19F3
100
AcDbEntity
  8
枠寸法
  6
ByBlock
 62
     0
370
    -2
380
     1
100
AcDbBlockReference
  2
*U19
 10
753.6
 20
0.0
 30
0.0
  0
INSERT
  5
1A42
330
19F3
100
AcDbEntity
  8
枠寸法
  6
ByBlock
 62
     0
370
    -2
380
     1
100
AcDbBlockReference
  2
*U19
 10
766.16
 20
0.0
 30
0.0
  0
INSERT
  5
1A43
330
19F3
100
AcDbEntity
  8
枠寸法
  6
ByBlock
 62
     0
370
    -2
380
     1
100
AcDbBlockReference
  2
*U19
 10
778.72
 20
0.0
 30
0.0
  0
INSERT
  5
1A44
330
19F3
100
AcDbEntity
  8
枠寸法
  6
ByBlock
 62
     0
370
    -2
380
     1
100
AcDbBlockReference
  2
*U19
 10
791.28
 20
0.0
 30
0.0
  0
INSERT
  5
1A45
330
19F3
100
AcDbEntity
  8
枠寸法
  6
ByBlock
 62
     0
370
    -2
380
     1
100
AcDbBlockReference
  2
*U19
 10
803.8400000000001
 20
0.0
 30
0.0
  0
INSERT
  5
1A46
330
19F3
100
AcDbEntity
  8
枠寸法
  6
ByBlock
 62
     0
370
    -2
380
     1
100
AcDbBlockReference
  2
*U19
 10
816.3999999999999
 20
0.0
 30
0.0
  0
INSERT
  5
1A47
330
19F3
100
AcDbEntity
  8
枠寸法
  6
ByBlock
 62
     0
370
    -2
380
     1
100
AcDbBlockReference
  2
*U19
 10
828.96
 20
0.0
 30
0.0
  0
INSERT
  5
1A48
330
19F3
100
AcDbEntity
  8
枠寸法
  6
ByBlock
 62
     0
370
    -2
380
     1
100
AcDbBlockReference
  2
*U19
 10
841.52
 20
0.0
 30
0.0
  0
INSERT
  5
1A49
330
19F3
100
AcDbEntity
  8
枠寸法
  6
ByBlock
 62
     0
370
    -2
380
     1
100
AcDbBlockReference
  2
*U19
 10
854.08
 20
0.0
 30
0.0
  0
INSERT
  5
1A4A
330
19F3
100
AcDbEntity
  8
枠寸法
  6
ByBlock
 62
     0
370
    -2
380
     1
100
AcDbBlockReference
  2
*U19
 10
866.6399999999999
 20
0.0
 30
0.0
  0
INSERT
  5
1A4B
330
19F3
100
AcDbEntity
  8
枠寸法
  6
ByBlock
 62
     0
370
    -2
380
     1
100
AcDbBlockReference
  2
*U19
 10
879.1999999999999
 20
0.0
 30
0.0
  0
INSERT
  5
1A4C
330
19F3
100
AcDbEntity
  8
枠寸法
  6
ByBlock
 62
     0
370
    -2
380
     1
100
AcDbBlockReference
  2
*U19
 10
891.76
 20
0.0
 30
0.0
  0
INSERT
  5
1A4D
330
19F3
100
AcDbEntity
  8
枠寸法
  6
ByBlock
 62
     0
370
    -2
380
     1
100
AcDbBlockReference
  2
*U19
 10
904.32
 20
0.0
 30
0.0
  0
INSERT
  5
1A4E
330
19F3
100
AcDbEntity
  8
枠寸法
  6
ByBlock
 62
     0
370
    -2
380
     1
100
AcDbBlockReference
  2
*U19
 10
916.88
 20
0.0
 30
0.0
  0
INSERT
  5
1A4F
330
19F3
100
AcDbEntity
  8
枠寸法
  6
ByBlock
 62
     0
370
    -2
380
     1
100
AcDbBlockReference
  2
*U19
 10
929.4400000000001
 20
0.0
 30
0.0
  0
INSERT
  5
1A50
330
19F3
100
AcDbEntity
  8
枠寸法
  6
ByBlock
 62
     0
370
    -2
380
     1
100
AcDbBlockReference
  2
*U19
 10
942.0
 20
0.0
 30
0.0
  0
INSERT
  5
1A51
330
19F3
100
AcDbEntity
  8
枠寸法
  6
ByBlock
 62
     0
370
    -2
380
     1
100
AcDbBlockReference
  2
*U19
 10
954.56
 20
0.0
 30
0.0
  0
INSERT
  5
1A52
330
19F3
100
AcDbEntity
  8
枠寸法
  6
ByBlock
 62
     0
370
    -2
380
     1
100
AcDbBlockReference
  2
*U19
 10
967.12
 20
0.0
 30
0.0
  0
INSERT
  5
1A53
330
19F3
100
AcDbEntity
  8
枠寸法
  6
ByBlock
 62
     0
370
    -2
380
     1
100
AcDbBlockReference
  2
*U19
 10
979.6800000000001
 20
0.0
 30
0.0
  0
ENDBLK
  5
19F5
330
19F3
100
AcDbEntity
  8
0
 48
3.0
100
AcDbBlockEnd
  0
BLOCK
  5
1AF8
330
1AEC
100
AcDbEntity
  8
0
 48
3.0
100
AcDbBlockBegin
  2
GFB新
 70
     0
 10
0.0
 20
0.0
 30
0.0
  3
GFB新
  1

  0
LINE
  5
1AED
330
1AEC
100
AcDbEntity
  8
エンボス
370
     0
100
AcDbLine
 10
-201.8431163161554
 20
211.018054223251
 30
0.0
 11
-201.8431163161554
 21
31.01805422325097
 31
0.0
  0
LINE
  5
1AEE
330
1AEC
100
AcDbEntity
  8
エンボス
370
     0
100
AcDbLine
 10
-171.6031163161556
 20
211.018054223251
 30
0.0
 11
-171.6031163161556
 21
31.01805422325097
 31
0.0
  0
LWPOLYLINE
  5
1AEF
330
1AEC
100
AcDbEntity
  8
エンボス
  6
Continuous
100
AcDbPolyline
 90
        4
 70
     1
 43
0.0
 10
-348.415713090571
 20
299.7131911820901
 10
-14.10000000000036
 20
299.7131911820901
 10
-14.10000000000036
 20
13.47
 10
-348.415713090571
 20
13.47
  0
HATCH
  5
1AF0
330
1AEC
100
AcDbEntity
  8
エンボス
 48
3.0
100
AcDbHatch
 10
0.0
 20
0.0
 30
0.0
210
0.0
220
0.0
230
1.0
  2
ANSI31
 70
     0
 71
     0
 91
        2
 92
        7
 72
     0
 73
     1
 93
        4
 10
-171.6031163161556
 20
183.648232740995
 10
-201.8431163161554
 20
183.648232740995
 10
-201.8431163161554
 20
143.648232740995
 10
-171.6031163161556
 20
143.648232740995
 97
        0
 92
        7
 72
     0
 73
     1
 93
        4
 10
-171.6031163161551
 20
103.648232740995
 10
-201.8431163161554
 20
103.648232740995
 10
-201.8431163161554
 20
63.64823274099504
 10
-171.6031163161556
 20
63.64823274099504
 97
        0
 75
     0
 76
     1
 52
0.0
 41
1.0
 77
     0
 78
     1
 53
45.0
 43
-2600.230945379155
 44
55.27481481577524
 45
-2.245064030267287
 46
2.245064030267288
 79
     0
 47
0.6338635763914874
 98
        2
 10
-184.3538551621914
 20
165.9540090799865
 10
-180.5493471399022
 20
94.32742487381711
  0
LINE
  5
1AF1
330
1AEC
100
AcDbEntity
  8
エンボス
  6
Continuous
100
AcDbLine
 10
-201.8431163161554
 20
183.648232740995
 30
0.0
 11
-171.6031163161551
 21
183.648232740995
 31
0.0
  0
LINE
  5
1AF2
330
1AEC
100
AcDbEntity
  8
エンボス
  6
Continuous
100
AcDbLine
 10
-201.8431163161554
 20
143.648232740995
 30
0.0
 11
-171.6031163161551
 21
143.648232740995
 31
0.0
  0
LINE
  5
1AF3
330
1AEC
100
AcDbEntity
  8
エンボス
  6
Continuous
100
AcDbLine
 10
-201.8431163161554
 20
103.648232740995
 30
0.0
 11
-171.6031163161551
 21
103.648232740995
 31
0.0
  0
LINE
  5
1AF4
330
1AEC
100
AcDbEntity
  8
エンボス
  6
Continuous
100
AcDbLine
 10
-201.8431163161554
 20
63.64823274099504
 30
0.0
 11
-171.6031163161551
 21
63.64823274099504
 31
0.0
  0
TEXT
  5
1AF5
330
1AEC
100
AcDbEntity
  8
エンボス
  6
Continuous
100
AcDbText
 10
-308.2412150274576
 20
253.9724615214614
 30
0.0
 40
30.0
  1
GFB形状詳細
100
AcDbText
1001
ACAD
1000
MTEXTBEGIN
1070
    73
1070
     1
1070
    44
1040
1.0
1070
    74
1070
     0
1000
MTEXTEND
1000
MTEXTBEGIN
1070
    73
1070
     1
1070
    44
1040
1.0
1070
    74
1070
     0
1000
MTEXTEND
1000
MTEXTBEGIN
1070
    73
1070
     1
1070
    44
1040
1.0
1070
    74
1070
     0
1000
MTEXTEND
1000
MTEXTBEGIN
1070
    73
1070
     1
1070
    44
1040
1.0
1070
    74
1070
     0
1000
MTEXTEND
  0
MTEXT
  5
1AF6
330
1AEC
100
AcDbEntity
  8
エンボス
  6
Continuous
100
AcDbMText
 10
-277.8566471803206
 20
239.7434505767348
 30
0.0
 40
15.0
 41
256.2474
 71
     1
 72
     5
  1
※塗りつぶし部分突起
 73
     1
 44
1.0
1001
ACAD
1000
MTEXTBEGIN
1070
    73
1070
     1
1070
    44
1040
1.0
1070
    74
1070
     0
1000
MTEXTEND
  0
ENDBLK
  5
1AF9
330
1AEC
100
AcDbEntity
  8
0
 48
3.0
100
AcDbBlockEnd
  0
ENDSEC
  0
SECTION
  2
ENTITIES
  0
LINE
  5
12
330
2
100
AcDbEntity
  8
外枠
 48
80.0
370
     9
100
AcDbLine
 10
0.0
 20
0.0
 30
0.0
 11
2789.511161023067
 21
0.0
 31
0.0
  0
LINE
  5
13
330
2
100
AcDbEntity
  8
外枠
 48
80.0
370
     9
100
AcDbLine
 10
2789.511161023071
 20
1973.26911249564
 30
0.0
 11
0.0
 21
1973.26911249564
 31
0.0
  0
LINE
  5
14
330
2
100
AcDbEntity
  8
外枠
 48
100.0
370
     9
100
AcDbLine
 10
10.0
 20
10.0
 30
0.0
 11
2780.119625023061
 21
10.0
 31
0.0
  0
LINE
  5
17
330
2
100
AcDbEntity
  8
外枠
  6
Continuous
 48
100.0
370
     9
100
AcDbLine
 10
9.999999999996362
 20
155.3992728208031
 30
0.0
 11
2780.119625023061
 21
155.3992728207995
 31
0.0
  0
LINE
  5
18
330
2
100
AcDbEntity
  8
外枠
  6
Continuous
 48
100.0
370
     9
100
AcDbLine
 10
9.999999999996362
 20
160.0950408208045
 30
0.0
 11
2780.119625023061
 21
160.0950408207973
 31
0.0
  0
LINE
  5
19
330
2
100
AcDbEntity
  8
外枠
 48
100.0
370
     9
100
AcDbLine
 10
10.0
 20
1963.877576495633
 30
0.0
 11
2780.119625023053
 21
1963.877576495637
 31
0.0
  0
LINE
  5
1A
330
2
100
AcDbEntity
  8
外枠
 48
80.0
370
     9
100
AcDbLine
 10
0.0
 20
0.0
 30
0.0
 11
0.0
 21
1973.26911249564
 31
0.0
  0
LINE
  5
1B
330
2
100
AcDbEntity
  8
外枠
 48
100.0
370
     9
100
AcDbLine
 10
10.0
 20
1963.877576495633
 30
0.0
 11
10.0
 21
10.0
 31
0.0
  0
LINE
  5
1C
330
2
100
AcDbEntity
  8
外枠
  6
Continuous
 48
100.0
370
     9
100
AcDbLine
 10
10.0
 20
82.69963641040158
 30
0.0
 11
1153.530108552004
 21
82.69963641039794
 31
0.0
  0
MTEXT
  5
1D
330
2
100
AcDbEntity
  8
外枠
  6
Continuous
 48
100.0
370
     9
100
AcDbMText
 10
562.4308690521629
 20
136.1535564242149
 30
0.0
 40
30.0
 41
664.6118999999999
 71
     1
 72
     5
  1
細目Ｕ字溝用グレーチング
 73
     1
 44
1.0
1001
ACAD
1000
MTEXTBEGIN
1070
    73
1070
     1
1070
    44
1040
1.0
1070
    74
1070
     0
1000
MTEXTEND
  0
MTEXT
  5
1E
330
2
100
AcDbEntity
  8
外枠
  6
Continuous
 48
100.0
370
     9
100
AcDbMText
 10
246.8574963386418
 20
64.81814764649607
 30
0.0
 40
35.0
 41
532.9183
 71
     1
 72
     5
  1
230\U+00D7995\U+00D719 (実寸)
 73
     1
 44
1.0
1001
ACAD
1000
MTEXTBEGIN
1070
    73
1070
     1
1070
    44
1040
1.0
1070
    74
1070
     0
1000
MTEXTEND
  0
MTEXT
  5
1F
330
2
100
AcDbEntity
  8
外枠
  6
Continuous
 48
100.0
370
     9
100
AcDbMText
 10
76.61659604009765
 20
137.3760680266387
 30
0.0
 40
30.0
 41
126.3036
 71
     1
 72
     5
  1
T-2
 73
     1
 44
1.0
1001
ACAD
1000
MTEXTBEGIN
1070
    73
1070
     1
1070
    44
1040
1.0
1070
    74
1070
     0
1000
MTEXTEND
  0
MTEXT
  5
20
330
2
100
AcDbEntity
  8
外枠
  6
Continuous
 48
100.0
370
     9
100
AcDbMText
 10
82.93258377064921
 20
59.95966632915224
 30
0.0
 40
35.0
 41
88.86979999999999
 71
     1
 72
     5
  1
EUH
 73
     1
 44
1.0
1001
ACAD
1000
MTEXTBEGIN
1070
    73
1070
     1
1070
    44
1040
1.0
1070
    74
1070
     0
1000
MTEXTEND
  0
LINE
  5
21
330
2
100
AcDbEntity
  8
外枠
 48
100.0
370
     9
100
AcDbLine
 10
45.0
 20
155.3992728208031
 30
0.0
 11
45.0
 21
10.0
 31
0.0
  0
MTEXT
  5
22
330
2
100
AcDbEntity
  8
外枠
  6
Continuous
 48
100.0
370
     9
100
AcDbMText
 10
15.05670849094895
 20
75.82038473524153
 30
0.0
 40
20.0
 41
23.52947333656417
 71
     1
 72
     5
  1
品\P番
 73
     1
 44
1.0
1001
ACAD
1000
MTEXTBEGIN
1070
    73
1070
     1
1070
    44
1040
1.0
1070
    74
1070
     0
1000
MTEXTEND
  0
MTEXT
  5
23
330
2
100
AcDbEntity
  8
外枠
  6
Continuous
 48
100.0
370
     9
100
AcDbMText
 10
14.92010060012399
 20
149.3317229429121
 30
0.0
 40
20.0
 41
30.07989939987533
 71
     1
 72
     5
  1
荷\P重
 73
     1
 44
1.0
1001
ACAD
1000
MTEXTBEGIN
1070
    73
1070
     1
1070
    44
1040
1.0
1070
    74
1070
     0
1000
MTEXTEND
  0
LINE
  5
24
330
2
100
AcDbEntity
  8
外枠
 48
100.0
370
     9
100
AcDbLine
 10
179.1040495562847
 20
155.3992728208031
 30
0.0
 11
179.1040495562847
 21
10.0
 31
0.0
  0
MTEXT
  5
25
330
2
100
AcDbEntity
  8
外枠
  6
Continuous
 48
100.0
370
     9
100
AcDbMText
 10
271.7517807368968
 20
133.8572910967996
 30
0.0
 40
30.0
 41
271.6208
 71
     1
 72
     5
  1
240用
 73
     1
 44
1.0
1001
ACAD
1000
MTEXTBEGIN
1070
    73
1070
     1
1070
    44
1040
1.0
1070
    74
1070
     0
1000
MTEXTEND
  0
MTEXT
  5
26
330
2
100
AcDbEntity
  8
外枠
  6
Continuous
 48
100.0
370
     9
100
AcDbMText
 10
184.4346535744698
 20
149.3074501239389
 30
0.0
 40
20.0
 41
29.6694
 71
     1
 72
     5
  1
溝幅
 73
     1
 44
1.0
1001
ACAD
1000
MTEXTBEGIN
1070
    73
1070
     1
1070
    44
1040
1.0
1070
    74
1070
     0
1000
MTEXTEND
  0
LINE
  5
27
330
2
100
AcDbEntity
  8
外枠
 48
100.0
370
     9
100
AcDbLine
 10
214.1040495562847
 20
155.3992728208031
 30
0.0
 11
214.1040495562847
 21
82.69963641040158
 31
0.0
  0
MTEXT
  5
28
330
2
100
AcDbEntity
  8
外枠
  6
Continuous
 48
100.0
370
     9
100
AcDbMText
 10
477.8955451146976
 20
149.3074501239389
 30
0.0
 40
20.0
 41
29.6694
 71
     1
 72
     5
  1
品名
 73
     1
 44
1.0
1001
ACAD
1000
MTEXTBEGIN
1070
    73
1070
     1
1070
    44
1040
1.0
1070
    74
1070
     0
1000
MTEXTEND
  0
LINE
  5
29
330
2
100
AcDbEntity
  8
外枠
 48
100.0
370
     9
100
AcDbLine
 10
472.5649410965124
 20
155.3992728208031
 30
0.0
 11
472.5649410965124
 21
82.69963641040158
 31
0.0
  0
LINE
  5
2A
330
2
100
AcDbEntity
  8
外枠
 48
100.0
370
     9
100
AcDbLine
 10
507.5649410965125
 20
155.3992728208031
 30
0.0
 11
507.5649410965125
 21
82.69963641040158
 31
0.0
  0
MTEXT
  5
2B
330
2
100
AcDbEntity
  8
外枠
  6
Continuous
 48
100.0
370
     9
100
AcDbMText
 10
728.477887653953
 20
76.92551173516403
 30
0.0
 40
20.0
 41
664.6118999999999
 71
     1
 72
     5
  1
摘\P要
 73
     1
 44
1.0
1001
ACAD
1000
MTEXTBEGIN
1070
    73
1070
     1
1070
    44
1040
1.0
1070
    74
1070
     0
1000
MTEXTEND
  0
LINE
  5
2C
330
2
100
AcDbEntity
  8
外枠
 48
100.0
370
     9
100
AcDbLine
 10
723.8282373115871
 20
82.6996364103943
 30
0.0
 11
723.8282373115871
 21
9.999999999992724
 31
0.0
  0
LINE
  5
2F
330
2
100
AcDbEntity
  8
外枠
 48
100.0
370
     9
100
AcDbLine
 10
758.8282373115871
 20
82.6996364103943
 30
0.0
 11
758.8282373115871
 21
9.999999999992724
 31
0.0
  0
LINE
  5
31
330
2
100
AcDbEntity
  8
外枠
 48
100.0
370
     9
100
AcDbLine
 10
974.9513069700951
 20
82.6996364103943
 30
0.0
 11
974.9513069700951
 21
9.999999999992724
 31
0.0
  0
MTEXT
  5
32
330
2
100
AcDbEntity
  8
外枠
  6
Continuous
 48
100.0
370
     9
100
AcDbMText
 10
979.7329598959768
 20
74.84825461820583
 30
0.0
 40
20.0
 41
31.38947761565365
 71
     1
 72
     5
  1
材\P質
 73
     1
 44
1.0
1001
ACAD
1000
MTEXTBEGIN
1070
    73
1070
     1
1070
    44
1040
1.0
1070
    74
1070
     0
1000
MTEXTEND
  0
LINE
  5
33
330
2
100
AcDbEntity
  8
外枠
 48
100.0
370
     9
100
AcDbLine
 10
1009.951306970095
 20
82.6996364103943
 30
0.0
 11
1009.951306970095
 21
9.999999999992724
 31
0.0
  0
LINE
  5
38
330
2
100
AcDbEntity
  8
外枠
 48
80.0
370
     9
100
AcDbLine
 10
2789.511161023067
 20
0.0
 30
0.0
 11
2789.511161023071
 21
1973.26911249564
 31
0.0
  0
LINE
  5
39
330
2
100
AcDbEntity
  8
外枠
 48
100.0
370
     9
100
AcDbLine
 10
2780.119625023053
 20
1963.877576495637
 30
0.0
 11
2780.119625023061
 21
10.0
 31
0.0
  0
LINE
  5
3B
330
2
100
AcDbEntity
  8
外枠
 48
3.0
100
AcDbLine
 10
1607.072254912545
 20
61.67068719952067
 30
0.0
 11
2262.173600934632
 21
61.67068719952067
 31
0.0
  0
MTEXT
  5
3C
330
2
100
AcDbEntity
  8
外枠
  6
Continuous
 48
100.0
370
     9
100
AcDbMText
 10
1683.622173868318
 20
50.71504764095289
 30
0.0
 40
30.00024
 41
539.4827578564582
 71
     1
 72
     5
  1
T A K A R A   G R A T I N G
 73
     1
 44
1.0
1001
ACAD
1000
MTEXTBEGIN
1070
    73
1070
     1
1070
    44
1040
1.0
1070
    74
1070
     0
1000
MTEXTEND
  0
MTEXT
  5
3D
330
2
100
AcDbEntity
  8
外枠
  6
Continuous
 48
100.0
370
     9
100
AcDbMText
 10
1728.02061463669
 20
127.1672938476838
 30
0.0
 40
30.0
 41
282.8297
 71
     1
 72
     5
  1
株 式 会 社
 73
     1
 44
1.0
1001
ACAD
1000
MTEXTBEGIN
1070
    73
1070
     1
1070
    44
1040
1.0
1070
    74
1070
     0
1000
MTEXTEND
  0
LINE
  5
3E
330
2
100
AcDbEntity
  8
外枠
  6
Continuous
 48
100.0
370
     9
100
AcDbLine
 10
1508.680137877982
 20
155.3992728208068
 30
0.0
 11
1508.680137877982
 21
10.00000000000364
 31
0.0
  0
LINE
  5
3F
330
2
100
AcDbEntity
  8
外枠
  6
Continuous
 48
100.0
370
     9
100
AcDbLine
 10
1593.95141853916
 20
155.3992728207995
 30
0.0
 11
1593.95141853916
 21
9.999999999996362
 31
0.0
  0
LINE
  5
40
330
2
100
AcDbEntity
  8
外枠
  6
Continuous
 48
100.0
370
     9
100
AcDbLine
 10
1616.777813337499
 20
106.634063069062
 30
0.0
 11
1612.463999974505
 21
110.08511375945
 31
0.0
  0
LINE
  5
41
330
2
100
AcDbEntity
  8
外枠
  6
Continuous
 48
100.0
370
     9
100
AcDbLine
 10
1616.777813337499
 20
106.634063069062
 30
0.0
 11
1612.463999974505
 21
103.183012378663
 31
0.0
  0
LINE
  5
42
330
2
100
AcDbEntity
  8
外枠
  6
Continuous
 48
100.0
370
     9
100
AcDbLine
 10
1616.777813337505
 20
113.5361644498489
 30
0.0
 11
1612.463999974505
 21
110.08511375945
 31
0.0
  0
LINE
  5
43
330
2
100
AcDbEntity
  8
外枠
  6
Continuous
 48
100.0
370
     9
100
AcDbLine
 10
1616.777813337499
 20
99.73196168827508
 30
0.0
 11
1612.463999974505
 21
103.183012378663
 31
0.0
  0
MTEXT
  5
44
330
2
100
AcDbEntity
  8
外枠
  6
Continuous
 48
100.0
370
     9
100
AcDbMText
 10
1520.476936402745
 20
137.4995509975779
 30
0.0
 40
20.0
 41
1015.1375
 71
     1
 72
     5
  1
12.2
 73
     1
 44
1.0
1001
ACAD
1000
MTEXTBEGIN
1070
    73
1070
     1
1070
    44
1040
1.0
1070
    74
1070
     0
1000
MTEXTEND
  0
MTEXT
  5
45
330
2
100
AcDbEntity
  8
外枠
  6
Continuous
 48
100.0
370
     9
100
AcDbMText
 10
1568.464698185987
 20
108.4136993179927
 30
0.0
 40
18.0
 41
25.456
 71
     1
 72
     5
  1
kg
 73
     1
 44
1.0
1001
ACAD
1000
MTEXTBEGIN
1070
    73
1070
     1
1070
    44
1040
1.0
1070
    74
1070
     0
1000
MTEXTEND
  0
LINE
  5
46
330
2
100
AcDbEntity
  8
外枠
  6
Continuous
 48
100.0
370
     9
100
AcDbLine
 10
1649.122643507042
 20
139.4120285854742
 30
0.0
 11
1653.436456870031
 21
135.9609778950862
 31
0.0
  0
LINE
  5
47
330
2
100
AcDbEntity
  8
外枠
  6
Continuous
 48
100.0
370
     9
100
AcDbLine
 10
1666.377896959009
 20
139.4120285854742
 30
0.0
 11
1662.06408359602
 21
135.9609778950862
 31
0.0
  0
MTEXT
  5
48
330
2
100
AcDbEntity
  8
外枠
  6
Continuous
 48
100.0
370
     9
100
AcDbMText
 10
1642.840555134189
 20
120.8184913847756
 30
0.0
 40
23.95393639053264
 41
23.85059431815661
 71
     1
 72
     5
  1
{\fＭＳ ゴシック|b0|i0|c128|p49;宝}
 73
     1
 44
1.0
1001
ACAD
1000
MTEXTBEGIN
1070
    73
1070
     1
1070
    44
1040
1.0
1070
    74
1070
     0
1000
MTEXTEND
  0
LINE
  5
49
330
2
100
AcDbEntity
  8
外枠
  6
Continuous
 48
100.0
370
     9
100
AcDbLine
 10
1662.06408359602
 20
135.9609778950862
 30
0.0
 11
1694.408913765557
 21
110.08511375945
 31
0.0
  0
LINE
  5
4A
330
2
100
AcDbEntity
  8
外枠
  6
Continuous
 48
100.0
370
     9
100
AcDbLine
 10
1657.750270233026
 20
132.5099272046927
 30
0.0
 11
1690.095100402563
 21
106.634063069062
 31
0.0
  0
LINE
  5
4B
330
2
100
AcDbEntity
  8
外枠
  6
Continuous
 48
100.0
370
     9
100
AcDbLine
 10
1690.095100402563
 20
106.634063069062
 30
0.0
 11
1657.750270233026
 21
80.75819893343123
 31
0.0
  0
LINE
  5
4C
330
2
100
AcDbEntity
  8
外枠
  6
Continuous
 48
100.0
370
     9
100
AcDbLine
 10
1694.408913765557
 20
103.183012378663
 30
0.0
 11
1662.06408359602
 21
77.30714824303777
 31
0.0
  0
LINE
  5
4D
330
2
100
AcDbEntity
  8
外枠
  6
Continuous
 48
100.0
370
     9
100
AcDbLine
 10
1657.750270233026
 20
80.75819893342577
 30
0.0
 11
1625.405440063488
 21
106.634063069062
 31
0.0
  0
LINE
  5
4E
330
2
100
AcDbEntity
  8
外枠
  6
Continuous
 48
100.0
370
     9
100
AcDbLine
 10
1653.436456870031
 20
77.30714824303777
 30
0.0
 11
1621.0916267005
 21
103.183012378663
 31
0.0
  0
LINE
  5
4F
330
2
100
AcDbEntity
  8
外枠
  6
Continuous
 48
100.0
370
     9
100
AcDbLine
 10
1621.0916267005
 20
103.183012378663
 30
0.0
 11
1616.777813337505
 21
99.73196168827508
 31
0.0
  0
LINE
  5
50
330
2
100
AcDbEntity
  8
外枠
  6
Continuous
 48
100.0
370
     9
100
AcDbLine
 10
1653.436456870031
 20
77.30714824303777
 30
0.0
 11
1649.122643507042
 21
73.85609755263885
 31
0.0
  0
LINE
  5
51
330
2
100
AcDbEntity
  8
外枠
  6
Continuous
 48
100.0
370
     9
100
AcDbLine
 10
1653.436456870031
 20
70.4050468622454
 30
0.0
 11
1649.122643507042
 21
73.85609755263885
 31
0.0
  0
LINE
  5
52
330
2
100
AcDbEntity
  8
外枠
  6
Continuous
 48
100.0
370
     9
100
AcDbLine
 10
1657.750270233026
 20
73.85609755263885
 30
0.0
 11
1653.436456870031
 21
70.4050468622454
 31
0.0
  0
LINE
  5
53
330
2
100
AcDbEntity
  8
外枠
  6
Continuous
 48
100.0
370
     9
100
AcDbLine
 10
1666.377896959009
 20
73.85609755263885
 30
0.0
 11
1662.06408359602
 21
70.4050468622454
 31
0.0
  0
LINE
  5
54
330
2
100
AcDbEntity
  8
外枠
  6
Continuous
 48
100.0
370
     9
100
AcDbLine
 10
1662.06408359602
 20
70.4050468622454
 30
0.0
 11
1657.750270233026
 21
73.85609755263885
 31
0.0
  0
LINE
  5
55
330
2
100
AcDbEntity
  8
外枠
  6
Continuous
 48
100.0
370
     9
100
AcDbLine
 10
1666.377896959009
 20
73.85609755263885
 30
0.0
 11
1662.06408359602
 21
77.30714824303777
 31
0.0
  0
LINE
  5
56
330
2
100
AcDbEntity
  8
外枠
  6
Continuous
 48
100.0
370
     9
100
AcDbLine
 10
1657.750270233026
 20
132.5099272046927
 30
0.0
 11
1625.405440063483
 21
106.634063069062
 31
0.0
  0
LINE
  5
57
330
2
100
AcDbEntity
  8
外枠
  6
Continuous
 48
100.0
370
     9
100
AcDbLine
 10
1653.436456870031
 20
135.9609778950862
 30
0.0
 11
1621.0916267005
 21
110.08511375945
 31
0.0
  0
LINE
  5
58
330
2
100
AcDbEntity
  8
外枠
  6
Continuous
 48
100.0
370
     9
100
AcDbLine
 10
1621.0916267005
 20
110.08511375945
 30
0.0
 11
1616.777813337505
 21
113.5361644498489
 31
0.0
  0
LINE
  5
59
330
2
100
AcDbEntity
  8
外枠
  6
Continuous
 48
100.0
370
     9
100
AcDbLine
 10
1694.408913765557
 20
103.183012378663
 30
0.0
 11
1698.722727128541
 21
99.73196168827508
 31
0.0
  0
LINE
  5
5A
330
2
100
AcDbEntity
  8
外枠
  6
Continuous
 48
100.0
370
     9
100
AcDbLine
 10
1703.036540491541
 20
103.183012378663
 30
0.0
 11
1698.722727128541
 21
99.73196168827508
 31
0.0
  0
LINE
  5
5B
330
2
100
AcDbEntity
  8
外枠
  6
Continuous
 48
100.0
370
     9
100
AcDbLine
 10
1698.722727128541
 20
113.5361644498489
 30
0.0
 11
1694.408913765557
 21
110.08511375945
 31
0.0
  0
LINE
  5
5C
330
2
100
AcDbEntity
  8
外枠
  6
Continuous
 48
100.0
370
     9
100
AcDbLine
 10
1698.722727128541
 20
106.634063069062
 30
0.0
 11
1703.036540491541
 21
103.183012378663
 31
0.0
  0
LINE
  5
5D
330
2
100
AcDbEntity
  8
外枠
  6
Continuous
 48
100.0
370
     9
100
AcDbLine
 10
1698.722727128541
 20
113.5361644498489
 30
0.0
 11
1703.036540491541
 21
110.08511375945
 31
0.0
  0
LINE
  5
5E
330
2
100
AcDbEntity
  8
外枠
  6
Continuous
 48
100.0
370
     9
100
AcDbLine
 10
1703.036540491541
 20
110.08511375945
 30
0.0
 11
1698.722727128541
 21
106.634063069062
 31
0.0
  0
LINE
  5
5F
330
2
100
AcDbEntity
  8
外枠
  6
Continuous
 48
100.0
370
     9
100
AcDbLine
 10
1653.436456870031
 20
142.8630792758676
 30
0.0
 11
1649.122643507042
 21
139.4120285854742
 31
0.0
  0
LINE
  5
60
330
2
100
AcDbEntity
  8
外枠
  6
Continuous
 48
100.0
370
     9
100
AcDbLine
 10
1662.06408359602
 20
142.8630792758676
 30
0.0
 11
1666.377896959009
 21
139.4120285854742
 31
0.0
  0
LINE
  5
61
330
2
100
AcDbEntity
  8
外枠
  6
Continuous
 48
100.0
370
     9
100
AcDbLine
 10
1653.436456870031
 20
142.8630792758676
 30
0.0
 11
1657.750270233026
 21
139.4120285854742
 31
0.0
  0
LINE
  5
62
330
2
100
AcDbEntity
  8
外枠
  6
Continuous
 48
100.0
370
     9
100
AcDbLine
 10
1662.06408359602
 20
142.8630792758676
 30
0.0
 11
1657.750270233026
 21
139.4120285854742
 31
0.0
  0
MTEXT
  5
63
330
2
100
AcDbEntity
  8
外枠
  6
Continuous
 48
100.0
370
     9
100
AcDbMText
 10
1982.246612759803
 20
141.5312822365363
 30
0.0
 40
50.0
 41
269.1378
 71
     1
 72
     5
  1
宝 機 材
 73
     1
 44
1.0
1001
ACAD
1000
MTEXTBEGIN
1070
    73
1070
     1
1070
    44
1040
1.0
1070
    74
1070
     0
1000
MTEXTEND
  0
LINE
  5
64
330
2
100
AcDbEntity
  8
外枠
  6
Continuous
 48
100.0
370
     9
100
AcDbLine
 10
2694.775480668144
 20
78.59726492113622
 30
0.0
 11
2729.639779322774
 21
43.73296626650699
 31
0.0
  0
LINE
  5
65
330
2
100
AcDbEntity
  8
外枠
  6
Continuous
 48
100.0
370
     9
100
AcDbLine
 10
2729.639779322774
 20
113.4615635757691
 30
0.0
 11
2694.775480668144
 21
78.59726492113622
 31
0.0
  0
LINE
  5
67
330
2
100
AcDbEntity
  8
外枠
  6
Continuous
 48
100.0
370
     9
100
AcDbLine
 10
2271.730765417811
 20
155.3992728207995
 30
0.0
 11
2271.730765417811
 21
10.0
 31
0.0
  0
LINE
  5
68
330
2
100
AcDbEntity
  8
外枠
  6
Continuous
 48
100.0
370
     9
100
AcDbLine
 10
2387.385592047314
 20
155.3992728207995
 30
0.0
 11
2387.385592047314
 21
9.999999999996362
 31
0.0
  0
MTEXT
  5
69
330
2
100
AcDbEntity
  8
外枠
  6
Continuous
 48
100.0
370
     9
100
AcDbMText
 10
2518.897970034654
 20
80.52451510381798
 30
0.0
 40
16.435188
 41
274.138099993296
 71
     1
 72
     5
  1
縮尺（A4用紙)
 73
     1
 44
1.0
1001
ACAD
1000
MTEXTBEGIN
1070
    73
1070
     1
1070
    44
1040
1.0
1070
    74
1070
     0
1000
MTEXTEND
  0
LINE
  5
6A
330
2
100
AcDbEntity
  8
外枠
  6
Continuous
 48
100.0
370
     9
100
AcDbLine
 10
2503.04041867681
 20
155.3992728207995
 30
0.0
 11
2503.04041867681
 21
9.999999999996362
 31
0.0
  0
LINE
  5
6B
330
2
100
AcDbEntity
  8
外枠
  6
Continuous
 48
100.0
370
     9
100
AcDbLine
 10
2676.662359028593
 20
155.3992728207995
 30
0.0
 11
2676.662359028593
 21
10.0
 31
0.0
  0
MTEXT
  5
6C
330
2
100
AcDbEntity
  8
外枠
  6
Continuous
 48
100.0
370
     9
100
AcDbMText
 10
2557.587330290393
 20
42.24161905183791
 30
0.0
 40
23.47884
 41
274.138099993296
 71
     1
 72
     5
  1
1：10
 73
     1
 44
1.0
1001
ACAD
1000
MTEXTBEGIN
1070
    73
1070
     1
1070
    44
1040
1.0
1070
    74
1070
     0
1000
MTEXTEND
  0
MTEXT
  5
6D
330
2
100
AcDbEntity
  8
外枠
  6
Continuous
 48
100.0
370
     9
100
AcDbMText
 10
2280.290404386422
 20
149.5129012429788
 30
0.0
 40
18.783072
 41
274.13809060176
 71
     1
 72
     5
  1
Check
 73
     1
 44
1.0
1001
ACAD
1000
MTEXTBEGIN
1070
    73
1070
     1
1070
    44
1040
1.0
1070
    74
1070
     0
1000
MTEXTEND
  0
MTEXT
  5
6E
330
2
100
AcDbEntity
  8
外枠
  6
Continuous
 48
100.0
370
     9
100
AcDbMText
 10
2398.03460165154
 20
149.5129012429788
 30
0.0
 40
18.783072
 41
274.13809060176
 71
     1
 72
     5
  1
Draw
 73
     1
 44
1.0
1001
ACAD
1000
MTEXTBEGIN
1070
    73
1070
     1
1070
    44
1040
1.0
1070
    74
1070
     0
1000
MTEXTEND
  0
LINE
  5
70
330
2
100
AcDbEntity
  8
外枠
  6
Continuous
 48
100.0
370
     9
100
AcDbLine
 10
2676.662359028593
 20
85.04752041039683
 30
0.0
 11
2503.04041867681
 21
85.04752041039683
 31
0.0
  0
MTEXT
  5
71
330
2
100
AcDbEntity
  8
外枠
  6
Continuous
 48
100.0
370
     9
100
AcDbMText
 10
2518.897970034654
 20
153.7304166203976
 30
0.0
 40
16.435188
 41
274.138099993296
 71
     1
 72
     5
  1
図面作成日
 73
     1
 44
1.0
1001
ACAD
1000
MTEXTBEGIN
1070
    73
1070
     1
1070
    44
1040
1.0
1070
    74
1070
     0
1000
MTEXTEND
  0
LINE
  5
73
330
2
100
AcDbEntity
  8
外枠
  6
Continuous
 48
100.0
370
     9
100
AcDbLine
 10
2729.639779322774
 20
43.73296626650699
 30
0.0
 11
2764.504077977396
 21
78.59726492113622
 31
0.0
  0
LINE
  5
74
330
2
100
AcDbEntity
  8
外枠
  6
Continuous
 48
100.0
370
     9
100
AcDbLine
 10
2764.504077977396
 20
78.59726492113622
 30
0.0
 11
2729.639779322774
 21
113.4615635757691
 31
0.0
  0
LINE
  5
79
330
2
100
AcDbEntity
  8
本体
  6
HIDDEN
 48
2.0
100
AcDbLine
 10
422.4655570550994
 20
1540.075460837858
 30
0.0
 11
1417.465557055099
 21
1540.075460837858
 31
0.0
  0
LINE
  5
7C
330
2
100
AcDbEntity
  8
本体
  6
Continuous
100
AcDbLine
 10
422.4655570550994
 20
1537.075460837858
 30
0.0
 11
1417.465557055099
 21
1537.075460837858
 31
0.0
  0
LINE
  5
7D
330
2
100
AcDbEntity
  8
本体
  6
Continuous
100
AcDbLine
 10
422.4655570550994
 20
1567.075460837858
 30
0.0
 11
1417.465557055099
 21
1567.075460837858
 31
0.0
  0
LINE
  5
80
330
2
100
AcDbEntity
  8
本体
  6
HIDDEN
 48
2.0
100
AcDbLine
 10
422.4655570550994
 20
1310.075460837858
 30
0.0
 11
1417.465557055099
 21
1310.075460837858
 31
0.0
  0
LINE
  5
81
330
2
100
AcDbEntity
  8
本体
  6
Continuous
100
AcDbLine
 10
422.4655570550994
 20
1283.075460837858
 30
0.0
 11
1417.465557055099
 21
1283.075460837858
 31
0.0
  0
LINE
  5
82
330
2
100
AcDbEntity
  8
本体
  6
Continuous
100
AcDbLine
 10
422.4655570550994
 20
1313.075460837858
 30
0.0
 11
1417.465557055099
 21
1313.075460837858
 31
0.0
  0
LINE
  5
83
330
2
100
AcDbEntity
  8
本体
  6
Continuous
100
AcDbLine
 10
422.4655570550994
 20
1283.075460837858
 30
0.0
 11
422.4655570550994
 21
1567.075460837858
 31
0.0
  0
LINE
  5
84
330
2
100
AcDbEntity
  8
本体
  6
Continuous
100
AcDbLine
 10
425.4655570550994
 20
1537.075460837858
 30
0.0
 11
425.4655570550994
 21
1477.575460837858
 31
0.0
  0
LINE
  5
85
330
2
100
AcDbEntity
  8
本体
  6
Continuous
100
AcDbLine
 10
1417.465557055099
 20
1477.575460837858
 30
0.0
 11
422.4655570550994
 21
1477.575460837858
 31
0.0
  0
LINE
  5
86
330
2
100
AcDbEntity
  8
本体
  6
Continuous
100
AcDbLine
 10
1417.465557055099
 20
1472.575460837858
 30
0.0
 11
422.4655570550994
 21
1472.575460837858
 31
0.0
  0
LINE
  5
87
330
2
100
AcDbEntity
  8
本体
  6
Continuous
100
AcDbLine
 10
425.4655570550994
 20
1472.575460837858
 30
0.0
 11
425.4655570550994
 21
1377.575460837858
 31
0.0
  0
LINE
  5
8D
330
2
100
AcDbEntity
  8
本体
  6
Continuous
100
AcDbLine
 10
422.4655570550994
 20
821.5969119961709
 30
0.0
 11
422.4655570550994
 21
791.596911996171
 31
0.0
  0
LINE
  5
8E
330
2
100
AcDbEntity
  8
本体
  6
Continuous
100
AcDbLine
 10
422.4655570550994
 20
791.596911996171
 30
0.0
 11
1417.465557055099
 21
791.596911996171
 31
0.0
  0
LINE
  5
8F
330
2
100
AcDbEntity
  8
本体
  6
Continuous
100
AcDbLine
 10
1417.465557055099
 20
791.596911996171
 30
0.0
 11
1417.465557055099
 21
821.5969119961709
 31
0.0
  0
LINE
  5
91
330
2
100
AcDbEntity
  8
本体
  6
Continuous
100
AcDbLine
 10
1917.465557055099
 20
1537.075460837858
 30
0.0
 11
1947.465557055099
 21
1537.075460837858
 31
0.0
  0
LINE
  5
93
330
2
100
AcDbEntity
  8
本体
  6
Continuous
100
AcDbLine
 10
1944.465557055099
 20
1540.075460837858
 30
0.0
 11
1923.4655570551
 21
1540.075460837858
 31
0.0
  0
LINE
  5
94
330
2
100
AcDbEntity
  8
本体
  6
Continuous
100
AcDbLine
 10
1920.4655570551
 20
1543.075460837858
 30
0.0
 11
1920.465557055099
 21
1564.075460837859
 31
0.0
  0
LINE
  5
97
330
2
100
AcDbEntity
  8
本体
  6
Continuous
100
AcDbLine
 10
1936.465557055099
 20
1537.075460837858
 30
0.0
 11
1936.465557055099
 21
1313.075460837858
 31
0.0
  0
LEADER
  5
98
330
2
100
AcDbEntity
  8
寸法線
  6
Continuous
100
AcDbLeader
  3
ISO-25
 73
     0
 74
     0
 75
     1
 40
30.0
 41
152.1319796954314
 76
     3
 10
423.9655570550994
 20
821.5969119961709
 30
0.0
 10
480.6762351737543
 20
901.5969119961708
 30
0.0
 10
495.6762351737543
 20
901.5969119961708
 30
0.0
340
9F
1001
ACAD
1000
DSTYLE
1002
{
1070
     5
1000
OPEN30
1070
    77
1070
     1
1070
   147
1040
0.5
1070
   342
1005
99
1002
}
  0
MTEXT
  5
9F
102
{ACAD_REACTORS
330
98
102
}
330
2
100
AcDbEntity
  8
寸法線
  6
Continuous
100
AcDbMText
 10
500.6762351737543
 20
906.5969119961707
 30
0.0
 40
30.0
 41
0.0
 71
     7
 72
     1
  1
GFB3\U+00D719
 73
     1
 44
1.0
1001
ACAD
1000
MTEXTBEGIN
1070
    73
1070
     1
1070
    44
1040
1.0
1070
    74
1070
     0
1000
MTEXTEND
  0
LEADER
  5
A1
330
2
100
AcDbEntity
  8
寸法線
  6
Continuous
100
AcDbLeader
  3
ISO-25
 73
     0
 74
     0
 75
     1
 40
30.0
 41
35.78680203045685
 76
     3
 10
832.0668220550997
 20
821.5969119961709
 30
0.0
 10
885.6762351737543
 20
901.596911996171
 30
0.0
 10
900.6762351737544
 20
901.596911996171
 30
0.0
340
A2
1001
ACAD
1000
DSTYLE
1002
{
1070
     5
1000
OPEN30
1070
    77
1070
     1
1070
   147
1040
0.5
1070
   342
1005
99
1002
}
  0
MTEXT
  5
A2
102
{ACAD_REACTORS
330
A1
102
}
330
2
100
AcDbEntity
  8
寸法線
  6
Continuous
100
AcDbMText
 10
905.6762351737543
 20
906.596911996171
 30
0.0
 40
30.0
 41
0.0
 71
     7
 72
     1
  1
TB
 73
     1
 44
1.0
1001
ACAD
1000
MTEXTBEGIN
1070
    73
1070
     1
1070
    44
1040
1.0
1070
    74
1070
     0
1000
MTEXTEND
  0
DIMENSION
  5
A3
330
2
100
AcDbEntity
  8
寸法線
  6
Continuous
100
AcDbDimension
  2
*D5
 10
1417.4655570551
 20
981.596911996171
 30
0.0
 11
919.9655570551
 21
1001.596911996171
 31
0.0
 70
    32
 71
     5
 42
995.0000000000009
  3
ISO-25
100
AcDbAlignedDimension
 13
422.4655570550994
 23
821.5969119961709
 33
0.0
 14
1417.4655570551
 24
821.5969119961652
 34
0.0
100
AcDbRotatedDimension
  0
DIMENSION
  5
B1
330
2
100
AcDbEntity
  8
寸法線
  6
Continuous
100
AcDbDimension
  2
*D6
 10
2027.46763415248
 20
1310.075460837858
 30
0.0
 11
2007.46763415248
 21
1425.075460837858
 31
0.0
 70
    32
 71
     5
 42
230.0
  3
ISO-25
100
AcDbAlignedDimension
 13
1944.4655570551
 23
1540.075460837858
 33
0.0
 14
1944.465557055099
 24
1310.075460837858
 34
0.0
 50
90.0
100
AcDbRotatedDimension
  0
DIMENSION
  5
BE
330
2
100
AcDbEntity
  8
寸法線
  6
Continuous
100
AcDbDimension
  2
*D7
 10
1837.465557055099
 20
1375.075460837858
 30
0.0
 11
1817.465557055099
 21
1425.075460837859
 31
0.0
 70
    32
 71
     5
 42
100.0
  3
ISO-25
100
AcDbAlignedDimension
 13
1917.465557055099
 23
1475.075460837858
 33
0.0
 14
1917.465557055099
 24
1375.075460837858
 34
0.0
 50
90.0
100
AcDbRotatedDimension
  0
DIMENSION
  5
CB
330
2
100
AcDbEntity
  8
寸法線
  6
Continuous
100
AcDbDimension
  2
*D8
 10
1757.465557055099
 20
1567.075460837858
 30
0.0
 11
1737.465557055099
 21
1619.968861853087
 31
0.0
 70
    32
 71
     5
 42
30.0
  3
ISO-25
100
AcDbAlignedDimension
 13
1917.465557055099
 23
1537.075460837858
 33
0.0
 14
1917.465557055099
 24
1567.075460837858
 34
0.0
 50
90.0
100
AcDbRotatedDimension
  0
DIMENSION
  5
DA
330
2
100
AcDbEntity
  8
寸法線
  6
Continuous
100
AcDbDimension
  2
*D9
 10
1757.465557055099
 20
1313.075460837858
 30
0.0
 11
1737.465557055099
 21
1425.075460837859
 31
0.0
 70
    32
 71
     5
 42
223.9999999999998
  3
ISO-25
100
AcDbAlignedDimension
 13
1917.465557055099
 23
1537.075460837858
 33
0.0
 14
1917.465557055099
 24
1313.075460837858
 34
0.0
 50
90.0
100
AcDbRotatedDimension
  0
DIMENSION
  5
E7
330
2
100
AcDbEntity
  8
寸法線
  6
Continuous
100
AcDbDimension
  2
*D10
 10
1757.465557055099
 20
1283.075460837858
 30
0.0
 11
1737.465557055099
 21
1230.18205982263
 31
0.0
 70
    32
 71
     5
 42
30.00000000000068
  3
ISO-25
100
AcDbAlignedDimension
 13
1917.465557055099
 23
1313.075460837858
 33
0.0
 14
1917.465557055099
 24
1283.075460837858
 34
0.0
 50
90.0
100
AcDbRotatedDimension
  0
DIMENSION
  5
F6
330
2
100
AcDbEntity
  8
寸法線
  6
Continuous
100
AcDbDimension
  2
*D11
 10
1677.465557055099
 20
1283.075460837858
 30
0.0
 11
1657.465557055099
 21
1425.075460837858
 31
0.0
 70
    32
 71
     5
 42
284.0000000000005
  3
ISO-25
100
AcDbAlignedDimension
 13
1917.465557055099
 23
1567.075460837858
 33
0.0
 14
1917.465557055099
 24
1283.075460837858
 34
0.0
 50
90.0
100
AcDbRotatedDimension
  0
LINE
  5
103
330
2
100
AcDbEntity
  8
中心線
  6
Continuous
100
AcDbLine
 10
1152.269353055099
 20
829.5969119961709
 30
0.0
 11
1152.269353055099
 21
794.596911996171
 31
0.0
  0
DIMENSION
  5
104
330
2
100
AcDbEntity
  8
寸法線
  6
Continuous
100
AcDbDimension
  2
*D12
 10
1527.467599878604
 20
821.5969119961709
 30
0.0
 11
1507.467599878603
 21
873.0436125037854
 31
0.0
 70
    32
 71
     5
 42
19.0
  3
ISO-25
100
AcDbAlignedDimension
 13
1417.465557055099
 23
802.5969119961709
 33
0.0
 14
1417.465557055099
 24
821.5969119961709
 34
0.0
 50
90.0
100
AcDbRotatedDimension
1001
ACAD
1000
DSTYLE
1002
{
1070
   279
1070
     0
1002
}
  0
DIMENSION
  5
113
330
2
100
AcDbEntity
  8
寸法線
  6
Continuous
100
AcDbDimension
  2
*D13
 10
1607.467599878604
 20
821.5969119961709
 30
0.0
 11
1607.467599878604
 21
874.4903130113996
 31
0.0
 70
   160
 71
     5
 42
30.0
  3
ISO-25
100
AcDbAlignedDimension
 13
1417.465557055099
 23
791.596911996171
 33
0.0
 14
1417.465557055099
 24
821.5969119961709
 34
0.0
 50
90.0
100
AcDbRotatedDimension
1001
ACAD
1000
DSTYLE
1002
{
1070
   279
1070
     0
1002
}
  0
LEADER
  5
125
330
2
100
AcDbEntity
  8
寸法線
  6
Continuous
100
AcDbLeader
  3
ISO-25
 73
     0
 74
     0
 75
     1
 40
30.0
 41
191.4213197969543
 76
     3
 10
1945.999306025536
 20
1538.419174187686
 30
0.0
 10
1989.676235173754
 20
1612.786138956513
 30
0.0
 10
2004.676235173755
 20
1612.786138956513
 30
0.0
340
126
1001
ACAD
1000
DSTYLE
1002
{
1070
     5
1000
OPEN30
1070
    77
1070
     1
1070
   147
1040
0.5
1070
   342
1005
99
1002
}
  0
MTEXT
  5
126
102
{ACAD_REACTORS
330
125
102
}
330
2
100
AcDbEntity
  8
寸法線
  6
Continuous
100
AcDbMText
 10
2009.676235173754
 20
1617.786138956513
 30
0.0
 40
30.0
 41
0.0
 71
     7
 72
     1
  1
L3\U+00D730\U+00D730
 73
     1
 44
1.0
1001
ACAD
1000
MTEXTBEGIN
1070
    73
1070
     1
1070
    44
1040
1.0
1070
    74
1070
     0
1000
MTEXTEND
  0
LINE
  5
127
330
2
100
AcDbEntity
  8
本体
  6
Continuous
100
AcDbLine
 10
425.4655570550994
 20
1372.575460837858
 30
0.0
 11
425.4655570550994
 21
1313.075460837858
 31
0.0
  0
LINE
  5
129
330
2
100
AcDbEntity
  8
本体
  6
Continuous
100
AcDbLine
 10
1417.465557055099
 20
1377.575460837858
 30
0.0
 11
422.4655570550994
 21
1377.575460837858
 31
0.0
  0
LINE
  5
12A
330
2
100
AcDbEntity
  8
本体
  6
Continuous
100
AcDbLine
 10
1417.465557055099
 20
1372.575460837858
 30
0.0
 11
422.4655570550994
 21
1372.575460837858
 31
0.0
  0
LINE
  5
300
330
2
100
AcDbEntity
  8
本体
  6
Continuous
100
AcDbLine
 10
1417.465557055099
 20
1283.075460837858
 30
0.0
 11
1417.465557055099
 21
1567.075460837858
 31
0.0
  0
LINE
  5
301
330
2
100
AcDbEntity
  8
本体
  6
Continuous
100
AcDbLine
 10
1414.465557055099
 20
1472.575460837858
 30
0.0
 11
1414.465557055099
 21
1377.575460837858
 31
0.0
  0
LINE
  5
304
330
2
100
AcDbEntity
  8
本体
  6
Continuous
100
AcDbLine
 10
1414.465557055099
 20
1372.575460837858
 30
0.0
 11
1414.465557055099
 21
1313.075460837858
 31
0.0
  0
LINE
  5
306
330
2
100
AcDbEntity
  8
本体
  6
Continuous
100
AcDbLine
 10
1414.465557055099
 20
1537.075460837858
 30
0.0
 11
1414.465557055099
 21
1477.575460837858
 31
0.0
  0
LWPOLYLINE
  5
358
330
2
100
AcDbEntity
  8
本体
  6
Continuous
100
AcDbPolyline
 90
        4
 70
     1
 43
0.0
 10
1414.465555055099
 20
821.5969119961709
 10
1417.465555055099
 20
821.5969119961709
 10
1417.465555055099
 20
802.5969119961709
 10
1414.465555055099
 20
802.5969119961709
  0
LINE
  5
3F5
330
2
100
AcDbEntity
  8
中心線
  6
Continuous
100
AcDbLine
 10
1164.826315055099
 20
829.5969119961709
 30
0.0
 11
1164.826315055099
 21
794.596911996171
 31
0.0
  0
DIMENSION
  5
3F6
330
2
100
AcDbEntity
  8
寸法線
  6
Continuous
100
AcDbDimension
  2
*D4
 10
1164.826315055099
 20
901.596911996171
 30
0.0
 11
1235.765401349515
 21
921.5969119961711
 31
0.0
 70
    32
  1
12.5
 71
     5
 42
12.55696199999966
  3
ISO-25
100
AcDbAlignedDimension
 13
1152.269353055099
 23
821.5969119961709
 33
0.0
 14
1164.826315055099
 24
821.5969119961709
 34
0.0
100
AcDbRotatedDimension
  0
INSERT
  5
405
330
2
100
AcDbEntity
  8
本体
  6
Continuous
100
AcDbBlockReference
  2
TB5
 10
1917.465557055099
 20
1475.075460837858
 30
0.0
  0
INSERT
  5
40E
330
2
100
AcDbEntity
  8
本体
  6
Continuous
100
AcDbBlockReference
  2
TB5
 10
1917.465557055099
 20
1375.075460837858
 30
0.0
  0
ARC
  5
411
330
2
100
AcDbEntity
  8
本体
  6
Continuous
100
AcDbCircle
 10
1917.465557055099
 20
1564.075460837859
 30
0.0
 40
3.0
100
AcDbArc
 50
0.0
 51
90.0
  0
ARC
  5
412
330
2
100
AcDbEntity
  8
本体
  6
Continuous
100
AcDbCircle
 10
1923.4655570551
 20
1543.075460837858
 30
0.0
 40
3.0
100
AcDbArc
 50
180.0
 51
270.0
  0
ARC
  5
413
330
2
100
AcDbEntity
  8
本体
  6
Continuous
100
AcDbCircle
 10
1944.465557055099
 20
1537.075460837858
 30
0.0
 40
3.0
100
AcDbArc
 50
0.0000000000032569
 51
90.0
  0
ARC
  5
414
330
2
100
AcDbEntity
  8
本体
  6
Continuous
100
AcDbCircle
 10
1917.465557055099
 20
1286.075460837858
 30
0.0
 40
3.0
100
AcDbArc
 50
270.0
 51
0.0
  0
LINE
  5
415
330
2
100
AcDbEntity
  8
本体
  6
Continuous
100
AcDbLine
 10
1917.465557055099
 20
1283.075460837858
 30
0.0
 11
1917.465557055099
 21
1567.075460837858
 31
0.0
  0
LINE
  5
416
330
2
100
AcDbEntity
  8
本体
  6
Continuous
100
AcDbLine
 10
1944.465557055099
 20
1310.075460837858
 30
0.0
 11
1923.4655570551
 21
1310.075460837858
 31
0.0
  0
LINE
  5
417
330
2
100
AcDbEntity
  8
本体
  6
Continuous
100
AcDbLine
 10
1917.465557055099
 20
1313.075460837858
 30
0.0
 11
1947.465557055099
 21
1313.075460837858
 31
0.0
  0
LINE
  5
418
330
2
100
AcDbEntity
  8
本体
  6
Continuous
100
AcDbLine
 10
1920.4655570551
 20
1307.075460837858
 30
0.0
 11
1920.465557055099
 21
1286.075460837858
 31
0.0
  0
ARC
  5
419
330
2
100
AcDbEntity
  8
本体
  6
Continuous
100
AcDbCircle
 10
1923.4655570551
 20
1307.075460837858
 30
0.0
 40
3.0
100
AcDbArc
 50
90.0
 51
180.0
  0
ARC
  5
41B
330
2
100
AcDbEntity
  8
本体
  6
Continuous
100
AcDbCircle
 10
1944.465557055099
 20
1313.075460837858
 30
0.0
 40
3.0
100
AcDbArc
 50
270.0
 51
359.9999999999968
  0
INSERT
  5
4B0
330
2
100
AcDbEntity
  8
エンボス
  6
Continuous
100
AcDbBlockReference
  2
A$C76CF7395
 10
1920.4655570551
 20
1543.075460837858
 30
0.0
  0
INSERT
  5
4BE
330
2
100
AcDbEntity
  8
エンボス
  6
Continuous
100
AcDbBlockReference
  2
A$C76CF7395
 10
1920.4655570551
 20
1307.075460837858
 30
0.0
 41
-1.0
 50
180.0
  0
LEADER
  5
4BF
330
2
100
AcDbEntity
  8
枠寸法
  6
Continuous
100
AcDbLeader
  3
ISO-25
 73
     0
 74
     0
 75
     1
 40
31.82741116751269
 41
132.3350253807106
 76
     3
 10
1934.465557055099
 20
1308.075460837858
 30
0.0
 10
1989.676235173754
 20
1198.366690638889
 30
0.0
 10
2004.676235173755
 20
1198.366690638889
 30
0.0
340
4C0
1001
ACAD
1000
DSTYLE
1002
{
1070
     5
1000
OPEN30
1070
    77
1070
     1
1070
   147
1040
0.5
1070
   342
1005
99
1002
}
  0
MTEXT
  5
4C0
102
{ACAD_REACTORS
330
4BF
102
}
330
2
100
AcDbEntity
  8
枠寸法
  6
Continuous
100
AcDbMText
 10
2009.676235173754
 20
1203.366690638889
 30
0.0
 40
30.0
 41
0.0
 71
     7
 72
     1
  1
URLゴム
 73
     1
 44
1.0
1001
ACAD
1000
MTEXTBEGIN
1070
    73
1070
     1
1070
    44
1040
1.0
1070
    74
1070
     0
1000
MTEXTEND
  0
LINE
  5
4C1
330
2
100
AcDbEntity
  8
エンボス
  6
Continuous
100
AcDbLine
 10
425.4655582550994
 20
1497.475456037858
 30
0.0
 11
422.4655582550995
 21
1496.275456037858
 31
0.0
  0
LINE
  5
4C2
330
2
100
AcDbEntity
  8
エンボス
  6
Continuous
100
AcDbLine
 10
425.4655582550994
 20
1487.875456037858
 30
0.0
 11
422.4655582550995
 21
1489.075456037858
 31
0.0
  0
LINE
  5
4C3
330
2
100
AcDbEntity
  8
エンボス
  6
Continuous
100
AcDbLine
 10
422.4655582550995
 20
1490.875456037858
 30
0.0
 11
425.4655582550994
 21
1492.075456037858
 31
0.0
  0
LINE
  5
4C4
330
2
100
AcDbEntity
  8
エンボス
  6
Continuous
100
AcDbLine
 10
422.4655582550995
 20
1483.675456037858
 30
0.0
 11
425.4655582550994
 21
1482.475456037858
 31
0.0
  0
LINE
  5
4C5
330
2
100
AcDbEntity
  8
エンボス
  6
Continuous
100
AcDbLine
 10
425.4655582550994
 20
1480.675456037858
 30
0.0
 11
422.4655582550995
 21
1479.475456037858
 31
0.0
  0
LINE
  5
4C6
330
2
100
AcDbEntity
  8
エンボス
  6
Continuous
100
AcDbLine
 10
425.4655582550994
 20
1467.475456037858
 30
0.0
 11
422.4655582550995
 21
1468.675456037858
 31
0.0
  0
LINE
  5
4C7
330
2
100
AcDbEntity
  8
エンボス
  6
Continuous
100
AcDbLine
 10
422.4655582550995
 20
1470.475456037858
 30
0.0
 11
425.4655582550994
 21
1471.675456037858
 31
0.0
  0
LINE
  5
4C8
330
2
100
AcDbEntity
  8
エンボス
  6
Continuous
100
AcDbLine
 10
422.4655582550995
 20
1463.275456037858
 30
0.0
 11
425.4655582550994
 21
1462.075456037858
 31
0.0
  0
LINE
  5
4C9
330
2
100
AcDbEntity
  8
エンボス
  6
Continuous
100
AcDbLine
 10
425.4655582550994
 20
1460.275456037858
 30
0.0
 11
422.4655582550995
 21
1459.075456037858
 31
0.0
  0
LINE
  5
4CA
330
2
100
AcDbEntity
  8
エンボス
  6
Continuous
100
AcDbLine
 10
425.4655582550994
 20
1450.675456037858
 30
0.0
 11
422.4655582550995
 21
1451.875456037858
 31
0.0
  0
LINE
  5
4CB
330
2
100
AcDbEntity
  8
エンボス
  6
Continuous
100
AcDbLine
 10
422.4655582550995
 20
1453.675456037858
 30
0.0
 11
425.4655582550994
 21
1454.875456037858
 31
0.0
  0
LINE
  5
4CC
330
2
100
AcDbEntity
  8
エンボス
  6
Continuous
100
AcDbLine
 10
422.4655582550995
 20
1436.875456037858
 30
0.0
 11
425.4655582550994
 21
1438.075456037858
 31
0.0
  0
LINE
  5
4CD
330
2
100
AcDbEntity
  8
エンボス
  6
Continuous
100
AcDbLine
 10
425.4655582550994
 20
1433.875456037858
 30
0.0
 11
422.4655582550995
 21
1435.075456037858
 31
0.0
  0
LINE
  5
4CE
330
2
100
AcDbEntity
  8
エンボス
  6
Continuous
100
AcDbLine
 10
425.4655582550994
 20
1443.475456037858
 30
0.0
 11
422.4655582550995
 21
1442.275456037858
 31
0.0
  0
LINE
  5
4CF
330
2
100
AcDbEntity
  8
エンボス
  6
Continuous
100
AcDbLine
 10
422.4655582550995
 20
1446.475456037858
 30
0.0
 11
425.4655582550994
 21
1445.275456037858
 31
0.0
  0
LINE
  5
4D0
330
2
100
AcDbEntity
  8
エンボス
  6
Continuous
100
AcDbLine
 10
422.4655582550995
 20
1429.675456037858
 30
0.0
 11
425.4655582550994
 21
1428.475456037858
 31
0.0
  0
LINE
  5
4D1
330
2
100
AcDbEntity
  8
エンボス
  6
Continuous
100
AcDbLine
 10
425.4655582550994
 20
1426.675456037858
 30
0.0
 11
422.4655582550995
 21
1425.475456037858
 31
0.0
  0
LINE
  5
4D2
330
2
100
AcDbEntity
  8
エンボス
  6
Continuous
100
AcDbLine
 10
425.4655582550994
 20
1417.075456037858
 30
0.0
 11
422.4655582550995
 21
1418.275456037858
 31
0.0
  0
LINE
  5
4D3
330
2
100
AcDbEntity
  8
エンボス
  6
Continuous
100
AcDbLine
 10
422.4655582550995
 20
1420.075456037858
 30
0.0
 11
425.4655582550994
 21
1421.275456037858
 31
0.0
  0
LINE
  5
4D4
330
2
100
AcDbEntity
  8
エンボス
  6
Continuous
100
AcDbLine
 10
422.4655594550995
 20
1386.475455557858
 30
0.0
 11
425.4655594550995
 21
1387.675455557858
 31
0.0
  0
LINE
  5
4D5
330
2
100
AcDbEntity
  8
エンボス
  6
Continuous
100
AcDbLine
 10
425.4655594550995
 20
1383.475455557858
 30
0.0
 11
422.4655594550995
 21
1384.675455557858
 31
0.0
  0
LINE
  5
4D6
330
2
100
AcDbEntity
  8
エンボス
  6
Continuous
100
AcDbLine
 10
425.4655594550995
 20
1393.075455557858
 30
0.0
 11
422.4655594550995
 21
1391.875455557858
 31
0.0
  0
LINE
  5
4D7
330
2
100
AcDbEntity
  8
エンボス
  6
Continuous
100
AcDbLine
 10
422.4655594550995
 20
1396.075455557858
 30
0.0
 11
425.4655594550995
 21
1394.875455557858
 31
0.0
  0
LINE
  5
4D8
330
2
100
AcDbEntity
  8
エンボス
  6
Continuous
100
AcDbLine
 10
422.4655594550995
 20
1412.875455557858
 30
0.0
 11
425.4655594550995
 21
1411.675455557858
 31
0.0
  0
LINE
  5
4D9
330
2
100
AcDbEntity
  8
エンボス
  6
Continuous
100
AcDbLine
 10
425.4655594550995
 20
1409.875455557858
 30
0.0
 11
422.4655594550995
 21
1408.675455557858
 31
0.0
  0
LINE
  5
4DA
330
2
100
AcDbEntity
  8
エンボス
  6
Continuous
100
AcDbLine
 10
425.4655594550995
 20
1400.275455557858
 30
0.0
 11
422.4655594550995
 21
1401.475455557858
 31
0.0
  0
LINE
  5
4DB
330
2
100
AcDbEntity
  8
エンボス
  6
Continuous
100
AcDbLine
 10
422.4655594550995
 20
1403.275455557858
 30
0.0
 11
425.4655594550995
 21
1404.475455557858
 31
0.0
  0
LINE
  5
4DC
330
2
100
AcDbEntity
  8
エンボス
  6
Continuous
100
AcDbLine
 10
422.4655582550995
 20
1500.37659281509
 30
0.0
 11
425.4655582550994
 21
1499.17659281509
 31
0.0
  0
LINE
  5
4DD
330
2
100
AcDbEntity
  8
エンボス
  6
Continuous
100
AcDbLine
 10
422.4655582550995
 20
1507.57659281509
 30
0.0
 11
425.4655582550994
 21
1508.77659281509
 31
0.0
  0
LINE
  5
4DE
330
2
100
AcDbEntity
  8
エンボス
  6
Continuous
100
AcDbLine
 10
425.4655582550994
 20
1504.57659281509
 30
0.0
 11
422.4655582550995
 21
1505.77659281509
 31
0.0
  0
LINE
  5
4DF
330
2
100
AcDbEntity
  8
エンボス
  6
Continuous
100
AcDbLine
 10
425.4655582550994
 20
1514.17659281509
 30
0.0
 11
422.4655582550995
 21
1512.97659281509
 31
0.0
  0
LINE
  5
4E0
330
2
100
AcDbEntity
  8
エンボス
  6
Continuous
100
AcDbLine
 10
425.4655582550994
 20
1531.101493594236
 30
0.0
 11
422.4655582550995
 21
1529.901493594236
 31
0.0
  0
LINE
  5
4E1
330
2
100
AcDbEntity
  8
エンボス
  6
Continuous
100
AcDbLine
 10
425.4655582550994
 20
1521.501493594236
 30
0.0
 11
422.4655582550995
 21
1522.701493594236
 31
0.0
  0
LINE
  5
4E2
330
2
100
AcDbEntity
  8
エンボス
  6
Continuous
100
AcDbLine
 10
422.4655582550995
 20
1524.501493594236
 30
0.0
 11
425.4655582550994
 21
1525.701493594236
 31
0.0
  0
LINE
  5
4E3
330
2
100
AcDbEntity
  8
エンボス
  6
Continuous
100
AcDbLine
 10
422.4655582550995
 20
1517.301493594236
 30
0.0
 11
425.4655582550994
 21
1516.101493594236
 31
0.0
  0
LINE
  5
4E4
330
2
100
AcDbEntity
  8
エンボス
  6
Continuous
100
AcDbLine
 10
422.4655582550995
 20
1534.226394373382
 30
0.0
 11
425.4655582550994
 21
1533.026394373382
 31
0.0
  0
LINE
  5
4E5
330
2
100
AcDbEntity
  8
エンボス
  6
Continuous
100
AcDbLine
 10
422.4655582550995
 20
1352.801493594236
 30
0.0
 11
425.4655582550994
 21
1351.601493594236
 31
0.0
  0
LINE
  5
4E6
330
2
100
AcDbEntity
  8
エンボス
  6
Continuous
100
AcDbLine
 10
425.4655582550994
 20
1349.67659281509
 30
0.0
 11
422.4655582550995
 21
1348.47659281509
 31
0.0
  0
LINE
  5
4E7
330
2
100
AcDbEntity
  8
エンボス
  6
Continuous
100
AcDbLine
 10
425.4655582550994
 20
1340.07659281509
 30
0.0
 11
422.4655582550995
 21
1341.27659281509
 31
0.0
  0
LINE
  5
4E8
330
2
100
AcDbEntity
  8
エンボス
  6
Continuous
100
AcDbLine
 10
422.4655582550995
 20
1343.07659281509
 30
0.0
 11
425.4655582550994
 21
1344.27659281509
 31
0.0
  0
LINE
  5
4E9
330
2
100
AcDbEntity
  8
エンボス
  6
Continuous
100
AcDbLine
 10
422.4655582550995
 20
1335.87659281509
 30
0.0
 11
425.4655582550994
 21
1334.67659281509
 31
0.0
  0
LINE
  5
4EA
330
2
100
AcDbEntity
  8
エンボス
  6
Continuous
100
AcDbLine
 10
425.4655582550994
 20
1316.175456037858
 30
0.0
 11
422.4655582550995
 21
1314.975456037858
 31
0.0
  0
LINE
  5
4EB
330
2
100
AcDbEntity
  8
エンボス
  6
Continuous
100
AcDbLine
 10
422.4655582550995
 20
1319.175456037858
 30
0.0
 11
425.4655582550994
 21
1317.975456037858
 31
0.0
  0
LINE
  5
4EC
330
2
100
AcDbEntity
  8
エンボス
  6
Continuous
100
AcDbLine
 10
422.4655582550995
 20
1326.375456037858
 30
0.0
 11
425.4655582550994
 21
1327.575456037858
 31
0.0
  0
LINE
  5
4ED
330
2
100
AcDbEntity
  8
エンボス
  6
Continuous
100
AcDbLine
 10
425.4655582550994
 20
1323.375456037858
 30
0.0
 11
422.4655582550995
 21
1324.575456037858
 31
0.0
  0
LINE
  5
4EE
330
2
100
AcDbEntity
  8
エンボス
  6
Continuous
100
AcDbLine
 10
425.4655582550994
 20
1332.975456037858
 30
0.0
 11
422.4655582550995
 21
1331.775456037858
 31
0.0
  0
LINE
  5
4EF
330
2
100
AcDbEntity
  8
エンボス
  6
Continuous
100
AcDbLine
 10
422.4655582550995
 20
1369.726394373382
 30
0.0
 11
425.4655582550994
 21
1368.526394373382
 31
0.0
  0
LINE
  5
4F0
330
2
100
AcDbEntity
  8
エンボス
  6
Continuous
100
AcDbLine
 10
422.4655582550995
 20
1360.001493594236
 30
0.0
 11
425.4655582550994
 21
1361.201493594236
 31
0.0
  0
LINE
  5
4F1
330
2
100
AcDbEntity
  8
エンボス
  6
Continuous
100
AcDbLine
 10
425.4655582550994
 20
1357.001493594236
 30
0.0
 11
422.4655582550995
 21
1358.201493594236
 31
0.0
  0
LINE
  5
4F2
330
2
100
AcDbEntity
  8
エンボス
  6
Continuous
100
AcDbLine
 10
425.4655582550994
 20
1366.601493594236
 30
0.0
 11
422.4655582550995
 21
1365.401493594236
 31
0.0
  0
LINE
  5
142F
330
2
100
AcDbEntity
  8
エンボス
  6
Continuous
100
AcDbLine
 10
1417.465556255099
 20
1332.975456037858
 30
0.0
 11
1414.4655562551
 21
1331.775456037858
 31
0.0
  0
LINE
  5
1430
330
2
100
AcDbEntity
  8
エンボス
  6
Continuous
100
AcDbLine
 10
1417.465556255099
 20
1323.375456037858
 30
0.0
 11
1414.4655562551
 21
1324.575456037858
 31
0.0
  0
LINE
  5
1431
330
2
100
AcDbEntity
  8
エンボス
  6
Continuous
100
AcDbLine
 10
1414.4655562551
 20
1326.375456037858
 30
0.0
 11
1417.465556255099
 21
1327.575456037858
 31
0.0
  0
LINE
  5
1432
330
2
100
AcDbEntity
  8
エンボス
  6
Continuous
100
AcDbLine
 10
1414.4655562551
 20
1319.175456037858
 30
0.0
 11
1417.465556255099
 21
1317.975456037858
 31
0.0
  0
LINE
  5
1433
330
2
100
AcDbEntity
  8
エンボス
  6
Continuous
100
AcDbLine
 10
1417.465556255099
 20
1316.175456037858
 30
0.0
 11
1414.4655562551
 21
1314.975456037858
 31
0.0
  0
LINE
  5
1434
330
2
100
AcDbEntity
  8
エンボス
  6
Continuous
100
AcDbLine
 10
1414.4655562551
 20
1335.87659281509
 30
0.0
 11
1417.465556255099
 21
1334.67659281509
 31
0.0
  0
LINE
  5
1435
330
2
100
AcDbEntity
  8
エンボス
  6
Continuous
100
AcDbLine
 10
1414.4655562551
 20
1343.07659281509
 30
0.0
 11
1417.465556255099
 21
1344.27659281509
 31
0.0
  0
LINE
  5
1436
330
2
100
AcDbEntity
  8
エンボス
  6
Continuous
100
AcDbLine
 10
1417.465556255099
 20
1340.07659281509
 30
0.0
 11
1414.4655562551
 21
1341.27659281509
 31
0.0
  0
LINE
  5
1437
330
2
100
AcDbEntity
  8
エンボス
  6
Continuous
100
AcDbLine
 10
1417.465556255099
 20
1366.601493594236
 30
0.0
 11
1414.4655562551
 21
1365.401493594236
 31
0.0
  0
LINE
  5
1438
330
2
100
AcDbEntity
  8
エンボス
  6
Continuous
100
AcDbLine
 10
1417.465556255099
 20
1357.001493594236
 30
0.0
 11
1414.4655562551
 21
1358.201493594236
 31
0.0
  0
LINE
  5
1439
330
2
100
AcDbEntity
  8
エンボス
  6
Continuous
100
AcDbLine
 10
1414.4655562551
 20
1360.001493594236
 30
0.0
 11
1417.465556255099
 21
1361.201493594236
 31
0.0
  0
LINE
  5
143A
330
2
100
AcDbEntity
  8
エンボス
  6
Continuous
100
AcDbLine
 10
1414.4655562551
 20
1369.726394373382
 30
0.0
 11
1417.465556255099
 21
1368.526394373382
 31
0.0
  0
LINE
  5
143B
330
2
100
AcDbEntity
  8
エンボス
  6
Continuous
100
AcDbLine
 10
1417.465556255099
 20
1349.67659281509
 30
0.0
 11
1414.4655562551
 21
1348.47659281509
 31
0.0
  0
LINE
  5
143C
330
2
100
AcDbEntity
  8
エンボス
  6
Continuous
100
AcDbLine
 10
1414.4655562551
 20
1352.801493594236
 30
0.0
 11
1417.465556255099
 21
1351.601493594236
 31
0.0
  0
LINE
  5
143D
330
2
100
AcDbEntity
  8
エンボス
  6
Continuous
100
AcDbLine
 10
1417.4655574551
 20
1383.475455557858
 30
0.0
 11
1414.465557455099
 21
1384.675455557858
 31
0.0
  0
LINE
  5
143E
330
2
100
AcDbEntity
  8
エンボス
  6
Continuous
100
AcDbLine
 10
1414.465557455099
 20
1386.475455557858
 30
0.0
 11
1417.4655574551
 21
1387.675455557858
 31
0.0
  0
LINE
  5
143F
330
2
100
AcDbEntity
  8
エンボス
  6
Continuous
100
AcDbLine
 10
1414.465557455099
 20
1403.275455557858
 30
0.0
 11
1417.4655574551
 21
1404.475455557858
 31
0.0
  0
LINE
  5
1440
330
2
100
AcDbEntity
  8
エンボス
  6
Continuous
100
AcDbLine
 10
1417.4655574551
 20
1400.275455557858
 30
0.0
 11
1414.465557455099
 21
1401.475455557858
 31
0.0
  0
LINE
  5
1441
330
2
100
AcDbEntity
  8
エンボス
  6
Continuous
100
AcDbLine
 10
1417.4655574551
 20
1409.875455557858
 30
0.0
 11
1414.465557455099
 21
1408.675455557858
 31
0.0
  0
LINE
  5
1442
330
2
100
AcDbEntity
  8
エンボス
  6
Continuous
100
AcDbLine
 10
1414.465557455099
 20
1412.875455557858
 30
0.0
 11
1417.4655574551
 21
1411.675455557858
 31
0.0
  0
LINE
  5
1443
330
2
100
AcDbEntity
  8
エンボス
  6
Continuous
100
AcDbLine
 10
1414.465557455099
 20
1396.075455557858
 30
0.0
 11
1417.4655574551
 21
1394.875455557858
 31
0.0
  0
LINE
  5
1444
330
2
100
AcDbEntity
  8
エンボス
  6
Continuous
100
AcDbLine
 10
1417.4655574551
 20
1393.075455557858
 30
0.0
 11
1414.465557455099
 21
1391.875455557858
 31
0.0
  0
LINE
  5
1445
330
2
100
AcDbEntity
  8
エンボス
  6
Continuous
100
AcDbLine
 10
1414.4655562551
 20
1420.075456037858
 30
0.0
 11
1417.465556255099
 21
1421.275456037858
 31
0.0
  0
LINE
  5
1446
330
2
100
AcDbEntity
  8
エンボス
  6
Continuous
100
AcDbLine
 10
1417.465556255099
 20
1417.075456037858
 30
0.0
 11
1414.4655562551
 21
1418.275456037858
 31
0.0
  0
LINE
  5
1447
330
2
100
AcDbEntity
  8
エンボス
  6
Continuous
100
AcDbLine
 10
1417.465556255099
 20
1426.675456037858
 30
0.0
 11
1414.4655562551
 21
1425.475456037858
 31
0.0
  0
LINE
  5
1448
330
2
100
AcDbEntity
  8
エンボス
  6
Continuous
100
AcDbLine
 10
1414.4655562551
 20
1429.675456037858
 30
0.0
 11
1417.465556255099
 21
1428.475456037858
 31
0.0
  0
LINE
  5
1449
330
2
100
AcDbEntity
  8
エンボス
  6
Continuous
100
AcDbLine
 10
1414.4655562551
 20
1446.475456037858
 30
0.0
 11
1417.465556255099
 21
1445.275456037858
 31
0.0
  0
LINE
  5
144A
330
2
100
AcDbEntity
  8
エンボス
  6
Continuous
100
AcDbLine
 10
1417.465556255099
 20
1443.475456037858
 30
0.0
 11
1414.4655562551
 21
1442.275456037858
 31
0.0
  0
LINE
  5
144B
330
2
100
AcDbEntity
  8
エンボス
  6
Continuous
100
AcDbLine
 10
1417.465556255099
 20
1433.875456037858
 30
0.0
 11
1414.4655562551
 21
1435.075456037858
 31
0.0
  0
LINE
  5
144C
330
2
100
AcDbEntity
  8
エンボス
  6
Continuous
100
AcDbLine
 10
1414.4655562551
 20
1436.875456037858
 30
0.0
 11
1417.465556255099
 21
1438.075456037858
 31
0.0
  0
LINE
  5
144D
330
2
100
AcDbEntity
  8
エンボス
  6
Continuous
100
AcDbLine
 10
1414.4655562551
 20
1453.675456037858
 30
0.0
 11
1417.465556255099
 21
1454.875456037858
 31
0.0
  0
LINE
  5
144E
330
2
100
AcDbEntity
  8
エンボス
  6
Continuous
100
AcDbLine
 10
1417.465556255099
 20
1450.675456037858
 30
0.0
 11
1414.4655562551
 21
1451.875456037858
 31
0.0
  0
LINE
  5
144F
330
2
100
AcDbEntity
  8
エンボス
  6
Continuous
100
AcDbLine
 10
1417.465556255099
 20
1460.275456037858
 30
0.0
 11
1414.4655562551
 21
1459.075456037858
 31
0.0
  0
LINE
  5
1450
330
2
100
AcDbEntity
  8
エンボス
  6
Continuous
100
AcDbLine
 10
1414.4655562551
 20
1463.275456037858
 30
0.0
 11
1417.465556255099
 21
1462.075456037858
 31
0.0
  0
LINE
  5
1451
330
2
100
AcDbEntity
  8
エンボス
  6
Continuous
100
AcDbLine
 10
1417.465556255099
 20
1467.475456037858
 30
0.0
 11
1414.4655562551
 21
1468.675456037858
 31
0.0
  0
LINE
  5
1452
330
2
100
AcDbEntity
  8
エンボス
  6
Continuous
100
AcDbLine
 10
1414.4655562551
 20
1470.475456037858
 30
0.0
 11
1417.465556255099
 21
1471.675456037858
 31
0.0
  0
LINE
  5
1453
330
2
100
AcDbEntity
  8
エンボス
  6
Continuous
100
AcDbLine
 10
1414.4655562551
 20
1517.301493594236
 30
0.0
 11
1417.465556255099
 21
1516.101493594236
 31
0.0
  0
LINE
  5
1454
330
2
100
AcDbEntity
  8
エンボス
  6
Continuous
100
AcDbLine
 10
1417.465556255099
 20
1514.17659281509
 30
0.0
 11
1414.4655562551
 21
1512.97659281509
 31
0.0
  0
LINE
  5
1455
330
2
100
AcDbEntity
  8
エンボス
  6
Continuous
100
AcDbLine
 10
1417.465556255099
 20
1504.57659281509
 30
0.0
 11
1414.4655562551
 21
1505.77659281509
 31
0.0
  0
LINE
  5
1456
330
2
100
AcDbEntity
  8
エンボス
  6
Continuous
100
AcDbLine
 10
1414.4655562551
 20
1507.57659281509
 30
0.0
 11
1417.465556255099
 21
1508.77659281509
 31
0.0
  0
LINE
  5
1457
330
2
100
AcDbEntity
  8
エンボス
  6
Continuous
100
AcDbLine
 10
1414.4655562551
 20
1500.37659281509
 30
0.0
 11
1417.465556255099
 21
1499.17659281509
 31
0.0
  0
LINE
  5
1458
330
2
100
AcDbEntity
  8
エンボス
  6
Continuous
100
AcDbLine
 10
1417.465556255099
 20
1480.675456037858
 30
0.0
 11
1414.4655562551
 21
1479.475456037858
 31
0.0
  0
LINE
  5
1459
330
2
100
AcDbEntity
  8
エンボス
  6
Continuous
100
AcDbLine
 10
1414.4655562551
 20
1483.675456037858
 30
0.0
 11
1417.465556255099
 21
1482.475456037858
 31
0.0
  0
LINE
  5
145A
330
2
100
AcDbEntity
  8
エンボス
  6
Continuous
100
AcDbLine
 10
1414.4655562551
 20
1490.875456037858
 30
0.0
 11
1417.465556255099
 21
1492.075456037858
 31
0.0
  0
LINE
  5
145B
330
2
100
AcDbEntity
  8
エンボス
  6
Continuous
100
AcDbLine
 10
1417.465556255099
 20
1487.875456037858
 30
0.0
 11
1414.4655562551
 21
1489.075456037858
 31
0.0
  0
LINE
  5
145C
330
2
100
AcDbEntity
  8
エンボス
  6
Continuous
100
AcDbLine
 10
1417.465556255099
 20
1497.475456037858
 30
0.0
 11
1414.4655562551
 21
1496.275456037858
 31
0.0
  0
LINE
  5
145D
330
2
100
AcDbEntity
  8
エンボス
  6
Continuous
100
AcDbLine
 10
1414.4655562551
 20
1534.226394373382
 30
0.0
 11
1417.465556255099
 21
1533.026394373382
 31
0.0
  0
LINE
  5
145E
330
2
100
AcDbEntity
  8
エンボス
  6
Continuous
100
AcDbLine
 10
1414.4655562551
 20
1524.501493594236
 30
0.0
 11
1417.465556255099
 21
1525.701493594236
 31
0.0
  0
LINE
  5
145F
330
2
100
AcDbEntity
  8
エンボス
  6
Continuous
100
AcDbLine
 10
1417.465556255099
 20
1521.501493594236
 30
0.0
 11
1414.4655562551
 21
1522.701493594236
 31
0.0
  0
LINE
  5
1460
330
2
100
AcDbEntity
  8
エンボス
  6
Continuous
100
AcDbLine
 10
1417.465556255099
 20
1531.101493594236
 30
0.0
 11
1414.4655562551
 21
1529.901493594236
 31
0.0
  0
MTEXT
  5
1644
330
2
100
AcDbEntity
  8
外枠
  6
Continuous
 48
100.0
370
     9
100
AcDbMText
 10
1022.193186254242
 20
77.61017986570005
 30
0.0
 40
18.0
 41
122.0406
 71
     1
 72
     5
  1
【主部材】
 73
     1
 44
1.0
1001
ACAD
1000
MTEXTBEGIN
1070
    73
1070
     1
1070
    44
1040
1.0
1070
    74
1070
     0
1000
MTEXTEND
  0
MTEXT
  5
1645
330
2
100
AcDbEntity
  8
外枠
  6
Continuous
 48
100.0
370
     9
100
AcDbMText
 10
1038.975343934131
 20
43.7816999552906
 30
0.0
 40
25.0
 41
122.0406
 71
     1
 72
     5
  1
SS400
 73
     1
 44
1.0
1001
ACAD
1000
MTEXTBEGIN
1070
    73
1070
     1
1070
    44
1040
1.0
1070
    74
1070
     0
1000
MTEXTEND
  0
MTEXT
  5
1646
330
2
100
AcDbEntity
  8
外枠
  6
Continuous
 48
100.0
370
     9
100
AcDbMText
 10
1202.677957061338
 20
120.1377642323778
 30
0.0
 40
25.0
 41
1015.1375
 71
     1
 72
     5
  1
溶融亜鉛めっき仕上
 73
     1
 44
1.0
1001
ACAD
1000
MTEXTBEGIN
1070
    73
1070
     1
1070
    44
1040
1.0
1070
    74
1070
     0
1000
MTEXTEND
  0
MTEXT
  5
1647
330
2
100
AcDbEntity
  8
外枠
  6
Continuous
 48
100.0
370
     9
100
AcDbMText
 10
1199.761738767627
 20
151.0819879350613
 30
0.0
 40
18.0
 41
301.8661
 71
     1
 72
     5
  1
【グレーチング】JIS　H8641
 73
     1
 44
1.0
1001
ACAD
1000
MTEXTBEGIN
1070
    73
1070
     1
1070
    44
1040
1.0
1070
    74
1070
     0
1000
MTEXTEND
  0
MTEXT
  5
1648
330
2
100
AcDbEntity
  8
外枠
  6
Continuous
 48
100.0
370
     9
100
AcDbMText
 10
1159.385398923399
 20
148.6111115828462
 30
0.0
 40
20.0
 41
1015.1375
 71
     1
 72
     5
  1
表\P面\P処\P理
 73
     1
 44
1.0
1001
ACAD
1000
MTEXTBEGIN
1070
    73
1070
     1
1070
    44
1040
1.0
1070
    74
1070
     0
1000
MTEXTEND
  0
LINE
  5
1649
330
2
100
AcDbEntity
  8
外枠
  6
Continuous
 48
100.0
370
     9
100
AcDbLine
 10
1188.531791166651
 20
155.3992728207959
 30
0.0
 11
1188.531791166651
 21
9.999999999992724
 31
0.0
  0
LINE
  5
164A
330
2
100
AcDbEntity
  8
外枠
  6
Continuous
 48
100.0
370
     9
100
AcDbLine
 10
1153.531306970095
 20
155.3992728207959
 30
0.0
 11
1153.531306970095
 21
9.999999999992724
 31
0.0
  0
LINE
  5
164B
330
2
100
AcDbEntity
  8
外枠
 48
3.0
100
AcDbLine
 10
1188.531791166651
 20
82.6996364103943
 30
0.0
 11
1593.951336296073
 21
82.6996364103943
 31
0.0
  0
MTEXT
  5
16FB
330
2
100
AcDbEntity
  8
外枠
  6
Continuous
 48
100.0
370
     9
100
AcDbMText
 10
2509.985545378613
 20
121.2206105686568
 30
0.0
 40
23.47884
 41
274.1381
 71
     1
 72
     5
  1
'14・09・01
 73
     1
 44
1.0
1001
ACAD
1000
MTEXTBEGIN
1070
    73
1070
     1
1070
    44
1040
1.0
1070
    74
1070
     0
1000
MTEXTEND
  0
MTEXT
  5
1773
330
2
100
AcDbEntity
  8
外枠
  6
Continuous
100
AcDbMText
 10
2427.938927859905
 20
67.25039165302224
 30
0.0
 40
28.17460800000001
 41
43.8527
 71
     1
 72
     5
  1
{\fHG正楷書体-PRO|b0|i0|c128|p65;水}
 73
     1
 44
1.0
1001
ACAD
1000
MTEXTBEGIN
1070
    73
1070
     1
1070
    44
1040
1.0
1070
    74
1070
     0
1000
MTEXTEND
  0
MTEXT
  5
1774
330
2
100
AcDbEntity
  8
外枠
  6
Continuous
100
AcDbMText
 10
2427.938927859905
 20
109.7804165221496
 30
0.0
 40
28.17460800000001
 41
43.8527
 71
     1
 72
     5
  1
{\fHG正楷書体-PRO|b0|i0|c128|p65;清}
 73
     1
 44
1.0
1001
ACAD
1000
MTEXTBEGIN
1070
    73
1070
     1
1070
    44
1040
1.0
1070
    74
1070
     0
1000
MTEXTEND
  0
ELLIPSE
  5
1775
330
2
100
AcDbEntity
  8
外枠
  6
Continuous
100
AcDbEllipse
 10
2449.066278910865
 20
70.80064248893541
 30
0.0
 11
0.0
 21
-47.8594442149426
 31
0.0
210
0.0
220
0.0
230
1.0
 40
0.7999999999999857
 41
0.0
 42
6.283185307179586
  0
INSERT
  5
1842
330
2
100
AcDbEntity
  8
外枠
 48
3.0
100
AcDbBlockReference
  2
鎌下
 10
2271.730765417811
 20
155.3992728207995
 30
0.0
  0
INSERT
  5
1925
102
{ACAD_REACTORS
330
1969
102
}
330
2
100
AcDbEntity
  8
枠寸法
100
AcDbBlockReference
  2
*U16
 10
436.5225202550994
 20
1425.075460837858
 30
0.0
  0
INSERT
  5
19C1
102
{ACAD_REACTORS
330
19CB
102
}
330
2
100
AcDbEntity
  8
枠寸法
100
AcDbBlockReference
  2
*U18
 10
437.4655570550994
 20
1425.075460837858
 30
0.0
  0
INSERT
  5
19F6
102
{ACAD_REACTORS
330
1A02
102
}
330
2
100
AcDbEntity
  8
枠寸法
100
AcDbBlockReference
  2
*U20
 10
428.7440380550995
 20
812.096911996171
 30
0.0
  0
INSERT
  5
1AFA
330
2
100
AcDbEntity
  8
本体
 48
3.0
100
AcDbBlockReference
  2
GFB新
 10
2780.119625023061
 20
160.0950408207973
 30
0.0
  0
ENDSEC
  0
SECTION
  2
OBJECTS
  0
DICTIONARY
  5
7
330
0
100
AcDbDictionary
281
     1
  3
ACAD_ASSOCNETWORK
350
1961
  3
ACAD_CIP_PREVIOUS_PRODUCT_INFO
350
17D0
  3
ACAD_COLOR
350
17B0
  3
ACAD_DETAILVIEWSTYLE
350
17C9
  3
ACAD_GROUP
350
1480
  3
ACAD_LAYOUT
350
1466
  3
ACAD_MATERIAL
350
177E
  3
ACAD_MLEADERSTYLE
350
17C5
  3
ACAD_MLINESTYLE
350
1481
  3
ACAD_PLOTSETTINGS
350
1482
  3
ACAD_PLOTSTYLENAME
350
6
  3
ACAD_SCALELIST
350
17B3
  3
ACAD_SECTIONVIEWSTYLE
350
17C7
  3
ACAD_TABLESTYLE
350
17B1
  3
ACAD_VISUALSTYLE
350
1797
  3
ACDB_RECOMPOSE_DATA
350
1B50
  3
AcDbVariableDictionary
350
1829
  3
DWGPROPS
350
1B51
  0
DICTIONARY
  5
17EC
330
147B
100
AcDbDictionary
280
     1
281
     1
  0
DICTIONARY
  5
17D1
330
77
100
AcDbDictionary
280
     1
281
     1
  3
ADSK_XREC_LAYER_RECONCILED
360
17D2
  0
DICTIONARY
  5
17D3
330
7A
100
AcDbDictionary
280
     1
281
     1
  3
ADSK_XREC_LAYER_RECONCILED
360
17D4
  0
DICTIONARY
  5
17D5
330
4
100
AcDbDictionary
280
     1
281
     1
  3
ADSK_XREC_LAYER_RECONCILED
360
17D6
  0
DICTIONARY
  5
17D7
330
2E
100
AcDbDictionary
280
     1
281
     1
  3
ADSK_XREC_LAYER_RECONCILED
360
17D8
  0
DICTIONARY
  5
17D9
330
4B1
100
AcDbDictionary
280
     1
281
     1
  3
ADSK_XREC_LAYER_RECONCILED
360
17DA
  0
DICTIONARY
  5
17DB
330
11
100
AcDbDictionary
280
     1
281
     1
  3
ADSK_XREC_LAYER_RECONCILED
360
17DC
  0
DICTIONARY
  5
17DD
330
4B4
100
AcDbDictionary
280
     1
281
     1
  3
ADSK_XREC_LAYER_RECONCILED
360
17DE
  0
DICTIONARY
  5
17DF
330
1766
100
AcDbDictionary
280
     1
281
     1
  3
ADSK_XREC_LAYER_RECONCILED
360
17E0
  0
DICTIONARY
  5
1461
330
2
100
AcDbDictionary
280
     1
281
     1
  3
ACAD_ASSOCNETWORK
360
195F
  3
ACAD_LAYOUTSELFREF
360
1736
  0
DICTIONARY
  5
1468
330
1467
100
AcDbDictionary
280
     1
281
     1
  3
ACAD_LAYOUTSELFREF
360
1745
  0
DICTIONARY
  5
146E
330
146D
100
AcDbDictionary
280
     1
281
     1
  3
ACAD_LAYOUTSELFREF
360
1746
  0
DICTIONARY
  5
183F
330
183B
100
AcDbDictionary
280
     1
281
     1
  0
DICTIONARY
  5
1B3F
330
1922
100
AcDbDictionary
280
     1
281
     1
  3
AcDbBlockTableRecordData
360
1B92
  0
DICTIONARY
  5
1B42
330
19BE
100
AcDbDictionary
280
     1
281
     1
  3
AcDbBlockTableRecordData
360
1B94
  0
DICTIONARY
  5
1B45
330
19F3
100
AcDbDictionary
280
     1
281
     1
  3
AcDbBlockTableRecordData
360
1B96
  0
DICTIONARY
  5
1AF7
330
1AEC
100
AcDbDictionary
280
     1
281
     1
  0
DICTIONARY
  5
1961
102
{ACAD_REACTORS
330
7
102
}
330
7
100
AcDbDictionary
281
     1
  3
ACAD_ASSOCNETWORK
350
1962
  0
XRECORD
  5
17D0
102
{ACAD_REACTORS
330
7
102
}
330
7
100
AcDbXrecord
280
     1
300
ACDLT
300
2014
300
ACDLT_F_S
  0
DICTIONARY
  5
17B0
102
{ACAD_REACTORS
330
7
102
}
330
7
100
AcDbDictionary
281
     1
  0
DICTIONARY
  5
17C9
102
{ACAD_REACTORS
330
7
102
}
330
7
100
AcDbDictionary
281
     1
  3
Metric50
350
17CA
  0
DICTIONARY
  5
1480
102
{ACAD_REACTORS
330
7
102
}
330
7
100
AcDbDictionary
281
     1
  0
DICTIONARY
  5
1466
102
{ACAD_REACTORS
330
7
102
}
330
7
100
AcDbDictionary
281
     1
  3
Layout1
350
146C
  3
Layout2
350
1472
  3
Model
350
1465
  0
DICTIONARY
  5
177E
102
{ACAD_REACTORS
330
7
102
}
330
7
100
AcDbDictionary
281
     1
  3
ByBlock
350
1787
  3
ByLayer
350
177F
  3
Global
350
178F
  0
DICTIONARY
  5
17C5
102
{ACAD_REACTORS
330
7
102
}
330
7
100
AcDbDictionary
281
     1
  3
Standard
350
17C6
  0
DICTIONARY
  5
1481
102
{ACAD_REACTORS
330
7
102
}
330
7
100
AcDbDictionary
281
     1
  3
Standard
350
1483
  0
DICTIONARY
  5
1482
102
{ACAD_REACTORS
330
7
102
}
330
7
100
AcDbDictionary
281
     1
  0
ACDBDICTIONARYWDFLT
  5
6
102
{ACAD_REACTORS
330
7
102
}
330
7
100
AcDbDictionary
281
     1
  3
Normal
350
5
100
AcDbDictionaryWithDefault
340
5
  0
DICTIONARY
  5
17B3
102
{ACAD_REACTORS
330
7
102
}
330
7
100
AcDbDictionary
281
     1
  3
A0
350
17B4
  3
A1
350
17B5
  3
A2
350
17B6
  3
A3
350
17B7
  3
A4
350
17B8
  3
A5
350
17B9
  3
A6
350
17BA
  3
A7
350
17BB
  3
A8
350
17BC
  3
A9
350
17BD
  3
B0
350
17BE
  3
B1
350
17BF
  3
B2
350
17C0
  3
B3
350
17C1
  3
B4
350
17C2
  3
B5
350
17C3
  3
B6
350
17C4
  0
DICTIONARY
  5
17C7
102
{ACAD_REACTORS
330
7
102
}
330
7
100
AcDbDictionary
281
     1
  3
Metric50
350
17C8
  0
DICTIONARY
  5
17B1
102
{ACAD_REACTORS
330
7
102
}
330
7
100
AcDbDictionary
281
     1
  3
Standard
350
17B2
  0
DICTIONARY
  5
1797
102
{ACAD_REACTORS
330
7
102
}
330
7
100
AcDbDictionary
281
     1
  3
2dWireframe
350
179D
  3
Basic
350
179C
  3
Brighten
350
17A3
  3
ColorChange
350
17A7
  3
Conceptual
350
17A0
  3
Dim
350
17A2
  3
EdgeColorOff
350
17AF
  3
Facepattern
350
17A6
  3
Flat
350
1798
  3
FlatWithEdges
350
1799
  3
Gouraud
350
179A
  3
GouraudWithEdges
350
179B
  3
Hidden
350
179F
  3
JitterOff
350
17AD
  3
Linepattern
350
17A5
  3
OverhangOff
350
17AE
  3
Realistic
350
17A1
  3
Shaded
350
17AC
  3
Shaded with edges
350
17AB
  3
Shades of Gray
350
17A8
  3
Sketchy
350
17A9
  3
Thicken
350
17A4
  3
Wireframe
350
179E
  3
X-Ray
350
17AA
  0
XRECORD
  5
1B50
102
{ACAD_REACTORS
330
7
102
}
330
7
100
AcDbXrecord
280
     1
 90
        1
330
17B2
  0
DICTIONARY
  5
1829
102
{ACAD_REACTORS
330
7
102
}
330
7
100
AcDbDictionary
281
     1
  3
CANNOSCALE
350
182E
  3
CMLEADERSTYLE
350
182B
  3
CTABLESTYLE
350
182A
  3
CVIEWDETAILSTYLE
350
182C
  3
CVIEWSECTIONSTYLE
350
182D
  3
DIMASSOC
350
1831
  3
INDEXCTL
350
1830
  3
SORTENTS
350
182F
  3
XCLIPFRAME
350
1B4E
  0
XRECORD
  5
1B51
102
{ACAD_REACTORS
330
7
102
}
330
7
100
AcDbXrecord
280
     1
  1
DWGPROPS COOKIE
  2

  3

  4

  6

  7

  8
TAKARA
  9

300
=
301
=
302
=
303
=
304
=
305
=
306
=
307
=
308
=
309
=
 40
0.0115229398148148
 41
2453510.558637211
 42
2457540.740362327
  1

 90
        0
  0
XRECORD
  5
17D2
102
{ACAD_REACTORS
330
17D1
102
}
330
17D1
100
AcDbXrecord
280
     1
290
     1
  0
XRECORD
  5
17D4
102
{ACAD_REACTORS
330
17D3
102
}
330
17D3
100
AcDbXrecord
280
     1
290
     1
  0
XRECORD
  5
17D6
102
{ACAD_REACTORS
330
17D5
102
}
330
17D5
100
AcDbXrecord
280
     1
290
     1
  0
XRECORD
  5
17D8
102
{ACAD_REACTORS
330
17D7
102
}
330
17D7
100
AcDbXrecord
280
     1
290
     1
  0
XRECORD
  5
17DA
102
{ACAD_REACTORS
330
17D9
102
}
330
17D9
100
AcDbXrecord
280
     1
290
     1
  0
XRECORD
  5
17DC
102
{ACAD_REACTORS
330
17DB
102
}
330
17DB
100
AcDbXrecord
280
     1
290
     1
  0
XRECORD
  5
17DE
102
{ACAD_REACTORS
330
17DD
102
}
330
17DD
100
AcDbXrecord
280
     1
290
     1
  0
XRECORD
  5
17E0
102
{ACAD_REACTORS
330
17DF
102
}
330
17DF
100
AcDbXrecord
280
     1
290
     1
  0
DICTIONARY
  5
195F
102
{ACAD_REACTORS
330
1461
102
}
330
1461
100
AcDbDictionary
281
     1
  3
ACAD_ASSOCNETWORK
350
1960
  0
XRECORD
  5
1736
102
{ACAD_REACTORS
330
1461
102
}
330
1461
100
AcDbXrecord
280
     1
340
2
  0
XRECORD
  5
1745
102
{ACAD_REACTORS
330
1468
102
}
330
1468
100
AcDbXrecord
280
     1
340
1467
  0
XRECORD
  5
1746
102
{ACAD_REACTORS
330
146E
102
}
330
146E
100
AcDbXrecord
280
     1
340
146D
  0
DICTIONARY
  5
1B92
102
{ACAD_REACTORS
330
1B3F
102
}
330
1B3F
100
AcDbDictionary
280
     1
281
     1
  3
Edit
360
1B93
  0
DICTIONARY
  5
1B94
102
{ACAD_REACTORS
330
1B42
102
}
330
1B42
100
AcDbDictionary
280
     1
281
     1
  3
Edit
360
1B95
  0
DICTIONARY
  5
1B96
102
{ACAD_REACTORS
330
1B45
102
}
330
1B45
100
AcDbDictionary
280
     1
281
     1
  3
Edit
360
1B97
  0
ACDBASSOCNETWORK
  5
1962
102
{ACAD_REACTORS
330
1961
102
}
330
1961
100
AcDbAssocAction
 90
        1
 90
        1
330
0
360
0
 90
        0
 90
        0
 90
        0
100
AcDbAssocNetwork
 90
        0
 90
        1
 90
        1
330
1960
 90
        1
330
1960
  0
ACDBDETAILVIEWSTYLE
  5
17CA
102
{ACAD_XDICTIONARY
360
1B90
102
}
102
{ACAD_REACTORS
330
17C9
102
}
330
17C9
100
AcDbModelDocViewStyle
 70
     0
  3
Metric50
290
     0
100
AcDbDetailViewStyle
 70
     0
 71
     0
 90
        3
 71
     1
340
9
 40
5.0
340
0
 40
5.0
300

 40
0.0
280
     1
 71
     2
340
8
 90
       25
 71
     3
340
9
 40
5.0
 90
        0
 40
15.0
 90
        1
300
%<\AcVar ViewDetailId>% (%<\AcVar ViewScale \f "%sn">%)
 71
     4
340
8
 90
       25
340
8
 90
       25
280
     0
  0
LAYOUT
  5
146C
102
{ACAD_XDICTIONARY
360
1B54
102
}
102
{ACAD_REACTORS
330
1466
102
}
330
1466
100
AcDbPlotSettings
  1

  2
None
  4

  6

 40
0.0
 41
0.0
 42
0.0
 43
0.0
 44
0.0
 45
0.0
 46
0.0
 47
0.0
 48
0.0
 49
0.0
140
0.0
141
0.0
142
1.0
143
1.0
 70
   688
 72
     0
 73
     0
 74
     5
  7
monochrome.ctb
 75
    16
147
1.0
148
0.0
149
0.0
100
AcDbLayout
  1
Layout1
 70
     1
 71
     1
 10
0.0
 20
0.0
 11
12.0
 21
9.0
 12
0.0
 22
0.0
 32
0.0
 14
0.0
 24
0.0
 34
0.0
 15
0.0
 25
0.0
 35
0.0
146
0.0
 13
0.0
 23
0.0
 33
0.0
 16
1.0
 26
0.0
 36
0.0
 17
0.0
 27
1.0
 37
0.0
 76
     0
330
1467
  0
LAYOUT
  5
1472
102
{ACAD_XDICTIONARY
360
1B56
102
}
102
{ACAD_REACTORS
330
1466
102
}
330
1466
100
AcDbPlotSettings
  1

  2
None
  4

  6

 40
0.0
 41
0.0
 42
0.0
 43
0.0
 44
0.0
 45
0.0
 46
0.0
 47
0.0
 48
0.0
 49
0.0
140
0.0
141
0.0
142
1.0
143
1.0
 70
   688
 72
     0
 73
     0
 74
     5
  7
monochrome.ctb
 75
    16
147
1.0
148
0.0
149
0.0
100
AcDbLayout
  1
Layout2
 70
     1
 71
     2
 10
0.0
 20
0.0
 11
12.0
 21
9.0
 12
0.0
 22
0.0
 32
0.0
 14
0.0
 24
0.0
 34
0.0
 15
0.0
 25
0.0
 35
0.0
146
0.0
 13
0.0
 23
0.0
 33
0.0
 16
1.0
 26
0.0
 36
0.0
 17
0.0
 27
1.0
 37
0.0
 76
     0
330
146D
  0
LAYOUT
  5
1465
102
{ACAD_XDICTIONARY
360
1B52
102
}
102
{ACAD_REACTORS
330
1466
102
}
330
1466
100
AcDbPlotSettings
  1

  2
EPSON LP-9400
  4
A4
  6

 40
5.873749732971191
 41
5.873747825622558
 42
5.873748779296875
 43
5.873748779296875
 44
209.9733276367187
 45
297.0106506347656
 46
2.339999999999999
 47
0.0
 48
0.0
 49
0.0
140
0.0
141
0.0
142
1.0
143
9.816891609963194
 70
 11956
 72
     1
 73
     1
 74
     1
  7
monochrome.ctb
 75
     0
147
0.1018652379725877
148
1264.94917075748
149
959.6633564695521
100
AcDbLayout
  1
Model
 70
     1
 71
     0
 10
0.0
 20
0.0
 11
12.0
 21
9.0
 12
0.0
 22
0.0
 32
0.0
 14
0.0
 24
0.0
 34
0.0
 15
0.0
 25
0.0
 35
0.0
146
0.0
 13
0.0
 23
0.0
 33
0.0
 16
1.0
 26
0.0
 36
0.0
 17
0.0
 27
1.0
 37
0.0
 76
     0
330
2
331
177C
  0
MATERIAL
  5
1787
102
{ACAD_XDICTIONARY
360
1788
102
}
102
{ACAD_REACTORS
330
177E
102
}
330
177E
100
AcDbMaterial
  1
ByBlock
 72
     0
 43
0.0008202099737533
 43
0.0
 43
0.0
 43
0.0
 43
0.0
 43
0.0008202099737533
 43
0.0
 43
0.0
 43
0.0
 43
0.0
 43
1.0
 43
0.0
 43
0.0
 43
0.0
 43
0.0
 43
1.0
 77
     0
 47
0.0008202099737533
 47
0.0
 47
0.0
 47
0.0
 47
0.0
 47
0.0008202099737533
 47
0.0
 47
0.0
 47
0.0
 47
0.0
 47
1.0
 47
0.0
 47
0.0
 47
0.0
 47
0.0
 47
1.0
171
     0
 49
0.0008202099737533
 49
0.0
 49
0.0
 49
0.0
 49
0.0
 49
0.0008202099737533
 49
0.0
 49
0.0
 49
0.0
 49
0.0
 49
1.0
 49
0.0
 49
0.0
 49
0.0
 49
0.0
 49
1.0
175
     0
142
0.0008202099737533
142
0.0
142
0.0
142
0.0
142
0.0
142
0.0008202099737533
142
0.0
142
0.0
142
0.0
142
0.0
142
1.0
142
0.0
142
0.0
142
0.0
142
0.0
142
1.0
179
     0
144
0.0008202099737533
144
0.0
144
0.0
144
0.0
144
0.0
144
0.0008202099737533
144
0.0
144
0.0
144
0.0
144
0.0
144
1.0
144
0.0
144
0.0
144
0.0
144
0.0
144
1.0
147
0.0008202099737533
147
0.0
147
0.0
147
0.0
147
0.0
147
0.0008202099737533
147
0.0
147
0.0
147
0.0
147
0.0
147
1.0
147
0.0
147
0.0
147
0.0
147
0.0
147
1.0
  0
MATERIAL
  5
177F
102
{ACAD_XDICTIONARY
360
1780
102
}
102
{ACAD_REACTORS
330
177E
102
}
330
177E
100
AcDbMaterial
  1
ByLayer
 72
     0
 43
0.0008202099737533
 43
0.0
 43
0.0
 43
0.0
 43
0.0
 43
0.0008202099737533
 43
0.0
 43
0.0
 43
0.0
 43
0.0
 43
1.0
 43
0.0
 43
0.0
 43
0.0
 43
0.0
 43
1.0
 77
     0
 47
0.0008202099737533
 47
0.0
 47
0.0
 47
0.0
 47
0.0
 47
0.0008202099737533
 47
0.0
 47
0.0
 47
0.0
 47
0.0
 47
1.0
 47
0.0
 47
0.0
 47
0.0
 47
0.0
 47
1.0
171
     0
 49
0.0008202099737533
 49
0.0
 49
0.0
 49
0.0
 49
0.0
 49
0.0008202099737533
 49
0.0
 49
0.0
 49
0.0
 49
0.0
 49
1.0
 49
0.0
 49
0.0
 49
0.0
 49
0.0
 49
1.0
175
     0
142
0.0008202099737533
142
0.0
142
0.0
142
0.0
142
0.0
142
0.0008202099737533
142
0.0
142
0.0
142
0.0
142
0.0
142
1.0
142
0.0
142
0.0
142
0.0
142
0.0
142
1.0
179
     0
144
0.0008202099737533
144
0.0
144
0.0
144
0.0
144
0.0
144
0.0008202099737533
144
0.0
144
0.0
144
0.0
144
0.0
144
1.0
144
0.0
144
0.0
144
0.0
144
0.0
144
1.0
147
0.0008202099737533
147
0.0
147
0.0
147
0.0
147
0.0
147
0.0008202099737533
147
0.0
147
0.0
147
0.0
147
0.0
147
1.0
147
0.0
147
0.0
147
0.0
147
0.0
147
1.0
  0
MATERIAL
  5
178F
102
{ACAD_XDICTIONARY
360
1790
102
}
102
{ACAD_REACTORS
330
177E
102
}
330
177E
100
AcDbMaterial
  1
Global
 72
     0
 43
0.0008202099737533
 43
0.0
 43
0.0
 43
0.0
 43
0.0
 43
0.0008202099737533
 43
0.0
 43
0.0
 43
0.0
 43
0.0
 43
1.0
 43
0.0
 43
0.0
 43
0.0
 43
0.0
 43
1.0
 77
     0
 47
0.0008202099737533
 47
0.0
 47
0.0
 47
0.0
 47
0.0
 47
0.0008202099737533
 47
0.0
 47
0.0
 47
0.0
 47
0.0
 47
1.0
 47
0.0
 47
0.0
 47
0.0
 47
0.0
 47
1.0
171
     0
 49
0.0008202099737533
 49
0.0
 49
0.0
 49
0.0
 49
0.0
 49
0.0008202099737533
 49
0.0
 49
0.0
 49
0.0
 49
0.0
 49
1.0
 49
0.0
 49
0.0
 49
0.0
 49
0.0
 49
1.0
175
     0
142
0.0008202099737533
142
0.0
142
0.0
142
0.0
142
0.0
142
0.0008202099737533
142
0.0
142
0.0
142
0.0
142
0.0
142
1.0
142
0.0
142
0.0
142
0.0
142
0.0
142
1.0
179
     0
144
0.0008202099737533
144
0.0
144
0.0
144
0.0
144
0.0
144
0.0008202099737533
144
0.0
144
0.0
144
0.0
144
0.0
144
1.0
144
0.0
144
0.0
144
0.0
144
0.0
144
1.0
147
0.0008202099737533
147
0.0
147
0.0
147
0.0
147
0.0
147
0.0008202099737533
147
0.0
147
0.0
147
0.0
147
0.0
147
1.0
147
0.0
147
0.0
147
0.0
147
0.0
147
1.0
  0
MLEADERSTYLE
  5
17C6
102
{ACAD_XDICTIONARY
360
1B8C
102
}
102
{ACAD_REACTORS
330
17C5
102
}
330
17C5
100
AcDbMLeaderStyle
170
     2
171
     1
172
     0
 90
        2
 40
0.0
 41
0.0
173
     1
 91
-1056964608
340
1477
 92
       -2
290
     1
 42
2.0
291
     1
 43
0.36
  3
Standard
 44
4.0
300

342
9
174
     1
178
     6
175
     1
176
     0
 93
-1056964608
 45
4.0
292
     0
297
     0
 46
4.0
 94
-1056964608
 47
1.0
 49
1.0
140
1.0
293
     1
141
0.0
294
     1
177
     0
142
1.0
295
     0
296
     0
143
0.125
1001
ACAD_MLEADERVER
1070
     2
  0
MLINESTYLE
  5
1483
102
{ACAD_REACTORS
330
1481
102
}
330
1481
100
AcDbMlineStyle
  2
STANDARD
 70
     0
  3

 62
   256
 51
90.0
 52
90.0
 71
     2
 49
0.5
 62
   256
  6
BYLAYER
 49
-0.5
 62
   256
  6
BYLAYER
  0
ACDBPLACEHOLDER
  5
5
102
{ACAD_REACTORS
330
6
102
}
330
6
  0
SCALE
  5
17B4
102
{ACAD_REACTORS
330
17B3
102
}
330
17B3
100
AcDbScale
 70
     0
300
1:1
140
1.0
141
1.0
290
     1
  0
SCALE
  5
17B5
102
{ACAD_REACTORS
330
17B3
102
}
330
17B3
100
AcDbScale
 70
     0
300
1:2
140
1.0
141
2.0
290
     0
  0
SCALE
  5
17B6
102
{ACAD_REACTORS
330
17B3
102
}
330
17B3
100
AcDbScale
 70
     0
300
1:4
140
1.0
141
4.0
290
     0
  0
SCALE
  5
17B7
102
{ACAD_REACTORS
330
17B3
102
}
330
17B3
100
AcDbScale
 70
     0
300
1:5
140
1.0
141
5.0
290
     0
  0
SCALE
  5
17B8
102
{ACAD_REACTORS
330
17B3
102
}
330
17B3
100
AcDbScale
 70
     0
300
1:8
140
1.0
141
8.0
290
     0
  0
SCALE
  5
17B9
102
{ACAD_REACTORS
330
17B3
102
}
330
17B3
100
AcDbScale
 70
     0
300
1:10
140
1.0
141
10.0
290
     0
  0
SCALE
  5
17BA
102
{ACAD_REACTORS
330
17B3
102
}
330
17B3
100
AcDbScale
 70
     0
300
1:16
140
1.0
141
16.0
290
     0
  0
SCALE
  5
17BB
102
{ACAD_REACTORS
330
17B3
102
}
330
17B3
100
AcDbScale
 70
     0
300
1:20
140
1.0
141
20.0
290
     0
  0
SCALE
  5
17BC
102
{ACAD_REACTORS
330
17B3
102
}
330
17B3
100
AcDbScale
 70
     0
300
1:30
140
1.0
141
30.0
290
     0
  0
SCALE
  5
17BD
102
{ACAD_REACTORS
330
17B3
102
}
330
17B3
100
AcDbScale
 70
     0
300
1:40
140
1.0
141
40.0
290
     0
  0
SCALE
  5
17BE
102
{ACAD_REACTORS
330
17B3
102
}
330
17B3
100
AcDbScale
 70
     0
300
1:50
140
1.0
141
50.0
290
     0
  0
SCALE
  5
17BF
102
{ACAD_REACTORS
330
17B3
102
}
330
17B3
100
AcDbScale
 70
     0
300
1:100
140
1.0
141
100.0
290
     0
  0
SCALE
  5
17C0
102
{ACAD_REACTORS
330
17B3
102
}
330
17B3
100
AcDbScale
 70
     0
300
2:1
140
2.0
141
1.0
290
     0
  0
SCALE
  5
17C1
102
{ACAD_REACTORS
330
17B3
102
}
330
17B3
100
AcDbScale
 70
     0
300
4:1
140
4.0
141
1.0
290
     0
  0
SCALE
  5
17C2
102
{ACAD_REACTORS
330
17B3
102
}
330
17B3
100
AcDbScale
 70
     0
300
8:1
140
8.0
141
1.0
290
     0
  0
SCALE
  5
17C3
102
{ACAD_REACTORS
330
17B3
102
}
330
17B3
100
AcDbScale
 70
     0
300
10:1
140
10.0
141
1.0
290
     0
  0
SCALE
  5
17C4
102
{ACAD_REACTORS
330
17B3
102
}
330
17B3
100
AcDbScale
 70
     0
300
100:1
140
100.0
141
1.0
290
     0
  0
ACDBSECTIONVIEWSTYLE
  5
17C8
102
{ACAD_XDICTIONARY
360
1B8E
102
}
102
{ACAD_REACTORS
330
17C7
102
}
330
17C7
100
AcDbModelDocViewStyle
 70
     0
  3
Metric50
290
     0
100
AcDbSectionViewStyle
 70
     0
 71
     0
 90
      102
 71
     1
340
9
 40
5.0
340
0
340
0
 40
5.0
300
I, O, Q, S, X, Z
 40
10.0
 90
        0
 40
2.5
 90
        0
 71
     2
340
8
 90
       25
340
8
 90
       50
 40
5.0
 40
2.5
 40
5.0
 71
     3
340
9
 40
5.0
 90
        0
 40
15.0
 90
        1
300
%<\AcVar ViewSectionStartId>%-%<\AcVar ViewSectionEndId>% (%<\AcVar ViewScale \f "%sn">%)
 71
     4
300
ANSI31
 40
1.0
 90
        0
290
     0
290
     0
 90
        6
 40
0.0
 40
1.570796326794896
 40
0.2617993877991494
 40
1.308996938995747
 40
-0.2617993877991494
 40
1.832595714594046
  0
TABLESTYLE
  5
17B2
102
{ACAD_XDICTIONARY
360
17E2
102
}
102
{ACAD_REACTORS
330
17B1
102
}
330
17B1
100
AcDbTableStyle
  3
Standard
 70
     0
 71
     0
 40
1.5
 41
1.5
280
     0
281
     0
  7
Standard
140
4.5
170
     2
 62
     0
 63
     7
283
     0
274
    -2
284
     1
 64
     0
275
    -2
285
     1
 65
     0
276
    -2
286
     1
 66
     0
277
    -2
287
     1
 67
     0
278
    -2
288
     1
 68
     0
279
    -2
289
     1
 69
     0
  7
Standard
140
6.0
170
     5
 62
     0
 63
     7
283
     0
274
    -2
284
     1
 64
     0
275
    -2
285
     1
 65
     0
276
    -2
286
     1
 66
     0
277
    -2
287
     1
 67
     0
278
    -2
288
     1
 68
     0
279
    -2
289
     1
 69
     0
  7
Standard
140
4.5
170
     5
 62
     0
 63
     7
283
     0
274
    -2
284
     1
 64
     0
275
    -2
285
     1
 65
     0
276
    -2
286
     1
 66
     0
277
    -2
287
     1
 67
     0
278
    -2
288
     1
 68
     0
279
    -2
289
     1
 69
     0
  0
VISUALSTYLE
  5
179D
102
{ACAD_XDICTIONARY
360
1B65
102
}
102
{ACAD_REACTORS
330
1797
102
}
330
1797
100
AcDbVisualStyle
  2
2dWireframe
 70
     4
 71
     0
 72
     2
 73
     0
 90
        0
 40
-0.6
 41
-30.0
 62
     5
 63
     7
 74
     1
 91
        4
 64
     7
 65
   257
 75
     1
175
     1
 42
1.0
 92
        0
 66
   257
 43
1.0
 76
     1
 77
     6
 78
     2
 67
     7
 79
     5
170
     0
171
     0
290
     0
174
     0
 93
        1
 44
0.0
173
     0
291
     0
 45
0.0
1001
ACAD
1000
AcDbSavedByObjectVersion
1070
     0
  0
VISUALSTYLE
  5
179C
102
{ACAD_XDICTIONARY
360
1B63
102
}
102
{ACAD_REACTORS
330
1797
102
}
330
1797
100
AcDbVisualStyle
  2
Basic
 70
     7
 71
     1
 72
     0
 73
     1
 90
        0
 40
-0.6
 41
-30.0
 62
     5
 63
     7
 74
     0
 91
        4
 64
     7
 65
   257
 75
     1
175
     1
 42
1.0
 92
        8
 66
     7
 43
1.0
 76
     1
 77
     6
 78
     2
 67
     7
 79
     5
170
     0
171
     0
290
     0
174
     0
 93
        1
 44
0.0
173
     0
291
     1
 45
0.0
1001
ACAD
1000
AcDbSavedByObjectVersion
1070
     0
  0
VISUALSTYLE
  5
17A3
102
{ACAD_XDICTIONARY
360
1B71
102
}
102
{ACAD_REACTORS
330
1797
102
}
330
1797
100
AcDbVisualStyle
  2
Brighten
 70
    12
 71
     2
 72
     2
 73
     0
 90
        0
 40
-0.6
 41
-30.0
 62
     5
 63
     7
 74
     1
 91
        4
 64
     7
 65
   257
 75
     1
175
     1
 42
1.0
 92
        8
 66
     7
 43
1.0
 76
     1
 77
     6
 78
     2
 67
     7
 79
     5
170
     0
171
     0
290
     0
174
     0
 93
        1
 44
50.0
173
     0
291
     1
 45
0.0
1001
ACAD
1000
AcDbSavedByObjectVersion
1070
     0
  0
VISUALSTYLE
  5
17A7
102
{ACAD_XDICTIONARY
360
1B79
102
}
102
{ACAD_REACTORS
330
1797
102
}
330
1797
100
AcDbVisualStyle
  2
ColorChange
 70
    16
 71
     2
 72
     2
 73
     3
 90
        0
 40
-0.6
 41
-30.0
 62
     5
 63
     8
 74
     1
 91
        4
 64
     7
 65
   257
 75
     1
175
     1
 42
1.0
 92
        8
 66
     8
 43
1.0
 76
     1
 77
     6
 78
     2
 67
     7
 79
     5
170
     0
171
     0
290
     0
174
     0
 93
        1
 44
0.0
173
     0
291
     1
 45
0.0
1001
ACAD
1000
AcDbSavedByObjectVersion
1070
     0
  0
VISUALSTYLE
  5
17A0
102
{ACAD_XDICTIONARY
360
1B6B
102
}
102
{ACAD_REACTORS
330
1797
102
}
330
1797
100
AcDbVisualStyle
  2
Conceptual
 70
     9
 71
     3
 72
     2
 73
     0
 90
        0
 40
-0.6
 41
-30.0
 62
     5
 63
     7
 74
     2
 91
        2
 64
     7
 65
   257
 75
     1
175
     1
 42
179.0
 92
        8
 66
     7
 43
1.0
 76
     1
 77
     6
 78
     2
 67
     7
 79
     3
170
     0
171
     0
290
     0
174
     0
 93
        1
 44
0.0
173
     0
291
     0
 45
0.0
1001
ACAD
1000
AcDbSavedByObjectVersion
1070
     0
  0
VISUALSTYLE
  5
17A2
102
{ACAD_XDICTIONARY
360
1B6F
102
}
102
{ACAD_REACTORS
330
1797
102
}
330
1797
100
AcDbVisualStyle
  2
Dim
 70
    11
 71
     2
 72
     2
 73
     0
 90
        0
 40
-0.6
 41
-30.0
 62
     5
 63
     7
 74
     1
 91
        4
 64
     7
 65
   257
 75
     1
175
     1
 42
1.0
 92
        8
 66
     7
 43
1.0
 76
     1
 77
     6
 78
     2
 67
     7
 79
     5
170
     0
171
     0
290
     0
174
     0
 93
        1
 44
-50.0
173
     0
291
     1
 45
0.0
1001
ACAD
1000
AcDbSavedByObjectVersion
1070
     0
  0
VISUALSTYLE
  5
17AF
102
{ACAD_XDICTIONARY
360
1B89
102
}
102
{ACAD_REACTORS
330
1797
102
}
330
1797
100
AcDbVisualStyle
  2
EdgeColorOff
 70
    22
 71
     2
 72
     2
 73
     0
 90
        0
 40
-0.6
 41
-30.0
 62
     5
 63
     7
 74
     1
 91
        4
 64
     7
 65
   257
 75
     1
175
     1
 42
1.0
 92
        8
 66
     7
 43
1.0
 76
     1
 77
     6
 78
     2
 67
     7
 79
     5
170
     0
171
     0
290
     0
174
     0
 93
        1
 44
0.0
173
     0
291
     1
 45
0.0
1001
ACAD
1000
AcDbSavedByObjectVersion
1070
     0
  0
VISUALSTYLE
  5
17A6
102
{ACAD_XDICTIONARY
360
1B77
102
}
102
{ACAD_REACTORS
330
1797
102
}
330
1797
100
AcDbVisualStyle
  2
Facepattern
 70
    15
 71
     2
 72
     2
 73
     0
 90
        0
 40
-0.6
 41
-30.0
 62
     5
 63
     7
 74
     1
 91
        4
 64
     7
 65
   257
 75
     1
175
     1
 42
1.0
 92
        8
 66
     7
 43
1.0
 76
     1
 77
     6
 78
     2
 67
     7
 79
     5
170
     0
171
     0
290
     0
174
     0
 93
        1
 44
0.0
173
     0
291
     1
 45
0.0
1001
ACAD
1000
AcDbSavedByObjectVersion
1070
     0
  0
VISUALSTYLE
  5
1798
102
{ACAD_XDICTIONARY
360
1B5B
102
}
102
{ACAD_REACTORS
330
1797
102
}
330
1797
100
AcDbVisualStyle
  2
Flat
 70
     0
 71
     2
 72
     1
 73
     1
 90
        2
 40
-0.6
 41
30.0
 62
     5
 63
     7
 74
     0
 91
        0
 64
     7
 65
   257
 75
     1
175
     1
 42
1.0
 92
        8
 66
     7
 43
1.0
 76
     1
 77
     6
 78
     2
 67
     7
 79
     5
170
     0
171
     0
290
     0
174
     0
 93
       13
 44
0.0
173
     0
291
     1
 45
0.0
1001
ACAD
1000
AcDbSavedByObjectVersion
1070
     0
  0
VISUALSTYLE
  5
1799
102
{ACAD_XDICTIONARY
360
1B5D
102
}
102
{ACAD_REACTORS
330
1797
102
}
330
1797
100
AcDbVisualStyle
  2
FlatWithEdges
 70
     1
 71
     2
 72
     1
 73
     1
 90
        2
 40
-0.6
 41
30.0
 62
     5
 63
     7
 74
     1
 91
        0
 64
     7
 65
   257
 75
     1
175
     1
 42
1.0
 92
        0
 66
   257
 43
1.0
 76
     1
 77
     6
 78
     2
 67
     7
 79
     5
170
     0
171
     0
290
     0
174
     0
 93
       13
 44
0.0
173
     0
291
     1
 45
0.0
1001
ACAD
1000
AcDbSavedByObjectVersion
1070
     0
  0
VISUALSTYLE
  5
179A
102
{ACAD_XDICTIONARY
360
1B5F
102
}
102
{ACAD_REACTORS
330
1797
102
}
330
1797
100
AcDbVisualStyle
  2
Gouraud
 70
     2
 71
     2
 72
     2
 73
     1
 90
        2
 40
-0.6
 41
30.0
 62
     5
 63
     7
 74
     0
 91
        0
 64
     7
 65
   257
 75
     1
175
     1
 42
1.0
 92
        0
 66
     7
 43
1.0
 76
     1
 77
     6
 78
     2
 67
     7
 79
     5
170
     0
171
     0
290
     0
174
     0
 93
       13
 44
0.0
173
     0
291
     1
 45
0.0
1001
ACAD
1000
AcDbSavedByObjectVersion
1070
     0
  0
VISUALSTYLE
  5
179B
102
{ACAD_XDICTIONARY
360
1B61
102
}
102
{ACAD_REACTORS
330
1797
102
}
330
1797
100
AcDbVisualStyle
  2
GouraudWithEdges
 70
     3
 71
     2
 72
     2
 73
     1
 90
        2
 40
-0.6
 41
30.0
 62
     5
 63
     7
 74
     1
 91
        0
 64
     7
 65
   257
 75
     1
175
     1
 42
1.0
 92
        0
 66
   257
 43
1.0
 76
     1
 77
     6
 78
     2
 67
     7
 79
     5
170
     0
171
     0
290
     0
174
     0
 93
       13
 44
0.0
173
     0
291
     1
 45
0.0
1001
ACAD
1000
AcDbSavedByObjectVersion
1070
     0
  0
VISUALSTYLE
  5
179F
102
{ACAD_XDICTIONARY
360
1B69
102
}
102
{ACAD_REACTORS
330
1797
102
}
330
1797
100
AcDbVisualStyle
  2
Hidden
 70
     6
 71
     1
 72
     2
 73
     2
 90
        0
 40
-0.6
 41
-30.0
 62
     5
 63
     7
 74
     2
 91
        2
 64
     7
 65
   257
 75
     2
175
     1
 42
40.0
 92
        0
 66
   257
 43
1.0
 76
     1
 77
     6
 78
     2
 67
     7
 79
     3
170
     0
171
     0
290
     0
174
     0
 93
        1
 44
0.0
173
     0
291
     0
 45
0.0
1001
ACAD
1000
AcDbSavedByObjectVersion
1070
     0
  0
VISUALSTYLE
  5
17AD
102
{ACAD_XDICTIONARY
360
1B85
102
}
102
{ACAD_REACTORS
330
1797
102
}
330
1797
100
AcDbVisualStyle
  2
JitterOff
 70
    20
 71
     2
 72
     2
 73
     0
 90
        0
 40
-0.6
 41
-30.0
 62
     5
 63
     7
 74
     1
 91
        4
 64
     7
 65
   257
 75
     1
175
     1
 42
1.0
 92
       10
 66
     7
 43
1.0
 76
     1
 77
     6
 78
     2
 67
     7
 79
     5
170
     0
171
     0
290
     0
174
     0
 93
        1
 44
0.0
173
     0
291
     1
 45
0.0
1001
ACAD
1000
AcDbSavedByObjectVersion
1070
     0
  0
VISUALSTYLE
  5
17A5
102
{ACAD_XDICTIONARY
360
1B75
102
}
102
{ACAD_REACTORS
330
1797
102
}
330
1797
100
AcDbVisualStyle
  2
Linepattern
 70
    14
 71
     2
 72
     2
 73
     0
 90
        0
 40
-0.6
 41
-30.0
 62
     5
 63
     7
 74
     1
 91
        4
 64
     7
 65
   257
 75
     7
175
     7
 42
1.0
 92
        8
 66
     7
 43
1.0
 76
     1
 77
     6
 78
     2
 67
     7
 79
     5
170
     0
171
     0
290
     0
174
     0
 93
        1
 44
0.0
173
     0
291
     1
 45
0.0
1001
ACAD
1000
AcDbSavedByObjectVersion
1070
     0
  0
VISUALSTYLE
  5
17AE
102
{ACAD_XDICTIONARY
360
1B87
102
}
102
{ACAD_REACTORS
330
1797
102
}
330
1797
100
AcDbVisualStyle
  2
OverhangOff
 70
    21
 71
     2
 72
     2
 73
     0
 90
        0
 40
-0.6
 41
-30.0
 62
     5
 63
     7
 74
     1
 91
        4
 64
     7
 65
   257
 75
     1
175
     1
 42
1.0
 92
        9
 66
     7
 43
1.0
 76
     1
 77
     6
 78
     2
 67
     7
 79
     5
170
     0
171
     0
290
     0
174
     0
 93
        1
 44
0.0
173
     0
291
     1
 45
0.0
1001
ACAD
1000
AcDbSavedByObjectVersion
1070
     0
  0
VISUALSTYLE
  5
17A1
102
{ACAD_XDICTIONARY
360
1B6D
102
}
102
{ACAD_REACTORS
330
1797
102
}
330
1797
100
AcDbVisualStyle
  2
Realistic
 70
     8
 71
     2
 72
     2
 73
     0
 90
        2
 40
-0.6
 41
30.0
 62
     5
 63
     7
 74
     0
 91
        0
 64
     7
 65
   257
 75
     1
175
     1
 42
1.0
 92
        8
 66
   257
 43
1.0
 76
     1
 77
     6
 78
     2
 67
     7
 79
     3
170
     0
171
     0
290
     0
174
     0
 93
       13
 44
0.0
173
     0
291
     0
 45
0.0
1001
ACAD
1000
AcDbSavedByObjectVersion
1070
     0
  0
VISUALSTYLE
  5
17AC
102
{ACAD_XDICTIONARY
360
1B83
102
}
102
{ACAD_REACTORS
330
1797
102
}
330
1797
100
AcDbVisualStyle
  2
Shaded
 70
    27
 71
     2
 72
     2
 73
     1
 90
        2
 40
-0.6
 41
30.0
 62
     5
 63
     7
 74
     0
 91
        4
 64
     7
 65
   257
 75
     1
175
     1
 42
1.0
 92
        8
 66
   257
 43
1.0
 76
     1
 77
     6
 78
     2
 67
     8
 79
     3
170
     0
171
     0
290
     0
174
     0
 93
        5
 44
0.0
173
     0
291
     0
 45
0.0
1001
ACAD
1000
AcDbSavedByObjectVersion
1070
     0
  0
VISUALSTYLE
  5
17AB
102
{ACAD_XDICTIONARY
360
1B81
102
}
102
{ACAD_REACTORS
330
1797
102
}
330
1797
100
AcDbVisualStyle
  2
Shaded with edges
 70
    26
 71
     2
 72
     2
 73
     1
 90
        2
 40
-0.6
 41
30.0
 62
     5
 63
     7
 74
     1
 91
       10
 64
     7
 65
   257
 75
     2
175
     1
 42
1.0
 92
        8
 66
   257
 43
1.0
 76
     1
 77
     6
 78
     2
 67
     7
 79
     3
170
     0
171
     0
290
     0
174
     0
 93
        5
 44
0.0
173
     0
291
     0
 45
0.0
1001
ACAD
1000
AcDbSavedByObjectVersion
1070
     0
  0
VISUALSTYLE
  5
17A8
102
{ACAD_XDICTIONARY
360
1B7B
102
}
102
{ACAD_REACTORS
330
1797
102
}
330
1797
100
AcDbVisualStyle
  2
Shades of Gray
 70
    23
 71
     2
 72
     2
 73
     3
 90
        0
 40
-0.6
 41
-30.0
 62
     5
 63
     7
 74
     2
 91
        2
 64
     7
 65
     7
 75
     1
175
     1
 42
40.0
 92
        8
 66
     7
 43
1.0
 76
     1
 77
     6
 78
     2
 67
     7
 79
     3
170
     0
171
     0
290
     0
174
     0
 93
        1
 44
0.0
173
     0
291
     0
 45
0.0
1001
ACAD
1000
AcDbSavedByObjectVersion
1070
     0
  0
VISUALSTYLE
  5
17A9
102
{ACAD_XDICTIONARY
360
1B7D
102
}
102
{ACAD_REACTORS
330
1797
102
}
330
1797
100
AcDbVisualStyle
  2
Sketchy
 70
    24
 71
     1
 72
     2
 73
     2
 90
        0
 40
-0.6
 41
-30.0
 62
     5
 63
     7
 74
     2
 91
        2
 64
     7
 65
     7
 75
     1
175
     1
 42
40.0
 92
       11
 66
     7
 43
1.0
 76
     1
 77
     6
 78
     2
 67
     7
 79
     6
170
     0
171
     0
290
     0
174
     0
 93
        1
 44
0.0
173
     0
291
     0
 45
0.0
1001
ACAD
1000
AcDbSavedByObjectVersion
1070
     0
  0
VISUALSTYLE
  5
17A4
102
{ACAD_XDICTIONARY
360
1B73
102
}
102
{ACAD_REACTORS
330
1797
102
}
330
1797
100
AcDbVisualStyle
  2
Thicken
 70
    13
 71
     2
 72
     2
 73
     0
 90
        0
 40
-0.6
 41
-30.0
 62
     5
 63
     7
 74
     1
 91
        4
 64
     7
 65
   257
 75
     1
175
     1
 42
1.0
 92
       12
 66
     7
 43
1.0
 76
     1
 77
     6
 78
     2
 67
     7
 79
     5
170
     0
171
     0
290
     0
174
     0
 93
        1
 44
0.0
173
     0
291
     1
 45
0.0
1001
ACAD
1000
AcDbSavedByObjectVersion
1070
     0
  0
VISUALSTYLE
  5
179E
102
{ACAD_XDICTIONARY
360
1B67
102
}
102
{ACAD_REACTORS
330
1797
102
}
330
1797
100
AcDbVisualStyle
  2
Wireframe
 70
     5
 71
     0
 72
     2
 73
     0
 90
        0
 40
-0.6
 41
-30.0
 62
     5
 63
     7
 74
     1
 91
        4
 64
     7
 65
   257
 75
     1
175
     1
 42
1.0
 92
        0
 66
   257
 43
1.0
 76
     1
 77
     6
 78
     2
 67
     7
 79
     3
170
     0
171
     0
290
     0
174
     0
 93
        1
 44
0.0
173
     0
291
     0
 45
0.0
1001
ACAD
1000
AcDbSavedByObjectVersion
1070
     0
  0
VISUALSTYLE
  5
17AA
102
{ACAD_XDICTIONARY
360
1B7F
102
}
102
{ACAD_REACTORS
330
1797
102
}
330
1797
100
AcDbVisualStyle
  2
X-Ray
 70
    25
 71
     2
 72
     2
 73
     1
 90
        1
 40
0.5
 41
-30.0
 62
     5
 63
     7
 74
     1
 91
        0
 64
     7
 65
   257
 75
     1
175
     1
 42
1.0
 92
        8
 66
     7
 43
1.0
 76
     1
 77
     6
 78
     2
 67
     7
 79
     3
170
     0
171
     0
290
     0
174
     0
 93
       13
 44
0.0
173
     0
291
     0
 45
0.0
1001
ACAD
1000
AcDbSavedByObjectVersion
1070
     0
  0
DICTIONARYVAR
  5
182E
102
{ACAD_REACTORS
330
1829
102
}
330
1829
100
DictionaryVariables
280
     0
  1
1:1
  0
DICTIONARYVAR
  5
182B
102
{ACAD_REACTORS
330
1829
102
}
330
1829
100
DictionaryVariables
280
     0
  1
STANDARD
  0
DICTIONARYVAR
  5
182A
102
{ACAD_REACTORS
330
1829
102
}
330
1829
100
DictionaryVariables
280
     0
  1
STANDARD
  0
DICTIONARYVAR
  5
182C
102
{ACAD_REACTORS
330
1829
102
}
330
1829
100
DictionaryVariables
280
     0
  1
Metric50
  0
DICTIONARYVAR
  5
182D
102
{ACAD_REACTORS
330
1829
102
}
330
1829
100
DictionaryVariables
280
     0
  1
Metric50
  0
DICTIONARYVAR
  5
1831
102
{ACAD_REACTORS
330
1829
102
}
330
1829
100
DictionaryVariables
280
     0
  1
1
  0
DICTIONARYVAR
  5
1830
102
{ACAD_REACTORS
330
1829
102
}
330
1829
100
DictionaryVariables
280
     0
  1
0
  0
DICTIONARYVAR
  5
182F
102
{ACAD_REACTORS
330
1829
102
}
330
1829
100
DictionaryVariables
280
     0
  1
127
  0
DICTIONARYVAR
  5
1B4E
102
{ACAD_REACTORS
330
1829
102
}
330
1829
100
DictionaryVariables
280
     0
  1
2
  0
ACDBASSOCNETWORK
  5
1960
102
{ACAD_REACTORS
330
195F
102
}
330
195F
100
AcDbAssocAction
 90
        1
 90
        1
330
1962
360
0
 90
        1
 90
        0
 90
        0
100
AcDbAssocNetwork
 90
        0
 90
        3
 90
        3
360
1963
360
19C5
360
19FC
 90
        3
330
1963
330
19C5
330
19FC
  0
XRECORD
  5
1B93
102
{ACAD_REACTORS
330
1B92
102
}
330
1B92
100
AcDbXrecord
280
     1
1070
     0
1070
     1
1070
     1
  0
XRECORD
  5
1B95
102
{ACAD_REACTORS
330
1B94
102
}
330
1B94
100
AcDbXrecord
280
     1
1070
     0
1070
     1
1070
     1
  0
XRECORD
  5
1B97
102
{ACAD_REACTORS
330
1B96
102
}
330
1B96
100
AcDbXrecord
280
     1
1070
     0
1070
     1
1070
     1
  0
DICTIONARY
  5
1B90
330
17CA
100
AcDbDictionary
280
     1
281
     1
  3
ACAD_XREC_ROUNDTRIP
360
1B91
  0
DICTIONARY
  5
1B54
330
146C
100
AcDbDictionary
280
     1
281
     1
  3
ACAD_XREC_ROUNDTRIP
360
1B55
  0
DICTIONARY
  5
1B56
330
1472
100
AcDbDictionary
280
     1
281
     1
  3
ACAD_XREC_ROUNDTRIP
360
1B57
  0
DICTIONARY
  5
1B52
330
1465
100
AcDbDictionary
280
     1
281
     1
  3
ACAD_XREC_ROUNDTRIP
360
1B53
  0
DICTIONARY
  5
1788
330
1787
100
AcDbDictionary
280
     1
281
     1
  3
ACAD_XREC_ROUNDTRIP
360
1B59
  3
BUMPTILE
360
178A
  3
DIFFUSETILE
360
1789
  3
OPACITYTILE
360
178D
  3
REFLECTIONTILE
360
178C
  3
REFRACTIONTILE
360
178E
  3
SPECULARTILE
360
178B
  0
DICTIONARY
  5
1780
330
177F
100
AcDbDictionary
280
     1
281
     1
  3
ACAD_XREC_ROUNDTRIP
360
1B58
  3
BUMPTILE
360
1782
  3
DIFFUSETILE
360
1781
  3
OPACITYTILE
360
1785
  3
REFLECTIONTILE
360
1784
  3
REFRACTIONTILE
360
1786
  3
SPECULARTILE
360
1783
  0
DICTIONARY
  5
1790
330
178F
100
AcDbDictionary
280
     1
281
     1
  3
ACAD_XREC_ROUNDTRIP
360
1B5A
  3
BUMPTILE
360
1792
  3
DIFFUSETILE
360
1791
  3
OPACITYTILE
360
1795
  3
REFLECTIONTILE
360
1794
  3
REFRACTIONTILE
360
1796
  3
SPECULARTILE
360
1793
  0
DICTIONARY
  5
1B8C
330
17C6
100
AcDbDictionary
280
     1
281
     1
  3
ACAD_XREC_ROUNDTRIP
360
1B8D
  0
DICTIONARY
  5
1B8E
330
17C8
100
AcDbDictionary
280
     1
281
     1
  3
ACAD_XREC_ROUNDTRIP
360
1B8F
  0
DICTIONARY
  5
17E2
330
17B2
100
AcDbDictionary
280
     1
281
     1
  3
ACAD_ROUNDTRIP_2008_TABLESTYLE_CELLSTYLEMAP
360
1B4F
  3
ACAD_XREC_ROUNDTRIP
360
1B8B
  0
DICTIONARY
  5
1B65
330
179D
100
AcDbDictionary
280
     1
281
     1
  3
ACAD_XREC_ROUNDTRIP
360
1B66
  0
DICTIONARY
  5
1B63
330
179C
100
AcDbDictionary
280
     1
281
     1
  3
ACAD_XREC_ROUNDTRIP
360
1B64
  0
DICTIONARY
  5
1B71
330
17A3
100
AcDbDictionary
280
     1
281
     1
  3
ACAD_XREC_ROUNDTRIP
360
1B72
  0
DICTIONARY
  5
1B79
330
17A7
100
AcDbDictionary
280
     1
281
     1
  3
ACAD_XREC_ROUNDTRIP
360
1B7A
  0
DICTIONARY
  5
1B6B
330
17A0
100
AcDbDictionary
280
     1
281
     1
  3
ACAD_XREC_ROUNDTRIP
360
1B6C
  0
DICTIONARY
  5
1B6F
330
17A2
100
AcDbDictionary
280
     1
281
     1
  3
ACAD_XREC_ROUNDTRIP
360
1B70
  0
DICTIONARY
  5
1B89
330
17AF
100
AcDbDictionary
280
     1
281
     1
  3
ACAD_XREC_ROUNDTRIP
360
1B8A
  0
DICTIONARY
  5
1B77
330
17A6
100
AcDbDictionary
280
     1
281
     1
  3
ACAD_XREC_ROUNDTRIP
360
1B78
  0
DICTIONARY
  5
1B5B
330
1798
100
AcDbDictionary
280
     1
281
     1
  3
ACAD_XREC_ROUNDTRIP
360
1B5C
  0
DICTIONARY
  5
1B5D
330
1799
100
AcDbDictionary
280
     1
281
     1
  3
ACAD_XREC_ROUNDTRIP
360
1B5E
  0
DICTIONARY
  5
1B5F
330
179A
100
AcDbDictionary
280
     1
281
     1
  3
ACAD_XREC_ROUNDTRIP
360
1B60
  0
DICTIONARY
  5
1B61
330
179B
100
AcDbDictionary
280
     1
281
     1
  3
ACAD_XREC_ROUNDTRIP
360
1B62
  0
DICTIONARY
  5
1B69
330
179F
100
AcDbDictionary
280
     1
281
     1
  3
ACAD_XREC_ROUNDTRIP
360
1B6A
  0
DICTIONARY
  5
1B85
330
17AD
100
AcDbDictionary
280
     1
281
     1
  3
ACAD_XREC_ROUNDTRIP
360
1B86
  0
DICTIONARY
  5
1B75
330
17A5
100
AcDbDictionary
280
     1
281
     1
  3
ACAD_XREC_ROUNDTRIP
360
1B76
  0
DICTIONARY
  5
1B87
330
17AE
100
AcDbDictionary
280
     1
281
     1
  3
ACAD_XREC_ROUNDTRIP
360
1B88
  0
DICTIONARY
  5
1B6D
330
17A1
100
AcDbDictionary
280
     1
281
     1
  3
ACAD_XREC_ROUNDTRIP
360
1B6E
  0
DICTIONARY
  5
1B83
330
17AC
100
AcDbDictionary
280
     1
281
     1
  3
ACAD_XREC_ROUNDTRIP
360
1B84
  0
DICTIONARY
  5
1B81
330
17AB
100
AcDbDictionary
280
     1
281
     1
  3
ACAD_XREC_ROUNDTRIP
360
1B82
  0
DICTIONARY
  5
1B7B
330
17A8
100
AcDbDictionary
280
     1
281
     1
  3
ACAD_XREC_ROUNDTRIP
360
1B7C
  0
DICTIONARY
  5
1B7D
330
17A9
100
AcDbDictionary
280
     1
281
     1
  3
ACAD_XREC_ROUNDTRIP
360
1B7E
  0
DICTIONARY
  5
1B73
330
17A4
100
AcDbDictionary
280
     1
281
     1
  3
ACAD_XREC_ROUNDTRIP
360
1B74
  0
DICTIONARY
  5
1B67
330
179E
100
AcDbDictionary
280
     1
281
     1
  3
ACAD_XREC_ROUNDTRIP
360
1B68
  0
DICTIONARY
  5
1B7F
330
17AA
100
AcDbDictionary
280
     1
281
     1
  3
ACAD_XREC_ROUNDTRIP
360
1B80
  0
ACDBASSOCACTION
  5
1963
330
1960
100
AcDbAssocAction
 90
        1
 90
        1
330
1960
360
1964
 90
        1
 90
        3
 90
        3
360
1967
360
1968
360
1969
  0
ACDBASSOCACTION
  5
19C5
330
1960
100
AcDbAssocAction
 90
        1
 90
        1
330
1960
360
19C6
 90
        2
 90
        3
 90
        3
360
19C9
360
19CA
360
19CB
  0
ACDBASSOCACTION
  5
19FC
330
1960
100
AcDbAssocAction
 90
        1
 90
        1
330
1960
360
19FD
 90
        3
 90
        3
 90
        3
360
1A00
360
1A01
360
1A02
  0
XRECORD
  5
1B91
102
{ACAD_REACTORS
330
1B90
102
}
330
1B90
100
AcDbXrecord
280
     1
102
DISPLAYNAME
  1
Metric50
102
FLAGS
 90
        0
  0
XRECORD
  5
1B55
102
{ACAD_REACTORS
330
1B54
102
}
330
1B54
100
AcDbXrecord
280
     1
102
SHADEPLOT
 70
     0
102
SHADEPLOTRESLEVEL
 70
     2
102
SHADEPLOTCUSTOMDPI
 70
   300
  0
XRECORD
  5
1B57
102
{ACAD_REACTORS
330
1B56
102
}
330
1B56
100
AcDbXrecord
280
     1
102
SHADEPLOT
 70
     0
102
SHADEPLOTRESLEVEL
 70
     2
102
SHADEPLOTCUSTOMDPI
 70
   300
  0
XRECORD
  5
1B53
102
{ACAD_REACTORS
330
1B52
102
}
330
1B52
100
AcDbXrecord
280
     1
102
SHADEPLOT
 70
     0
102
SHADEPLOTRESLEVEL
 70
     2
102
SHADEPLOTCUSTOMDPI
 70
   300
  0
XRECORD
  5
1B59
102
{ACAD_REACTORS
330
1788
102
}
330
1788
100
AcDbXrecord
280
     1
102
MATERIAL
148
0.0
149
0.0
149
0.0
 93
        0
 94
      127
282
     0
 72
     0
 77
     0
171
     0
175
     0
179
     0
273
     0
  0
XRECORD
  5
178A
102
{ACAD_REACTORS
330
1788
102
}
330
1788
100
AcDbXrecord
280
     1
270
     1
271
     1
  0
XRECORD
  5
1789
102
{ACAD_REACTORS
330
1788
102
}
330
1788
100
AcDbXrecord
280
     1
270
     1
271
     1
  0
XRECORD
  5
178D
102
{ACAD_REACTORS
330
1788
102
}
330
1788
100
AcDbXrecord
280
     1
270
     1
271
     1
  0
XRECORD
  5
178C
102
{ACAD_REACTORS
330
1788
102
}
330
1788
100
AcDbXrecord
280
     1
270
     1
271
     1
  0
XRECORD
  5
178E
102
{ACAD_REACTORS
330
1788
102
}
330
1788
100
AcDbXrecord
280
     1
270
     1
271
     1
  0
XRECORD
  5
178B
102
{ACAD_REACTORS
330
1788
102
}
330
1788
100
AcDbXrecord
280
     1
270
     1
271
     1
  0
XRECORD
  5
1B58
102
{ACAD_REACTORS
330
1780
102
}
330
1780
100
AcDbXrecord
280
     1
102
MATERIAL
148
0.0
149
0.0
149
0.0
 93
        0
 94
      127
282
     0
 72
     0
 77
     0
171
     0
175
     0
179
     0
273
     0
  0
XRECORD
  5
1782
102
{ACAD_REACTORS
330
1780
102
}
330
1780
100
AcDbXrecord
280
     1
270
     1
271
     1
  0
XRECORD
  5
1781
102
{ACAD_REACTORS
330
1780
102
}
330
1780
100
AcDbXrecord
280
     1
270
     1
271
     1
  0
XRECORD
  5
1785
102
{ACAD_REACTORS
330
1780
102
}
330
1780
100
AcDbXrecord
280
     1
270
     1
271
     1
  0
XRECORD
  5
1784
102
{ACAD_REACTORS
330
1780
102
}
330
1780
100
AcDbXrecord
280
     1
270
     1
271
     1
  0
XRECORD
  5
1786
102
{ACAD_REACTORS
330
1780
102
}
330
1780
100
AcDbXrecord
280
     1
270
     1
271
     1
  0
XRECORD
  5
1783
102
{ACAD_REACTORS
330
1780
102
}
330
1780
100
AcDbXrecord
280
     1
270
     1
271
     1
  0
XRECORD
  5
1B5A
102
{ACAD_REACTORS
330
1790
102
}
330
1790
100
AcDbXrecord
280
     1
102
MATERIAL
148
0.0
149
0.0
149
0.0
 93
        0
 94
      127
282
     0
 72
     0
 77
     0
171
     0
175
     0
179
     0
273
     0
  0
XRECORD
  5
1792
102
{ACAD_REACTORS
330
1790
102
}
330
1790
100
AcDbXrecord
280
     1
270
     1
271
     1
  0
XRECORD
  5
1791
102
{ACAD_REACTORS
330
1790
102
}
330
1790
100
AcDbXrecord
280
     1
270
     1
271
     1
  0
XRECORD
  5
1795
102
{ACAD_REACTORS
330
1790
102
}
330
1790
100
AcDbXrecord
280
     1
270
     1
271
     1
  0
XRECORD
  5
1794
102
{ACAD_REACTORS
330
1790
102
}
330
1790
100
AcDbXrecord
280
     1
270
     1
271
     1
  0
XRECORD
  5
1796
102
{ACAD_REACTORS
330
1790
102
}
330
1790
100
AcDbXrecord
280
     1
270
     1
271
     1
  0
XRECORD
  5
1793
102
{ACAD_REACTORS
330
1790
102
}
330
1790
100
AcDbXrecord
280
     1
270
     1
271
     1
  0
XRECORD
  5
1B8D
102
{ACAD_REACTORS
330
1B8C
102
}
330
1B8C
100
AcDbXrecord
280
     1
102
ACAD_ROUNDTRIP_2012_MLEADER_STYLE
298
     1
  0
XRECORD
  5
1B8F
102
{ACAD_REACTORS
330
1B8E
102
}
330
1B8E
100
AcDbXrecord
280
     1
102
DISPLAYNAME
  1
Metric50
102
FLAGS
 90
        0
  0
CELLSTYLEMAP
  5
1B4F
102
{ACAD_REACTORS
330
17E2
102
}
330
17E2
100
AcDbCellStyleMap
 90
        3
300
CELLSTYLE
  1
TABLEFORMAT_BEGIN
 90
        5
170
     1
 91
        0
 92
    32768
 62
   257
 93
        1
300
CONTENTFORMAT
  1
CONTENTFORMAT_BEGIN
 90
        0
 91
        0
 92
      512
 93
        0
300

 40
0.0
140
1.0
 94
        5
 62
     0
340
9
144
6.0
309
CONTENTFORMAT_END
171
     1
301
MARGIN
  1
CELLMARGIN_BEGIN
 40
1.5
 40
1.5
 40
1.5
 40
1.5
 40
4.5
 40
4.5
309
CELLMARGIN_END
 94
        6
 95
        1
302
GRIDFORMAT
  1
GRIDFORMAT_BEGIN
 90
        0
 91
        1
 62
     0
 92
       -2
340
0
 93
        0
 40
1.125
309
GRIDFORMAT_END
 95
        2
302
GRIDFORMAT
  1
GRIDFORMAT_BEGIN
 90
        0
 91
        1
 62
     0
 92
       -2
340
0
 93
        0
 40
1.125
309
GRIDFORMAT_END
 95
        4
302
GRIDFORMAT
  1
GRIDFORMAT_BEGIN
 90
        0
 91
        1
 62
     0
 92
       -2
340
0
 93
        0
 40
1.125
309
GRIDFORMAT_END
 95
        8
302
GRIDFORMAT
  1
GRIDFORMAT_BEGIN
 90
        0
 91
        1
 62
     0
 92
       -2
340
0
 93
        0
 40
1.125
309
GRIDFORMAT_END
 95
       16
302
GRIDFORMAT
  1
GRIDFORMAT_BEGIN
 90
        0
 91
        1
 62
     0
 92
       -2
340
0
 93
        0
 40
1.125
309
GRIDFORMAT_END
 95
       32
302
GRIDFORMAT
  1
GRIDFORMAT_BEGIN
 90
        0
 91
        1
 62
     0
 92
       -2
340
0
 93
        0
 40
1.125
309
GRIDFORMAT_END
309
TABLEFORMAT_END
  1
CELLSTYLE_BEGIN
 90
        1
 91
        1
300
_TITLE
309
CELLSTYLE_END
300
CELLSTYLE
  1
TABLEFORMAT_BEGIN
 90
        5
170
     1
 91
        0
 92
        0
 62
   257
 93
        1
300
CONTENTFORMAT
  1
CONTENTFORMAT_BEGIN
 90
        0
 91
        0
 92
      512
 93
        0
300

 40
0.0
140
1.0
 94
        5
 62
     0
340
9
144
4.5
309
CONTENTFORMAT_END
171
     1
301
MARGIN
  1
CELLMARGIN_BEGIN
 40
1.5
 40
1.5
 40
1.5
 40
1.5
 40
4.5
 40
4.5
309
CELLMARGIN_END
 94
        6
 95
        1
302
GRIDFORMAT
  1
GRIDFORMAT_BEGIN
 90
        0
 91
        1
 62
     0
 92
       -2
340
0
 93
        0
 40
1.125
309
GRIDFORMAT_END
 95
        2
302
GRIDFORMAT
  1
GRIDFORMAT_BEGIN
 90
        0
 91
        1
 62
     0
 92
       -2
340
0
 93
        0
 40
1.125
309
GRIDFORMAT_END
 95
        4
302
GRIDFORMAT
  1
GRIDFORMAT_BEGIN
 90
        0
 91
        1
 62
     0
 92
       -2
340
0
 93
        0
 40
1.125
309
GRIDFORMAT_END
 95
        8
302
GRIDFORMAT
  1
GRIDFORMAT_BEGIN
 90
        0
 91
        1
 62
     0
 92
       -2
340
0
 93
        0
 40
1.125
309
GRIDFORMAT_END
 95
       16
302
GRIDFORMAT
  1
GRIDFORMAT_BEGIN
 90
        0
 91
        1
 62
     0
 92
       -2
340
0
 93
        0
 40
1.125
309
GRIDFORMAT_END
 95
       32
302
GRIDFORMAT
  1
GRIDFORMAT_BEGIN
 90
        0
 91
        1
 62
     0
 92
       -2
340
0
 93
        0
 40
1.125
309
GRIDFORMAT_END
309
TABLEFORMAT_END
  1
CELLSTYLE_BEGIN
 90
        2
 91
        1
300
_HEADER
309
CELLSTYLE_END
300
CELLSTYLE
  1
TABLEFORMAT_BEGIN
 90
        5
170
     1
 91
        0
 92
        0
 62
   257
 93
        1
300
CONTENTFORMAT
  1
CONTENTFORMAT_BEGIN
 90
        0
 91
        0
 92
      512
 93
        0
300

 40
0.0
140
1.0
 94
        2
 62
     0
340
9
144
4.5
309
CONTENTFORMAT_END
171
     1
301
MARGIN
  1
CELLMARGIN_BEGIN
 40
1.5
 40
1.5
 40
1.5
 40
1.5
 40
4.5
 40
4.5
309
CELLMARGIN_END
 94
        6
 95
        1
302
GRIDFORMAT
  1
GRIDFORMAT_BEGIN
 90
        0
 91
        1
 62
     0
 92
       -2
340
0
 93
        0
 40
1.125
309
GRIDFORMAT_END
 95
        2
302
GRIDFORMAT
  1
GRIDFORMAT_BEGIN
 90
        0
 91
        1
 62
     0
 92
       -2
340
0
 93
        0
 40
1.125
309
GRIDFORMAT_END
 95
        4
302
GRIDFORMAT
  1
GRIDFORMAT_BEGIN
 90
        0
 91
        1
 62
     0
 92
       -2
340
0
 93
        0
 40
1.125
309
GRIDFORMAT_END
 95
        8
302
GRIDFORMAT
  1
GRIDFORMAT_BEGIN
 90
        0
 91
        1
 62
     0
 92
       -2
340
0
 93
        0
 40
1.125
309
GRIDFORMAT_END
 95
       16
302
GRIDFORMAT
  1
GRIDFORMAT_BEGIN
 90
        0
 91
        1
 62
     0
 92
       -2
340
0
 93
        0
 40
1.125
309
GRIDFORMAT_END
 95
       32
302
GRIDFORMAT
  1
GRIDFORMAT_BEGIN
 90
        0
 91
        1
 62
     0
 92
       -2
340
0
 93
        0
 40
1.125
309
GRIDFORMAT_END
309
TABLEFORMAT_END
  1
CELLSTYLE_BEGIN
 90
        3
 91
        2
300
_DATA
309
CELLSTYLE_END
  0
XRECORD
  5
1B8B
102
{ACAD_REACTORS
330
17E2
102
}
330
17E2
100
AcDbXrecord
280
     1
102
ACAD_ROUNDTRIP_PRE2007_TABLESTYLE
 90
      512
 91
        0
  1

 92
      512
 93
        0
  2

 94
      512
 95
        0
  3

  0
XRECORD
  5
1B66
102
{ACAD_REACTORS
330
1B65
102
}
330
1B65
100
AcDbXrecord
280
     1
102
RTVSPost2010Prop28
280
     1
102
RTVSPost2010PropOp28
 70
     1
102
RTVSPost2010Prop29
280
     1
102
RTVSPost2010PropOp29
 70
     1
102
RTVSPost2010Prop30
280
     0
102
RTVSPost2010PropOp30
 70
     1
102
RTVSPost2010Prop31
280
     0
102
RTVSPost2010PropOp31
 70
     1
102
RTVSPost2010Prop32
280
     0
102
RTVSPost2010PropOp32
 70
     1
102
RTVSPost2010Prop33
280
     0
102
RTVSPost2010PropOp33
 70
     1
102
RTVSPost2010Prop34
280
     0
102
RTVSPost2010PropOp34
 70
     1
102
RTVSPost2010Prop35
280
     0
102
RTVSPost2010PropOp35
 70
     1
102
RTVSPost2010Prop36
280
     0
102
RTVSPost2010PropOp36
 70
     1
102
RTVSPost2010Prop37
 90
       50
102
RTVSPost2010PropOp37
 70
     1
102
RTVSPost2010Prop38
140
0.0
102
RTVSPost2010PropOp38
 70
     1
102
RTVSPost2010Prop39
140
1.0
102
RTVSPost2010PropOp39
 70
     1
102
RTVSPost2010Prop40
 90
        0
102
RTVSPost2010PropOp40
 70
     1
102
RTVSPost2010Prop41ColorIndex
 90
       18
102
RTVSPost2010Prop41ColorRGB
 90
        0
102
RTVSPost2010PropOp41
 70
     1
102
RTVSPost2010Prop42
 90
       50
102
RTVSPost2010PropOp42
 70
     1
102
RTVSPost2010Prop43
 90
        3
102
RTVSPost2010PropOp43
 70
     1
102
RTVSPost2010Prop44ColorIndex
 90
        5
102
RTVSPost2010Prop44ColorRGB
 90
      255
102
RTVSPost2010PropOp44
 70
     1
102
RTVSPost2010Prop45
280
     0
102
RTVSPost2010PropOp45
 70
     1
102
RTVSPost2010Prop46
 90
       50
102
RTVSPost2010PropOp46
 70
     1
102
RTVSPost2010Prop47
 90
       50
102
RTVSPost2010PropOp47
 70
     1
102
RTVSPost2010Prop48
 90
       50
102
RTVSPost2010PropOp48
 70
     1
102
RTVSPost2010Prop49
280
     0
102
RTVSPost2010PropOp49
 70
     1
102
RTVSPost2010Prop50
 90
       50
102
RTVSPost2010PropOp50
 70
     1
102
RTVSPost2010Prop51ColorIndex
 90
      256
102
RTVSPost2010Prop51ColorRGB
 90
-16777216
102
RTVSPost2010PropOp51
 70
     0
102
RTVSPost2010Prop52
140
1.0
102
RTVSPost2010PropOp52
 70
     0
102
RTVSPost2010Prop53
 90
        2
102
RTVSPost2010PropOp53
 70
     1
102
RTVSPost2010Prop54
  1
strokes_ogs.tif
102
RTVSPost2010PropOp54
 70
     1
102
RTVSPost2010Prop55
280
     0
102
RTVSPost2010PropOp55
 70
     1
102
RTVSPost2010Prop56
140
1.0
102
RTVSPost2010PropOp56
 70
     1
102
RTVSPost2010Prop57
140
1.0
102
RTVSPost2010PropOp57
 70
     1
102
RTVSPropertyOp0
 70
     1
102
RTVSPropertyOp1
 70
     1
102
RTVSPropertyOp2
 70
     1
102
RTVSPropertyOp3
 70
     1
102
RTVSPropertyOp4
 70
     1
102
RTVSPropertyOp5
 70
     1
102
RTVSPropertyOp6
 70
     1
102
RTVSPropertyOp7
 70
     1
102
RTVSPropertyOp8
 70
     1
102
RTVSPropertyOp9
 70
     1
102
RTVSPropertyOp10
 70
     1
102
RTVSPropertyOp11
 70
     1
102
RTVSPropertyOp12
 70
     1
102
RTVSPropertyOp13
 70
     1
102
RTVSPropertyOp14
 70
     1
102
RTVSPropertyOp15
 70
     1
102
RTVSPropertyOp16
 70
     1
102
RTVSPropertyOp17
 70
     1
102
RTVSPropertyOp18
 70
     1
102
RTVSPropertyOp19
 70
     1
102
RTVSPropertyOp20
 70
     1
102
RTVSPropertyOp21
 70
     1
102
RTVSPropertyOp22
 70
     1
102
RTVSPropertyOp23
 70
     1
102
RTVSPropertyOp24
 70
     1
102
RTVSPropertyOp25
 70
     1
102
RTVSPropertyOp26
 70
     1
102
RTVSPropertyOp27
 70
     1
102
RTVSPropertyOp28
 70
     1
102
RTVSPropertyOp29
 70
     1
102
RTVSPropertyOp30
 70
     1
102
RTVSPropertyOp31
 70
     1
102
RTVSPropertyOp32
 70
     1
102
RTVSPropertyOp33
 70
     1
102
RTVSPropertyOp34
 70
     1
102
RTVSPropertyOp35
 70
     1
102
RTVSPropertyOp36
 70
     1
102
RTVSPropertyOp37
 70
     1
102
RTVSPropertyOp38
 70
     1
102
RTVSPropertyOp39
 70
     1
102
RTVSPropertyOp40
 70
     1
102
RTVSPropertyOp41
 70
     1
102
RTVSPropertyOp42
 70
     1
102
RTVSPropertyOp43
 70
     1
102
RTVSPropertyOp44
 70
     1
102
RTVSPropertyOp45
 70
     1
102
RTVSPropertyOp46
 70
     1
102
RTVSPropertyOp47
 70
     1
102
RTVSPropertyOp48
 70
     1
102
RTVSPropertyOp49
 70
     1
102
RTVSPropertyOp50
 70
     1
102
RTVSPropertyOp51
 70
     0
102
RTVSPropertyOp52
 70
     0
102
RTVSPropertyOp53
 70
     1
102
RTVSPropertyOp54
 70
     1
102
RTVSPropertyOp55
 70
     1
102
RTVSPropertyOp56
 70
     1
102
RTVSPropertyOp57
 70
     1
102
RTVSPropertyOp58
 70
     1
102
RTVSPropertyOp59
 70
     1
102
RTVSPropertyOp60
 70
     1
102
RTVSPropertyOp61
 70
     1
102
RTVSPropertyOp62
 70
     1
  0
XRECORD
  5
1B64
102
{ACAD_REACTORS
330
1B63
102
}
330
1B63
100
AcDbXrecord
280
     1
102
RTVSPost2010Prop28
280
     0
102
RTVSPost2010PropOp28
 70
     1
102
RTVSPost2010Prop29
280
     1
102
RTVSPost2010PropOp29
 70
     1
102
RTVSPost2010Prop30
280
     1
102
RTVSPost2010PropOp30
 70
     1
102
RTVSPost2010Prop31
280
     0
102
RTVSPost2010PropOp31
 70
     1
102
RTVSPost2010Prop32
280
     0
102
RTVSPost2010PropOp32
 70
     1
102
RTVSPost2010Prop33
280
     0
102
RTVSPost2010PropOp33
 70
     1
102
RTVSPost2010Prop34
280
     0
102
RTVSPost2010PropOp34
 70
     1
102
RTVSPost2010Prop35
280
     0
102
RTVSPost2010PropOp35
 70
     1
102
RTVSPost2010Prop36
280
     0
102
RTVSPost2010PropOp36
 70
     1
102
RTVSPost2010Prop37
 90
       50
102
RTVSPost2010PropOp37
 70
     1
102
RTVSPost2010Prop38
140
0.0
102
RTVSPost2010PropOp38
 70
     1
102
RTVSPost2010Prop39
140
1.0
102
RTVSPost2010PropOp39
 70
     1
102
RTVSPost2010Prop40
 90
        0
102
RTVSPost2010PropOp40
 70
     1
102
RTVSPost2010Prop41ColorIndex
 90
       18
102
RTVSPost2010Prop41ColorRGB
 90
        0
102
RTVSPost2010PropOp41
 70
     1
102
RTVSPost2010Prop42
 90
       50
102
RTVSPost2010PropOp42
 70
     1
102
RTVSPost2010Prop43
 90
        3
102
RTVSPost2010PropOp43
 70
     1
102
RTVSPost2010Prop44ColorIndex
 90
        5
102
RTVSPost2010Prop44ColorRGB
 90
      255
102
RTVSPost2010PropOp44
 70
     1
102
RTVSPost2010Prop45
280
     0
102
RTVSPost2010PropOp45
 70
     1
102
RTVSPost2010Prop46
 90
       50
102
RTVSPost2010PropOp46
 70
     1
102
RTVSPost2010Prop47
 90
       50
102
RTVSPost2010PropOp47
 70
     1
102
RTVSPost2010Prop48
 90
       50
102
RTVSPost2010PropOp48
 70
     1
102
RTVSPost2010Prop49
280
     0
102
RTVSPost2010PropOp49
 70
     1
102
RTVSPost2010Prop50
 90
       50
102
RTVSPost2010PropOp50
 70
     1
102
RTVSPost2010Prop51ColorIndex
 90
      256
102
RTVSPost2010Prop51ColorRGB
 90
-16777216
102
RTVSPost2010PropOp51
 70
     0
102
RTVSPost2010Prop52
140
1.0
102
RTVSPost2010PropOp52
 70
     0
102
RTVSPost2010Prop53
 90
        2
102
RTVSPost2010PropOp53
 70
     1
102
RTVSPost2010Prop54
  1
strokes_ogs.tif
102
RTVSPost2010PropOp54
 70
     1
102
RTVSPost2010Prop55
280
     0
102
RTVSPost2010PropOp55
 70
     1
102
RTVSPost2010Prop56
140
1.0
102
RTVSPost2010PropOp56
 70
     1
102
RTVSPost2010Prop57
140
1.0
102
RTVSPost2010PropOp57
 70
     1
102
RTVSPropertyOp0
 70
     1
102
RTVSPropertyOp1
 70
     1
102
RTVSPropertyOp2
 70
     1
102
RTVSPropertyOp3
 70
     1
102
RTVSPropertyOp4
 70
     1
102
RTVSPropertyOp5
 70
     1
102
RTVSPropertyOp6
 70
     1
102
RTVSPropertyOp7
 70
     1
102
RTVSPropertyOp8
 70
     1
102
RTVSPropertyOp9
 70
     1
102
RTVSPropertyOp10
 70
     1
102
RTVSPropertyOp11
 70
     1
102
RTVSPropertyOp12
 70
     1
102
RTVSPropertyOp13
 70
     1
102
RTVSPropertyOp14
 70
     1
102
RTVSPropertyOp15
 70
     1
102
RTVSPropertyOp16
 70
     1
102
RTVSPropertyOp17
 70
     1
102
RTVSPropertyOp18
 70
     1
102
RTVSPropertyOp19
 70
     1
102
RTVSPropertyOp20
 70
     1
102
RTVSPropertyOp21
 70
     1
102
RTVSPropertyOp22
 70
     1
102
RTVSPropertyOp23
 70
     1
102
RTVSPropertyOp24
 70
     1
102
RTVSPropertyOp25
 70
     1
102
RTVSPropertyOp26
 70
     1
102
RTVSPropertyOp27
 70
     1
102
RTVSPropertyOp28
 70
     1
102
RTVSPropertyOp29
 70
     1
102
RTVSPropertyOp30
 70
     1
102
RTVSPropertyOp31
 70
     1
102
RTVSPropertyOp32
 70
     1
102
RTVSPropertyOp33
 70
     1
102
RTVSPropertyOp34
 70
     1
102
RTVSPropertyOp35
 70
     1
102
RTVSPropertyOp36
 70
     1
102
RTVSPropertyOp37
 70
     1
102
RTVSPropertyOp38
 70
     1
102
RTVSPropertyOp39
 70
     1
102
RTVSPropertyOp40
 70
     1
102
RTVSPropertyOp41
 70
     1
102
RTVSPropertyOp42
 70
     1
102
RTVSPropertyOp43
 70
     1
102
RTVSPropertyOp44
 70
     1
102
RTVSPropertyOp45
 70
     1
102
RTVSPropertyOp46
 70
     1
102
RTVSPropertyOp47
 70
     1
102
RTVSPropertyOp48
 70
     1
102
RTVSPropertyOp49
 70
     1
102
RTVSPropertyOp50
 70
     1
102
RTVSPropertyOp51
 70
     0
102
RTVSPropertyOp52
 70
     0
102
RTVSPropertyOp53
 70
     1
102
RTVSPropertyOp54
 70
     1
102
RTVSPropertyOp55
 70
     1
102
RTVSPropertyOp56
 70
     1
102
RTVSPropertyOp57
 70
     1
102
RTVSPropertyOp58
 70
     1
102
RTVSPropertyOp59
 70
     1
102
RTVSPropertyOp60
 70
     1
102
RTVSPropertyOp61
 70
     1
102
RTVSPropertyOp62
 70
     1
  0
XRECORD
  5
1B72
102
{ACAD_REACTORS
330
1B71
102
}
330
1B71
100
AcDbXrecord
280
     1
102
RTVSPost2010Prop28
280
     0
102
RTVSPost2010PropOp28
 70
     1
102
RTVSPost2010Prop29
280
     1
102
RTVSPost2010PropOp29
 70
     1
102
RTVSPost2010Prop30
280
     1
102
RTVSPost2010PropOp30
 70
     1
102
RTVSPost2010Prop31
280
     0
102
RTVSPost2010PropOp31
 70
     1
102
RTVSPost2010Prop32
280
     0
102
RTVSPost2010PropOp32
 70
     1
102
RTVSPost2010Prop33
280
     0
102
RTVSPost2010PropOp33
 70
     1
102
RTVSPost2010Prop34
280
     0
102
RTVSPost2010PropOp34
 70
     1
102
RTVSPost2010Prop35
280
     0
102
RTVSPost2010PropOp35
 70
     1
102
RTVSPost2010Prop36
280
     0
102
RTVSPost2010PropOp36
 70
     1
102
RTVSPost2010Prop37
 90
       50
102
RTVSPost2010PropOp37
 70
     1
102
RTVSPost2010Prop38
140
0.0
102
RTVSPost2010PropOp38
 70
     1
102
RTVSPost2010Prop39
140
1.0
102
RTVSPost2010PropOp39
 70
     1
102
RTVSPost2010Prop40
 90
        0
102
RTVSPost2010PropOp40
 70
     1
102
RTVSPost2010Prop41ColorIndex
 90
       18
102
RTVSPost2010Prop41ColorRGB
 90
        0
102
RTVSPost2010PropOp41
 70
     1
102
RTVSPost2010Prop42
 90
       50
102
RTVSPost2010PropOp42
 70
     1
102
RTVSPost2010Prop43
 90
        3
102
RTVSPost2010PropOp43
 70
     1
102
RTVSPost2010Prop44ColorIndex
 90
        5
102
RTVSPost2010Prop44ColorRGB
 90
      255
102
RTVSPost2010PropOp44
 70
     1
102
RTVSPost2010Prop45
280
     0
102
RTVSPost2010PropOp45
 70
     1
102
RTVSPost2010Prop46
 90
       50
102
RTVSPost2010PropOp46
 70
     1
102
RTVSPost2010Prop47
 90
       50
102
RTVSPost2010PropOp47
 70
     1
102
RTVSPost2010Prop48
 90
       50
102
RTVSPost2010PropOp48
 70
     1
102
RTVSPost2010Prop49
280
     0
102
RTVSPost2010PropOp49
 70
     1
102
RTVSPost2010Prop50
 90
       50
102
RTVSPost2010PropOp50
 70
     1
102
RTVSPost2010Prop51ColorIndex
 90
      256
102
RTVSPost2010Prop51ColorRGB
 90
-16777216
102
RTVSPost2010PropOp51
 70
     0
102
RTVSPost2010Prop52
140
1.0
102
RTVSPost2010PropOp52
 70
     0
102
RTVSPost2010Prop53
 90
        2
102
RTVSPost2010PropOp53
 70
     1
102
RTVSPost2010Prop54
  1
strokes_ogs.tif
102
RTVSPost2010PropOp54
 70
     1
102
RTVSPost2010Prop55
280
     0
102
RTVSPost2010PropOp55
 70
     1
102
RTVSPost2010Prop56
140
1.0
102
RTVSPost2010PropOp56
 70
     1
102
RTVSPost2010Prop57
140
1.0
102
RTVSPost2010PropOp57
 70
     1
102
RTVSPropertyOp0
 70
     1
102
RTVSPropertyOp1
 70
     1
102
RTVSPropertyOp2
 70
     1
102
RTVSPropertyOp3
 70
     1
102
RTVSPropertyOp4
 70
     1
102
RTVSPropertyOp5
 70
     1
102
RTVSPropertyOp6
 70
     1
102
RTVSPropertyOp7
 70
     1
102
RTVSPropertyOp8
 70
     1
102
RTVSPropertyOp9
 70
     1
102
RTVSPropertyOp10
 70
     1
102
RTVSPropertyOp11
 70
     1
102
RTVSPropertyOp12
 70
     1
102
RTVSPropertyOp13
 70
     1
102
RTVSPropertyOp14
 70
     1
102
RTVSPropertyOp15
 70
     1
102
RTVSPropertyOp16
 70
     1
102
RTVSPropertyOp17
 70
     1
102
RTVSPropertyOp18
 70
     1
102
RTVSPropertyOp19
 70
     1
102
RTVSPropertyOp20
 70
     1
102
RTVSPropertyOp21
 70
     1
102
RTVSPropertyOp22
 70
     1
102
RTVSPropertyOp23
 70
     1
102
RTVSPropertyOp24
 70
     1
102
RTVSPropertyOp25
 70
     1
102
RTVSPropertyOp26
 70
     1
102
RTVSPropertyOp27
 70
     1
102
RTVSPropertyOp28
 70
     1
102
RTVSPropertyOp29
 70
     1
102
RTVSPropertyOp30
 70
     1
102
RTVSPropertyOp31
 70
     1
102
RTVSPropertyOp32
 70
     1
102
RTVSPropertyOp33
 70
     1
102
RTVSPropertyOp34
 70
     1
102
RTVSPropertyOp35
 70
     1
102
RTVSPropertyOp36
 70
     1
102
RTVSPropertyOp37
 70
     1
102
RTVSPropertyOp38
 70
     1
102
RTVSPropertyOp39
 70
     1
102
RTVSPropertyOp40
 70
     1
102
RTVSPropertyOp41
 70
     1
102
RTVSPropertyOp42
 70
     1
102
RTVSPropertyOp43
 70
     1
102
RTVSPropertyOp44
 70
     1
102
RTVSPropertyOp45
 70
     1
102
RTVSPropertyOp46
 70
     1
102
RTVSPropertyOp47
 70
     1
102
RTVSPropertyOp48
 70
     1
102
RTVSPropertyOp49
 70
     1
102
RTVSPropertyOp50
 70
     1
102
RTVSPropertyOp51
 70
     0
102
RTVSPropertyOp52
 70
     0
102
RTVSPropertyOp53
 70
     1
102
RTVSPropertyOp54
 70
     1
102
RTVSPropertyOp55
 70
     1
102
RTVSPropertyOp56
 70
     1
102
RTVSPropertyOp57
 70
     1
102
RTVSPropertyOp58
 70
     1
102
RTVSPropertyOp59
 70
     1
102
RTVSPropertyOp60
 70
     1
102
RTVSPropertyOp61
 70
     1
102
RTVSPropertyOp62
 70
     1
  0
XRECORD
  5
1B7A
102
{ACAD_REACTORS
330
1B79
102
}
330
1B79
100
AcDbXrecord
280
     1
102
RTVSPost2010Prop28
280
     0
102
RTVSPost2010PropOp28
 70
     1
102
RTVSPost2010Prop29
280
     1
102
RTVSPost2010PropOp29
 70
     1
102
RTVSPost2010Prop30
280
     1
102
RTVSPost2010PropOp30
 70
     1
102
RTVSPost2010Prop31
280
     0
102
RTVSPost2010PropOp31
 70
     1
102
RTVSPost2010Prop32
280
     0
102
RTVSPost2010PropOp32
 70
     1
102
RTVSPost2010Prop33
280
     0
102
RTVSPost2010PropOp33
 70
     1
102
RTVSPost2010Prop34
280
     0
102
RTVSPost2010PropOp34
 70
     1
102
RTVSPost2010Prop35
280
     0
102
RTVSPost2010PropOp35
 70
     1
102
RTVSPost2010Prop36
280
     0
102
RTVSPost2010PropOp36
 70
     1
102
RTVSPost2010Prop37
 90
       50
102
RTVSPost2010PropOp37
 70
     1
102
RTVSPost2010Prop38
140
0.0
102
RTVSPost2010PropOp38
 70
     1
102
RTVSPost2010Prop39
140
1.0
102
RTVSPost2010PropOp39
 70
     1
102
RTVSPost2010Prop40
 90
        0
102
RTVSPost2010PropOp40
 70
     1
102
RTVSPost2010Prop41ColorIndex
 90
       18
102
RTVSPost2010Prop41ColorRGB
 90
        0
102
RTVSPost2010PropOp41
 70
     1
102
RTVSPost2010Prop42
 90
       50
102
RTVSPost2010PropOp42
 70
     1
102
RTVSPost2010Prop43
 90
        3
102
RTVSPost2010PropOp43
 70
     1
102
RTVSPost2010Prop44ColorIndex
 90
        5
102
RTVSPost2010Prop44ColorRGB
 90
      255
102
RTVSPost2010PropOp44
 70
     1
102
RTVSPost2010Prop45
280
     0
102
RTVSPost2010PropOp45
 70
     1
102
RTVSPost2010Prop46
 90
       50
102
RTVSPost2010PropOp46
 70
     1
102
RTVSPost2010Prop47
 90
       50
102
RTVSPost2010PropOp47
 70
     1
102
RTVSPost2010Prop48
 90
       50
102
RTVSPost2010PropOp48
 70
     1
102
RTVSPost2010Prop49
280
     0
102
RTVSPost2010PropOp49
 70
     1
102
RTVSPost2010Prop50
 90
       50
102
RTVSPost2010PropOp50
 70
     1
102
RTVSPost2010Prop51ColorIndex
 90
      256
102
RTVSPost2010Prop51ColorRGB
 90
-16777216
102
RTVSPost2010PropOp51
 70
     0
102
RTVSPost2010Prop52
140
1.0
102
RTVSPost2010PropOp52
 70
     0
102
RTVSPost2010Prop53
 90
        2
102
RTVSPost2010PropOp53
 70
     1
102
RTVSPost2010Prop54
  1
strokes_ogs.tif
102
RTVSPost2010PropOp54
 70
     1
102
RTVSPost2010Prop55
280
     0
102
RTVSPost2010PropOp55
 70
     1
102
RTVSPost2010Prop56
140
1.0
102
RTVSPost2010PropOp56
 70
     1
102
RTVSPost2010Prop57
140
1.0
102
RTVSPost2010PropOp57
 70
     1
102
RTVSPropertyOp0
 70
     1
102
RTVSPropertyOp1
 70
     1
102
RTVSPropertyOp2
 70
     1
102
RTVSPropertyOp3
 70
     1
102
RTVSPropertyOp4
 70
     1
102
RTVSPropertyOp5
 70
     1
102
RTVSPropertyOp6
 70
     1
102
RTVSPropertyOp7
 70
     1
102
RTVSPropertyOp8
 70
     1
102
RTVSPropertyOp9
 70
     1
102
RTVSPropertyOp10
 70
     1
102
RTVSPropertyOp11
 70
     1
102
RTVSPropertyOp12
 70
     1
102
RTVSPropertyOp13
 70
     1
102
RTVSPropertyOp14
 70
     1
102
RTVSPropertyOp15
 70
     1
102
RTVSPropertyOp16
 70
     1
102
RTVSPropertyOp17
 70
     1
102
RTVSPropertyOp18
 70
     1
102
RTVSPropertyOp19
 70
     1
102
RTVSPropertyOp20
 70
     1
102
RTVSPropertyOp21
 70
     1
102
RTVSPropertyOp22
 70
     1
102
RTVSPropertyOp23
 70
     1
102
RTVSPropertyOp24
 70
     1
102
RTVSPropertyOp25
 70
     1
102
RTVSPropertyOp26
 70
     1
102
RTVSPropertyOp27
 70
     1
102
RTVSPropertyOp28
 70
     1
102
RTVSPropertyOp29
 70
     1
102
RTVSPropertyOp30
 70
     1
102
RTVSPropertyOp31
 70
     1
102
RTVSPropertyOp32
 70
     1
102
RTVSPropertyOp33
 70
     1
102
RTVSPropertyOp34
 70
     1
102
RTVSPropertyOp35
 70
     1
102
RTVSPropertyOp36
 70
     1
102
RTVSPropertyOp37
 70
     1
102
RTVSPropertyOp38
 70
     1
102
RTVSPropertyOp39
 70
     1
102
RTVSPropertyOp40
 70
     1
102
RTVSPropertyOp41
 70
     1
102
RTVSPropertyOp42
 70
     1
102
RTVSPropertyOp43
 70
     1
102
RTVSPropertyOp44
 70
     1
102
RTVSPropertyOp45
 70
     1
102
RTVSPropertyOp46
 70
     1
102
RTVSPropertyOp47
 70
     1
102
RTVSPropertyOp48
 70
     1
102
RTVSPropertyOp49
 70
     1
102
RTVSPropertyOp50
 70
     1
102
RTVSPropertyOp51
 70
     0
102
RTVSPropertyOp52
 70
     0
102
RTVSPropertyOp53
 70
     1
102
RTVSPropertyOp54
 70
     1
102
RTVSPropertyOp55
 70
     1
102
RTVSPropertyOp56
 70
     1
102
RTVSPropertyOp57
 70
     1
102
RTVSPropertyOp58
 70
     1
102
RTVSPropertyOp59
 70
     1
102
RTVSPropertyOp60
 70
     1
102
RTVSPropertyOp61
 70
     1
102
RTVSPropertyOp62
 70
     1
  0
XRECORD
  5
1B6C
102
{ACAD_REACTORS
330
1B6B
102
}
330
1B6B
100
AcDbXrecord
280
     1
102
RTVSPost2010Prop28
280
     0
102
RTVSPost2010PropOp28
 70
     1
102
RTVSPost2010Prop29
280
     1
102
RTVSPost2010PropOp29
 70
     1
102
RTVSPost2010Prop30
280
     1
102
RTVSPost2010PropOp30
 70
     1
102
RTVSPost2010Prop31
280
     0
102
RTVSPost2010PropOp31
 70
     1
102
RTVSPost2010Prop32
280
     0
102
RTVSPost2010PropOp32
 70
     1
102
RTVSPost2010Prop33
280
     0
102
RTVSPost2010PropOp33
 70
     1
102
RTVSPost2010Prop34
280
     0
102
RTVSPost2010PropOp34
 70
     1
102
RTVSPost2010Prop35
280
     0
102
RTVSPost2010PropOp35
 70
     1
102
RTVSPost2010Prop36
280
     0
102
RTVSPost2010PropOp36
 70
     1
102
RTVSPost2010Prop37
 90
       50
102
RTVSPost2010PropOp37
 70
     1
102
RTVSPost2010Prop38
140
0.0
102
RTVSPost2010PropOp38
 70
     1
102
RTVSPost2010Prop39
140
1.0
102
RTVSPost2010PropOp39
 70
     1
102
RTVSPost2010Prop40
 90
        0
102
RTVSPost2010PropOp40
 70
     1
102
RTVSPost2010Prop41ColorIndex
 90
       18
102
RTVSPost2010Prop41ColorRGB
 90
        0
102
RTVSPost2010PropOp41
 70
     1
102
RTVSPost2010Prop42
 90
       50
102
RTVSPost2010PropOp42
 70
     1
102
RTVSPost2010Prop43
 90
        3
102
RTVSPost2010PropOp43
 70
     1
102
RTVSPost2010Prop44ColorIndex
 90
        5
102
RTVSPost2010Prop44ColorRGB
 90
      255
102
RTVSPost2010PropOp44
 70
     1
102
RTVSPost2010Prop45
280
     0
102
RTVSPost2010PropOp45
 70
     1
102
RTVSPost2010Prop46
 90
       50
102
RTVSPost2010PropOp46
 70
     1
102
RTVSPost2010Prop47
 90
       50
102
RTVSPost2010PropOp47
 70
     1
102
RTVSPost2010Prop48
 90
       50
102
RTVSPost2010PropOp48
 70
     1
102
RTVSPost2010Prop49
280
     0
102
RTVSPost2010PropOp49
 70
     1
102
RTVSPost2010Prop50
 90
       50
102
RTVSPost2010PropOp50
 70
     1
102
RTVSPost2010Prop51ColorIndex
 90
      256
102
RTVSPost2010Prop51ColorRGB
 90
-16777216
102
RTVSPost2010PropOp51
 70
     0
102
RTVSPost2010Prop52
140
1.0
102
RTVSPost2010PropOp52
 70
     0
102
RTVSPost2010Prop53
 90
        2
102
RTVSPost2010PropOp53
 70
     1
102
RTVSPost2010Prop54
  1
strokes_ogs.tif
102
RTVSPost2010PropOp54
 70
     1
102
RTVSPost2010Prop55
280
     0
102
RTVSPost2010PropOp55
 70
     1
102
RTVSPost2010Prop56
140
1.0
102
RTVSPost2010PropOp56
 70
     1
102
RTVSPost2010Prop57
140
1.0
102
RTVSPost2010PropOp57
 70
     1
102
RTVSPropertyOp0
 70
     1
102
RTVSPropertyOp1
 70
     1
102
RTVSPropertyOp2
 70
     1
102
RTVSPropertyOp3
 70
     1
102
RTVSPropertyOp4
 70
     1
102
RTVSPropertyOp5
 70
     1
102
RTVSPropertyOp6
 70
     1
102
RTVSPropertyOp7
 70
     1
102
RTVSPropertyOp8
 70
     1
102
RTVSPropertyOp9
 70
     1
102
RTVSPropertyOp10
 70
     1
102
RTVSPropertyOp11
 70
     1
102
RTVSPropertyOp12
 70
     1
102
RTVSPropertyOp13
 70
     1
102
RTVSPropertyOp14
 70
     1
102
RTVSPropertyOp15
 70
     1
102
RTVSPropertyOp16
 70
     1
102
RTVSPropertyOp17
 70
     1
102
RTVSPropertyOp18
 70
     1
102
RTVSPropertyOp19
 70
     1
102
RTVSPropertyOp20
 70
     1
102
RTVSPropertyOp21
 70
     1
102
RTVSPropertyOp22
 70
     1
102
RTVSPropertyOp23
 70
     1
102
RTVSPropertyOp24
 70
     1
102
RTVSPropertyOp25
 70
     1
102
RTVSPropertyOp26
 70
     1
102
RTVSPropertyOp27
 70
     1
102
RTVSPropertyOp28
 70
     1
102
RTVSPropertyOp29
 70
     1
102
RTVSPropertyOp30
 70
     1
102
RTVSPropertyOp31
 70
     1
102
RTVSPropertyOp32
 70
     1
102
RTVSPropertyOp33
 70
     1
102
RTVSPropertyOp34
 70
     1
102
RTVSPropertyOp35
 70
     1
102
RTVSPropertyOp36
 70
     1
102
RTVSPropertyOp37
 70
     1
102
RTVSPropertyOp38
 70
     1
102
RTVSPropertyOp39
 70
     1
102
RTVSPropertyOp40
 70
     1
102
RTVSPropertyOp41
 70
     1
102
RTVSPropertyOp42
 70
     1
102
RTVSPropertyOp43
 70
     1
102
RTVSPropertyOp44
 70
     1
102
RTVSPropertyOp45
 70
     1
102
RTVSPropertyOp46
 70
     1
102
RTVSPropertyOp47
 70
     1
102
RTVSPropertyOp48
 70
     1
102
RTVSPropertyOp49
 70
     1
102
RTVSPropertyOp50
 70
     1
102
RTVSPropertyOp51
 70
     0
102
RTVSPropertyOp52
 70
     0
102
RTVSPropertyOp53
 70
     1
102
RTVSPropertyOp54
 70
     1
102
RTVSPropertyOp55
 70
     1
102
RTVSPropertyOp56
 70
     1
102
RTVSPropertyOp57
 70
     1
102
RTVSPropertyOp58
 70
     1
102
RTVSPropertyOp59
 70
     1
102
RTVSPropertyOp60
 70
     1
102
RTVSPropertyOp61
 70
     1
102
RTVSPropertyOp62
 70
     1
  0
XRECORD
  5
1B70
102
{ACAD_REACTORS
330
1B6F
102
}
330
1B6F
100
AcDbXrecord
280
     1
102
RTVSPost2010Prop28
280
     0
102
RTVSPost2010PropOp28
 70
     1
102
RTVSPost2010Prop29
280
     1
102
RTVSPost2010PropOp29
 70
     1
102
RTVSPost2010Prop30
280
     1
102
RTVSPost2010PropOp30
 70
     1
102
RTVSPost2010Prop31
280
     0
102
RTVSPost2010PropOp31
 70
     1
102
RTVSPost2010Prop32
280
     0
102
RTVSPost2010PropOp32
 70
     1
102
RTVSPost2010Prop33
280
     0
102
RTVSPost2010PropOp33
 70
     1
102
RTVSPost2010Prop34
280
     0
102
RTVSPost2010PropOp34
 70
     1
102
RTVSPost2010Prop35
280
     0
102
RTVSPost2010PropOp35
 70
     1
102
RTVSPost2010Prop36
280
     0
102
RTVSPost2010PropOp36
 70
     1
102
RTVSPost2010Prop37
 90
       50
102
RTVSPost2010PropOp37
 70
     1
102
RTVSPost2010Prop38
140
0.0
102
RTVSPost2010PropOp38
 70
     1
102
RTVSPost2010Prop39
140
1.0
102
RTVSPost2010PropOp39
 70
     1
102
RTVSPost2010Prop40
 90
        0
102
RTVSPost2010PropOp40
 70
     1
102
RTVSPost2010Prop41ColorIndex
 90
       18
102
RTVSPost2010Prop41ColorRGB
 90
        0
102
RTVSPost2010PropOp41
 70
     1
102
RTVSPost2010Prop42
 90
       50
102
RTVSPost2010PropOp42
 70
     1
102
RTVSPost2010Prop43
 90
        3
102
RTVSPost2010PropOp43
 70
     1
102
RTVSPost2010Prop44ColorIndex
 90
        5
102
RTVSPost2010Prop44ColorRGB
 90
      255
102
RTVSPost2010PropOp44
 70
     1
102
RTVSPost2010Prop45
280
     0
102
RTVSPost2010PropOp45
 70
     1
102
RTVSPost2010Prop46
 90
       50
102
RTVSPost2010PropOp46
 70
     1
102
RTVSPost2010Prop47
 90
       50
102
RTVSPost2010PropOp47
 70
     1
102
RTVSPost2010Prop48
 90
       50
102
RTVSPost2010PropOp48
 70
     1
102
RTVSPost2010Prop49
280
     0
102
RTVSPost2010PropOp49
 70
     1
102
RTVSPost2010Prop50
 90
       50
102
RTVSPost2010PropOp50
 70
     1
102
RTVSPost2010Prop51ColorIndex
 90
      256
102
RTVSPost2010Prop51ColorRGB
 90
-16777216
102
RTVSPost2010PropOp51
 70
     0
102
RTVSPost2010Prop52
140
1.0
102
RTVSPost2010PropOp52
 70
     0
102
RTVSPost2010Prop53
 90
        2
102
RTVSPost2010PropOp53
 70
     1
102
RTVSPost2010Prop54
  1
strokes_ogs.tif
102
RTVSPost2010PropOp54
 70
     1
102
RTVSPost2010Prop55
280
     0
102
RTVSPost2010PropOp55
 70
     1
102
RTVSPost2010Prop56
140
1.0
102
RTVSPost2010PropOp56
 70
     1
102
RTVSPost2010Prop57
140
1.0
102
RTVSPost2010PropOp57
 70
     1
102
RTVSPropertyOp0
 70
     1
102
RTVSPropertyOp1
 70
     1
102
RTVSPropertyOp2
 70
     1
102
RTVSPropertyOp3
 70
     1
102
RTVSPropertyOp4
 70
     1
102
RTVSPropertyOp5
 70
     1
102
RTVSPropertyOp6
 70
     1
102
RTVSPropertyOp7
 70
     1
102
RTVSPropertyOp8
 70
     1
102
RTVSPropertyOp9
 70
     1
102
RTVSPropertyOp10
 70
     1
102
RTVSPropertyOp11
 70
     1
102
RTVSPropertyOp12
 70
     1
102
RTVSPropertyOp13
 70
     1
102
RTVSPropertyOp14
 70
     1
102
RTVSPropertyOp15
 70
     1
102
RTVSPropertyOp16
 70
     1
102
RTVSPropertyOp17
 70
     1
102
RTVSPropertyOp18
 70
     1
102
RTVSPropertyOp19
 70
     1
102
RTVSPropertyOp20
 70
     1
102
RTVSPropertyOp21
 70
     1
102
RTVSPropertyOp22
 70
     1
102
RTVSPropertyOp23
 70
     1
102
RTVSPropertyOp24
 70
     1
102
RTVSPropertyOp25
 70
     1
102
RTVSPropertyOp26
 70
     1
102
RTVSPropertyOp27
 70
     1
102
RTVSPropertyOp28
 70
     1
102
RTVSPropertyOp29
 70
     1
102
RTVSPropertyOp30
 70
     1
102
RTVSPropertyOp31
 70
     1
102
RTVSPropertyOp32
 70
     1
102
RTVSPropertyOp33
 70
     1
102
RTVSPropertyOp34
 70
     1
102
RTVSPropertyOp35
 70
     1
102
RTVSPropertyOp36
 70
     1
102
RTVSPropertyOp37
 70
     1
102
RTVSPropertyOp38
 70
     1
102
RTVSPropertyOp39
 70
     1
102
RTVSPropertyOp40
 70
     1
102
RTVSPropertyOp41
 70
     1
102
RTVSPropertyOp42
 70
     1
102
RTVSPropertyOp43
 70
     1
102
RTVSPropertyOp44
 70
     1
102
RTVSPropertyOp45
 70
     1
102
RTVSPropertyOp46
 70
     1
102
RTVSPropertyOp47
 70
     1
102
RTVSPropertyOp48
 70
     1
102
RTVSPropertyOp49
 70
     1
102
RTVSPropertyOp50
 70
     1
102
RTVSPropertyOp51
 70
     0
102
RTVSPropertyOp52
 70
     0
102
RTVSPropertyOp53
 70
     1
102
RTVSPropertyOp54
 70
     1
102
RTVSPropertyOp55
 70
     1
102
RTVSPropertyOp56
 70
     1
102
RTVSPropertyOp57
 70
     1
102
RTVSPropertyOp58
 70
     1
102
RTVSPropertyOp59
 70
     1
102
RTVSPropertyOp60
 70
     1
102
RTVSPropertyOp61
 70
     1
102
RTVSPropertyOp62
 70
     1
  0
XRECORD
  5
1B8A
102
{ACAD_REACTORS
330
1B89
102
}
330
1B89
100
AcDbXrecord
280
     1
102
RTVSPost2010Prop28
280
     0
102
RTVSPost2010PropOp28
 70
     0
102
RTVSPost2010Prop29
280
     1
102
RTVSPost2010PropOp29
 70
     0
102
RTVSPost2010Prop30
280
     1
102
RTVSPost2010PropOp30
 70
     0
102
RTVSPost2010Prop31
280
     0
102
RTVSPost2010PropOp31
 70
     0
102
RTVSPost2010Prop32
280
     0
102
RTVSPost2010PropOp32
 70
     0
102
RTVSPost2010Prop33
280
     0
102
RTVSPost2010PropOp33
 70
     0
102
RTVSPost2010Prop34
280
     0
102
RTVSPost2010PropOp34
 70
     0
102
RTVSPost2010Prop35
280
     0
102
RTVSPost2010PropOp35
 70
     0
102
RTVSPost2010Prop36
280
     0
102
RTVSPost2010PropOp36
 70
     0
102
RTVSPost2010Prop37
 90
       50
102
RTVSPost2010PropOp37
 70
     0
102
RTVSPost2010Prop38
140
0.0
102
RTVSPost2010PropOp38
 70
     0
102
RTVSPost2010Prop39
140
1.0
102
RTVSPost2010PropOp39
 70
     0
102
RTVSPost2010Prop40
 90
        0
102
RTVSPost2010PropOp40
 70
     0
102
RTVSPost2010Prop41ColorIndex
 90
       18
102
RTVSPost2010Prop41ColorRGB
 90
        0
102
RTVSPost2010PropOp41
 70
     0
102
RTVSPost2010Prop42
 90
       50
102
RTVSPost2010PropOp42
 70
     0
102
RTVSPost2010Prop43
 90
        3
102
RTVSPost2010PropOp43
 70
     0
102
RTVSPost2010Prop44ColorIndex
 90
        5
102
RTVSPost2010Prop44ColorRGB
 90
      255
102
RTVSPost2010PropOp44
 70
     0
102
RTVSPost2010Prop45
280
     0
102
RTVSPost2010PropOp45
 70
     0
102
RTVSPost2010Prop46
 90
       50
102
RTVSPost2010PropOp46
 70
     0
102
RTVSPost2010Prop47
 90
       50
102
RTVSPost2010PropOp47
 70
     0
102
RTVSPost2010Prop48
 90
       50
102
RTVSPost2010PropOp48
 70
     0
102
RTVSPost2010Prop49
280
     0
102
RTVSPost2010PropOp49
 70
     0
102
RTVSPost2010Prop50
 90
       50
102
RTVSPost2010PropOp50
 70
     0
102
RTVSPost2010Prop51ColorIndex
 90
      256
102
RTVSPost2010Prop51ColorRGB
 90
-16777216
102
RTVSPost2010PropOp51
 70
     0
102
RTVSPost2010Prop52
140
1.0
102
RTVSPost2010PropOp52
 70
     0
102
RTVSPost2010Prop53
 90
        2
102
RTVSPost2010PropOp53
 70
     0
102
RTVSPost2010Prop54
  1
strokes_ogs.tif
102
RTVSPost2010PropOp54
 70
     0
102
RTVSPost2010Prop55
280
     0
102
RTVSPost2010PropOp55
 70
     0
102
RTVSPost2010Prop56
140
1.0
102
RTVSPost2010PropOp56
 70
     0
102
RTVSPost2010Prop57
140
1.0
102
RTVSPost2010PropOp57
 70
     0
102
RTVSPropertyOp0
 70
     0
102
RTVSPropertyOp1
 70
     0
102
RTVSPropertyOp2
 70
     0
102
RTVSPropertyOp3
 70
     0
102
RTVSPropertyOp4
 70
     0
102
RTVSPropertyOp5
 70
     0
102
RTVSPropertyOp6
 70
     0
102
RTVSPropertyOp7
 70
     0
102
RTVSPropertyOp8
 70
     0
102
RTVSPropertyOp9
 70
     0
102
RTVSPropertyOp10
 70
     0
102
RTVSPropertyOp11
 70
     0
102
RTVSPropertyOp12
 70
     0
102
RTVSPropertyOp13
 70
     0
102
RTVSPropertyOp14
 70
     2
102
RTVSPropertyOp15
 70
     0
102
RTVSPropertyOp16
 70
     0
102
RTVSPropertyOp17
 70
     0
102
RTVSPropertyOp18
 70
     0
102
RTVSPropertyOp19
 70
     0
102
RTVSPropertyOp20
 70
     0
102
RTVSPropertyOp21
 70
     0
102
RTVSPropertyOp22
 70
     0
102
RTVSPropertyOp23
 70
     0
102
RTVSPropertyOp24
 70
     0
102
RTVSPropertyOp25
 70
     0
102
RTVSPropertyOp26
 70
     0
102
RTVSPropertyOp27
 70
     0
102
RTVSPropertyOp28
 70
     0
102
RTVSPropertyOp29
 70
     0
102
RTVSPropertyOp30
 70
     0
102
RTVSPropertyOp31
 70
     0
102
RTVSPropertyOp32
 70
     0
102
RTVSPropertyOp33
 70
     0
102
RTVSPropertyOp34
 70
     0
102
RTVSPropertyOp35
 70
     0
102
RTVSPropertyOp36
 70
     0
102
RTVSPropertyOp37
 70
     0
102
RTVSPropertyOp38
 70
     0
102
RTVSPropertyOp39
 70
     0
102
RTVSPropertyOp40
 70
     0
102
RTVSPropertyOp41
 70
     0
102
RTVSPropertyOp42
 70
     0
102
RTVSPropertyOp43
 70
     0
102
RTVSPropertyOp44
 70
     0
102
RTVSPropertyOp45
 70
     0
102
RTVSPropertyOp46
 70
     0
102
RTVSPropertyOp47
 70
     0
102
RTVSPropertyOp48
 70
     0
102
RTVSPropertyOp49
 70
     0
102
RTVSPropertyOp50
 70
     0
102
RTVSPropertyOp51
 70
     0
102
RTVSPropertyOp52
 70
     0
102
RTVSPropertyOp53
 70
     0
102
RTVSPropertyOp54
 70
     0
102
RTVSPropertyOp55
 70
     0
102
RTVSPropertyOp56
 70
     0
102
RTVSPropertyOp57
 70
     0
102
RTVSPropertyOp58
 70
     0
102
RTVSPropertyOp59
 70
     0
102
RTVSPropertyOp60
 70
     0
102
RTVSPropertyOp61
 70
     0
102
RTVSPropertyOp62
 70
     0
  0
XRECORD
  5
1B78
102
{ACAD_REACTORS
330
1B77
102
}
330
1B77
100
AcDbXrecord
280
     1
102
RTVSPost2010Prop28
280
     0
102
RTVSPost2010PropOp28
 70
     1
102
RTVSPost2010Prop29
280
     1
102
RTVSPost2010PropOp29
 70
     1
102
RTVSPost2010Prop30
280
     1
102
RTVSPost2010PropOp30
 70
     1
102
RTVSPost2010Prop31
280
     0
102
RTVSPost2010PropOp31
 70
     1
102
RTVSPost2010Prop32
280
     0
102
RTVSPost2010PropOp32
 70
     1
102
RTVSPost2010Prop33
280
     0
102
RTVSPost2010PropOp33
 70
     1
102
RTVSPost2010Prop34
280
     0
102
RTVSPost2010PropOp34
 70
     1
102
RTVSPost2010Prop35
280
     0
102
RTVSPost2010PropOp35
 70
     1
102
RTVSPost2010Prop36
280
     0
102
RTVSPost2010PropOp36
 70
     1
102
RTVSPost2010Prop37
 90
       50
102
RTVSPost2010PropOp37
 70
     1
102
RTVSPost2010Prop38
140
0.0
102
RTVSPost2010PropOp38
 70
     1
102
RTVSPost2010Prop39
140
1.0
102
RTVSPost2010PropOp39
 70
     1
102
RTVSPost2010Prop40
 90
        0
102
RTVSPost2010PropOp40
 70
     1
102
RTVSPost2010Prop41ColorIndex
 90
       18
102
RTVSPost2010Prop41ColorRGB
 90
        0
102
RTVSPost2010PropOp41
 70
     1
102
RTVSPost2010Prop42
 90
       50
102
RTVSPost2010PropOp42
 70
     1
102
RTVSPost2010Prop43
 90
        3
102
RTVSPost2010PropOp43
 70
     1
102
RTVSPost2010Prop44ColorIndex
 90
        5
102
RTVSPost2010Prop44ColorRGB
 90
      255
102
RTVSPost2010PropOp44
 70
     1
102
RTVSPost2010Prop45
280
     0
102
RTVSPost2010PropOp45
 70
     1
102
RTVSPost2010Prop46
 90
       50
102
RTVSPost2010PropOp46
 70
     1
102
RTVSPost2010Prop47
 90
       50
102
RTVSPost2010PropOp47
 70
     1
102
RTVSPost2010Prop48
 90
       50
102
RTVSPost2010PropOp48
 70
     1
102
RTVSPost2010Prop49
280
     0
102
RTVSPost2010PropOp49
 70
     1
102
RTVSPost2010Prop50
 90
       50
102
RTVSPost2010PropOp50
 70
     1
102
RTVSPost2010Prop51ColorIndex
 90
      256
102
RTVSPost2010Prop51ColorRGB
 90
-16777216
102
RTVSPost2010PropOp51
 70
     0
102
RTVSPost2010Prop52
140
1.0
102
RTVSPost2010PropOp52
 70
     0
102
RTVSPost2010Prop53
 90
        2
102
RTVSPost2010PropOp53
 70
     1
102
RTVSPost2010Prop54
  1
strokes_ogs.tif
102
RTVSPost2010PropOp54
 70
     1
102
RTVSPost2010Prop55
280
     0
102
RTVSPost2010PropOp55
 70
     1
102
RTVSPost2010Prop56
140
1.0
102
RTVSPost2010PropOp56
 70
     1
102
RTVSPost2010Prop57
140
1.0
102
RTVSPost2010PropOp57
 70
     1
102
RTVSPropertyOp0
 70
     1
102
RTVSPropertyOp1
 70
     1
102
RTVSPropertyOp2
 70
     1
102
RTVSPropertyOp3
 70
     1
102
RTVSPropertyOp4
 70
     1
102
RTVSPropertyOp5
 70
     1
102
RTVSPropertyOp6
 70
     1
102
RTVSPropertyOp7
 70
     1
102
RTVSPropertyOp8
 70
     1
102
RTVSPropertyOp9
 70
     1
102
RTVSPropertyOp10
 70
     1
102
RTVSPropertyOp11
 70
     1
102
RTVSPropertyOp12
 70
     1
102
RTVSPropertyOp13
 70
     1
102
RTVSPropertyOp14
 70
     1
102
RTVSPropertyOp15
 70
     1
102
RTVSPropertyOp16
 70
     1
102
RTVSPropertyOp17
 70
     1
102
RTVSPropertyOp18
 70
     1
102
RTVSPropertyOp19
 70
     1
102
RTVSPropertyOp20
 70
     1
102
RTVSPropertyOp21
 70
     1
102
RTVSPropertyOp22
 70
     1
102
RTVSPropertyOp23
 70
     1
102
RTVSPropertyOp24
 70
     1
102
RTVSPropertyOp25
 70
     1
102
RTVSPropertyOp26
 70
     1
102
RTVSPropertyOp27
 70
     1
102
RTVSPropertyOp28
 70
     1
102
RTVSPropertyOp29
 70
     1
102
RTVSPropertyOp30
 70
     1
102
RTVSPropertyOp31
 70
     1
102
RTVSPropertyOp32
 70
     1
102
RTVSPropertyOp33
 70
     1
102
RTVSPropertyOp34
 70
     1
102
RTVSPropertyOp35
 70
     1
102
RTVSPropertyOp36
 70
     1
102
RTVSPropertyOp37
 70
     1
102
RTVSPropertyOp38
 70
     1
102
RTVSPropertyOp39
 70
     1
102
RTVSPropertyOp40
 70
     1
102
RTVSPropertyOp41
 70
     1
102
RTVSPropertyOp42
 70
     1
102
RTVSPropertyOp43
 70
     1
102
RTVSPropertyOp44
 70
     1
102
RTVSPropertyOp45
 70
     1
102
RTVSPropertyOp46
 70
     1
102
RTVSPropertyOp47
 70
     1
102
RTVSPropertyOp48
 70
     1
102
RTVSPropertyOp49
 70
     1
102
RTVSPropertyOp50
 70
     1
102
RTVSPropertyOp51
 70
     0
102
RTVSPropertyOp52
 70
     0
102
RTVSPropertyOp53
 70
     1
102
RTVSPropertyOp54
 70
     1
102
RTVSPropertyOp55
 70
     1
102
RTVSPropertyOp56
 70
     1
102
RTVSPropertyOp57
 70
     1
102
RTVSPropertyOp58
 70
     1
102
RTVSPropertyOp59
 70
     1
102
RTVSPropertyOp60
 70
     1
102
RTVSPropertyOp61
 70
     1
102
RTVSPropertyOp62
 70
     1
  0
XRECORD
  5
1B5C
102
{ACAD_REACTORS
330
1B5B
102
}
330
1B5B
100
AcDbXrecord
280
     1
102
RTVSPost2010Prop28
280
     0
102
RTVSPost2010PropOp28
 70
     1
102
RTVSPost2010Prop29
280
     1
102
RTVSPost2010PropOp29
 70
     1
102
RTVSPost2010Prop30
280
     1
102
RTVSPost2010PropOp30
 70
     1
102
RTVSPost2010Prop31
280
     0
102
RTVSPost2010PropOp31
 70
     1
102
RTVSPost2010Prop32
280
     0
102
RTVSPost2010PropOp32
 70
     1
102
RTVSPost2010Prop33
280
     0
102
RTVSPost2010PropOp33
 70
     1
102
RTVSPost2010Prop34
280
     0
102
RTVSPost2010PropOp34
 70
     1
102
RTVSPost2010Prop35
280
     0
102
RTVSPost2010PropOp35
 70
     1
102
RTVSPost2010Prop36
280
     0
102
RTVSPost2010PropOp36
 70
     1
102
RTVSPost2010Prop37
 90
       50
102
RTVSPost2010PropOp37
 70
     1
102
RTVSPost2010Prop38
140
0.0
102
RTVSPost2010PropOp38
 70
     1
102
RTVSPost2010Prop39
140
1.0
102
RTVSPost2010PropOp39
 70
     1
102
RTVSPost2010Prop40
 90
        0
102
RTVSPost2010PropOp40
 70
     1
102
RTVSPost2010Prop41ColorIndex
 90
       18
102
RTVSPost2010Prop41ColorRGB
 90
        0
102
RTVSPost2010PropOp41
 70
     1
102
RTVSPost2010Prop42
 90
       50
102
RTVSPost2010PropOp42
 70
     1
102
RTVSPost2010Prop43
 90
        3
102
RTVSPost2010PropOp43
 70
     1
102
RTVSPost2010Prop44ColorIndex
 90
        5
102
RTVSPost2010Prop44ColorRGB
 90
      255
102
RTVSPost2010PropOp44
 70
     1
102
RTVSPost2010Prop45
280
     0
102
RTVSPost2010PropOp45
 70
     1
102
RTVSPost2010Prop46
 90
       50
102
RTVSPost2010PropOp46
 70
     1
102
RTVSPost2010Prop47
 90
       50
102
RTVSPost2010PropOp47
 70
     1
102
RTVSPost2010Prop48
 90
       50
102
RTVSPost2010PropOp48
 70
     1
102
RTVSPost2010Prop49
280
     0
102
RTVSPost2010PropOp49
 70
     1
102
RTVSPost2010Prop50
 90
       50
102
RTVSPost2010PropOp50
 70
     1
102
RTVSPost2010Prop51ColorIndex
 90
      256
102
RTVSPost2010Prop51ColorRGB
 90
-16777216
102
RTVSPost2010PropOp51
 70
     0
102
RTVSPost2010Prop52
140
1.0
102
RTVSPost2010PropOp52
 70
     0
102
RTVSPost2010Prop53
 90
        2
102
RTVSPost2010PropOp53
 70
     1
102
RTVSPost2010Prop54
  1
strokes_ogs.tif
102
RTVSPost2010PropOp54
 70
     1
102
RTVSPost2010Prop55
280
     0
102
RTVSPost2010PropOp55
 70
     1
102
RTVSPost2010Prop56
140
1.0
102
RTVSPost2010PropOp56
 70
     1
102
RTVSPost2010Prop57
140
1.0
102
RTVSPost2010PropOp57
 70
     1
102
RTVSPropertyOp0
 70
     1
102
RTVSPropertyOp1
 70
     1
102
RTVSPropertyOp2
 70
     1
102
RTVSPropertyOp3
 70
     1
102
RTVSPropertyOp4
 70
     1
102
RTVSPropertyOp5
 70
     1
102
RTVSPropertyOp6
 70
     1
102
RTVSPropertyOp7
 70
     1
102
RTVSPropertyOp8
 70
     1
102
RTVSPropertyOp9
 70
     1
102
RTVSPropertyOp10
 70
     1
102
RTVSPropertyOp11
 70
     1
102
RTVSPropertyOp12
 70
     1
102
RTVSPropertyOp13
 70
     1
102
RTVSPropertyOp14
 70
     1
102
RTVSPropertyOp15
 70
     1
102
RTVSPropertyOp16
 70
     1
102
RTVSPropertyOp17
 70
     1
102
RTVSPropertyOp18
 70
     1
102
RTVSPropertyOp19
 70
     1
102
RTVSPropertyOp20
 70
     1
102
RTVSPropertyOp21
 70
     1
102
RTVSPropertyOp22
 70
     1
102
RTVSPropertyOp23
 70
     1
102
RTVSPropertyOp24
 70
     1
102
RTVSPropertyOp25
 70
     1
102
RTVSPropertyOp26
 70
     1
102
RTVSPropertyOp27
 70
     1
102
RTVSPropertyOp28
 70
     1
102
RTVSPropertyOp29
 70
     1
102
RTVSPropertyOp30
 70
     1
102
RTVSPropertyOp31
 70
     1
102
RTVSPropertyOp32
 70
     1
102
RTVSPropertyOp33
 70
     1
102
RTVSPropertyOp34
 70
     1
102
RTVSPropertyOp35
 70
     1
102
RTVSPropertyOp36
 70
     1
102
RTVSPropertyOp37
 70
     1
102
RTVSPropertyOp38
 70
     1
102
RTVSPropertyOp39
 70
     1
102
RTVSPropertyOp40
 70
     1
102
RTVSPropertyOp41
 70
     1
102
RTVSPropertyOp42
 70
     1
102
RTVSPropertyOp43
 70
     1
102
RTVSPropertyOp44
 70
     1
102
RTVSPropertyOp45
 70
     1
102
RTVSPropertyOp46
 70
     1
102
RTVSPropertyOp47
 70
     1
102
RTVSPropertyOp48
 70
     1
102
RTVSPropertyOp49
 70
     1
102
RTVSPropertyOp50
 70
     1
102
RTVSPropertyOp51
 70
     0
102
RTVSPropertyOp52
 70
     0
102
RTVSPropertyOp53
 70
     1
102
RTVSPropertyOp54
 70
     1
102
RTVSPropertyOp55
 70
     1
102
RTVSPropertyOp56
 70
     1
102
RTVSPropertyOp57
 70
     1
102
RTVSPropertyOp58
 70
     1
102
RTVSPropertyOp59
 70
     1
102
RTVSPropertyOp60
 70
     1
102
RTVSPropertyOp61
 70
     1
102
RTVSPropertyOp62
 70
     1
  0
XRECORD
  5
1B5E
102
{ACAD_REACTORS
330
1B5D
102
}
330
1B5D
100
AcDbXrecord
280
     1
102
RTVSPost2010Prop28
280
     0
102
RTVSPost2010PropOp28
 70
     1
102
RTVSPost2010Prop29
280
     1
102
RTVSPost2010PropOp29
 70
     1
102
RTVSPost2010Prop30
280
     1
102
RTVSPost2010PropOp30
 70
     1
102
RTVSPost2010Prop31
280
     0
102
RTVSPost2010PropOp31
 70
     1
102
RTVSPost2010Prop32
280
     0
102
RTVSPost2010PropOp32
 70
     1
102
RTVSPost2010Prop33
280
     0
102
RTVSPost2010PropOp33
 70
     1
102
RTVSPost2010Prop34
280
     0
102
RTVSPost2010PropOp34
 70
     1
102
RTVSPost2010Prop35
280
     0
102
RTVSPost2010PropOp35
 70
     1
102
RTVSPost2010Prop36
280
     0
102
RTVSPost2010PropOp36
 70
     1
102
RTVSPost2010Prop37
 90
       50
102
RTVSPost2010PropOp37
 70
     1
102
RTVSPost2010Prop38
140
0.0
102
RTVSPost2010PropOp38
 70
     1
102
RTVSPost2010Prop39
140
1.0
102
RTVSPost2010PropOp39
 70
     1
102
RTVSPost2010Prop40
 90
        0
102
RTVSPost2010PropOp40
 70
     1
102
RTVSPost2010Prop41ColorIndex
 90
       18
102
RTVSPost2010Prop41ColorRGB
 90
        0
102
RTVSPost2010PropOp41
 70
     1
102
RTVSPost2010Prop42
 90
       50
102
RTVSPost2010PropOp42
 70
     1
102
RTVSPost2010Prop43
 90
        3
102
RTVSPost2010PropOp43
 70
     1
102
RTVSPost2010Prop44ColorIndex
 90
        5
102
RTVSPost2010Prop44ColorRGB
 90
      255
102
RTVSPost2010PropOp44
 70
     1
102
RTVSPost2010Prop45
280
     0
102
RTVSPost2010PropOp45
 70
     1
102
RTVSPost2010Prop46
 90
       50
102
RTVSPost2010PropOp46
 70
     1
102
RTVSPost2010Prop47
 90
       50
102
RTVSPost2010PropOp47
 70
     1
102
RTVSPost2010Prop48
 90
       50
102
RTVSPost2010PropOp48
 70
     1
102
RTVSPost2010Prop49
280
     0
102
RTVSPost2010PropOp49
 70
     1
102
RTVSPost2010Prop50
 90
       50
102
RTVSPost2010PropOp50
 70
     1
102
RTVSPost2010Prop51ColorIndex
 90
      256
102
RTVSPost2010Prop51ColorRGB
 90
-16777216
102
RTVSPost2010PropOp51
 70
     0
102
RTVSPost2010Prop52
140
1.0
102
RTVSPost2010PropOp52
 70
     0
102
RTVSPost2010Prop53
 90
        2
102
RTVSPost2010PropOp53
 70
     1
102
RTVSPost2010Prop54
  1
strokes_ogs.tif
102
RTVSPost2010PropOp54
 70
     1
102
RTVSPost2010Prop55
280
     0
102
RTVSPost2010PropOp55
 70
     1
102
RTVSPost2010Prop56
140
1.0
102
RTVSPost2010PropOp56
 70
     1
102
RTVSPost2010Prop57
140
1.0
102
RTVSPost2010PropOp57
 70
     1
102
RTVSPropertyOp0
 70
     1
102
RTVSPropertyOp1
 70
     1
102
RTVSPropertyOp2
 70
     1
102
RTVSPropertyOp3
 70
     1
102
RTVSPropertyOp4
 70
     1
102
RTVSPropertyOp5
 70
     1
102
RTVSPropertyOp6
 70
     1
102
RTVSPropertyOp7
 70
     1
102
RTVSPropertyOp8
 70
     1
102
RTVSPropertyOp9
 70
     1
102
RTVSPropertyOp10
 70
     1
102
RTVSPropertyOp11
 70
     1
102
RTVSPropertyOp12
 70
     1
102
RTVSPropertyOp13
 70
     1
102
RTVSPropertyOp14
 70
     1
102
RTVSPropertyOp15
 70
     1
102
RTVSPropertyOp16
 70
     1
102
RTVSPropertyOp17
 70
     1
102
RTVSPropertyOp18
 70
     1
102
RTVSPropertyOp19
 70
     1
102
RTVSPropertyOp20
 70
     1
102
RTVSPropertyOp21
 70
     1
102
RTVSPropertyOp22
 70
     1
102
RTVSPropertyOp23
 70
     1
102
RTVSPropertyOp24
 70
     1
102
RTVSPropertyOp25
 70
     1
102
RTVSPropertyOp26
 70
     1
102
RTVSPropertyOp27
 70
     1
102
RTVSPropertyOp28
 70
     1
102
RTVSPropertyOp29
 70
     1
102
RTVSPropertyOp30
 70
     1
102
RTVSPropertyOp31
 70
     1
102
RTVSPropertyOp32
 70
     1
102
RTVSPropertyOp33
 70
     1
102
RTVSPropertyOp34
 70
     1
102
RTVSPropertyOp35
 70
     1
102
RTVSPropertyOp36
 70
     1
102
RTVSPropertyOp37
 70
     1
102
RTVSPropertyOp38
 70
     1
102
RTVSPropertyOp39
 70
     1
102
RTVSPropertyOp40
 70
     1
102
RTVSPropertyOp41
 70
     1
102
RTVSPropertyOp42
 70
     1
102
RTVSPropertyOp43
 70
     1
102
RTVSPropertyOp44
 70
     1
102
RTVSPropertyOp45
 70
     1
102
RTVSPropertyOp46
 70
     1
102
RTVSPropertyOp47
 70
     1
102
RTVSPropertyOp48
 70
     1
102
RTVSPropertyOp49
 70
     1
102
RTVSPropertyOp50
 70
     1
102
RTVSPropertyOp51
 70
     0
102
RTVSPropertyOp52
 70
     0
102
RTVSPropertyOp53
 70
     1
102
RTVSPropertyOp54
 70
     1
102
RTVSPropertyOp55
 70
     1
102
RTVSPropertyOp56
 70
     1
102
RTVSPropertyOp57
 70
     1
102
RTVSPropertyOp58
 70
     1
102
RTVSPropertyOp59
 70
     1
102
RTVSPropertyOp60
 70
     1
102
RTVSPropertyOp61
 70
     1
102
RTVSPropertyOp62
 70
     1
  0
XRECORD
  5
1B60
102
{ACAD_REACTORS
330
1B5F
102
}
330
1B5F
100
AcDbXrecord
280
     1
102
RTVSPost2010Prop28
280
     0
102
RTVSPost2010PropOp28
 70
     1
102
RTVSPost2010Prop29
280
     1
102
RTVSPost2010PropOp29
 70
     1
102
RTVSPost2010Prop30
280
     1
102
RTVSPost2010PropOp30
 70
     1
102
RTVSPost2010Prop31
280
     0
102
RTVSPost2010PropOp31
 70
     1
102
RTVSPost2010Prop32
280
     0
102
RTVSPost2010PropOp32
 70
     1
102
RTVSPost2010Prop33
280
     0
102
RTVSPost2010PropOp33
 70
     1
102
RTVSPost2010Prop34
280
     0
102
RTVSPost2010PropOp34
 70
     1
102
RTVSPost2010Prop35
280
     0
102
RTVSPost2010PropOp35
 70
     1
102
RTVSPost2010Prop36
280
     0
102
RTVSPost2010PropOp36
 70
     1
102
RTVSPost2010Prop37
 90
       50
102
RTVSPost2010PropOp37
 70
     1
102
RTVSPost2010Prop38
140
0.0
102
RTVSPost2010PropOp38
 70
     1
102
RTVSPost2010Prop39
140
1.0
102
RTVSPost2010PropOp39
 70
     1
102
RTVSPost2010Prop40
 90
        0
102
RTVSPost2010PropOp40
 70
     1
102
RTVSPost2010Prop41ColorIndex
 90
       18
102
RTVSPost2010Prop41ColorRGB
 90
        0
102
RTVSPost2010PropOp41
 70
     1
102
RTVSPost2010Prop42
 90
       50
102
RTVSPost2010PropOp42
 70
     1
102
RTVSPost2010Prop43
 90
        3
102
RTVSPost2010PropOp43
 70
     1
102
RTVSPost2010Prop44ColorIndex
 90
        5
102
RTVSPost2010Prop44ColorRGB
 90
      255
102
RTVSPost2010PropOp44
 70
     1
102
RTVSPost2010Prop45
280
     0
102
RTVSPost2010PropOp45
 70
     1
102
RTVSPost2010Prop46
 90
       50
102
RTVSPost2010PropOp46
 70
     1
102
RTVSPost2010Prop47
 90
       50
102
RTVSPost2010PropOp47
 70
     1
102
RTVSPost2010Prop48
 90
       50
102
RTVSPost2010PropOp48
 70
     1
102
RTVSPost2010Prop49
280
     0
102
RTVSPost2010PropOp49
 70
     1
102
RTVSPost2010Prop50
 90
       50
102
RTVSPost2010PropOp50
 70
     1
102
RTVSPost2010Prop51ColorIndex
 90
      256
102
RTVSPost2010Prop51ColorRGB
 90
-16777216
102
RTVSPost2010PropOp51
 70
     0
102
RTVSPost2010Prop52
140
1.0
102
RTVSPost2010PropOp52
 70
     0
102
RTVSPost2010Prop53
 90
        2
102
RTVSPost2010PropOp53
 70
     1
102
RTVSPost2010Prop54
  1
strokes_ogs.tif
102
RTVSPost2010PropOp54
 70
     1
102
RTVSPost2010Prop55
280
     0
102
RTVSPost2010PropOp55
 70
     1
102
RTVSPost2010Prop56
140
1.0
102
RTVSPost2010PropOp56
 70
     1
102
RTVSPost2010Prop57
140
1.0
102
RTVSPost2010PropOp57
 70
     1
102
RTVSPropertyOp0
 70
     1
102
RTVSPropertyOp1
 70
     1
102
RTVSPropertyOp2
 70
     1
102
RTVSPropertyOp3
 70
     1
102
RTVSPropertyOp4
 70
     1
102
RTVSPropertyOp5
 70
     1
102
RTVSPropertyOp6
 70
     1
102
RTVSPropertyOp7
 70
     1
102
RTVSPropertyOp8
 70
     1
102
RTVSPropertyOp9
 70
     1
102
RTVSPropertyOp10
 70
     1
102
RTVSPropertyOp11
 70
     1
102
RTVSPropertyOp12
 70
     1
102
RTVSPropertyOp13
 70
     1
102
RTVSPropertyOp14
 70
     1
102
RTVSPropertyOp15
 70
     1
102
RTVSPropertyOp16
 70
     1
102
RTVSPropertyOp17
 70
     1
102
RTVSPropertyOp18
 70
     1
102
RTVSPropertyOp19
 70
     1
102
RTVSPropertyOp20
 70
     1
102
RTVSPropertyOp21
 70
     1
102
RTVSPropertyOp22
 70
     1
102
RTVSPropertyOp23
 70
     1
102
RTVSPropertyOp24
 70
     1
102
RTVSPropertyOp25
 70
     1
102
RTVSPropertyOp26
 70
     1
102
RTVSPropertyOp27
 70
     1
102
RTVSPropertyOp28
 70
     1
102
RTVSPropertyOp29
 70
     1
102
RTVSPropertyOp30
 70
     1
102
RTVSPropertyOp31
 70
     1
102
RTVSPropertyOp32
 70
     1
102
RTVSPropertyOp33
 70
     1
102
RTVSPropertyOp34
 70
     1
102
RTVSPropertyOp35
 70
     1
102
RTVSPropertyOp36
 70
     1
102
RTVSPropertyOp37
 70
     1
102
RTVSPropertyOp38
 70
     1
102
RTVSPropertyOp39
 70
     1
102
RTVSPropertyOp40
 70
     1
102
RTVSPropertyOp41
 70
     1
102
RTVSPropertyOp42
 70
     1
102
RTVSPropertyOp43
 70
     1
102
RTVSPropertyOp44
 70
     1
102
RTVSPropertyOp45
 70
     1
102
RTVSPropertyOp46
 70
     1
102
RTVSPropertyOp47
 70
     1
102
RTVSPropertyOp48
 70
     1
102
RTVSPropertyOp49
 70
     1
102
RTVSPropertyOp50
 70
     1
102
RTVSPropertyOp51
 70
     0
102
RTVSPropertyOp52
 70
     0
102
RTVSPropertyOp53
 70
     1
102
RTVSPropertyOp54
 70
     1
102
RTVSPropertyOp55
 70
     1
102
RTVSPropertyOp56
 70
     1
102
RTVSPropertyOp57
 70
     1
102
RTVSPropertyOp58
 70
     1
102
RTVSPropertyOp59
 70
     1
102
RTVSPropertyOp60
 70
     1
102
RTVSPropertyOp61
 70
     1
102
RTVSPropertyOp62
 70
     1
  0
XRECORD
  5
1B62
102
{ACAD_REACTORS
330
1B61
102
}
330
1B61
100
AcDbXrecord
280
     1
102
RTVSPost2010Prop28
280
     0
102
RTVSPost2010PropOp28
 70
     1
102
RTVSPost2010Prop29
280
     1
102
RTVSPost2010PropOp29
 70
     1
102
RTVSPost2010Prop30
280
     1
102
RTVSPost2010PropOp30
 70
     1
102
RTVSPost2010Prop31
280
     0
102
RTVSPost2010PropOp31
 70
     1
102
RTVSPost2010Prop32
280
     0
102
RTVSPost2010PropOp32
 70
     1
102
RTVSPost2010Prop33
280
     0
102
RTVSPost2010PropOp33
 70
     1
102
RTVSPost2010Prop34
280
     0
102
RTVSPost2010PropOp34
 70
     1
102
RTVSPost2010Prop35
280
     0
102
RTVSPost2010PropOp35
 70
     1
102
RTVSPost2010Prop36
280
     0
102
RTVSPost2010PropOp36
 70
     1
102
RTVSPost2010Prop37
 90
       50
102
RTVSPost2010PropOp37
 70
     1
102
RTVSPost2010Prop38
140
0.0
102
RTVSPost2010PropOp38
 70
     1
102
RTVSPost2010Prop39
140
1.0
102
RTVSPost2010PropOp39
 70
     1
102
RTVSPost2010Prop40
 90
        0
102
RTVSPost2010PropOp40
 70
     1
102
RTVSPost2010Prop41ColorIndex
 90
       18
102
RTVSPost2010Prop41ColorRGB
 90
        0
102
RTVSPost2010PropOp41
 70
     1
102
RTVSPost2010Prop42
 90
       50
102
RTVSPost2010PropOp42
 70
     1
102
RTVSPost2010Prop43
 90
        3
102
RTVSPost2010PropOp43
 70
     1
102
RTVSPost2010Prop44ColorIndex
 90
        5
102
RTVSPost2010Prop44ColorRGB
 90
      255
102
RTVSPost2010PropOp44
 70
     1
102
RTVSPost2010Prop45
280
     0
102
RTVSPost2010PropOp45
 70
     1
102
RTVSPost2010Prop46
 90
       50
102
RTVSPost2010PropOp46
 70
     1
102
RTVSPost2010Prop47
 90
       50
102
RTVSPost2010PropOp47
 70
     1
102
RTVSPost2010Prop48
 90
       50
102
RTVSPost2010PropOp48
 70
     1
102
RTVSPost2010Prop49
280
     0
102
RTVSPost2010PropOp49
 70
     1
102
RTVSPost2010Prop50
 90
       50
102
RTVSPost2010PropOp50
 70
     1
102
RTVSPost2010Prop51ColorIndex
 90
      256
102
RTVSPost2010Prop51ColorRGB
 90
-16777216
102
RTVSPost2010PropOp51
 70
     0
102
RTVSPost2010Prop52
140
1.0
102
RTVSPost2010PropOp52
 70
     0
102
RTVSPost2010Prop53
 90
        2
102
RTVSPost2010PropOp53
 70
     1
102
RTVSPost2010Prop54
  1
strokes_ogs.tif
102
RTVSPost2010PropOp54
 70
     1
102
RTVSPost2010Prop55
280
     0
102
RTVSPost2010PropOp55
 70
     1
102
RTVSPost2010Prop56
140
1.0
102
RTVSPost2010PropOp56
 70
     1
102
RTVSPost2010Prop57
140
1.0
102
RTVSPost2010PropOp57
 70
     1
102
RTVSPropertyOp0
 70
     1
102
RTVSPropertyOp1
 70
     1
102
RTVSPropertyOp2
 70
     1
102
RTVSPropertyOp3
 70
     1
102
RTVSPropertyOp4
 70
     1
102
RTVSPropertyOp5
 70
     1
102
RTVSPropertyOp6
 70
     1
102
RTVSPropertyOp7
 70
     1
102
RTVSPropertyOp8
 70
     1
102
RTVSPropertyOp9
 70
     1
102
RTVSPropertyOp10
 70
     1
102
RTVSPropertyOp11
 70
     1
102
RTVSPropertyOp12
 70
     1
102
RTVSPropertyOp13
 70
     1
102
RTVSPropertyOp14
 70
     1
102
RTVSPropertyOp15
 70
     1
102
RTVSPropertyOp16
 70
     1
102
RTVSPropertyOp17
 70
     1
102
RTVSPropertyOp18
 70
     1
102
RTVSPropertyOp19
 70
     1
102
RTVSPropertyOp20
 70
     1
102
RTVSPropertyOp21
 70
     1
102
RTVSPropertyOp22
 70
     1
102
RTVSPropertyOp23
 70
     1
102
RTVSPropertyOp24
 70
     1
102
RTVSPropertyOp25
 70
     1
102
RTVSPropertyOp26
 70
     1
102
RTVSPropertyOp27
 70
     1
102
RTVSPropertyOp28
 70
     1
102
RTVSPropertyOp29
 70
     1
102
RTVSPropertyOp30
 70
     1
102
RTVSPropertyOp31
 70
     1
102
RTVSPropertyOp32
 70
     1
102
RTVSPropertyOp33
 70
     1
102
RTVSPropertyOp34
 70
     1
102
RTVSPropertyOp35
 70
     1
102
RTVSPropertyOp36
 70
     1
102
RTVSPropertyOp37
 70
     1
102
RTVSPropertyOp38
 70
     1
102
RTVSPropertyOp39
 70
     1
102
RTVSPropertyOp40
 70
     1
102
RTVSPropertyOp41
 70
     1
102
RTVSPropertyOp42
 70
     1
102
RTVSPropertyOp43
 70
     1
102
RTVSPropertyOp44
 70
     1
102
RTVSPropertyOp45
 70
     1
102
RTVSPropertyOp46
 70
     1
102
RTVSPropertyOp47
 70
     1
102
RTVSPropertyOp48
 70
     1
102
RTVSPropertyOp49
 70
     1
102
RTVSPropertyOp50
 70
     1
102
RTVSPropertyOp51
 70
     0
102
RTVSPropertyOp52
 70
     0
102
RTVSPropertyOp53
 70
     1
102
RTVSPropertyOp54
 70
     1
102
RTVSPropertyOp55
 70
     1
102
RTVSPropertyOp56
 70
     1
102
RTVSPropertyOp57
 70
     1
102
RTVSPropertyOp58
 70
     1
102
RTVSPropertyOp59
 70
     1
102
RTVSPropertyOp60
 70
     1
102
RTVSPropertyOp61
 70
     1
102
RTVSPropertyOp62
 70
     1
  0
XRECORD
  5
1B6A
102
{ACAD_REACTORS
330
1B69
102
}
330
1B69
100
AcDbXrecord
280
     1
102
RTVSPost2010Prop28
280
     0
102
RTVSPost2010PropOp28
 70
     1
102
RTVSPost2010Prop29
280
     1
102
RTVSPost2010PropOp29
 70
     1
102
RTVSPost2010Prop30
280
     1
102
RTVSPost2010PropOp30
 70
     1
102
RTVSPost2010Prop31
280
     0
102
RTVSPost2010PropOp31
 70
     1
102
RTVSPost2010Prop32
280
     0
102
RTVSPost2010PropOp32
 70
     1
102
RTVSPost2010Prop33
280
     0
102
RTVSPost2010PropOp33
 70
     1
102
RTVSPost2010Prop34
280
     0
102
RTVSPost2010PropOp34
 70
     1
102
RTVSPost2010Prop35
280
     0
102
RTVSPost2010PropOp35
 70
     1
102
RTVSPost2010Prop36
280
     0
102
RTVSPost2010PropOp36
 70
     1
102
RTVSPost2010Prop37
 90
       50
102
RTVSPost2010PropOp37
 70
     1
102
RTVSPost2010Prop38
140
0.0
102
RTVSPost2010PropOp38
 70
     1
102
RTVSPost2010Prop39
140
1.0
102
RTVSPost2010PropOp39
 70
     1
102
RTVSPost2010Prop40
 90
        0
102
RTVSPost2010PropOp40
 70
     1
102
RTVSPost2010Prop41ColorIndex
 90
       18
102
RTVSPost2010Prop41ColorRGB
 90
        0
102
RTVSPost2010PropOp41
 70
     1
102
RTVSPost2010Prop42
 90
       50
102
RTVSPost2010PropOp42
 70
     1
102
RTVSPost2010Prop43
 90
        3
102
RTVSPost2010PropOp43
 70
     1
102
RTVSPost2010Prop44ColorIndex
 90
        5
102
RTVSPost2010Prop44ColorRGB
 90
      255
102
RTVSPost2010PropOp44
 70
     1
102
RTVSPost2010Prop45
280
     0
102
RTVSPost2010PropOp45
 70
     1
102
RTVSPost2010Prop46
 90
       50
102
RTVSPost2010PropOp46
 70
     1
102
RTVSPost2010Prop47
 90
       50
102
RTVSPost2010PropOp47
 70
     1
102
RTVSPost2010Prop48
 90
       50
102
RTVSPost2010PropOp48
 70
     1
102
RTVSPost2010Prop49
280
     0
102
RTVSPost2010PropOp49
 70
     1
102
RTVSPost2010Prop50
 90
       50
102
RTVSPost2010PropOp50
 70
     1
102
RTVSPost2010Prop51ColorIndex
 90
      256
102
RTVSPost2010Prop51ColorRGB
 90
-16777216
102
RTVSPost2010PropOp51
 70
     0
102
RTVSPost2010Prop52
140
1.0
102
RTVSPost2010PropOp52
 70
     0
102
RTVSPost2010Prop53
 90
        2
102
RTVSPost2010PropOp53
 70
     1
102
RTVSPost2010Prop54
  1
strokes_ogs.tif
102
RTVSPost2010PropOp54
 70
     1
102
RTVSPost2010Prop55
280
     0
102
RTVSPost2010PropOp55
 70
     1
102
RTVSPost2010Prop56
140
1.0
102
RTVSPost2010PropOp56
 70
     1
102
RTVSPost2010Prop57
140
1.0
102
RTVSPost2010PropOp57
 70
     1
102
RTVSPropertyOp0
 70
     1
102
RTVSPropertyOp1
 70
     1
102
RTVSPropertyOp2
 70
     1
102
RTVSPropertyOp3
 70
     1
102
RTVSPropertyOp4
 70
     1
102
RTVSPropertyOp5
 70
     1
102
RTVSPropertyOp6
 70
     1
102
RTVSPropertyOp7
 70
     1
102
RTVSPropertyOp8
 70
     1
102
RTVSPropertyOp9
 70
     1
102
RTVSPropertyOp10
 70
     1
102
RTVSPropertyOp11
 70
     1
102
RTVSPropertyOp12
 70
     1
102
RTVSPropertyOp13
 70
     1
102
RTVSPropertyOp14
 70
     1
102
RTVSPropertyOp15
 70
     1
102
RTVSPropertyOp16
 70
     1
102
RTVSPropertyOp17
 70
     1
102
RTVSPropertyOp18
 70
     1
102
RTVSPropertyOp19
 70
     1
102
RTVSPropertyOp20
 70
     1
102
RTVSPropertyOp21
 70
     1
102
RTVSPropertyOp22
 70
     1
102
RTVSPropertyOp23
 70
     1
102
RTVSPropertyOp24
 70
     1
102
RTVSPropertyOp25
 70
     1
102
RTVSPropertyOp26
 70
     1
102
RTVSPropertyOp27
 70
     1
102
RTVSPropertyOp28
 70
     1
102
RTVSPropertyOp29
 70
     1
102
RTVSPropertyOp30
 70
     1
102
RTVSPropertyOp31
 70
     1
102
RTVSPropertyOp32
 70
     1
102
RTVSPropertyOp33
 70
     1
102
RTVSPropertyOp34
 70
     1
102
RTVSPropertyOp35
 70
     1
102
RTVSPropertyOp36
 70
     1
102
RTVSPropertyOp37
 70
     1
102
RTVSPropertyOp38
 70
     1
102
RTVSPropertyOp39
 70
     1
102
RTVSPropertyOp40
 70
     1
102
RTVSPropertyOp41
 70
     1
102
RTVSPropertyOp42
 70
     1
102
RTVSPropertyOp43
 70
     1
102
RTVSPropertyOp44
 70
     1
102
RTVSPropertyOp45
 70
     1
102
RTVSPropertyOp46
 70
     1
102
RTVSPropertyOp47
 70
     1
102
RTVSPropertyOp48
 70
     1
102
RTVSPropertyOp49
 70
     1
102
RTVSPropertyOp50
 70
     1
102
RTVSPropertyOp51
 70
     0
102
RTVSPropertyOp52
 70
     0
102
RTVSPropertyOp53
 70
     1
102
RTVSPropertyOp54
 70
     1
102
RTVSPropertyOp55
 70
     1
102
RTVSPropertyOp56
 70
     1
102
RTVSPropertyOp57
 70
     1
102
RTVSPropertyOp58
 70
     1
102
RTVSPropertyOp59
 70
     1
102
RTVSPropertyOp60
 70
     1
102
RTVSPropertyOp61
 70
     1
102
RTVSPropertyOp62
 70
     1
  0
XRECORD
  5
1B86
102
{ACAD_REACTORS
330
1B85
102
}
330
1B85
100
AcDbXrecord
280
     1
102
RTVSPost2010Prop28
280
     0
102
RTVSPost2010PropOp28
 70
     0
102
RTVSPost2010Prop29
280
     1
102
RTVSPost2010PropOp29
 70
     0
102
RTVSPost2010Prop30
280
     1
102
RTVSPost2010PropOp30
 70
     0
102
RTVSPost2010Prop31
280
     0
102
RTVSPost2010PropOp31
 70
     0
102
RTVSPost2010Prop32
280
     0
102
RTVSPost2010PropOp32
 70
     0
102
RTVSPost2010Prop33
280
     0
102
RTVSPost2010PropOp33
 70
     0
102
RTVSPost2010Prop34
280
     0
102
RTVSPost2010PropOp34
 70
     0
102
RTVSPost2010Prop35
280
     0
102
RTVSPost2010PropOp35
 70
     0
102
RTVSPost2010Prop36
280
     0
102
RTVSPost2010PropOp36
 70
     0
102
RTVSPost2010Prop37
 90
       50
102
RTVSPost2010PropOp37
 70
     0
102
RTVSPost2010Prop38
140
0.0
102
RTVSPost2010PropOp38
 70
     0
102
RTVSPost2010Prop39
140
1.0
102
RTVSPost2010PropOp39
 70
     0
102
RTVSPost2010Prop40
 90
        0
102
RTVSPost2010PropOp40
 70
     0
102
RTVSPost2010Prop41ColorIndex
 90
       18
102
RTVSPost2010Prop41ColorRGB
 90
        0
102
RTVSPost2010PropOp41
 70
     0
102
RTVSPost2010Prop42
 90
       50
102
RTVSPost2010PropOp42
 70
     0
102
RTVSPost2010Prop43
 90
        3
102
RTVSPost2010PropOp43
 70
     0
102
RTVSPost2010Prop44ColorIndex
 90
        5
102
RTVSPost2010Prop44ColorRGB
 90
      255
102
RTVSPost2010PropOp44
 70
     0
102
RTVSPost2010Prop45
280
     0
102
RTVSPost2010PropOp45
 70
     0
102
RTVSPost2010Prop46
 90
       50
102
RTVSPost2010PropOp46
 70
     0
102
RTVSPost2010Prop47
 90
       50
102
RTVSPost2010PropOp47
 70
     0
102
RTVSPost2010Prop48
 90
       50
102
RTVSPost2010PropOp48
 70
     0
102
RTVSPost2010Prop49
280
     0
102
RTVSPost2010PropOp49
 70
     0
102
RTVSPost2010Prop50
 90
       50
102
RTVSPost2010PropOp50
 70
     0
102
RTVSPost2010Prop51ColorIndex
 90
      256
102
RTVSPost2010Prop51ColorRGB
 90
-16777216
102
RTVSPost2010PropOp51
 70
     0
102
RTVSPost2010Prop52
140
1.0
102
RTVSPost2010PropOp52
 70
     0
102
RTVSPost2010Prop53
 90
        2
102
RTVSPost2010PropOp53
 70
     0
102
RTVSPost2010Prop54
  1
strokes_ogs.tif
102
RTVSPost2010PropOp54
 70
     0
102
RTVSPost2010Prop55
280
     0
102
RTVSPost2010PropOp55
 70
     0
102
RTVSPost2010Prop56
140
1.0
102
RTVSPost2010PropOp56
 70
     0
102
RTVSPost2010Prop57
140
1.0
102
RTVSPost2010PropOp57
 70
     0
102
RTVSPropertyOp0
 70
     0
102
RTVSPropertyOp1
 70
     0
102
RTVSPropertyOp2
 70
     0
102
RTVSPropertyOp3
 70
     0
102
RTVSPropertyOp4
 70
     0
102
RTVSPropertyOp5
 70
     0
102
RTVSPropertyOp6
 70
     0
102
RTVSPropertyOp7
 70
     0
102
RTVSPropertyOp8
 70
     0
102
RTVSPropertyOp9
 70
     0
102
RTVSPropertyOp10
 70
     0
102
RTVSPropertyOp11
 70
     0
102
RTVSPropertyOp12
 70
     0
102
RTVSPropertyOp13
 70
     0
102
RTVSPropertyOp14
 70
     2
102
RTVSPropertyOp15
 70
     0
102
RTVSPropertyOp16
 70
     0
102
RTVSPropertyOp17
 70
     0
102
RTVSPropertyOp18
 70
     0
102
RTVSPropertyOp19
 70
     0
102
RTVSPropertyOp20
 70
     0
102
RTVSPropertyOp21
 70
     0
102
RTVSPropertyOp22
 70
     0
102
RTVSPropertyOp23
 70
     0
102
RTVSPropertyOp24
 70
     0
102
RTVSPropertyOp25
 70
     0
102
RTVSPropertyOp26
 70
     0
102
RTVSPropertyOp27
 70
     0
102
RTVSPropertyOp28
 70
     0
102
RTVSPropertyOp29
 70
     0
102
RTVSPropertyOp30
 70
     0
102
RTVSPropertyOp31
 70
     0
102
RTVSPropertyOp32
 70
     0
102
RTVSPropertyOp33
 70
     0
102
RTVSPropertyOp34
 70
     0
102
RTVSPropertyOp35
 70
     0
102
RTVSPropertyOp36
 70
     0
102
RTVSPropertyOp37
 70
     0
102
RTVSPropertyOp38
 70
     0
102
RTVSPropertyOp39
 70
     0
102
RTVSPropertyOp40
 70
     0
102
RTVSPropertyOp41
 70
     0
102
RTVSPropertyOp42
 70
     0
102
RTVSPropertyOp43
 70
     0
102
RTVSPropertyOp44
 70
     0
102
RTVSPropertyOp45
 70
     0
102
RTVSPropertyOp46
 70
     0
102
RTVSPropertyOp47
 70
     0
102
RTVSPropertyOp48
 70
     0
102
RTVSPropertyOp49
 70
     0
102
RTVSPropertyOp50
 70
     0
102
RTVSPropertyOp51
 70
     0
102
RTVSPropertyOp52
 70
     0
102
RTVSPropertyOp53
 70
     0
102
RTVSPropertyOp54
 70
     0
102
RTVSPropertyOp55
 70
     0
102
RTVSPropertyOp56
 70
     0
102
RTVSPropertyOp57
 70
     0
102
RTVSPropertyOp58
 70
     0
102
RTVSPropertyOp59
 70
     0
102
RTVSPropertyOp60
 70
     0
102
RTVSPropertyOp61
 70
     0
102
RTVSPropertyOp62
 70
     0
  0
XRECORD
  5
1B76
102
{ACAD_REACTORS
330
1B75
102
}
330
1B75
100
AcDbXrecord
280
     1
102
RTVSPost2010Prop28
280
     0
102
RTVSPost2010PropOp28
 70
     1
102
RTVSPost2010Prop29
280
     1
102
RTVSPost2010PropOp29
 70
     1
102
RTVSPost2010Prop30
280
     1
102
RTVSPost2010PropOp30
 70
     1
102
RTVSPost2010Prop31
280
     0
102
RTVSPost2010PropOp31
 70
     1
102
RTVSPost2010Prop32
280
     0
102
RTVSPost2010PropOp32
 70
     1
102
RTVSPost2010Prop33
280
     0
102
RTVSPost2010PropOp33
 70
     1
102
RTVSPost2010Prop34
280
     0
102
RTVSPost2010PropOp34
 70
     1
102
RTVSPost2010Prop35
280
     0
102
RTVSPost2010PropOp35
 70
     1
102
RTVSPost2010Prop36
280
     0
102
RTVSPost2010PropOp36
 70
     1
102
RTVSPost2010Prop37
 90
       50
102
RTVSPost2010PropOp37
 70
     1
102
RTVSPost2010Prop38
140
0.0
102
RTVSPost2010PropOp38
 70
     1
102
RTVSPost2010Prop39
140
1.0
102
RTVSPost2010PropOp39
 70
     1
102
RTVSPost2010Prop40
 90
        0
102
RTVSPost2010PropOp40
 70
     1
102
RTVSPost2010Prop41ColorIndex
 90
       18
102
RTVSPost2010Prop41ColorRGB
 90
        0
102
RTVSPost2010PropOp41
 70
     1
102
RTVSPost2010Prop42
 90
       50
102
RTVSPost2010PropOp42
 70
     1
102
RTVSPost2010Prop43
 90
        3
102
RTVSPost2010PropOp43
 70
     1
102
RTVSPost2010Prop44ColorIndex
 90
        5
102
RTVSPost2010Prop44ColorRGB
 90
      255
102
RTVSPost2010PropOp44
 70
     1
102
RTVSPost2010Prop45
280
     0
102
RTVSPost2010PropOp45
 70
     1
102
RTVSPost2010Prop46
 90
       50
102
RTVSPost2010PropOp46
 70
     1
102
RTVSPost2010Prop47
 90
       50
102
RTVSPost2010PropOp47
 70
     1
102
RTVSPost2010Prop48
 90
       50
102
RTVSPost2010PropOp48
 70
     1
102
RTVSPost2010Prop49
280
     0
102
RTVSPost2010PropOp49
 70
     1
102
RTVSPost2010Prop50
 90
       50
102
RTVSPost2010PropOp50
 70
     1
102
RTVSPost2010Prop51ColorIndex
 90
      256
102
RTVSPost2010Prop51ColorRGB
 90
-16777216
102
RTVSPost2010PropOp51
 70
     0
102
RTVSPost2010Prop52
140
1.0
102
RTVSPost2010PropOp52
 70
     0
102
RTVSPost2010Prop53
 90
        2
102
RTVSPost2010PropOp53
 70
     1
102
RTVSPost2010Prop54
  1
strokes_ogs.tif
102
RTVSPost2010PropOp54
 70
     1
102
RTVSPost2010Prop55
280
     0
102
RTVSPost2010PropOp55
 70
     1
102
RTVSPost2010Prop56
140
1.0
102
RTVSPost2010PropOp56
 70
     1
102
RTVSPost2010Prop57
140
1.0
102
RTVSPost2010PropOp57
 70
     1
102
RTVSPropertyOp0
 70
     1
102
RTVSPropertyOp1
 70
     1
102
RTVSPropertyOp2
 70
     1
102
RTVSPropertyOp3
 70
     1
102
RTVSPropertyOp4
 70
     1
102
RTVSPropertyOp5
 70
     1
102
RTVSPropertyOp6
 70
     1
102
RTVSPropertyOp7
 70
     1
102
RTVSPropertyOp8
 70
     1
102
RTVSPropertyOp9
 70
     1
102
RTVSPropertyOp10
 70
     1
102
RTVSPropertyOp11
 70
     1
102
RTVSPropertyOp12
 70
     1
102
RTVSPropertyOp13
 70
     1
102
RTVSPropertyOp14
 70
     1
102
RTVSPropertyOp15
 70
     1
102
RTVSPropertyOp16
 70
     1
102
RTVSPropertyOp17
 70
     1
102
RTVSPropertyOp18
 70
     1
102
RTVSPropertyOp19
 70
     1
102
RTVSPropertyOp20
 70
     1
102
RTVSPropertyOp21
 70
     1
102
RTVSPropertyOp22
 70
     1
102
RTVSPropertyOp23
 70
     1
102
RTVSPropertyOp24
 70
     1
102
RTVSPropertyOp25
 70
     1
102
RTVSPropertyOp26
 70
     1
102
RTVSPropertyOp27
 70
     1
102
RTVSPropertyOp28
 70
     1
102
RTVSPropertyOp29
 70
     1
102
RTVSPropertyOp30
 70
     1
102
RTVSPropertyOp31
 70
     1
102
RTVSPropertyOp32
 70
     1
102
RTVSPropertyOp33
 70
     1
102
RTVSPropertyOp34
 70
     1
102
RTVSPropertyOp35
 70
     1
102
RTVSPropertyOp36
 70
     1
102
RTVSPropertyOp37
 70
     1
102
RTVSPropertyOp38
 70
     1
102
RTVSPropertyOp39
 70
     1
102
RTVSPropertyOp40
 70
     1
102
RTVSPropertyOp41
 70
     1
102
RTVSPropertyOp42
 70
     1
102
RTVSPropertyOp43
 70
     1
102
RTVSPropertyOp44
 70
     1
102
RTVSPropertyOp45
 70
     1
102
RTVSPropertyOp46
 70
     1
102
RTVSPropertyOp47
 70
     1
102
RTVSPropertyOp48
 70
     1
102
RTVSPropertyOp49
 70
     1
102
RTVSPropertyOp50
 70
     1
102
RTVSPropertyOp51
 70
     0
102
RTVSPropertyOp52
 70
     0
102
RTVSPropertyOp53
 70
     1
102
RTVSPropertyOp54
 70
     1
102
RTVSPropertyOp55
 70
     1
102
RTVSPropertyOp56
 70
     1
102
RTVSPropertyOp57
 70
     1
102
RTVSPropertyOp58
 70
     1
102
RTVSPropertyOp59
 70
     1
102
RTVSPropertyOp60
 70
     1
102
RTVSPropertyOp61
 70
     1
102
RTVSPropertyOp62
 70
     1
  0
XRECORD
  5
1B88
102
{ACAD_REACTORS
330
1B87
102
}
330
1B87
100
AcDbXrecord
280
     1
102
RTVSPost2010Prop28
280
     0
102
RTVSPost2010PropOp28
 70
     0
102
RTVSPost2010Prop29
280
     1
102
RTVSPost2010PropOp29
 70
     0
102
RTVSPost2010Prop30
280
     1
102
RTVSPost2010PropOp30
 70
     0
102
RTVSPost2010Prop31
280
     0
102
RTVSPost2010PropOp31
 70
     0
102
RTVSPost2010Prop32
280
     0
102
RTVSPost2010PropOp32
 70
     0
102
RTVSPost2010Prop33
280
     0
102
RTVSPost2010PropOp33
 70
     0
102
RTVSPost2010Prop34
280
     0
102
RTVSPost2010PropOp34
 70
     0
102
RTVSPost2010Prop35
280
     0
102
RTVSPost2010PropOp35
 70
     0
102
RTVSPost2010Prop36
280
     0
102
RTVSPost2010PropOp36
 70
     0
102
RTVSPost2010Prop37
 90
       50
102
RTVSPost2010PropOp37
 70
     0
102
RTVSPost2010Prop38
140
0.0
102
RTVSPost2010PropOp38
 70
     0
102
RTVSPost2010Prop39
140
1.0
102
RTVSPost2010PropOp39
 70
     0
102
RTVSPost2010Prop40
 90
        0
102
RTVSPost2010PropOp40
 70
     0
102
RTVSPost2010Prop41ColorIndex
 90
       18
102
RTVSPost2010Prop41ColorRGB
 90
        0
102
RTVSPost2010PropOp41
 70
     0
102
RTVSPost2010Prop42
 90
       50
102
RTVSPost2010PropOp42
 70
     0
102
RTVSPost2010Prop43
 90
        3
102
RTVSPost2010PropOp43
 70
     0
102
RTVSPost2010Prop44ColorIndex
 90
        5
102
RTVSPost2010Prop44ColorRGB
 90
      255
102
RTVSPost2010PropOp44
 70
     0
102
RTVSPost2010Prop45
280
     0
102
RTVSPost2010PropOp45
 70
     0
102
RTVSPost2010Prop46
 90
       50
102
RTVSPost2010PropOp46
 70
     0
102
RTVSPost2010Prop47
 90
       50
102
RTVSPost2010PropOp47
 70
     0
102
RTVSPost2010Prop48
 90
       50
102
RTVSPost2010PropOp48
 70
     0
102
RTVSPost2010Prop49
280
     0
102
RTVSPost2010PropOp49
 70
     0
102
RTVSPost2010Prop50
 90
       50
102
RTVSPost2010PropOp50
 70
     0
102
RTVSPost2010Prop51ColorIndex
 90
      256
102
RTVSPost2010Prop51ColorRGB
 90
-16777216
102
RTVSPost2010PropOp51
 70
     0
102
RTVSPost2010Prop52
140
1.0
102
RTVSPost2010PropOp52
 70
     0
102
RTVSPost2010Prop53
 90
        2
102
RTVSPost2010PropOp53
 70
     0
102
RTVSPost2010Prop54
  1
strokes_ogs.tif
102
RTVSPost2010PropOp54
 70
     0
102
RTVSPost2010Prop55
280
     0
102
RTVSPost2010PropOp55
 70
     0
102
RTVSPost2010Prop56
140
1.0
102
RTVSPost2010PropOp56
 70
     0
102
RTVSPost2010Prop57
140
1.0
102
RTVSPost2010PropOp57
 70
     0
102
RTVSPropertyOp0
 70
     0
102
RTVSPropertyOp1
 70
     0
102
RTVSPropertyOp2
 70
     0
102
RTVSPropertyOp3
 70
     0
102
RTVSPropertyOp4
 70
     0
102
RTVSPropertyOp5
 70
     0
102
RTVSPropertyOp6
 70
     0
102
RTVSPropertyOp7
 70
     0
102
RTVSPropertyOp8
 70
     0
102
RTVSPropertyOp9
 70
     0
102
RTVSPropertyOp10
 70
     0
102
RTVSPropertyOp11
 70
     0
102
RTVSPropertyOp12
 70
     0
102
RTVSPropertyOp13
 70
     0
102
RTVSPropertyOp14
 70
     2
102
RTVSPropertyOp15
 70
     0
102
RTVSPropertyOp16
 70
     0
102
RTVSPropertyOp17
 70
     0
102
RTVSPropertyOp18
 70
     0
102
RTVSPropertyOp19
 70
     0
102
RTVSPropertyOp20
 70
     0
102
RTVSPropertyOp21
 70
     0
102
RTVSPropertyOp22
 70
     0
102
RTVSPropertyOp23
 70
     0
102
RTVSPropertyOp24
 70
     0
102
RTVSPropertyOp25
 70
     0
102
RTVSPropertyOp26
 70
     0
102
RTVSPropertyOp27
 70
     0
102
RTVSPropertyOp28
 70
     0
102
RTVSPropertyOp29
 70
     0
102
RTVSPropertyOp30
 70
     0
102
RTVSPropertyOp31
 70
     0
102
RTVSPropertyOp32
 70
     0
102
RTVSPropertyOp33
 70
     0
102
RTVSPropertyOp34
 70
     0
102
RTVSPropertyOp35
 70
     0
102
RTVSPropertyOp36
 70
     0
102
RTVSPropertyOp37
 70
     0
102
RTVSPropertyOp38
 70
     0
102
RTVSPropertyOp39
 70
     0
102
RTVSPropertyOp40
 70
     0
102
RTVSPropertyOp41
 70
     0
102
RTVSPropertyOp42
 70
     0
102
RTVSPropertyOp43
 70
     0
102
RTVSPropertyOp44
 70
     0
102
RTVSPropertyOp45
 70
     0
102
RTVSPropertyOp46
 70
     0
102
RTVSPropertyOp47
 70
     0
102
RTVSPropertyOp48
 70
     0
102
RTVSPropertyOp49
 70
     0
102
RTVSPropertyOp50
 70
     0
102
RTVSPropertyOp51
 70
     0
102
RTVSPropertyOp52
 70
     0
102
RTVSPropertyOp53
 70
     0
102
RTVSPropertyOp54
 70
     0
102
RTVSPropertyOp55
 70
     0
102
RTVSPropertyOp56
 70
     0
102
RTVSPropertyOp57
 70
     0
102
RTVSPropertyOp58
 70
     0
102
RTVSPropertyOp59
 70
     0
102
RTVSPropertyOp60
 70
     0
102
RTVSPropertyOp61
 70
     0
102
RTVSPropertyOp62
 70
     0
  0
XRECORD
  5
1B6E
102
{ACAD_REACTORS
330
1B6D
102
}
330
1B6D
100
AcDbXrecord
280
     1
102
RTVSPost2010Prop28
280
     0
102
RTVSPost2010PropOp28
 70
     1
102
RTVSPost2010Prop29
280
     1
102
RTVSPost2010PropOp29
 70
     1
102
RTVSPost2010Prop30
280
     1
102
RTVSPost2010PropOp30
 70
     1
102
RTVSPost2010Prop31
280
     0
102
RTVSPost2010PropOp31
 70
     1
102
RTVSPost2010Prop32
280
     0
102
RTVSPost2010PropOp32
 70
     1
102
RTVSPost2010Prop33
280
     0
102
RTVSPost2010PropOp33
 70
     1
102
RTVSPost2010Prop34
280
     0
102
RTVSPost2010PropOp34
 70
     1
102
RTVSPost2010Prop35
280
     0
102
RTVSPost2010PropOp35
 70
     1
102
RTVSPost2010Prop36
280
     0
102
RTVSPost2010PropOp36
 70
     1
102
RTVSPost2010Prop37
 90
       50
102
RTVSPost2010PropOp37
 70
     1
102
RTVSPost2010Prop38
140
0.0
102
RTVSPost2010PropOp38
 70
     1
102
RTVSPost2010Prop39
140
1.0
102
RTVSPost2010PropOp39
 70
     1
102
RTVSPost2010Prop40
 90
        0
102
RTVSPost2010PropOp40
 70
     1
102
RTVSPost2010Prop41ColorIndex
 90
       18
102
RTVSPost2010Prop41ColorRGB
 90
        0
102
RTVSPost2010PropOp41
 70
     1
102
RTVSPost2010Prop42
 90
       50
102
RTVSPost2010PropOp42
 70
     1
102
RTVSPost2010Prop43
 90
        3
102
RTVSPost2010PropOp43
 70
     1
102
RTVSPost2010Prop44ColorIndex
 90
        5
102
RTVSPost2010Prop44ColorRGB
 90
      255
102
RTVSPost2010PropOp44
 70
     1
102
RTVSPost2010Prop45
280
     0
102
RTVSPost2010PropOp45
 70
     1
102
RTVSPost2010Prop46
 90
       50
102
RTVSPost2010PropOp46
 70
     1
102
RTVSPost2010Prop47
 90
       50
102
RTVSPost2010PropOp47
 70
     1
102
RTVSPost2010Prop48
 90
       50
102
RTVSPost2010PropOp48
 70
     1
102
RTVSPost2010Prop49
280
     0
102
RTVSPost2010PropOp49
 70
     1
102
RTVSPost2010Prop50
 90
       50
102
RTVSPost2010PropOp50
 70
     1
102
RTVSPost2010Prop51ColorIndex
 90
      256
102
RTVSPost2010Prop51ColorRGB
 90
-16777216
102
RTVSPost2010PropOp51
 70
     0
102
RTVSPost2010Prop52
140
1.0
102
RTVSPost2010PropOp52
 70
     0
102
RTVSPost2010Prop53
 90
        2
102
RTVSPost2010PropOp53
 70
     1
102
RTVSPost2010Prop54
  1
strokes_ogs.tif
102
RTVSPost2010PropOp54
 70
     1
102
RTVSPost2010Prop55
280
     0
102
RTVSPost2010PropOp55
 70
     1
102
RTVSPost2010Prop56
140
1.0
102
RTVSPost2010PropOp56
 70
     1
102
RTVSPost2010Prop57
140
1.0
102
RTVSPost2010PropOp57
 70
     1
102
RTVSPropertyOp0
 70
     1
102
RTVSPropertyOp1
 70
     1
102
RTVSPropertyOp2
 70
     1
102
RTVSPropertyOp3
 70
     1
102
RTVSPropertyOp4
 70
     1
102
RTVSPropertyOp5
 70
     1
102
RTVSPropertyOp6
 70
     1
102
RTVSPropertyOp7
 70
     1
102
RTVSPropertyOp8
 70
     1
102
RTVSPropertyOp9
 70
     1
102
RTVSPropertyOp10
 70
     1
102
RTVSPropertyOp11
 70
     1
102
RTVSPropertyOp12
 70
     1
102
RTVSPropertyOp13
 70
     1
102
RTVSPropertyOp14
 70
     1
102
RTVSPropertyOp15
 70
     1
102
RTVSPropertyOp16
 70
     1
102
RTVSPropertyOp17
 70
     1
102
RTVSPropertyOp18
 70
     1
102
RTVSPropertyOp19
 70
     1
102
RTVSPropertyOp20
 70
     1
102
RTVSPropertyOp21
 70
     1
102
RTVSPropertyOp22
 70
     1
102
RTVSPropertyOp23
 70
     1
102
RTVSPropertyOp24
 70
     1
102
RTVSPropertyOp25
 70
     1
102
RTVSPropertyOp26
 70
     1
102
RTVSPropertyOp27
 70
     1
102
RTVSPropertyOp28
 70
     1
102
RTVSPropertyOp29
 70
     1
102
RTVSPropertyOp30
 70
     1
102
RTVSPropertyOp31
 70
     1
102
RTVSPropertyOp32
 70
     1
102
RTVSPropertyOp33
 70
     1
102
RTVSPropertyOp34
 70
     1
102
RTVSPropertyOp35
 70
     1
102
RTVSPropertyOp36
 70
     1
102
RTVSPropertyOp37
 70
     1
102
RTVSPropertyOp38
 70
     1
102
RTVSPropertyOp39
 70
     1
102
RTVSPropertyOp40
 70
     1
102
RTVSPropertyOp41
 70
     1
102
RTVSPropertyOp42
 70
     1
102
RTVSPropertyOp43
 70
     1
102
RTVSPropertyOp44
 70
     1
102
RTVSPropertyOp45
 70
     1
102
RTVSPropertyOp46
 70
     1
102
RTVSPropertyOp47
 70
     1
102
RTVSPropertyOp48
 70
     1
102
RTVSPropertyOp49
 70
     1
102
RTVSPropertyOp50
 70
     1
102
RTVSPropertyOp51
 70
     0
102
RTVSPropertyOp52
 70
     0
102
RTVSPropertyOp53
 70
     1
102
RTVSPropertyOp54
 70
     1
102
RTVSPropertyOp55
 70
     1
102
RTVSPropertyOp56
 70
     1
102
RTVSPropertyOp57
 70
     1
102
RTVSPropertyOp58
 70
     1
102
RTVSPropertyOp59
 70
     1
102
RTVSPropertyOp60
 70
     1
102
RTVSPropertyOp61
 70
     1
102
RTVSPropertyOp62
 70
     1
  0
XRECORD
  5
1B84
102
{ACAD_REACTORS
330
1B83
102
}
330
1B83
100
AcDbXrecord
280
     1
102
RTVSPost2010Prop28
280
     0
102
RTVSPost2010PropOp28
 70
     1
102
RTVSPost2010Prop29
280
     1
102
RTVSPost2010PropOp29
 70
     1
102
RTVSPost2010Prop30
280
     1
102
RTVSPost2010PropOp30
 70
     1
102
RTVSPost2010Prop31
280
     0
102
RTVSPost2010PropOp31
 70
     1
102
RTVSPost2010Prop32
280
     0
102
RTVSPost2010PropOp32
 70
     1
102
RTVSPost2010Prop33
280
     0
102
RTVSPost2010PropOp33
 70
     1
102
RTVSPost2010Prop34
280
     0
102
RTVSPost2010PropOp34
 70
     1
102
RTVSPost2010Prop35
280
     0
102
RTVSPost2010PropOp35
 70
     1
102
RTVSPost2010Prop36
280
     0
102
RTVSPost2010PropOp36
 70
     1
102
RTVSPost2010Prop37
 90
       50
102
RTVSPost2010PropOp37
 70
     1
102
RTVSPost2010Prop38
140
0.0
102
RTVSPost2010PropOp38
 70
     1
102
RTVSPost2010Prop39
140
1.0
102
RTVSPost2010PropOp39
 70
     1
102
RTVSPost2010Prop40
 90
        0
102
RTVSPost2010PropOp40
 70
     1
102
RTVSPost2010Prop41ColorIndex
 90
       18
102
RTVSPost2010Prop41ColorRGB
 90
        0
102
RTVSPost2010PropOp41
 70
     1
102
RTVSPost2010Prop42
 90
       50
102
RTVSPost2010PropOp42
 70
     1
102
RTVSPost2010Prop43
 90
        3
102
RTVSPost2010PropOp43
 70
     1
102
RTVSPost2010Prop44ColorIndex
 90
        5
102
RTVSPost2010Prop44ColorRGB
 90
      255
102
RTVSPost2010PropOp44
 70
     1
102
RTVSPost2010Prop45
280
     0
102
RTVSPost2010PropOp45
 70
     1
102
RTVSPost2010Prop46
 90
       50
102
RTVSPost2010PropOp46
 70
     1
102
RTVSPost2010Prop47
 90
       50
102
RTVSPost2010PropOp47
 70
     1
102
RTVSPost2010Prop48
 90
       50
102
RTVSPost2010PropOp48
 70
     1
102
RTVSPost2010Prop49
280
     0
102
RTVSPost2010PropOp49
 70
     1
102
RTVSPost2010Prop50
 90
       50
102
RTVSPost2010PropOp50
 70
     1
102
RTVSPost2010Prop51ColorIndex
 90
      256
102
RTVSPost2010Prop51ColorRGB
 90
-16777216
102
RTVSPost2010PropOp51
 70
     0
102
RTVSPost2010Prop52
140
1.0
102
RTVSPost2010PropOp52
 70
     0
102
RTVSPost2010Prop53
 90
        2
102
RTVSPost2010PropOp53
 70
     1
102
RTVSPost2010Prop54
  1
strokes_ogs.tif
102
RTVSPost2010PropOp54
 70
     1
102
RTVSPost2010Prop55
280
     0
102
RTVSPost2010PropOp55
 70
     1
102
RTVSPost2010Prop56
140
1.0
102
RTVSPost2010PropOp56
 70
     1
102
RTVSPost2010Prop57
140
1.0
102
RTVSPost2010PropOp57
 70
     1
102
RTVSPropertyOp0
 70
     1
102
RTVSPropertyOp1
 70
     1
102
RTVSPropertyOp2
 70
     1
102
RTVSPropertyOp3
 70
     1
102
RTVSPropertyOp4
 70
     1
102
RTVSPropertyOp5
 70
     1
102
RTVSPropertyOp6
 70
     1
102
RTVSPropertyOp7
 70
     1
102
RTVSPropertyOp8
 70
     1
102
RTVSPropertyOp9
 70
     1
102
RTVSPropertyOp10
 70
     1
102
RTVSPropertyOp11
 70
     1
102
RTVSPropertyOp12
 70
     1
102
RTVSPropertyOp13
 70
     1
102
RTVSPropertyOp14
 70
     1
102
RTVSPropertyOp15
 70
     1
102
RTVSPropertyOp16
 70
     1
102
RTVSPropertyOp17
 70
     1
102
RTVSPropertyOp18
 70
     1
102
RTVSPropertyOp19
 70
     1
102
RTVSPropertyOp20
 70
     1
102
RTVSPropertyOp21
 70
     1
102
RTVSPropertyOp22
 70
     1
102
RTVSPropertyOp23
 70
     1
102
RTVSPropertyOp24
 70
     1
102
RTVSPropertyOp25
 70
     1
102
RTVSPropertyOp26
 70
     1
102
RTVSPropertyOp27
 70
     1
102
RTVSPropertyOp28
 70
     1
102
RTVSPropertyOp29
 70
     1
102
RTVSPropertyOp30
 70
     1
102
RTVSPropertyOp31
 70
     1
102
RTVSPropertyOp32
 70
     1
102
RTVSPropertyOp33
 70
     1
102
RTVSPropertyOp34
 70
     1
102
RTVSPropertyOp35
 70
     1
102
RTVSPropertyOp36
 70
     1
102
RTVSPropertyOp37
 70
     1
102
RTVSPropertyOp38
 70
     1
102
RTVSPropertyOp39
 70
     1
102
RTVSPropertyOp40
 70
     1
102
RTVSPropertyOp41
 70
     1
102
RTVSPropertyOp42
 70
     1
102
RTVSPropertyOp43
 70
     1
102
RTVSPropertyOp44
 70
     1
102
RTVSPropertyOp45
 70
     1
102
RTVSPropertyOp46
 70
     1
102
RTVSPropertyOp47
 70
     1
102
RTVSPropertyOp48
 70
     1
102
RTVSPropertyOp49
 70
     1
102
RTVSPropertyOp50
 70
     1
102
RTVSPropertyOp51
 70
     0
102
RTVSPropertyOp52
 70
     0
102
RTVSPropertyOp53
 70
     1
102
RTVSPropertyOp54
 70
     1
102
RTVSPropertyOp55
 70
     1
102
RTVSPropertyOp56
 70
     1
102
RTVSPropertyOp57
 70
     1
102
RTVSPropertyOp58
 70
     1
102
RTVSPropertyOp59
 70
     1
102
RTVSPropertyOp60
 70
     1
102
RTVSPropertyOp61
 70
     1
102
RTVSPropertyOp62
 70
     1
  0
XRECORD
  5
1B82
102
{ACAD_REACTORS
330
1B81
102
}
330
1B81
100
AcDbXrecord
280
     1
102
RTVSPost2010Prop28
280
     0
102
RTVSPost2010PropOp28
 70
     1
102
RTVSPost2010Prop29
280
     1
102
RTVSPost2010PropOp29
 70
     1
102
RTVSPost2010Prop30
280
     1
102
RTVSPost2010PropOp30
 70
     1
102
RTVSPost2010Prop31
280
     0
102
RTVSPost2010PropOp31
 70
     1
102
RTVSPost2010Prop32
280
     0
102
RTVSPost2010PropOp32
 70
     1
102
RTVSPost2010Prop33
280
     0
102
RTVSPost2010PropOp33
 70
     1
102
RTVSPost2010Prop34
280
     0
102
RTVSPost2010PropOp34
 70
     1
102
RTVSPost2010Prop35
280
     0
102
RTVSPost2010PropOp35
 70
     1
102
RTVSPost2010Prop36
280
     0
102
RTVSPost2010PropOp36
 70
     1
102
RTVSPost2010Prop37
 90
       50
102
RTVSPost2010PropOp37
 70
     1
102
RTVSPost2010Prop38
140
0.0
102
RTVSPost2010PropOp38
 70
     1
102
RTVSPost2010Prop39
140
1.0
102
RTVSPost2010PropOp39
 70
     1
102
RTVSPost2010Prop40
 90
        0
102
RTVSPost2010PropOp40
 70
     1
102
RTVSPost2010Prop41ColorIndex
 90
       18
102
RTVSPost2010Prop41ColorRGB
 90
        0
102
RTVSPost2010PropOp41
 70
     1
102
RTVSPost2010Prop42
 90
       50
102
RTVSPost2010PropOp42
 70
     1
102
RTVSPost2010Prop43
 90
        3
102
RTVSPost2010PropOp43
 70
     1
102
RTVSPost2010Prop44ColorIndex
 90
        5
102
RTVSPost2010Prop44ColorRGB
 90
      255
102
RTVSPost2010PropOp44
 70
     1
102
RTVSPost2010Prop45
280
     0
102
RTVSPost2010PropOp45
 70
     1
102
RTVSPost2010Prop46
 90
       50
102
RTVSPost2010PropOp46
 70
     1
102
RTVSPost2010Prop47
 90
       50
102
RTVSPost2010PropOp47
 70
     1
102
RTVSPost2010Prop48
 90
       50
102
RTVSPost2010PropOp48
 70
     1
102
RTVSPost2010Prop49
280
     0
102
RTVSPost2010PropOp49
 70
     1
102
RTVSPost2010Prop50
 90
       50
102
RTVSPost2010PropOp50
 70
     1
102
RTVSPost2010Prop51ColorIndex
 90
      256
102
RTVSPost2010Prop51ColorRGB
 90
-16777216
102
RTVSPost2010PropOp51
 70
     0
102
RTVSPost2010Prop52
140
1.0
102
RTVSPost2010PropOp52
 70
     0
102
RTVSPost2010Prop53
 90
        2
102
RTVSPost2010PropOp53
 70
     1
102
RTVSPost2010Prop54
  1
strokes_ogs.tif
102
RTVSPost2010PropOp54
 70
     1
102
RTVSPost2010Prop55
280
     0
102
RTVSPost2010PropOp55
 70
     1
102
RTVSPost2010Prop56
140
1.0
102
RTVSPost2010PropOp56
 70
     1
102
RTVSPost2010Prop57
140
1.0
102
RTVSPost2010PropOp57
 70
     1
102
RTVSPropertyOp0
 70
     1
102
RTVSPropertyOp1
 70
     1
102
RTVSPropertyOp2
 70
     1
102
RTVSPropertyOp3
 70
     1
102
RTVSPropertyOp4
 70
     1
102
RTVSPropertyOp5
 70
     1
102
RTVSPropertyOp6
 70
     1
102
RTVSPropertyOp7
 70
     1
102
RTVSPropertyOp8
 70
     1
102
RTVSPropertyOp9
 70
     1
102
RTVSPropertyOp10
 70
     1
102
RTVSPropertyOp11
 70
     1
102
RTVSPropertyOp12
 70
     1
102
RTVSPropertyOp13
 70
     1
102
RTVSPropertyOp14
 70
     1
102
RTVSPropertyOp15
 70
     1
102
RTVSPropertyOp16
 70
     1
102
RTVSPropertyOp17
 70
     1
102
RTVSPropertyOp18
 70
     1
102
RTVSPropertyOp19
 70
     1
102
RTVSPropertyOp20
 70
     1
102
RTVSPropertyOp21
 70
     1
102
RTVSPropertyOp22
 70
     1
102
RTVSPropertyOp23
 70
     1
102
RTVSPropertyOp24
 70
     1
102
RTVSPropertyOp25
 70
     1
102
RTVSPropertyOp26
 70
     1
102
RTVSPropertyOp27
 70
     1
102
RTVSPropertyOp28
 70
     1
102
RTVSPropertyOp29
 70
     1
102
RTVSPropertyOp30
 70
     1
102
RTVSPropertyOp31
 70
     1
102
RTVSPropertyOp32
 70
     1
102
RTVSPropertyOp33
 70
     1
102
RTVSPropertyOp34
 70
     1
102
RTVSPropertyOp35
 70
     1
102
RTVSPropertyOp36
 70
     1
102
RTVSPropertyOp37
 70
     1
102
RTVSPropertyOp38
 70
     1
102
RTVSPropertyOp39
 70
     1
102
RTVSPropertyOp40
 70
     1
102
RTVSPropertyOp41
 70
     1
102
RTVSPropertyOp42
 70
     1
102
RTVSPropertyOp43
 70
     1
102
RTVSPropertyOp44
 70
     1
102
RTVSPropertyOp45
 70
     1
102
RTVSPropertyOp46
 70
     1
102
RTVSPropertyOp47
 70
     1
102
RTVSPropertyOp48
 70
     1
102
RTVSPropertyOp49
 70
     1
102
RTVSPropertyOp50
 70
     1
102
RTVSPropertyOp51
 70
     0
102
RTVSPropertyOp52
 70
     0
102
RTVSPropertyOp53
 70
     1
102
RTVSPropertyOp54
 70
     1
102
RTVSPropertyOp55
 70
     1
102
RTVSPropertyOp56
 70
     1
102
RTVSPropertyOp57
 70
     1
102
RTVSPropertyOp58
 70
     1
102
RTVSPropertyOp59
 70
     1
102
RTVSPropertyOp60
 70
     1
102
RTVSPropertyOp61
 70
     1
102
RTVSPropertyOp62
 70
     1
  0
XRECORD
  5
1B7C
102
{ACAD_REACTORS
330
1B7B
102
}
330
1B7B
100
AcDbXrecord
280
     1
102
RTVSPost2010Prop28
280
     0
102
RTVSPost2010PropOp28
 70
     1
102
RTVSPost2010Prop29
280
     1
102
RTVSPost2010PropOp29
 70
     1
102
RTVSPost2010Prop30
280
     1
102
RTVSPost2010PropOp30
 70
     1
102
RTVSPost2010Prop31
280
     0
102
RTVSPost2010PropOp31
 70
     1
102
RTVSPost2010Prop32
280
     0
102
RTVSPost2010PropOp32
 70
     1
102
RTVSPost2010Prop33
280
     0
102
RTVSPost2010PropOp33
 70
     1
102
RTVSPost2010Prop34
280
     0
102
RTVSPost2010PropOp34
 70
     1
102
RTVSPost2010Prop35
280
     0
102
RTVSPost2010PropOp35
 70
     1
102
RTVSPost2010Prop36
280
     0
102
RTVSPost2010PropOp36
 70
     1
102
RTVSPost2010Prop37
 90
       50
102
RTVSPost2010PropOp37
 70
     1
102
RTVSPost2010Prop38
140
0.0
102
RTVSPost2010PropOp38
 70
     1
102
RTVSPost2010Prop39
140
1.0
102
RTVSPost2010PropOp39
 70
     1
102
RTVSPost2010Prop40
 90
        0
102
RTVSPost2010PropOp40
 70
     1
102
RTVSPost2010Prop41ColorIndex
 90
       18
102
RTVSPost2010Prop41ColorRGB
 90
        0
102
RTVSPost2010PropOp41
 70
     1
102
RTVSPost2010Prop42
 90
       50
102
RTVSPost2010PropOp42
 70
     1
102
RTVSPost2010Prop43
 90
        3
102
RTVSPost2010PropOp43
 70
     1
102
RTVSPost2010Prop44ColorIndex
 90
        5
102
RTVSPost2010Prop44ColorRGB
 90
      255
102
RTVSPost2010PropOp44
 70
     1
102
RTVSPost2010Prop45
280
     0
102
RTVSPost2010PropOp45
 70
     1
102
RTVSPost2010Prop46
 90
       50
102
RTVSPost2010PropOp46
 70
     1
102
RTVSPost2010Prop47
 90
       50
102
RTVSPost2010PropOp47
 70
     1
102
RTVSPost2010Prop48
 90
       50
102
RTVSPost2010PropOp48
 70
     1
102
RTVSPost2010Prop49
280
     0
102
RTVSPost2010PropOp49
 70
     1
102
RTVSPost2010Prop50
 90
       50
102
RTVSPost2010PropOp50
 70
     1
102
RTVSPost2010Prop51ColorIndex
 90
      256
102
RTVSPost2010Prop51ColorRGB
 90
-16777216
102
RTVSPost2010PropOp51
 70
     0
102
RTVSPost2010Prop52
140
1.0
102
RTVSPost2010PropOp52
 70
     0
102
RTVSPost2010Prop53
 90
        2
102
RTVSPost2010PropOp53
 70
     1
102
RTVSPost2010Prop54
  1
strokes_ogs.tif
102
RTVSPost2010PropOp54
 70
     1
102
RTVSPost2010Prop55
280
     0
102
RTVSPost2010PropOp55
 70
     1
102
RTVSPost2010Prop56
140
1.0
102
RTVSPost2010PropOp56
 70
     1
102
RTVSPost2010Prop57
140
1.0
102
RTVSPost2010PropOp57
 70
     1
102
RTVSPropertyOp0
 70
     1
102
RTVSPropertyOp1
 70
     1
102
RTVSPropertyOp2
 70
     1
102
RTVSPropertyOp3
 70
     1
102
RTVSPropertyOp4
 70
     1
102
RTVSPropertyOp5
 70
     1
102
RTVSPropertyOp6
 70
     1
102
RTVSPropertyOp7
 70
     1
102
RTVSPropertyOp8
 70
     1
102
RTVSPropertyOp9
 70
     1
102
RTVSPropertyOp10
 70
     1
102
RTVSPropertyOp11
 70
     1
102
RTVSPropertyOp12
 70
     1
102
RTVSPropertyOp13
 70
     1
102
RTVSPropertyOp14
 70
     1
102
RTVSPropertyOp15
 70
     1
102
RTVSPropertyOp16
 70
     1
102
RTVSPropertyOp17
 70
     1
102
RTVSPropertyOp18
 70
     1
102
RTVSPropertyOp19
 70
     1
102
RTVSPropertyOp20
 70
     1
102
RTVSPropertyOp21
 70
     1
102
RTVSPropertyOp22
 70
     1
102
RTVSPropertyOp23
 70
     1
102
RTVSPropertyOp24
 70
     1
102
RTVSPropertyOp25
 70
     1
102
RTVSPropertyOp26
 70
     1
102
RTVSPropertyOp27
 70
     1
102
RTVSPropertyOp28
 70
     1
102
RTVSPropertyOp29
 70
     1
102
RTVSPropertyOp30
 70
     1
102
RTVSPropertyOp31
 70
     1
102
RTVSPropertyOp32
 70
     1
102
RTVSPropertyOp33
 70
     1
102
RTVSPropertyOp34
 70
     1
102
RTVSPropertyOp35
 70
     1
102
RTVSPropertyOp36
 70
     1
102
RTVSPropertyOp37
 70
     1
102
RTVSPropertyOp38
 70
     1
102
RTVSPropertyOp39
 70
     1
102
RTVSPropertyOp40
 70
     1
102
RTVSPropertyOp41
 70
     1
102
RTVSPropertyOp42
 70
     1
102
RTVSPropertyOp43
 70
     1
102
RTVSPropertyOp44
 70
     1
102
RTVSPropertyOp45
 70
     1
102
RTVSPropertyOp46
 70
     1
102
RTVSPropertyOp47
 70
     1
102
RTVSPropertyOp48
 70
     1
102
RTVSPropertyOp49
 70
     1
102
RTVSPropertyOp50
 70
     1
102
RTVSPropertyOp51
 70
     0
102
RTVSPropertyOp52
 70
     0
102
RTVSPropertyOp53
 70
     1
102
RTVSPropertyOp54
 70
     1
102
RTVSPropertyOp55
 70
     1
102
RTVSPropertyOp56
 70
     1
102
RTVSPropertyOp57
 70
     1
102
RTVSPropertyOp58
 70
     1
102
RTVSPropertyOp59
 70
     1
102
RTVSPropertyOp60
 70
     1
102
RTVSPropertyOp61
 70
     1
102
RTVSPropertyOp62
 70
     1
  0
XRECORD
  5
1B7E
102
{ACAD_REACTORS
330
1B7D
102
}
330
1B7D
100
AcDbXrecord
280
     1
102
RTVSPost2010Prop28
280
     0
102
RTVSPost2010PropOp28
 70
     1
102
RTVSPost2010Prop29
280
     1
102
RTVSPost2010PropOp29
 70
     1
102
RTVSPost2010Prop30
280
     1
102
RTVSPost2010PropOp30
 70
     1
102
RTVSPost2010Prop31
280
     0
102
RTVSPost2010PropOp31
 70
     1
102
RTVSPost2010Prop32
280
     0
102
RTVSPost2010PropOp32
 70
     1
102
RTVSPost2010Prop33
280
     0
102
RTVSPost2010PropOp33
 70
     1
102
RTVSPost2010Prop34
280
     0
102
RTVSPost2010PropOp34
 70
     1
102
RTVSPost2010Prop35
280
     0
102
RTVSPost2010PropOp35
 70
     1
102
RTVSPost2010Prop36
280
     0
102
RTVSPost2010PropOp36
 70
     1
102
RTVSPost2010Prop37
 90
       50
102
RTVSPost2010PropOp37
 70
     1
102
RTVSPost2010Prop38
140
0.0
102
RTVSPost2010PropOp38
 70
     1
102
RTVSPost2010Prop39
140
1.0
102
RTVSPost2010PropOp39
 70
     1
102
RTVSPost2010Prop40
 90
        0
102
RTVSPost2010PropOp40
 70
     1
102
RTVSPost2010Prop41ColorIndex
 90
       18
102
RTVSPost2010Prop41ColorRGB
 90
        0
102
RTVSPost2010PropOp41
 70
     1
102
RTVSPost2010Prop42
 90
       50
102
RTVSPost2010PropOp42
 70
     1
102
RTVSPost2010Prop43
 90
        3
102
RTVSPost2010PropOp43
 70
     1
102
RTVSPost2010Prop44ColorIndex
 90
        5
102
RTVSPost2010Prop44ColorRGB
 90
      255
102
RTVSPost2010PropOp44
 70
     1
102
RTVSPost2010Prop45
280
     0
102
RTVSPost2010PropOp45
 70
     1
102
RTVSPost2010Prop46
 90
       50
102
RTVSPost2010PropOp46
 70
     1
102
RTVSPost2010Prop47
 90
       50
102
RTVSPost2010PropOp47
 70
     1
102
RTVSPost2010Prop48
 90
       50
102
RTVSPost2010PropOp48
 70
     1
102
RTVSPost2010Prop49
280
     0
102
RTVSPost2010PropOp49
 70
     1
102
RTVSPost2010Prop50
 90
       50
102
RTVSPost2010PropOp50
 70
     1
102
RTVSPost2010Prop51ColorIndex
 90
      256
102
RTVSPost2010Prop51ColorRGB
 90
-16777216
102
RTVSPost2010PropOp51
 70
     0
102
RTVSPost2010Prop52
140
1.0
102
RTVSPost2010PropOp52
 70
     0
102
RTVSPost2010Prop53
 90
        2
102
RTVSPost2010PropOp53
 70
     1
102
RTVSPost2010Prop54
  1
strokes_ogs.tif
102
RTVSPost2010PropOp54
 70
     1
102
RTVSPost2010Prop55
280
     0
102
RTVSPost2010PropOp55
 70
     1
102
RTVSPost2010Prop56
140
1.0
102
RTVSPost2010PropOp56
 70
     1
102
RTVSPost2010Prop57
140
1.0
102
RTVSPost2010PropOp57
 70
     1
102
RTVSPropertyOp0
 70
     1
102
RTVSPropertyOp1
 70
     1
102
RTVSPropertyOp2
 70
     1
102
RTVSPropertyOp3
 70
     1
102
RTVSPropertyOp4
 70
     1
102
RTVSPropertyOp5
 70
     1
102
RTVSPropertyOp6
 70
     1
102
RTVSPropertyOp7
 70
     1
102
RTVSPropertyOp8
 70
     1
102
RTVSPropertyOp9
 70
     1
102
RTVSPropertyOp10
 70
     1
102
RTVSPropertyOp11
 70
     1
102
RTVSPropertyOp12
 70
     1
102
RTVSPropertyOp13
 70
     1
102
RTVSPropertyOp14
 70
     1
102
RTVSPropertyOp15
 70
     1
102
RTVSPropertyOp16
 70
     1
102
RTVSPropertyOp17
 70
     1
102
RTVSPropertyOp18
 70
     1
102
RTVSPropertyOp19
 70
     1
102
RTVSPropertyOp20
 70
     1
102
RTVSPropertyOp21
 70
     1
102
RTVSPropertyOp22
 70
     1
102
RTVSPropertyOp23
 70
     1
102
RTVSPropertyOp24
 70
     1
102
RTVSPropertyOp25
 70
     1
102
RTVSPropertyOp26
 70
     1
102
RTVSPropertyOp27
 70
     1
102
RTVSPropertyOp28
 70
     1
102
RTVSPropertyOp29
 70
     1
102
RTVSPropertyOp30
 70
     1
102
RTVSPropertyOp31
 70
     1
102
RTVSPropertyOp32
 70
     1
102
RTVSPropertyOp33
 70
     1
102
RTVSPropertyOp34
 70
     1
102
RTVSPropertyOp35
 70
     1
102
RTVSPropertyOp36
 70
     1
102
RTVSPropertyOp37
 70
     1
102
RTVSPropertyOp38
 70
     1
102
RTVSPropertyOp39
 70
     1
102
RTVSPropertyOp40
 70
     1
102
RTVSPropertyOp41
 70
     1
102
RTVSPropertyOp42
 70
     1
102
RTVSPropertyOp43
 70
     1
102
RTVSPropertyOp44
 70
     1
102
RTVSPropertyOp45
 70
     1
102
RTVSPropertyOp46
 70
     1
102
RTVSPropertyOp47
 70
     1
102
RTVSPropertyOp48
 70
     1
102
RTVSPropertyOp49
 70
     1
102
RTVSPropertyOp50
 70
     1
102
RTVSPropertyOp51
 70
     0
102
RTVSPropertyOp52
 70
     0
102
RTVSPropertyOp53
 70
     1
102
RTVSPropertyOp54
 70
     1
102
RTVSPropertyOp55
 70
     1
102
RTVSPropertyOp56
 70
     1
102
RTVSPropertyOp57
 70
     1
102
RTVSPropertyOp58
 70
     1
102
RTVSPropertyOp59
 70
     1
102
RTVSPropertyOp60
 70
     1
102
RTVSPropertyOp61
 70
     1
102
RTVSPropertyOp62
 70
     1
  0
XRECORD
  5
1B74
102
{ACAD_REACTORS
330
1B73
102
}
330
1B73
100
AcDbXrecord
280
     1
102
RTVSPost2010Prop28
280
     0
102
RTVSPost2010PropOp28
 70
     1
102
RTVSPost2010Prop29
280
     1
102
RTVSPost2010PropOp29
 70
     1
102
RTVSPost2010Prop30
280
     1
102
RTVSPost2010PropOp30
 70
     1
102
RTVSPost2010Prop31
280
     0
102
RTVSPost2010PropOp31
 70
     1
102
RTVSPost2010Prop32
280
     0
102
RTVSPost2010PropOp32
 70
     1
102
RTVSPost2010Prop33
280
     0
102
RTVSPost2010PropOp33
 70
     1
102
RTVSPost2010Prop34
280
     0
102
RTVSPost2010PropOp34
 70
     1
102
RTVSPost2010Prop35
280
     0
102
RTVSPost2010PropOp35
 70
     1
102
RTVSPost2010Prop36
280
     0
102
RTVSPost2010PropOp36
 70
     1
102
RTVSPost2010Prop37
 90
       50
102
RTVSPost2010PropOp37
 70
     1
102
RTVSPost2010Prop38
140
0.0
102
RTVSPost2010PropOp38
 70
     1
102
RTVSPost2010Prop39
140
1.0
102
RTVSPost2010PropOp39
 70
     1
102
RTVSPost2010Prop40
 90
        0
102
RTVSPost2010PropOp40
 70
     1
102
RTVSPost2010Prop41ColorIndex
 90
       18
102
RTVSPost2010Prop41ColorRGB
 90
        0
102
RTVSPost2010PropOp41
 70
     1
102
RTVSPost2010Prop42
 90
       50
102
RTVSPost2010PropOp42
 70
     1
102
RTVSPost2010Prop43
 90
        3
102
RTVSPost2010PropOp43
 70
     1
102
RTVSPost2010Prop44ColorIndex
 90
        5
102
RTVSPost2010Prop44ColorRGB
 90
      255
102
RTVSPost2010PropOp44
 70
     1
102
RTVSPost2010Prop45
280
     0
102
RTVSPost2010PropOp45
 70
     1
102
RTVSPost2010Prop46
 90
       50
102
RTVSPost2010PropOp46
 70
     1
102
RTVSPost2010Prop47
 90
       50
102
RTVSPost2010PropOp47
 70
     1
102
RTVSPost2010Prop48
 90
       50
102
RTVSPost2010PropOp48
 70
     1
102
RTVSPost2010Prop49
280
     0
102
RTVSPost2010PropOp49
 70
     1
102
RTVSPost2010Prop50
 90
       50
102
RTVSPost2010PropOp50
 70
     1
102
RTVSPost2010Prop51ColorIndex
 90
      256
102
RTVSPost2010Prop51ColorRGB
 90
-16777216
102
RTVSPost2010PropOp51
 70
     0
102
RTVSPost2010Prop52
140
1.0
102
RTVSPost2010PropOp52
 70
     0
102
RTVSPost2010Prop53
 90
        2
102
RTVSPost2010PropOp53
 70
     1
102
RTVSPost2010Prop54
  1
strokes_ogs.tif
102
RTVSPost2010PropOp54
 70
     1
102
RTVSPost2010Prop55
280
     0
102
RTVSPost2010PropOp55
 70
     1
102
RTVSPost2010Prop56
140
1.0
102
RTVSPost2010PropOp56
 70
     1
102
RTVSPost2010Prop57
140
1.0
102
RTVSPost2010PropOp57
 70
     1
102
RTVSPropertyOp0
 70
     1
102
RTVSPropertyOp1
 70
     1
102
RTVSPropertyOp2
 70
     1
102
RTVSPropertyOp3
 70
     1
102
RTVSPropertyOp4
 70
     1
102
RTVSPropertyOp5
 70
     1
102
RTVSPropertyOp6
 70
     1
102
RTVSPropertyOp7
 70
     1
102
RTVSPropertyOp8
 70
     1
102
RTVSPropertyOp9
 70
     1
102
RTVSPropertyOp10
 70
     1
102
RTVSPropertyOp11
 70
     1
102
RTVSPropertyOp12
 70
     1
102
RTVSPropertyOp13
 70
     1
102
RTVSPropertyOp14
 70
     1
102
RTVSPropertyOp15
 70
     1
102
RTVSPropertyOp16
 70
     1
102
RTVSPropertyOp17
 70
     1
102
RTVSPropertyOp18
 70
     1
102
RTVSPropertyOp19
 70
     1
102
RTVSPropertyOp20
 70
     1
102
RTVSPropertyOp21
 70
     1
102
RTVSPropertyOp22
 70
     1
102
RTVSPropertyOp23
 70
     1
102
RTVSPropertyOp24
 70
     1
102
RTVSPropertyOp25
 70
     1
102
RTVSPropertyOp26
 70
     1
102
RTVSPropertyOp27
 70
     1
102
RTVSPropertyOp28
 70
     1
102
RTVSPropertyOp29
 70
     1
102
RTVSPropertyOp30
 70
     1
102
RTVSPropertyOp31
 70
     1
102
RTVSPropertyOp32
 70
     1
102
RTVSPropertyOp33
 70
     1
102
RTVSPropertyOp34
 70
     1
102
RTVSPropertyOp35
 70
     1
102
RTVSPropertyOp36
 70
     1
102
RTVSPropertyOp37
 70
     1
102
RTVSPropertyOp38
 70
     1
102
RTVSPropertyOp39
 70
     1
102
RTVSPropertyOp40
 70
     1
102
RTVSPropertyOp41
 70
     1
102
RTVSPropertyOp42
 70
     1
102
RTVSPropertyOp43
 70
     1
102
RTVSPropertyOp44
 70
     1
102
RTVSPropertyOp45
 70
     1
102
RTVSPropertyOp46
 70
     1
102
RTVSPropertyOp47
 70
     1
102
RTVSPropertyOp48
 70
     1
102
RTVSPropertyOp49
 70
     1
102
RTVSPropertyOp50
 70
     1
102
RTVSPropertyOp51
 70
     0
102
RTVSPropertyOp52
 70
     0
102
RTVSPropertyOp53
 70
     1
102
RTVSPropertyOp54
 70
     1
102
RTVSPropertyOp55
 70
     1
102
RTVSPropertyOp56
 70
     1
102
RTVSPropertyOp57
 70
     1
102
RTVSPropertyOp58
 70
     1
102
RTVSPropertyOp59
 70
     1
102
RTVSPropertyOp60
 70
     1
102
RTVSPropertyOp61
 70
     1
102
RTVSPropertyOp62
 70
     1
  0
XRECORD
  5
1B68
102
{ACAD_REACTORS
330
1B67
102
}
330
1B67
100
AcDbXrecord
280
     1
102
RTVSPost2010Prop28
280
     0
102
RTVSPost2010PropOp28
 70
     1
102
RTVSPost2010Prop29
280
     1
102
RTVSPost2010PropOp29
 70
     1
102
RTVSPost2010Prop30
280
     1
102
RTVSPost2010PropOp30
 70
     1
102
RTVSPost2010Prop31
280
     0
102
RTVSPost2010PropOp31
 70
     1
102
RTVSPost2010Prop32
280
     0
102
RTVSPost2010PropOp32
 70
     1
102
RTVSPost2010Prop33
280
     0
102
RTVSPost2010PropOp33
 70
     1
102
RTVSPost2010Prop34
280
     0
102
RTVSPost2010PropOp34
 70
     1
102
RTVSPost2010Prop35
280
     0
102
RTVSPost2010PropOp35
 70
     1
102
RTVSPost2010Prop36
280
     0
102
RTVSPost2010PropOp36
 70
     1
102
RTVSPost2010Prop37
 90
       50
102
RTVSPost2010PropOp37
 70
     1
102
RTVSPost2010Prop38
140
0.0
102
RTVSPost2010PropOp38
 70
     1
102
RTVSPost2010Prop39
140
1.0
102
RTVSPost2010PropOp39
 70
     1
102
RTVSPost2010Prop40
 90
        0
102
RTVSPost2010PropOp40
 70
     1
102
RTVSPost2010Prop41ColorIndex
 90
       18
102
RTVSPost2010Prop41ColorRGB
 90
        0
102
RTVSPost2010PropOp41
 70
     1
102
RTVSPost2010Prop42
 90
       50
102
RTVSPost2010PropOp42
 70
     1
102
RTVSPost2010Prop43
 90
        3
102
RTVSPost2010PropOp43
 70
     1
102
RTVSPost2010Prop44ColorIndex
 90
        5
102
RTVSPost2010Prop44ColorRGB
 90
      255
102
RTVSPost2010PropOp44
 70
     1
102
RTVSPost2010Prop45
280
     0
102
RTVSPost2010PropOp45
 70
     1
102
RTVSPost2010Prop46
 90
       50
102
RTVSPost2010PropOp46
 70
     1
102
RTVSPost2010Prop47
 90
       50
102
RTVSPost2010PropOp47
 70
     1
102
RTVSPost2010Prop48
 90
       50
102
RTVSPost2010PropOp48
 70
     1
102
RTVSPost2010Prop49
280
     0
102
RTVSPost2010PropOp49
 70
     1
102
RTVSPost2010Prop50
 90
       50
102
RTVSPost2010PropOp50
 70
     1
102
RTVSPost2010Prop51ColorIndex
 90
      256
102
RTVSPost2010Prop51ColorRGB
 90
-16777216
102
RTVSPost2010PropOp51
 70
     0
102
RTVSPost2010Prop52
140
1.0
102
RTVSPost2010PropOp52
 70
     0
102
RTVSPost2010Prop53
 90
        2
102
RTVSPost2010PropOp53
 70
     1
102
RTVSPost2010Prop54
  1
strokes_ogs.tif
102
RTVSPost2010PropOp54
 70
     1
102
RTVSPost2010Prop55
280
     0
102
RTVSPost2010PropOp55
 70
     1
102
RTVSPost2010Prop56
140
1.0
102
RTVSPost2010PropOp56
 70
     1
102
RTVSPost2010Prop57
140
1.0
102
RTVSPost2010PropOp57
 70
     1
102
RTVSPropertyOp0
 70
     1
102
RTVSPropertyOp1
 70
     1
102
RTVSPropertyOp2
 70
     1
102
RTVSPropertyOp3
 70
     1
102
RTVSPropertyOp4
 70
     1
102
RTVSPropertyOp5
 70
     1
102
RTVSPropertyOp6
 70
     1
102
RTVSPropertyOp7
 70
     1
102
RTVSPropertyOp8
 70
     1
102
RTVSPropertyOp9
 70
     1
102
RTVSPropertyOp10
 70
     1
102
RTVSPropertyOp11
 70
     1
102
RTVSPropertyOp12
 70
     1
102
RTVSPropertyOp13
 70
     1
102
RTVSPropertyOp14
 70
     1
102
RTVSPropertyOp15
 70
     1
102
RTVSPropertyOp16
 70
     1
102
RTVSPropertyOp17
 70
     1
102
RTVSPropertyOp18
 70
     1
102
RTVSPropertyOp19
 70
     1
102
RTVSPropertyOp20
 70
     1
102
RTVSPropertyOp21
 70
     1
102
RTVSPropertyOp22
 70
     1
102
RTVSPropertyOp23
 70
     1
102
RTVSPropertyOp24
 70
     1
102
RTVSPropertyOp25
 70
     1
102
RTVSPropertyOp26
 70
     1
102
RTVSPropertyOp27
 70
     1
102
RTVSPropertyOp28
 70
     1
102
RTVSPropertyOp29
 70
     1
102
RTVSPropertyOp30
 70
     1
102
RTVSPropertyOp31
 70
     1
102
RTVSPropertyOp32
 70
     1
102
RTVSPropertyOp33
 70
     1
102
RTVSPropertyOp34
 70
     1
102
RTVSPropertyOp35
 70
     1
102
RTVSPropertyOp36
 70
     1
102
RTVSPropertyOp37
 70
     1
102
RTVSPropertyOp38
 70
     1
102
RTVSPropertyOp39
 70
     1
102
RTVSPropertyOp40
 70
     1
102
RTVSPropertyOp41
 70
     1
102
RTVSPropertyOp42
 70
     1
102
RTVSPropertyOp43
 70
     1
102
RTVSPropertyOp44
 70
     1
102
RTVSPropertyOp45
 70
     1
102
RTVSPropertyOp46
 70
     1
102
RTVSPropertyOp47
 70
     1
102
RTVSPropertyOp48
 70
     1
102
RTVSPropertyOp49
 70
     1
102
RTVSPropertyOp50
 70
     1
102
RTVSPropertyOp51
 70
     0
102
RTVSPropertyOp52
 70
     0
102
RTVSPropertyOp53
 70
     1
102
RTVSPropertyOp54
 70
     1
102
RTVSPropertyOp55
 70
     1
102
RTVSPropertyOp56
 70
     1
102
RTVSPropertyOp57
 70
     1
102
RTVSPropertyOp58
 70
     1
102
RTVSPropertyOp59
 70
     1
102
RTVSPropertyOp60
 70
     1
102
RTVSPropertyOp61
 70
     1
102
RTVSPropertyOp62
 70
     1
  0
XRECORD
  5
1B80
102
{ACAD_REACTORS
330
1B7F
102
}
330
1B7F
100
AcDbXrecord
280
     1
102
RTVSPost2010Prop28
280
     0
102
RTVSPost2010PropOp28
 70
     1
102
RTVSPost2010Prop29
280
     1
102
RTVSPost2010PropOp29
 70
     1
102
RTVSPost2010Prop30
280
     1
102
RTVSPost2010PropOp30
 70
     1
102
RTVSPost2010Prop31
280
     0
102
RTVSPost2010PropOp31
 70
     1
102
RTVSPost2010Prop32
280
     0
102
RTVSPost2010PropOp32
 70
     1
102
RTVSPost2010Prop33
280
     0
102
RTVSPost2010PropOp33
 70
     1
102
RTVSPost2010Prop34
280
     0
102
RTVSPost2010PropOp34
 70
     1
102
RTVSPost2010Prop35
280
     0
102
RTVSPost2010PropOp35
 70
     1
102
RTVSPost2010Prop36
280
     0
102
RTVSPost2010PropOp36
 70
     1
102
RTVSPost2010Prop37
 90
       50
102
RTVSPost2010PropOp37
 70
     1
102
RTVSPost2010Prop38
140
0.0
102
RTVSPost2010PropOp38
 70
     1
102
RTVSPost2010Prop39
140
1.0
102
RTVSPost2010PropOp39
 70
     1
102
RTVSPost2010Prop40
 90
        0
102
RTVSPost2010PropOp40
 70
     1
102
RTVSPost2010Prop41ColorIndex
 90
       18
102
RTVSPost2010Prop41ColorRGB
 90
        0
102
RTVSPost2010PropOp41
 70
     1
102
RTVSPost2010Prop42
 90
       50
102
RTVSPost2010PropOp42
 70
     1
102
RTVSPost2010Prop43
 90
        3
102
RTVSPost2010PropOp43
 70
     1
102
RTVSPost2010Prop44ColorIndex
 90
        5
102
RTVSPost2010Prop44ColorRGB
 90
      255
102
RTVSPost2010PropOp44
 70
     1
102
RTVSPost2010Prop45
280
     0
102
RTVSPost2010PropOp45
 70
     1
102
RTVSPost2010Prop46
 90
       50
102
RTVSPost2010PropOp46
 70
     1
102
RTVSPost2010Prop47
 90
       50
102
RTVSPost2010PropOp47
 70
     1
102
RTVSPost2010Prop48
 90
       50
102
RTVSPost2010PropOp48
 70
     1
102
RTVSPost2010Prop49
280
     0
102
RTVSPost2010PropOp49
 70
     1
102
RTVSPost2010Prop50
 90
       50
102
RTVSPost2010PropOp50
 70
     1
102
RTVSPost2010Prop51ColorIndex
 90
      256
102
RTVSPost2010Prop51ColorRGB
 90
-16777216
102
RTVSPost2010PropOp51
 70
     0
102
RTVSPost2010Prop52
140
1.0
102
RTVSPost2010PropOp52
 70
     0
102
RTVSPost2010Prop53
 90
        2
102
RTVSPost2010PropOp53
 70
     1
102
RTVSPost2010Prop54
  1
strokes_ogs.tif
102
RTVSPost2010PropOp54
 70
     1
102
RTVSPost2010Prop55
280
     0
102
RTVSPost2010PropOp55
 70
     1
102
RTVSPost2010Prop56
140
1.0
102
RTVSPost2010PropOp56
 70
     1
102
RTVSPost2010Prop57
140
1.0
102
RTVSPost2010PropOp57
 70
     1
102
RTVSPropertyOp0
 70
     1
102
RTVSPropertyOp1
 70
     1
102
RTVSPropertyOp2
 70
     1
102
RTVSPropertyOp3
 70
     1
102
RTVSPropertyOp4
 70
     1
102
RTVSPropertyOp5
 70
     1
102
RTVSPropertyOp6
 70
     1
102
RTVSPropertyOp7
 70
     1
102
RTVSPropertyOp8
 70
     1
102
RTVSPropertyOp9
 70
     1
102
RTVSPropertyOp10
 70
     1
102
RTVSPropertyOp11
 70
     1
102
RTVSPropertyOp12
 70
     1
102
RTVSPropertyOp13
 70
     1
102
RTVSPropertyOp14
 70
     1
102
RTVSPropertyOp15
 70
     1
102
RTVSPropertyOp16
 70
     1
102
RTVSPropertyOp17
 70
     1
102
RTVSPropertyOp18
 70
     1
102
RTVSPropertyOp19
 70
     1
102
RTVSPropertyOp20
 70
     1
102
RTVSPropertyOp21
 70
     1
102
RTVSPropertyOp22
 70
     1
102
RTVSPropertyOp23
 70
     1
102
RTVSPropertyOp24
 70
     1
102
RTVSPropertyOp25
 70
     1
102
RTVSPropertyOp26
 70
     1
102
RTVSPropertyOp27
 70
     1
102
RTVSPropertyOp28
 70
     1
102
RTVSPropertyOp29
 70
     1
102
RTVSPropertyOp30
 70
     1
102
RTVSPropertyOp31
 70
     1
102
RTVSPropertyOp32
 70
     1
102
RTVSPropertyOp33
 70
     1
102
RTVSPropertyOp34
 70
     1
102
RTVSPropertyOp35
 70
     1
102
RTVSPropertyOp36
 70
     1
102
RTVSPropertyOp37
 70
     1
102
RTVSPropertyOp38
 70
     1
102
RTVSPropertyOp39
 70
     1
102
RTVSPropertyOp40
 70
     1
102
RTVSPropertyOp41
 70
     1
102
RTVSPropertyOp42
 70
     1
102
RTVSPropertyOp43
 70
     1
102
RTVSPropertyOp44
 70
     1
102
RTVSPropertyOp45
 70
     1
102
RTVSPropertyOp46
 70
     1
102
RTVSPropertyOp47
 70
     1
102
RTVSPropertyOp48
 70
     1
102
RTVSPropertyOp49
 70
     1
102
RTVSPropertyOp50
 70
     1
102
RTVSPropertyOp51
 70
     0
102
RTVSPropertyOp52
 70
     0
102
RTVSPropertyOp53
 70
     1
102
RTVSPropertyOp54
 70
     1
102
RTVSPropertyOp55
 70
     1
102
RTVSPropertyOp56
 70
     1
102
RTVSPropertyOp57
 70
     1
102
RTVSPropertyOp58
 70
     1
102
RTVSPropertyOp59
 70
     1
102
RTVSPropertyOp60
 70
     1
102
RTVSPropertyOp61
 70
     1
102
RTVSPropertyOp62
 70
     1
  0
ACDBASSOCARRAYACTIONBODY
  5
1964
330
1963
100
AcDbAssocActionBody
 90
        1
100
AcDbAssocParamBasedActionBody
 90
        0
 90
        0
 90
        3
360
1965
360
1966
360
196A
 90
        0
 90
        9
 90
        0
  1
AlignItems
 90
        0
 90
        1
 90
        0
330
0
330
0
 90
        0
  1
AxesAngle
 90
        2
 90
        1
 40
1.570796326794896
330
0
330
0
 90
        0
  1
ItemSpacing
 90
        1
 90
        1
 40
12.56
330
0
330
0
 90
        0
  1
Items
 90
        0
 90
        1
 90
       78
330
0
330
0
 90
        0
  1
LevelSpacing
 90
        1
 90
        1
 40
1.0
330
0
330
0
 90
        0
  1
Levels
 90
        0
 90
        1
 90
        1
330
0
330
0
 90
        0
  1
RowElevation
 90
        1
 90
        1
 40
0.0
330
0
330
0
 90
        0
  1
RowSpacing
 90
        1
 90
        1
 40
336.0000000000003
330
0
330
0
 90
        0
  1
Rows
 90
        0
 90
        1
 90
        1
330
0
330
0
100
AcDbAssocArrayActionBody
 90
        1
  1
AcDbAssocArrayRectangularParameters
 90
        0
 90
       78
  1
AcDbAssocArrayItem
100
AcDbAssocArrayItem
 90
        0
 90
        0
 90
        0
 90
        0
 90
        8
 11
0.0
 21
0.0
 31
0.0
330
196C
100
AcDbAssocArrayItem
 90
        0
 90
        1
 90
        0
 90
        0
 90
        8
 11
12.56
 21
0.0
 31
0.0
330
196D
100
AcDbAssocArrayItem
 90
        0
 90
        2
 90
        0
 90
        0
 90
        8
 11
25.12
 21
0.0
 31
0.0
330
196E
100
AcDbAssocArrayItem
 90
        0
 90
        3
 90
        0
 90
        0
 90
        8
 11
37.68
 21
0.0
 31
0.0
330
196F
100
AcDbAssocArrayItem
 90
        0
 90
        4
 90
        0
 90
        0
 90
        8
 11
50.24
 21
0.0
 31
0.0
330
1970
100
AcDbAssocArrayItem
 90
        0
 90
        5
 90
        0
 90
        0
 90
        8
 11
62.80000000000001
 21
0.0
 31
0.0
330
1971
100
AcDbAssocArrayItem
 90
        0
 90
        6
 90
        0
 90
        0
 90
        8
 11
75.36
 21
0.0
 31
0.0
330
1972
100
AcDbAssocArrayItem
 90
        0
 90
        7
 90
        0
 90
        0
 90
        8
 11
87.91999999999999
 21
0.0
 31
0.0
330
1973
100
AcDbAssocArrayItem
 90
        0
 90
        8
 90
        0
 90
        0
 90
        8
 11
100.48
 21
0.0
 31
0.0
330
1974
100
AcDbAssocArrayItem
 90
        0
 90
        9
 90
        0
 90
        0
 90
        8
 11
113.04
 21
0.0
 31
0.0
330
1975
100
AcDbAssocArrayItem
 90
        0
 90
       10
 90
        0
 90
        0
 90
        8
 11
125.6
 21
0.0
 31
0.0
330
1976
100
AcDbAssocArrayItem
 90
        0
 90
       11
 90
        0
 90
        0
 90
        8
 11
138.16
 21
0.0
 31
0.0
330
1977
100
AcDbAssocArrayItem
 90
        0
 90
       12
 90
        0
 90
        0
 90
        8
 11
150.72
 21
0.0
 31
0.0
330
1978
100
AcDbAssocArrayItem
 90
        0
 90
       13
 90
        0
 90
        0
 90
        8
 11
163.28
 21
0.0
 31
0.0
330
1979
100
AcDbAssocArrayItem
 90
        0
 90
       14
 90
        0
 90
        0
 90
        8
 11
175.84
 21
0.0
 31
0.0
330
197A
100
AcDbAssocArrayItem
 90
        0
 90
       15
 90
        0
 90
        0
 90
        8
 11
188.4
 21
0.0
 31
0.0
330
197B
100
AcDbAssocArrayItem
 90
        0
 90
       16
 90
        0
 90
        0
 90
        8
 11
200.96
 21
0.0
 31
0.0
330
197C
100
AcDbAssocArrayItem
 90
        0
 90
       17
 90
        0
 90
        0
 90
        8
 11
213.52
 21
0.0
 31
0.0
330
197D
100
AcDbAssocArrayItem
 90
        0
 90
       18
 90
        0
 90
        0
 90
        8
 11
226.08
 21
0.0
 31
0.0
330
197E
100
AcDbAssocArrayItem
 90
        0
 90
       19
 90
        0
 90
        0
 90
        8
 11
238.64
 21
0.0
 31
0.0
330
197F
100
AcDbAssocArrayItem
 90
        0
 90
       20
 90
        0
 90
        0
 90
        8
 11
251.2
 21
0.0
 31
0.0
330
1980
100
AcDbAssocArrayItem
 90
        0
 90
       21
 90
        0
 90
        0
 90
        8
 11
263.76
 21
0.0
 31
0.0
330
1981
100
AcDbAssocArrayItem
 90
        0
 90
       22
 90
        0
 90
        0
 90
        8
 11
276.32
 21
0.0
 31
0.0
330
1982
100
AcDbAssocArrayItem
 90
        0
 90
       23
 90
        0
 90
        0
 90
        8
 11
288.88
 21
0.0
 31
0.0
330
1983
100
AcDbAssocArrayItem
 90
        0
 90
       24
 90
        0
 90
        0
 90
        8
 11
301.44
 21
0.0
 31
0.0
330
1984
100
AcDbAssocArrayItem
 90
        0
 90
       25
 90
        0
 90
        0
 90
        8
 11
314.0
 21
0.0
 31
0.0
330
1985
100
AcDbAssocArrayItem
 90
        0
 90
       26
 90
        0
 90
        0
 90
        8
 11
326.56
 21
0.0
 31
0.0
330
1986
100
AcDbAssocArrayItem
 90
        0
 90
       27
 90
        0
 90
        0
 90
        8
 11
339.12
 21
0.0
 31
0.0
330
1987
100
AcDbAssocArrayItem
 90
        0
 90
       28
 90
        0
 90
        0
 90
        8
 11
351.68
 21
0.0
 31
0.0
330
1988
100
AcDbAssocArrayItem
 90
        0
 90
       29
 90
        0
 90
        0
 90
        8
 11
364.24
 21
0.0
 31
0.0
330
1989
100
AcDbAssocArrayItem
 90
        0
 90
       30
 90
        0
 90
        0
 90
        8
 11
376.8
 21
0.0
 31
0.0
330
198A
100
AcDbAssocArrayItem
 90
        0
 90
       31
 90
        0
 90
        0
 90
        8
 11
389.36
 21
0.0
 31
0.0
330
198B
100
AcDbAssocArrayItem
 90
        0
 90
       32
 90
        0
 90
        0
 90
        8
 11
401.92
 21
0.0
 31
0.0
330
198C
100
AcDbAssocArrayItem
 90
        0
 90
       33
 90
        0
 90
        0
 90
        8
 11
414.48
 21
0.0
 31
0.0
330
198D
100
AcDbAssocArrayItem
 90
        0
 90
       34
 90
        0
 90
        0
 90
        8
 11
427.04
 21
0.0
 31
0.0
330
198E
100
AcDbAssocArrayItem
 90
        0
 90
       35
 90
        0
 90
        0
 90
        8
 11
439.5999999999999
 21
0.0
 31
0.0
330
198F
100
AcDbAssocArrayItem
 90
        0
 90
       36
 90
        0
 90
        0
 90
        8
 11
452.16
 21
0.0
 31
0.0
330
1990
100
AcDbAssocArrayItem
 90
        0
 90
       37
 90
        0
 90
        0
 90
        8
 11
464.72
 21
0.0
 31
0.0
330
1991
100
AcDbAssocArrayItem
 90
        0
 90
       38
 90
        0
 90
        0
 90
        8
 11
477.28
 21
0.0
 31
0.0
330
1992
100
AcDbAssocArrayItem
 90
        0
 90
       39
 90
        0
 90
        0
 90
        8
 11
489.84
 21
0.0
 31
0.0
330
1993
100
AcDbAssocArrayItem
 90
        0
 90
       40
 90
        0
 90
        0
 90
        8
 11
502.4
 21
0.0
 31
0.0
330
1994
100
AcDbAssocArrayItem
 90
        0
 90
       41
 90
        0
 90
        0
 90
        8
 11
514.96
 21
0.0
 31
0.0
330
1995
100
AcDbAssocArrayItem
 90
        0
 90
       42
 90
        0
 90
        0
 90
        8
 11
527.5199999999999
 21
0.0
 31
0.0
330
1996
100
AcDbAssocArrayItem
 90
        0
 90
       43
 90
        0
 90
        0
 90
        8
 11
540.08
 21
0.0
 31
0.0
330
1997
100
AcDbAssocArrayItem
 90
        0
 90
       44
 90
        0
 90
        0
 90
        8
 11
552.6399999999999
 21
0.0
 31
0.0
330
1998
100
AcDbAssocArrayItem
 90
        0
 90
       45
 90
        0
 90
        0
 90
        8
 11
565.2
 21
0.0
 31
0.0
330
1999
100
AcDbAssocArrayItem
 90
        0
 90
       46
 90
        0
 90
        0
 90
        8
 11
577.7599999999999
 21
0.0
 31
0.0
330
199A
100
AcDbAssocArrayItem
 90
        0
 90
       47
 90
        0
 90
        0
 90
        8
 11
590.32
 21
0.0
 31
0.0
330
199B
100
AcDbAssocArrayItem
 90
        0
 90
       48
 90
        0
 90
        0
 90
        8
 11
602.88
 21
0.0
 31
0.0
330
199C
100
AcDbAssocArrayItem
 90
        0
 90
       49
 90
        0
 90
        0
 90
        8
 11
615.44
 21
0.0
 31
0.0
330
199D
100
AcDbAssocArrayItem
 90
        0
 90
       50
 90
        0
 90
        0
 90
        8
 11
628.0
 21
0.0
 31
0.0
330
199E
100
AcDbAssocArrayItem
 90
        0
 90
       51
 90
        0
 90
        0
 90
        8
 11
640.56
 21
0.0
 31
0.0
330
199F
100
AcDbAssocArrayItem
 90
        0
 90
       52
 90
        0
 90
        0
 90
        8
 11
653.12
 21
0.0
 31
0.0
330
19A0
100
AcDbAssocArrayItem
 90
        0
 90
       53
 90
        0
 90
        0
 90
        8
 11
665.68
 21
0.0
 31
0.0
330
19A1
100
AcDbAssocArrayItem
 90
        0
 90
       54
 90
        0
 90
        0
 90
        8
 11
678.2399999999999
 21
0.0
 31
0.0
330
19A2
100
AcDbAssocArrayItem
 90
        0
 90
       55
 90
        0
 90
        0
 90
        8
 11
690.8000000000001
 21
0.0
 31
0.0
330
19A3
100
AcDbAssocArrayItem
 90
        0
 90
       56
 90
        0
 90
        0
 90
        8
 11
703.3599999999999
 21
0.0
 31
0.0
330
19A4
100
AcDbAssocArrayItem
 90
        0
 90
       57
 90
        0
 90
        0
 90
        8
 11
715.9200000000001
 21
0.0
 31
0.0
330
19A5
100
AcDbAssocArrayItem
 90
        0
 90
       58
 90
        0
 90
        0
 90
        8
 11
728.48
 21
0.0
 31
0.0
330
19A6
100
AcDbAssocArrayItem
 90
        0
 90
       59
 90
        0
 90
        0
 90
        8
 11
741.04
 21
0.0
 31
0.0
330
19A7
100
AcDbAssocArrayItem
 90
        0
 90
       60
 90
        0
 90
        0
 90
        8
 11
753.6
 21
0.0
 31
0.0
330
19A8
100
AcDbAssocArrayItem
 90
        0
 90
       61
 90
        0
 90
        0
 90
        8
 11
766.16
 21
0.0
 31
0.0
330
19A9
100
AcDbAssocArrayItem
 90
        0
 90
       62
 90
        0
 90
        0
 90
        8
 11
778.72
 21
0.0
 31
0.0
330
19AA
100
AcDbAssocArrayItem
 90
        0
 90
       63
 90
        0
 90
        0
 90
        8
 11
791.28
 21
0.0
 31
0.0
330
19AB
100
AcDbAssocArrayItem
 90
        0
 90
       64
 90
        0
 90
        0
 90
        8
 11
803.8400000000001
 21
0.0
 31
0.0
330
19AC
100
AcDbAssocArrayItem
 90
        0
 90
       65
 90
        0
 90
        0
 90
        8
 11
816.3999999999999
 21
0.0
 31
0.0
330
19AD
100
AcDbAssocArrayItem
 90
        0
 90
       66
 90
        0
 90
        0
 90
        8
 11
828.96
 21
0.0
 31
0.0
330
19AE
100
AcDbAssocArrayItem
 90
        0
 90
       67
 90
        0
 90
        0
 90
        8
 11
841.52
 21
0.0
 31
0.0
330
19AF
100
AcDbAssocArrayItem
 90
        0
 90
       68
 90
        0
 90
        0
 90
        8
 11
854.08
 21
0.0
 31
0.0
330
19B0
100
AcDbAssocArrayItem
 90
        0
 90
       69
 90
        0
 90
        0
 90
        8
 11
866.6399999999999
 21
0.0
 31
0.0
330
19B1
100
AcDbAssocArrayItem
 90
        0
 90
       70
 90
        0
 90
        0
 90
        8
 11
879.1999999999999
 21
0.0
 31
0.0
330
19B2
100
AcDbAssocArrayItem
 90
        0
 90
       71
 90
        0
 90
        0
 90
        8
 11
891.76
 21
0.0
 31
0.0
330
19B3
100
AcDbAssocArrayItem
 90
        0
 90
       72
 90
        0
 90
        0
 90
        8
 11
904.32
 21
0.0
 31
0.0
330
19B4
100
AcDbAssocArrayItem
 90
        0
 90
       73
 90
        0
 90
        0
 90
        8
 11
916.88
 21
0.0
 31
0.0
330
19B5
100
AcDbAssocArrayItem
 90
        0
 90
       74
 90
        0
 90
        0
 90
        8
 11
929.4400000000001
 21
0.0
 31
0.0
330
19B6
100
AcDbAssocArrayItem
 90
        0
 90
       75
 90
        0
 90
        0
 90
        8
 11
942.0
 21
0.0
 31
0.0
330
19B7
100
AcDbAssocArrayItem
 90
        0
 90
       76
 90
        0
 90
        0
 90
        8
 11
954.56
 21
0.0
 31
0.0
330
19B8
100
AcDbAssocArrayItem
 90
        0
 90
       77
 90
        0
 90
        0
 90
        8
 11
967.12
 21
0.0
 31
0.0
330
19B9
 40
1.0
 40
0.0
 40
0.0
 40
436.5225202550994
 40
0.0
 40
1.0
 40
0.0
 40
1425.075460837858
 40
0.0
 40
0.0
 40
1.0
 40
0.0
 40
0.0
 40
0.0
 40
0.0
 40
1.0
  0
ACDBASSOCDEPENDENCY
  5
1967
330
1963
100
AcDbAssocDependency
 90
        2
 90
        1
290
     0
290
     1
290
     1
290
     1
 90
        0
330
1922
290
     0
330
0
330
0
360
0
 90
        1
  0
ACDBASSOCDEPENDENCY
  5
1968
330
1963
100
AcDbAssocDependency
 90
        2
 90
        1
290
     1
290
     0
290
     1
290
     1
 90
        0
330
191F
290
     0
330
0
330
0
360
0
 90
        2
  0
ACDBASSOCDEPENDENCY
  5
1969
330
1963
100
AcDbAssocDependency
 90
        2
 90
        0
290
     1
290
     1
290
     1
290
     1
 90
-2147483648
330
1925
290
     0
330
0
330
0
360
0
 90
        3
  0
ACDBASSOCARRAYACTIONBODY
  5
19C6
330
19C5
100
AcDbAssocActionBody
 90
        1
100
AcDbAssocParamBasedActionBody
 90
        0
 90
        0
 90
        3
360
19C7
360
19C8
360
19CC
 90
        0
 90
        9
 90
        0
  1
AlignItems
 90
        0
 90
        1
 90
        0
330
0
330
0
 90
        0
  1
AxesAngle
 90
        2
 90
        1
 40
1.570796326794896
330
0
330
0
 90
        0
  1
ItemSpacing
 90
        1
 90
        1
 40
30.0
330
0
330
0
 90
        0
  1
Items
 90
        0
 90
        1
 90
       33
330
0
330
0
 90
        0
  1
LevelSpacing
 90
        1
 90
        1
 40
1.0
330
0
330
0
 90
        0
  1
Levels
 90
        0
 90
        1
 90
        1
330
0
330
0
 90
        0
  1
RowElevation
 90
        1
 90
        1
 40
0.0
330
0
330
0
 90
        0
  1
RowSpacing
 90
        1
 90
        1
 40
157.5
330
0
330
0
 90
        0
  1
Rows
 90
        0
 90
        1
 90
        1
330
0
330
0
100
AcDbAssocArrayActionBody
 90
        1
  1
AcDbAssocArrayRectangularParameters
 90
        0
 90
       33
  1
AcDbAssocArrayItem
100
AcDbAssocArrayItem
 90
        0
 90
        0
 90
        0
 90
        0
 90
        8
 11
0.0
 21
0.0
 31
0.0
330
19CE
100
AcDbAssocArrayItem
 90
        0
 90
        1
 90
        0
 90
        0
 90
        8
 11
30.0
 21
0.0
 31
0.0
330
19CF
100
AcDbAssocArrayItem
 90
        0
 90
        2
 90
        0
 90
        0
 90
        8
 11
60.0
 21
0.0
 31
0.0
330
19D0
100
AcDbAssocArrayItem
 90
        0
 90
        3
 90
        0
 90
        0
 90
        8
 11
90.0
 21
0.0
 31
0.0
330
19D1
100
AcDbAssocArrayItem
 90
        0
 90
        4
 90
        0
 90
        0
 90
        8
 11
120.0
 21
0.0
 31
0.0
330
19D2
100
AcDbAssocArrayItem
 90
        0
 90
        5
 90
        0
 90
        0
 90
        8
 11
150.0
 21
0.0
 31
0.0
330
19D3
100
AcDbAssocArrayItem
 90
        0
 90
        6
 90
        0
 90
        0
 90
        8
 11
180.0
 21
0.0
 31
0.0
330
19D4
100
AcDbAssocArrayItem
 90
        0
 90
        7
 90
        0
 90
        0
 90
        8
 11
210.0
 21
0.0
 31
0.0
330
19D5
100
AcDbAssocArrayItem
 90
        0
 90
        8
 90
        0
 90
        0
 90
        8
 11
240.0
 21
0.0
 31
0.0
330
19D6
100
AcDbAssocArrayItem
 90
        0
 90
        9
 90
        0
 90
        0
 90
        8
 11
270.0
 21
0.0
 31
0.0
330
19D7
100
AcDbAssocArrayItem
 90
        0
 90
       10
 90
        0
 90
        0
 90
        8
 11
300.0
 21
0.0
 31
0.0
330
19D8
100
AcDbAssocArrayItem
 90
        0
 90
       11
 90
        0
 90
        0
 90
        8
 11
330.0
 21
0.0
 31
0.0
330
19D9
100
AcDbAssocArrayItem
 90
        0
 90
       12
 90
        0
 90
        0
 90
        8
 11
360.0
 21
0.0
 31
0.0
330
19DA
100
AcDbAssocArrayItem
 90
        0
 90
       13
 90
        0
 90
        0
 90
        8
 11
390.0
 21
0.0
 31
0.0
330
19DB
100
AcDbAssocArrayItem
 90
        0
 90
       14
 90
        0
 90
        0
 90
        8
 11
420.0
 21
0.0
 31
0.0
330
19DC
100
AcDbAssocArrayItem
 90
        0
 90
       15
 90
        0
 90
        0
 90
        8
 11
450.0
 21
0.0
 31
0.0
330
19DD
100
AcDbAssocArrayItem
 90
        0
 90
       16
 90
        0
 90
        0
 90
        8
 11
480.0
 21
0.0
 31
0.0
330
19DE
100
AcDbAssocArrayItem
 90
        0
 90
       17
 90
        0
 90
        0
 90
        8
 11
510.0
 21
0.0
 31
0.0
330
19DF
100
AcDbAssocArrayItem
 90
        0
 90
       18
 90
        0
 90
        0
 90
        8
 11
540.0
 21
0.0
 31
0.0
330
19E0
100
AcDbAssocArrayItem
 90
        0
 90
       19
 90
        0
 90
        0
 90
        8
 11
570.0
 21
0.0
 31
0.0
330
19E1
100
AcDbAssocArrayItem
 90
        0
 90
       20
 90
        0
 90
        0
 90
        8
 11
600.0
 21
0.0
 31
0.0
330
19E2
100
AcDbAssocArrayItem
 90
        0
 90
       21
 90
        0
 90
        0
 90
        8
 11
630.0
 21
0.0
 31
0.0
330
19E3
100
AcDbAssocArrayItem
 90
        0
 90
       22
 90
        0
 90
        0
 90
        8
 11
660.0
 21
0.0
 31
0.0
330
19E4
100
AcDbAssocArrayItem
 90
        0
 90
       23
 90
        0
 90
        0
 90
        8
 11
690.0
 21
0.0
 31
0.0
330
19E5
100
AcDbAssocArrayItem
 90
        0
 90
       24
 90
        0
 90
        0
 90
        8
 11
720.0
 21
0.0
 31
0.0
330
19E6
100
AcDbAssocArrayItem
 90
        0
 90
       25
 90
        0
 90
        0
 90
        8
 11
750.0
 21
0.0
 31
0.0
330
19E7
100
AcDbAssocArrayItem
 90
        0
 90
       26
 90
        0
 90
        0
 90
        8
 11
780.0
 21
0.0
 31
0.0
330
19E8
100
AcDbAssocArrayItem
 90
        0
 90
       27
 90
        0
 90
        0
 90
        8
 11
810.0
 21
0.0
 31
0.0
330
19E9
100
AcDbAssocArrayItem
 90
        0
 90
       28
 90
        0
 90
        0
 90
        8
 11
840.0
 21
0.0
 31
0.0
330
19EA
100
AcDbAssocArrayItem
 90
        0
 90
       29
 90
        0
 90
        0
 90
        8
 11
870.0
 21
0.0
 31
0.0
330
19EB
100
AcDbAssocArrayItem
 90
        0
 90
       30
 90
        0
 90
        0
 90
        8
 11
900.0
 21
0.0
 31
0.0
330
19EC
100
AcDbAssocArrayItem
 90
        0
 90
       31
 90
        0
 90
        0
 90
        8
 11
930.0
 21
0.0
 31
0.0
330
19ED
100
AcDbAssocArrayItem
 90
        0
 90
       32
 90
        0
 90
        0
 90
        8
 11
960.0
 21
0.0
 31
0.0
330
19EE
 40
1.0
 40
0.0
 40
0.0
 40
437.4655570550994
 40
0.0
 40
1.0
 40
0.0
 40
1425.075460837858
 40
0.0
 40
0.0
 40
1.0
 40
0.0
 40
0.0
 40
0.0
 40
0.0
 40
1.0
  0
ACDBASSOCDEPENDENCY
  5
19C9
330
19C5
100
AcDbAssocDependency
 90
        2
 90
        1
290
     0
290
     1
290
     1
290
     1
 90
        0
330
19BE
290
     0
330
0
330
0
360
0
 90
        1
  0
ACDBASSOCDEPENDENCY
  5
19CA
330
19C5
100
AcDbAssocDependency
 90
        2
 90
        1
290
     1
290
     0
290
     1
290
     1
 90
        0
330
19BB
290
     0
330
0
330
0
360
0
 90
        2
  0
ACDBASSOCDEPENDENCY
  5
19CB
330
19C5
100
AcDbAssocDependency
 90
        2
 90
        0
290
     1
290
     1
290
     1
290
     1
 90
-2147483648
330
19C1
290
     0
330
0
330
0
360
0
 90
        3
  0
ACDBASSOCARRAYACTIONBODY
  5
19FD
330
19FC
100
AcDbAssocActionBody
 90
        1
100
AcDbAssocParamBasedActionBody
 90
        0
 90
        0
 90
        3
360
19FE
360
19FF
360
1A03
 90
        0
 90
        9
 90
        0
  1
AlignItems
 90
        0
 90
        1
 90
        0
330
0
330
0
 90
        0
  1
AxesAngle
 90
        2
 90
        1
 40
1.570796326794896
330
0
330
0
 90
        0
  1
ItemSpacing
 90
        1
 90
        1
 40
12.56
330
0
330
0
 90
        0
  1
Items
 90
        0
 90
        1
 90
       79
330
0
330
0
 90
        0
  1
LevelSpacing
 90
        1
 90
        1
 40
1.0
330
0
330
0
 90
        0
  1
Levels
 90
        0
 90
        1
 90
        1
330
0
330
0
 90
        0
  1
RowElevation
 90
        1
 90
        1
 40
0.0
330
0
330
0
 90
        0
  1
RowSpacing
 90
        1
 90
        1
 40
28.5
330
0
330
0
 90
        0
  1
Rows
 90
        0
 90
        1
 90
        1
330
0
330
0
100
AcDbAssocArrayActionBody
 90
        1
  1
AcDbAssocArrayRectangularParameters
 90
        0
 90
       79
  1
AcDbAssocArrayItem
100
AcDbAssocArrayItem
 90
        0
 90
        0
 90
        0
 90
        0
 90
        8
 11
0.0
 21
0.0
 31
0.0
330
1A05
100
AcDbAssocArrayItem
 90
        0
 90
        1
 90
        0
 90
        0
 90
        8
 11
12.56
 21
0.0
 31
0.0
330
1A06
100
AcDbAssocArrayItem
 90
        0
 90
        2
 90
        0
 90
        0
 90
        8
 11
25.12
 21
0.0
 31
0.0
330
1A07
100
AcDbAssocArrayItem
 90
        0
 90
        3
 90
        0
 90
        0
 90
        8
 11
37.68
 21
0.0
 31
0.0
330
1A08
100
AcDbAssocArrayItem
 90
        0
 90
        4
 90
        0
 90
        0
 90
        8
 11
50.24
 21
0.0
 31
0.0
330
1A09
100
AcDbAssocArrayItem
 90
        0
 90
        5
 90
        0
 90
        0
 90
        8
 11
62.80000000000001
 21
0.0
 31
0.0
330
1A0A
100
AcDbAssocArrayItem
 90
        0
 90
        6
 90
        0
 90
        0
 90
        8
 11
75.36
 21
0.0
 31
0.0
330
1A0B
100
AcDbAssocArrayItem
 90
        0
 90
        7
 90
        0
 90
        0
 90
        8
 11
87.91999999999999
 21
0.0
 31
0.0
330
1A0C
100
AcDbAssocArrayItem
 90
        0
 90
        8
 90
        0
 90
        0
 90
        8
 11
100.48
 21
0.0
 31
0.0
330
1A0D
100
AcDbAssocArrayItem
 90
        0
 90
        9
 90
        0
 90
        0
 90
        8
 11
113.04
 21
0.0
 31
0.0
330
1A0E
100
AcDbAssocArrayItem
 90
        0
 90
       10
 90
        0
 90
        0
 90
        8
 11
125.6
 21
0.0
 31
0.0
330
1A0F
100
AcDbAssocArrayItem
 90
        0
 90
       11
 90
        0
 90
        0
 90
        8
 11
138.16
 21
0.0
 31
0.0
330
1A10
100
AcDbAssocArrayItem
 90
        0
 90
       12
 90
        0
 90
        0
 90
        8
 11
150.72
 21
0.0
 31
0.0
330
1A11
100
AcDbAssocArrayItem
 90
        0
 90
       13
 90
        0
 90
        0
 90
        8
 11
163.28
 21
0.0
 31
0.0
330
1A12
100
AcDbAssocArrayItem
 90
        0
 90
       14
 90
        0
 90
        0
 90
        8
 11
175.84
 21
0.0
 31
0.0
330
1A13
100
AcDbAssocArrayItem
 90
        0
 90
       15
 90
        0
 90
        0
 90
        8
 11
188.4
 21
0.0
 31
0.0
330
1A14
100
AcDbAssocArrayItem
 90
        0
 90
       16
 90
        0
 90
        0
 90
        8
 11
200.96
 21
0.0
 31
0.0
330
1A15
100
AcDbAssocArrayItem
 90
        0
 90
       17
 90
        0
 90
        0
 90
        8
 11
213.52
 21
0.0
 31
0.0
330
1A16
100
AcDbAssocArrayItem
 90
        0
 90
       18
 90
        0
 90
        0
 90
        8
 11
226.08
 21
0.0
 31
0.0
330
1A17
100
AcDbAssocArrayItem
 90
        0
 90
       19
 90
        0
 90
        0
 90
        8
 11
238.64
 21
0.0
 31
0.0
330
1A18
100
AcDbAssocArrayItem
 90
        0
 90
       20
 90
        0
 90
        0
 90
        8
 11
251.2
 21
0.0
 31
0.0
330
1A19
100
AcDbAssocArrayItem
 90
        0
 90
       21
 90
        0
 90
        0
 90
        8
 11
263.76
 21
0.0
 31
0.0
330
1A1A
100
AcDbAssocArrayItem
 90
        0
 90
       22
 90
        0
 90
        0
 90
        8
 11
276.32
 21
0.0
 31
0.0
330
1A1B
100
AcDbAssocArrayItem
 90
        0
 90
       23
 90
        0
 90
        0
 90
        8
 11
288.88
 21
0.0
 31
0.0
330
1A1C
100
AcDbAssocArrayItem
 90
        0
 90
       24
 90
        0
 90
        0
 90
        8
 11
301.44
 21
0.0
 31
0.0
330
1A1D
100
AcDbAssocArrayItem
 90
        0
 90
       25
 90
        0
 90
        0
 90
        8
 11
314.0
 21
0.0
 31
0.0
330
1A1E
100
AcDbAssocArrayItem
 90
        0
 90
       26
 90
        0
 90
        0
 90
        8
 11
326.56
 21
0.0
 31
0.0
330
1A1F
100
AcDbAssocArrayItem
 90
        0
 90
       27
 90
        0
 90
        0
 90
        8
 11
339.12
 21
0.0
 31
0.0
330
1A20
100
AcDbAssocArrayItem
 90
        0
 90
       28
 90
        0
 90
        0
 90
        8
 11
351.68
 21
0.0
 31
0.0
330
1A21
100
AcDbAssocArrayItem
 90
        0
 90
       29
 90
        0
 90
        0
 90
        8
 11
364.24
 21
0.0
 31
0.0
330
1A22
100
AcDbAssocArrayItem
 90
        0
 90
       30
 90
        0
 90
        0
 90
        8
 11
376.8
 21
0.0
 31
0.0
330
1A23
100
AcDbAssocArrayItem
 90
        0
 90
       31
 90
        0
 90
        0
 90
        8
 11
389.36
 21
0.0
 31
0.0
330
1A24
100
AcDbAssocArrayItem
 90
        0
 90
       32
 90
        0
 90
        0
 90
        8
 11
401.92
 21
0.0
 31
0.0
330
1A25
100
AcDbAssocArrayItem
 90
        0
 90
       33
 90
        0
 90
        0
 90
        8
 11
414.48
 21
0.0
 31
0.0
330
1A26
100
AcDbAssocArrayItem
 90
        0
 90
       34
 90
        0
 90
        0
 90
        8
 11
427.04
 21
0.0
 31
0.0
330
1A27
100
AcDbAssocArrayItem
 90
        0
 90
       35
 90
        0
 90
        0
 90
        8
 11
439.5999999999999
 21
0.0
 31
0.0
330
1A28
100
AcDbAssocArrayItem
 90
        0
 90
       36
 90
        0
 90
        0
 90
        8
 11
452.16
 21
0.0
 31
0.0
330
1A29
100
AcDbAssocArrayItem
 90
        0
 90
       37
 90
        0
 90
        0
 90
        8
 11
464.72
 21
0.0
 31
0.0
330
1A2A
100
AcDbAssocArrayItem
 90
        0
 90
       38
 90
        0
 90
        0
 90
        8
 11
477.28
 21
0.0
 31
0.0
330
1A2B
100
AcDbAssocArrayItem
 90
        0
 90
       39
 90
        0
 90
        0
 90
        8
 11
489.84
 21
0.0
 31
0.0
330
1A2C
100
AcDbAssocArrayItem
 90
        0
 90
       40
 90
        0
 90
        0
 90
        8
 11
502.4
 21
0.0
 31
0.0
330
1A2D
100
AcDbAssocArrayItem
 90
        0
 90
       41
 90
        0
 90
        0
 90
        8
 11
514.96
 21
0.0
 31
0.0
330
1A2E
100
AcDbAssocArrayItem
 90
        0
 90
       42
 90
        0
 90
        0
 90
        8
 11
527.5199999999999
 21
0.0
 31
0.0
330
1A2F
100
AcDbAssocArrayItem
 90
        0
 90
       43
 90
        0
 90
        0
 90
        8
 11
540.08
 21
0.0
 31
0.0
330
1A30
100
AcDbAssocArrayItem
 90
        0
 90
       44
 90
        0
 90
        0
 90
        8
 11
552.6399999999999
 21
0.0
 31
0.0
330
1A31
100
AcDbAssocArrayItem
 90
        0
 90
       45
 90
        0
 90
        0
 90
        8
 11
565.2
 21
0.0
 31
0.0
330
1A32
100
AcDbAssocArrayItem
 90
        0
 90
       46
 90
        0
 90
        0
 90
        8
 11
577.7599999999999
 21
0.0
 31
0.0
330
1A33
100
AcDbAssocArrayItem
 90
        0
 90
       47
 90
        0
 90
        0
 90
        8
 11
590.32
 21
0.0
 31
0.0
330
1A34
100
AcDbAssocArrayItem
 90
        0
 90
       48
 90
        0
 90
        0
 90
        8
 11
602.88
 21
0.0
 31
0.0
330
1A35
100
AcDbAssocArrayItem
 90
        0
 90
       49
 90
        0
 90
        0
 90
        8
 11
615.44
 21
0.0
 31
0.0
330
1A36
100
AcDbAssocArrayItem
 90
        0
 90
       50
 90
        0
 90
        0
 90
        8
 11
628.0
 21
0.0
 31
0.0
330
1A37
100
AcDbAssocArrayItem
 90
        0
 90
       51
 90
        0
 90
        0
 90
        8
 11
640.56
 21
0.0
 31
0.0
330
1A38
100
AcDbAssocArrayItem
 90
        0
 90
       52
 90
        0
 90
        0
 90
        8
 11
653.12
 21
0.0
 31
0.0
330
1A39
100
AcDbAssocArrayItem
 90
        0
 90
       53
 90
        0
 90
        0
 90
        8
 11
665.68
 21
0.0
 31
0.0
330
1A3A
100
AcDbAssocArrayItem
 90
        0
 90
       54
 90
        0
 90
        0
 90
        8
 11
678.2399999999999
 21
0.0
 31
0.0
330
1A3B
100
AcDbAssocArrayItem
 90
        0
 90
       55
 90
        0
 90
        0
 90
        8
 11
690.8000000000001
 21
0.0
 31
0.0
330
1A3C
100
AcDbAssocArrayItem
 90
        0
 90
       56
 90
        0
 90
        0
 90
        8
 11
703.3599999999999
 21
0.0
 31
0.0
330
1A3D
100
AcDbAssocArrayItem
 90
        0
 90
       57
 90
        0
 90
        0
 90
        8
 11
715.9200000000001
 21
0.0
 31
0.0
330
1A3E
100
AcDbAssocArrayItem
 90
        0
 90
       58
 90
        0
 90
        0
 90
        8
 11
728.48
 21
0.0
 31
0.0
330
1A3F
100
AcDbAssocArrayItem
 90
        0
 90
       59
 90
        0
 90
        0
 90
        8
 11
741.04
 21
0.0
 31
0.0
330
1A40
100
AcDbAssocArrayItem
 90
        0
 90
       60
 90
        0
 90
        0
 90
        8
 11
753.6
 21
0.0
 31
0.0
330
1A41
100
AcDbAssocArrayItem
 90
        0
 90
       61
 90
        0
 90
        0
 90
        8
 11
766.16
 21
0.0
 31
0.0
330
1A42
100
AcDbAssocArrayItem
 90
        0
 90
       62
 90
        0
 90
        0
 90
        8
 11
778.72
 21
0.0
 31
0.0
330
1A43
100
AcDbAssocArrayItem
 90
        0
 90
       63
 90
        0
 90
        0
 90
        8
 11
791.28
 21
0.0
 31
0.0
330
1A44
100
AcDbAssocArrayItem
 90
        0
 90
       64
 90
        0
 90
        0
 90
        8
 11
803.8400000000001
 21
0.0
 31
0.0
330
1A45
100
AcDbAssocArrayItem
 90
        0
 90
       65
 90
        0
 90
        0
 90
        8
 11
816.3999999999999
 21
0.0
 31
0.0
330
1A46
100
AcDbAssocArrayItem
 90
        0
 90
       66
 90
        0
 90
        0
 90
        8
 11
828.96
 21
0.0
 31
0.0
330
1A47
100
AcDbAssocArrayItem
 90
        0
 90
       67
 90
        0
 90
        0
 90
        8
 11
841.52
 21
0.0
 31
0.0
330
1A48
100
AcDbAssocArrayItem
 90
        0
 90
       68
 90
        0
 90
        0
 90
        8
 11
854.08
 21
0.0
 31
0.0
330
1A49
100
AcDbAssocArrayItem
 90
        0
 90
       69
 90
        0
 90
        0
 90
        8
 11
866.6399999999999
 21
0.0
 31
0.0
330
1A4A
100
AcDbAssocArrayItem
 90
        0
 90
       70
 90
        0
 90
        0
 90
        8
 11
879.1999999999999
 21
0.0
 31
0.0
330
1A4B
100
AcDbAssocArrayItem
 90
        0
 90
       71
 90
        0
 90
        0
 90
        8
 11
891.76
 21
0.0
 31
0.0
330
1A4C
100
AcDbAssocArrayItem
 90
        0
 90
       72
 90
        0
 90
        0
 90
        8
 11
904.32
 21
0.0
 31
0.0
330
1A4D
100
AcDbAssocArrayItem
 90
        0
 90
       73
 90
        0
 90
        0
 90
        8
 11
916.88
 21
0.0
 31
0.0
330
1A4E
100
AcDbAssocArrayItem
 90
        0
 90
       74
 90
        0
 90
        0
 90
        8
 11
929.4400000000001
 21
0.0
 31
0.0
330
1A4F
100
AcDbAssocArrayItem
 90
        0
 90
       75
 90
        0
 90
        0
 90
        8
 11
942.0
 21
0.0
 31
0.0
330
1A50
100
AcDbAssocArrayItem
 90
        0
 90
       76
 90
        0
 90
        0
 90
        8
 11
954.56
 21
0.0
 31
0.0
330
1A51
100
AcDbAssocArrayItem
 90
        0
 90
       77
 90
        0
 90
        0
 90
        8
 11
967.12
 21
0.0
 31
0.0
330
1A52
100
AcDbAssocArrayItem
 90
        0
 90
       78
 90
        0
 90
        0
 90
        8
 11
979.6800000000001
 21
0.0
 31
0.0
330
1A53
 40
1.0
 40
0.0
 40
0.0
 40
428.7440380550995
 40
0.0
 40
1.0
 40
0.0
 40
812.096911996171
 40
0.0
 40
0.0
 40
1.0
 40
0.0
 40
0.0
 40
0.0
 40
0.0
 40
1.0
  0
ACDBASSOCDEPENDENCY
  5
1A00
330
19FC
100
AcDbAssocDependency
 90
        2
 90
        1
290
     0
290
     1
290
     1
290
     1
 90
        0
330
19F3
290
     0
330
0
330
0
360
0
 90
        1
  0
ACDBASSOCDEPENDENCY
  5
1A01
330
19FC
100
AcDbAssocDependency
 90
        2
 90
        1
290
     1
290
     0
290
     1
290
     1
 90
        0
330
19F0
290
     0
330
0
330
0
360
0
 90
        2
  0
ACDBASSOCDEPENDENCY
  5
1A02
330
19FC
100
AcDbAssocDependency
 90
        2
 90
        0
290
     1
290
     1
290
     1
290
     1
 90
-2147483648
330
19F6
290
     0
330
0
330
0
360
0
 90
        3
  0
ACDBASSOCVERTEXACTIONPARAM
  5
1965
330
1964
100
AcDbAssocActionParam
 90
        0
  1
BaseNormal
100
AcDbAssocSingleDependencyActionParam
 90
        0
330
0
100
AcDbAssocVertexActionParam
 90
        0
 10
0.0
 20
0.0
 30
1.0
  0
ACDBASSOCVERTEXACTIONPARAM
  5
1966
330
1964
100
AcDbAssocActionParam
 90
        0
  1
Origin
100
AcDbAssocSingleDependencyActionParam
 90
        0
330
0
100
AcDbAssocVertexActionParam
 90
        0
 10
0.0
 20
0.0
 30
0.0
  0
ACDBASSOCVERTEXACTIONPARAM
  5
196A
330
1964
100
AcDbAssocActionParam
 90
        0
  1
basePoint
100
AcDbAssocSingleDependencyActionParam
 90
        0
330
0
100
AcDbAssocVertexActionParam
 90
        0
 10
0.0
 20
0.0
 30
0.0
  0
ACDBASSOCVERTEXACTIONPARAM
  5
19C7
330
19C6
100
AcDbAssocActionParam
 90
        0
  1
BaseNormal
100
AcDbAssocSingleDependencyActionParam
 90
        0
330
0
100
AcDbAssocVertexActionParam
 90
        0
 10
0.0
 20
0.0
 30
1.0
  0
ACDBASSOCVERTEXACTIONPARAM
  5
19C8
330
19C6
100
AcDbAssocActionParam
 90
        0
  1
Origin
100
AcDbAssocSingleDependencyActionParam
 90
        0
330
0
100
AcDbAssocVertexActionParam
 90
        0
 10
0.0
 20
0.0
 30
0.0
  0
ACDBASSOCVERTEXACTIONPARAM
  5
19CC
330
19C6
100
AcDbAssocActionParam
 90
        0
  1
basePoint
100
AcDbAssocSingleDependencyActionParam
 90
        0
330
0
100
AcDbAssocVertexActionParam
 90
        0
 10
0.0
 20
0.0
 30
0.0
  0
ACDBASSOCVERTEXACTIONPARAM
  5
19FE
330
19FD
100
AcDbAssocActionParam
 90
        0
  1
BaseNormal
100
AcDbAssocSingleDependencyActionParam
 90
        0
330
0
100
AcDbAssocVertexActionParam
 90
        0
 10
0.0
 20
0.0
 30
1.0
  0
ACDBASSOCVERTEXACTIONPARAM
  5
19FF
330
19FD
100
AcDbAssocActionParam
 90
        0
  1
Origin
100
AcDbAssocSingleDependencyActionParam
 90
        0
330
0
100
AcDbAssocVertexActionParam
 90
        0
 10
0.0
 20
0.0
 30
0.0
  0
ACDBASSOCVERTEXACTIONPARAM
  5
1A03
330
19FD
100
AcDbAssocActionParam
 90
        0
  1
basePoint
100
AcDbAssocSingleDependencyActionParam
 90
        0
330
0
100
AcDbAssocVertexActionParam
 90
        0
 10
0.0
 20
0.0
 30
0.0
  0
ENDSEC
  0
EOF
